<?xml version="1.0" standalone="no"?>
<!DOCTYPE svg PUBLIC "-//W3C//DTD SVG 1.1//EN" "http://www.w3.org/Graphics/SVG/1.1/DTD/svg11.dtd" >
<svg xmlns="http://www.w3.org/2000/svg">
<metadata>Generated by IcoMoon</metadata>
<defs>
<font id="icomoon" horiz-adv-x="1024">
<font-face units-per-em="1024" ascent="960" descent="-64" />
<missing-glyph horiz-adv-x="1024" />
<glyph unicode="&#x20;" horiz-adv-x="512" d="" />
<glyph unicode="&#xe900;" glyph-name="arrow_left" horiz-adv-x="1247" d="M574.33 937.739c8.904-4.452 13.357-13.357 17.809-22.261 0-8.904 4.452-17.809 4.452-26.713s0-17.809-4.452-26.713c0-8.904-8.904-17.809-17.809-22.261l-307.2-298.296h881.53c17.809 0 35.617-8.904 48.974-22.261s22.261-31.165 22.261-48.974-8.904-35.617-22.261-48.974c-13.357-13.357-31.165-22.261-48.974-22.261h-881.53l307.2-298.296c13.357-13.357 22.261-31.165 22.261-48.974s-8.904-35.617-22.261-48.974c-13.357-13.357-31.165-22.261-48.974-22.261s-35.617 8.904-48.974 22.261l-436.313 414.052c-8.904 4.452-13.357 13.357-17.809 22.261 0 8.904-4.452 17.809-4.452 26.713s0 17.809 4.452 26.713c0 8.904 8.904 17.809 17.809 22.261l431.861 422.957c8.904 4.452 13.357 13.357 22.261 13.357s17.809 4.452 26.713 4.452c8.904 0 17.809 0 26.713-4.452 8.904 0 17.809-8.904 22.261-13.357z" />
<glyph unicode="&#xe901;" glyph-name="arrow_right" horiz-adv-x="1247" d="M663.374 937.739c-8.904-4.452-13.357-13.357-17.809-22.261 0-8.904-4.452-17.809-4.452-26.713s0-17.809 4.452-26.713c0-8.904 8.904-17.809 17.809-22.261l307.2-298.296h-881.53c-17.809 0-35.617-8.904-48.974-22.261s-22.261-31.165-22.261-48.974 8.904-35.617 22.261-48.974c13.357-13.357 31.165-22.261 48.974-22.261h881.53l-307.2-298.296c-13.357-13.357-22.261-31.165-22.261-48.974s8.904-35.617 22.261-48.974c13.357-13.357 31.165-22.261 48.974-22.261s35.617 8.904 48.974 22.261l431.861 418.504c8.904 4.452 13.357 13.357 17.809 22.261 0 8.904 4.452 17.809 4.452 26.713s0 17.809-4.452 26.713c0 8.904-8.904 17.809-17.809 22.261l-427.409 418.504c-8.904 4.452-13.357 13.357-22.261 13.357s-17.809 4.452-26.713 4.452c-8.904 0-17.809 0-26.713-4.452-8.904 0-17.809-8.904-22.261-13.357z" />
<glyph unicode="&#xe902;" glyph-name="bed" horiz-adv-x="1310" d="M1221.656 464.67c-21.433 21.433-47.628 40.484-76.205 52.391v271.479c0 40.484-16.67 78.586-45.247 107.163s-66.679 45.247-107.163 45.247h-683.46c-40.484 0-78.586-16.67-107.163-45.247s-45.247-66.679-45.247-107.163v-276.242c-26.195-11.907-50.009-26.195-69.060-47.628-42.865-40.484-66.679-95.256-66.679-154.791v-321.488c0-21.433 16.67-35.721 35.721-35.721s35.721 16.67 35.721 35.721v30.958c0 7.144 2.381 11.907 7.144 16.67s14.288 9.526 21.433 9.526h1052.577c9.526 0 16.67-2.381 21.433-9.526 4.763-4.763 9.526-14.288 9.526-21.433v-23.814c0-16.67 11.907-33.34 28.577-35.721 2.381 0 7.144 0 11.907 0 21.433 0 35.721 16.67 35.721 35.721v321.488c0 54.772-23.814 114.307-64.298 154.791zM1028.763 528.967h-338.158v7.144c0 14.288 4.763 28.577 16.67 38.102 9.526 9.526 23.814 16.67 38.102 16.67h228.614c14.288 0 28.577-4.763 38.102-16.67 9.526-9.526 16.67-23.814 16.67-38.102v-7.144zM254.809 843.312c14.288 14.288 33.34 21.433 54.772 21.433h685.842c21.433 0 40.484-7.144 54.772-21.433s21.433-33.34 21.433-54.772v-173.842c-2.381 4.763-4.763 7.144-9.526 11.907-23.814 23.814-54.772 35.721-90.493 35.721h-228.614c-33.34 0-66.679-14.288-90.493-35.721s0 0 0 0c0 0 0 0 0 0-23.814 23.814-54.772 35.721-90.493 35.721h-228.614c-33.34 0-66.679-14.288-90.493-35.721-4.763-4.763-7.144-9.526-11.907-14.288v176.223c0 21.433 7.144 40.484 21.433 54.772zM616.781 528.967h-338.158v7.144c0 14.288 4.763 28.577 16.67 38.102 9.526 9.526 23.814 16.67 38.102 16.67h228.614c14.288 0 28.577-4.763 38.102-16.67s16.67-23.814 16.67-38.102 0-4.763 0-7.144zM1178.791 114.605h-1052.577c-9.526 0-19.051 0-28.577-4.763v200.037c0 38.102 16.67 76.205 42.865 102.4 21.433 21.433 50.009 35.721 78.586 40.484h873.972c28.577-4.763 54.772-19.051 76.205-40.484 28.577-28.577 42.865-66.679 42.865-102.4v-202.419c-11.907 4.763-21.433 7.144-35.721 7.144z" />
<glyph unicode="&#xe903;" glyph-name="bike" horiz-adv-x="1142" d="M901.908-44.308c-129.969 0-236.308 106.338-236.308 236.308s106.338 236.308 236.308 236.308 236.308-106.338 236.308-236.308-106.338-236.308-236.308-236.308zM901.908 314.092c-66.954 0-118.154-55.138-118.154-118.154s55.138-118.154 118.154-118.154 118.154 55.138 118.154 118.154-55.138 118.154-118.154 118.154zM240.246-44.308c-129.969 0-240.246 106.338-240.246 236.308s106.338 236.308 236.308 236.308 236.308-106.338 236.308-236.308-106.338-236.308-236.308-236.308zM240.246 314.092c-66.954 0-118.154-55.138-118.154-118.154s55.138-118.154 118.154-118.154 118.154 55.138 118.154 118.154-55.138 118.154-118.154 118.154zM724.677 719.754c-59.077 0-110.277 51.2-110.277 110.277s51.2 110.277 110.277 110.277 110.277-51.2 110.277-110.277-51.2-110.277-110.277-110.277zM724.677 837.908c-3.938 0-7.877 0-7.877-7.877s15.754-7.877 15.754 0 0 7.877-7.877 7.877zM571.077 132.923c-31.508 0-59.077 27.569-59.077 59.077v153.6l-133.908 133.908c-11.815 11.815-19.692 27.569-15.754 47.262 0 15.754 7.877 31.508 23.631 43.323l204.8 153.6c11.815 7.877 27.569 11.815 47.262 11.815 15.754 0 31.508-11.815 39.385-23.631l82.708-126.031h70.892c31.508 0 59.077-27.569 59.077-59.077s-27.569-59.077-59.077-59.077h-102.4c-19.692 0-39.385 11.815-47.262 27.569l-66.954 102.4-98.462-74.831 106.338-106.338c11.815-11.815 15.754-27.569 15.754-43.323v-177.231c0-31.508-27.569-59.077-59.077-59.077z" />
<glyph unicode="&#xe904;" glyph-name="book" horiz-adv-x="890" d="M0 145.252v667.826c0 40.070 17.809 75.687 44.522 102.4s62.33 44.522 102.4 44.522h694.539c13.357 0 26.713-4.452 35.617-13.357s13.357-22.261 13.357-35.617v-890.435c0-13.357-4.452-26.713-13.357-35.617s-22.261-13.357-35.617-13.357h-667.826c-44.522 0-89.043 17.809-120.209 48.974-35.617 31.165-53.426 75.687-53.426 124.661zM792.487 69.565v146.922h-618.852c-17.809 0-40.070-8.904-53.426-22.261s-22.261-31.165-22.261-53.426 8.904-40.070 22.261-53.426c13.357-13.357 31.165-22.261 53.426-22.261h618.852zM97.948 301.078c22.261 8.904 48.974 17.809 75.687 17.809h618.852v543.165h-645.565c-13.357 0-26.713-4.452-35.617-13.357s-13.357-22.261-13.357-35.617v-512z" />
<glyph unicode="&#xe905;" glyph-name="calendar" horiz-adv-x="878" d="M438.857 400.457h245.029v-245.029h-245.029v245.029zM778.971 839.314h-47.543v95.086h-98.743v-98.743h-387.657v98.743h-98.743v-98.743h-47.543c-54.857 0-98.743-43.886-98.743-98.743v-683.886c0-54.857 43.886-98.743 98.743-98.743h683.886c54.857 0 98.743 43.886 98.743 98.743v687.543c0 54.857-43.886 98.743-98.743 98.743zM778.971 740.571v-98.743h-680.229v98.743h683.886zM98.743 56.686v486.4h683.886v-486.4h-683.886z" />
<glyph unicode="&#xe906;" glyph-name="capacite" horiz-adv-x="1106" d="M757.76-45.568c-22.528 0-40.96 18.432-40.96 40.96v102.4c0 43.008-16.384 83.968-47.104 116.736s-71.68 47.104-116.736 47.104h-307.2c-43.008 0-83.968-16.384-116.736-47.104-30.72-30.72-47.104-71.68-47.104-116.736v-102.4c0-22.528-18.432-40.96-40.96-40.96s-40.96 18.432-40.96 40.96v102.4c0 65.536 24.576 126.976 71.68 174.080s108.544 71.68 174.080 71.68h307.2c65.536 0 126.976-24.576 174.080-71.68s71.68-108.544 71.68-174.080v-102.4c0-22.528-18.432-40.96-40.96-40.96zM399.36 466.432c-135.168 0-245.76 110.592-245.76 245.76s110.592 247.808 245.76 247.808 245.76-110.592 245.76-245.76-110.592-245.76-245.76-245.76zM399.36 876.032c-90.112 0-163.84-73.728-163.84-163.84s73.728-163.84 163.84-163.84 163.84 73.728 163.84 163.84-73.728 163.84-163.84 163.84zM1064.96-45.568c-22.528 0-40.96 18.432-40.96 40.96v102.4c0 36.864-12.288 71.68-34.816 100.352s-53.248 49.152-88.064 57.344c-22.528 6.144-34.816 28.672-28.672 49.152 6.144 22.528 28.672 34.816 49.152 28.672 53.248-14.336 100.352-45.056 133.12-88.064s51.2-96.256 51.2-149.504v-102.4c0-22.528-18.432-40.96-40.96-40.96zM757.76 472.576c-18.432 0-34.816 12.288-38.912 30.72-6.144 22.528 8.192 45.056 28.672 49.152 34.816 8.192 67.584 28.672 88.064 57.344 22.528 28.672 34.816 63.488 34.816 100.352s-12.288 71.68-34.816 100.352c-22.528 28.672-53.248 49.152-88.064 57.344-22.528 6.144-34.816 28.672-28.672 49.152 6.144 22.528 28.672 34.816 49.152 28.672 53.248-14.336 100.352-45.056 133.12-88.064s51.2-96.256 51.2-151.552-18.432-108.544-51.2-151.552c-32.768-43.008-79.872-73.728-133.12-88.064-4.096 0-6.144 0-10.24 0z" />
<glyph unicode="&#xe907;" glyph-name="check" horiz-adv-x="1339" d="M504.123-24.615l-448.985 448.985 149.662 149.662 307.2-307.2 606.523 614.4 149.662-149.662-764.062-756.185z" />
<glyph unicode="&#xe908;" glyph-name="chevron_down" horiz-adv-x="1676" d="M837.818 10.473l-809.891 809.891 130.327 130.327 679.564-679.564 679.564 679.564 130.327-130.327-809.891-809.891z" />
<glyph unicode="&#xe909;" glyph-name="chevron_left" horiz-adv-x="683" d="M494.933-46.933l-494.933 486.4 494.933 486.4 119.467-119.467-366.933-366.933 366.933-366.933-119.467-119.467z" />
<glyph unicode="&#xe90a;" glyph-name="chevron_right" horiz-adv-x="683" d="M187.733-46.933l-119.467 119.467 366.933 366.933-366.933 366.933 119.467 119.467 486.4-486.4-486.4-486.4z" />
<glyph unicode="&#xe90b;" glyph-name="chevron_up" horiz-adv-x="1536" d="M1320.96-2.56l-583.68 583.68-583.68-583.68-153.6 143.36 737.28 727.040 737.28-727.040-153.6-143.36z" />
<glyph unicode="&#xe90c;" glyph-name="clock" d="M512 941.929c-98.384 0-196.769-30.118-279.090-84.329s-146.573-134.525-184.722-224.878c-38.149-92.361-48.188-194.761-28.11-291.137s66.259-186.729 136.533-257.004c70.275-70.275 160.627-118.463 257.004-136.533 96.376-20.078 198.776-10.039 289.129 28.11 92.361 38.149 170.667 102.4 224.878 184.722s84.329 178.698 84.329 279.090c0 132.518-52.204 261.020-146.573 355.388-92.361 92.361-220.863 146.573-353.38 146.573zM512 48.439c-76.298 0-152.596 22.086-216.847 66.259-64.251 42.165-114.447 104.408-144.565 174.682-30.118 72.282-38.149 150.588-22.086 224.878 16.063 76.298 52.204 144.565 106.416 200.784 54.212 54.212 124.486 92.361 200.784 106.416 76.298 16.063 154.604 8.031 224.878-22.086 72.282-30.118 132.518-80.314 174.682-144.565s66.259-140.549 66.259-216.847c0-104.408-42.165-202.792-114.447-275.075s-172.675-114.447-275.075-114.447zM827.231 439.969c0-14.055-6.024-28.11-16.063-40.157-10.039-10.039-24.094-16.063-40.157-16.063h-261.020c-14.055 0-28.11 6.024-40.157 16.063s-16.063 24.094-16.063 40.157v261.020c0 14.055 6.024 28.11 16.063 40.157 10.039 10.039 24.094 16.063 40.157 16.063s28.11-6.024 40.157-16.063c10.039-10.039 16.063-24.094 16.063-40.157v-204.8h204.8c14.055 0 28.11-6.024 40.157-16.063 10.039-10.039 16.063-24.094 16.063-40.157z" />
<glyph unicode="&#xe90d;" glyph-name="denivele" horiz-adv-x="1741" d="M1713.493 854.187v-341.333c0-40.96-34.133-75.093-75.093-75.093s-75.093 34.133-75.093 75.093v163.84l-498.347-501.76c-27.307-27.307-78.507-27.307-109.227 0l-307.2 307.2-508.587-512c-13.653-13.653-34.133-23.893-54.613-23.893s-37.547 6.827-54.613 23.893c-30.72 30.72-30.72 78.507 0 109.227l563.2 566.613c27.307 27.307 78.507 27.307 109.227 0l307.2-307.2 440.32 440.32h-150.187c-40.96 0-75.093 34.133-75.093 75.093s34.133 75.093 75.093 75.093h337.92c40.96 0 75.093-34.133 75.093-75.093z" />
<glyph unicode="&#xe90e;" glyph-name="difficulty" horiz-adv-x="1109" d="M782.933 945.067v-1000.533h315.733v1000.533h-315.733zM870.4 29.867v827.733h140.8v-827.733h-140.8zM401.067-57.6h315.733v697.6h-315.733v-695.467zM631.467 552.533v-522.667h-140.8v522.667h140.8zM21.333-57.6h315.733v467.2h-315.733v-467.2zM249.6 324.267v-294.4h-140.8v294.4h140.8z" />
<glyph unicode="&#xe90f;" glyph-name="distance" horiz-adv-x="2452" d="M813.811 542.316c0 220.968-177.853 393.432-393.432 393.432s-396.126-172.463-396.126-393.432 26.947-129.347 59.284-191.326c35.032-64.674 78.147-126.653 123.958-183.242 43.116-56.589 88.926-107.789 121.263-142.821 16.168-18.863 29.642-32.337 40.421-43.116 5.389-5.389 8.084-8.084 10.779-10.779v0c0 0 0-2.695 0-2.695v0s0 0 0 0h26.947s-26.947 0-26.947 0c0 0 0 0 0 0 8.084-8.084 21.558-13.474 32.337-13.474s24.253 5.389 32.337 13.474c0 0 0 0 0 0v0s-26.947 0-26.947 0v0s26.947 0 26.947 0v0s0 0 0 0c0 0 0 0 2.695 2.695 0 2.695 5.389 5.389 10.779 10.779 10.779 10.779 24.253 24.253 40.421 43.116 32.337 35.032 78.147 86.232 121.263 142.821s88.926 121.263 123.958 183.242c32.337 61.979 59.284 129.347 59.284 191.326zM670.989 394.105c-29.642-56.589-72.758-115.874-115.874-172.463-43.116-53.895-83.537-102.4-115.874-137.432-8.084-8.084-13.474-13.474-18.863-21.558-5.389 5.389-13.474 13.474-18.863 21.558-32.337 35.032-75.453 83.537-115.874 137.432-43.116 53.895-83.537 113.179-115.874 172.463s-48.505 107.789-48.505 145.516c0 169.768 134.737 299.116 299.116 299.116s299.116-129.347 299.116-299.116-16.168-86.232-48.505-145.516zM2037.221 935.747c-215.579 0-393.432-169.768-393.432-393.432s26.947-129.347 59.284-191.326c35.032-64.674 78.147-126.653 123.958-183.242 43.116-56.589 88.926-107.789 121.263-142.821 16.168-18.863 29.642-32.337 40.421-43.116 5.389-5.389 8.084-8.084 10.779-10.779v0c0 0 0-2.695 0-2.695v0s0 0 0 0h26.947s-26.947 0-26.947 0c0 0 0 0 0 0 8.084-8.084 21.558-13.474 32.337-13.474s24.253 5.389 32.337 13.474c0 0 0 0 0 0h-26.947s0 0 0 0h26.947s0 0 0 0c0 0 0 0 2.695 2.695 0 2.695 5.389 5.389 10.779 10.779 10.779 10.779 24.253 24.253 40.421 43.116 32.337 35.032 78.147 86.232 121.263 142.821s88.926 121.263 123.958 183.242c32.337 61.979 59.284 129.347 59.284 191.326 0 223.663-177.853 393.432-393.432 393.432zM2287.832 394.105c-29.642-56.589-72.758-115.874-115.874-172.463-43.116-53.895-83.537-102.4-115.874-137.432-8.084-8.084-13.474-13.474-18.863-21.558-5.389 5.389-13.474 13.474-18.863 21.558-32.337 35.032-75.453 83.537-115.874 137.432-43.116 53.895-83.537 113.179-115.874 172.463s-48.505 107.789-48.505 145.516c0 169.768 134.737 299.116 299.116 299.116s299.116-129.347 299.116-299.116-16.168-86.232-48.505-145.516zM2037.221 736.337c-107.789 0-196.716-88.926-196.716-196.716s88.926-196.716 196.716-196.716 196.716 88.926 196.716 196.716-88.926 196.716-196.716 196.716zM2037.221 439.916c-56.589 0-102.4 45.811-102.4 102.4s45.811 102.4 102.4 102.4 102.4-45.811 102.4-102.4-45.811-102.4-102.4-102.4zM420.379 736.337c-107.789 0-196.716-88.926-196.716-196.716s88.926-196.716 196.716-196.716 196.716 88.926 196.716 196.716-88.926 196.716-196.716 196.716zM420.379 439.916c-56.589 0-102.4 45.811-102.4 102.4s45.811 102.4 102.4 102.4 102.4-45.811 102.4-102.4-45.811-102.4-102.4-102.4zM1476.716 57.263h264.084v-94.316h-264.084v94.316zM732.968 57.263h264.084v-94.316h-264.084v94.316zM1104.842 57.263h264.084v-94.316h-264.084v94.316z" />
<glyph unicode="&#xe910;" glyph-name="download" horiz-adv-x="1021" d="M832.853 509.44l-88.747 95.573-167.253-163.84v518.827h-126.293v-515.413l-167.253 163.84-88.747-95.573 317.44-320.853 320.853 317.44zM894.293 256.853v-191.147h-768v191.147h-126.293v-201.387h3.413c0-34.133 13.653-61.44 37.547-81.92 23.893-23.893 54.613-37.547 92.16-37.547h761.173c37.547 0 64.853 10.24 92.16 37.547s37.547 54.613 37.547 92.16v194.56h-126.293z" />
<glyph unicode="&#xe911;" glyph-name="eye" horiz-adv-x="1365" d="M682.667 209.067c-64 0-119.467 25.6-166.4 68.267-42.667 42.667-68.267 102.4-68.267 166.4s25.6 119.467 68.267 166.4c42.667 42.667 102.4 68.267 166.4 68.267s119.467-25.6 166.4-68.267c42.667-42.667 68.267-102.4 68.267-166.4s-25.6-123.733-68.267-166.4c-42.667-42.667-102.4-68.267-166.4-68.267zM682.667 593.067c-38.4 0-76.8-17.067-106.667-42.667s-42.667-64-42.667-106.667 17.067-76.8 42.667-106.667c55.467-55.467 153.6-55.467 209.067 0s42.667 64 42.667 106.667-17.067 76.8-42.667 106.667c-29.867 29.867-64 42.667-106.667 42.667zM682.667-46.933c-302.933 0-563.2 183.467-682.667 473.6 0 8.533 0 21.333 0 29.867 119.467 294.4 379.733 477.867 682.667 477.867s563.2-183.467 678.4-473.6c0-8.533 0-21.333 0-29.867-115.2-294.4-375.467-473.6-678.4-473.6zM89.6 443.733c102.4-251.733 328.533-405.333 593.067-405.333s490.667 153.6 593.067 405.333c-102.4 251.733-328.533 405.333-593.067 405.333s-490.667-153.6-593.067-405.333z" />
<glyph unicode="&#xe912;" glyph-name="facebook" horiz-adv-x="569" d="M375.467 360.77h121.363l49.304 197.215h-170.667v98.607c0 49.304 0 98.607 98.607 98.607h72.059v166.874c-15.17 0-75.852 7.585-140.326 7.585-132.741 0-227.556-83.437-227.556-231.348v-136.533h-147.911v-197.215h147.911v-420.978h197.215v420.978z" />
<glyph unicode="&#xe913;" glyph-name="home" horiz-adv-x="939" d="M610.133-25.6c-25.6 0-42.667 17.067-42.667 42.667v379.733h-4.267c0 4.267-187.733 4.267-187.733 4.267h-4.267v-384c0-25.6-17.067-42.667-42.667-42.667s-42.667 17.067-42.667 42.667v379.733c0 25.6 8.533 46.933 25.6 64s38.4 25.6 64 25.6h187.733c25.6 0 46.933-8.533 64-25.6s25.6-38.4 25.6-64v-379.733c0-25.6-17.067-42.667-42.667-42.667zM802.133-25.6h-665.6c-34.133 0-72.533 12.8-98.133 38.4s-38.4 59.733-38.4 98.133v426.667c0 21.333 4.267 38.4 12.8 59.733 8.533 17.067 21.333 34.133 34.133 46.933l332.8 281.6c51.2 42.667 128 42.667 179.2 0l332.8-285.867c17.067-12.8 25.6-29.867 34.133-46.933s12.8-38.4 12.8-59.733v-426.667c0-38.4-12.8-72.533-38.4-98.133s-59.733-38.4-98.133-38.4zM469.333 874.667c-12.8 0-25.6-4.267-34.133-12.8l-332.8-285.867c-4.267-4.267-12.8-12.8-12.8-17.067 0-8.533-4.267-12.8-4.267-21.333v-426.667c0-12.8 4.267-25.6 17.067-38.4 8.533-8.533 21.333-17.067 38.4-17.067h665.6c12.8 0 25.6 4.267 38.4 17.067s17.067 21.333 17.067 38.4v426.667c0 8.533 0 17.067-4.267 21.333 0 8.533-8.533 12.8-12.8 17.067l-332.8 285.867c-8.533 8.533-21.333 12.8-34.133 12.8z" />
<glyph unicode="&#xe914;" glyph-name="instagram" d="M314.785 929.659h413.393c159.289 0 284.444-128.948 284.444-284.444v-413.393c0-75.852-30.341-147.911-83.437-201.007s-125.156-83.437-201.007-83.437h-413.393c-159.289 0-284.444 128.948-284.444 284.444v413.393c0 75.852 30.341 147.911 83.437 201.007s125.156 83.437 201.007 83.437zM307.2 831.052c-45.511 0-91.022-18.963-125.156-53.096s-53.096-79.644-53.096-125.156v-432.356c0-98.607 79.644-178.252 178.252-178.252h432.356c45.511 0 91.022 18.963 125.156 53.096s53.096 79.644 53.096 125.156v432.356c0 98.607-79.644 178.252-178.252 178.252h-432.356zM781.274 755.2c15.17 0 30.341-7.585 41.719-18.963s18.963-26.548 18.963-41.719-7.585-30.341-18.963-41.719c-11.378-11.378-26.548-18.963-41.719-18.963s-30.341 7.585-41.719 18.963c-11.378 11.378-18.963 26.548-18.963 41.719s7.585 30.341 18.963 41.719c11.378 11.378 26.548 18.963 41.719 18.963zM523.378 683.141c64.474 0 128.948-26.548 174.459-72.059s72.059-109.985 72.059-174.459-26.548-128.948-72.059-174.459c-45.511-45.511-109.985-72.059-174.459-72.059s-128.948 26.548-174.459 72.059c-45.511 45.511-72.059 109.985-72.059 174.459s26.548 128.948 72.059 174.459c45.511 45.511 109.985 72.059 174.459 72.059zM523.378 584.533c-37.926 0-75.852-15.17-106.193-41.719-26.548-26.548-41.719-64.474-41.719-106.193s15.17-75.852 41.719-106.193c26.548-26.548 64.474-41.719 106.193-41.719s75.852 15.17 106.193 41.719c26.548 26.548 41.719 64.474 41.719 106.193s-15.17 75.852-41.719 106.193c-26.548 26.548-64.474 41.719-106.193 41.719z" />
<glyph unicode="&#xe915;" glyph-name="lightbulb" horiz-adv-x="717" d="M204.8-12.8c0-29.013 23.893-51.2 51.2-51.2h204.8c27.307 0 51.2 22.187 51.2 51.2v51.2h-307.2v-51.2zM358.4 960c-197.973 0-358.4-160.427-358.4-358.4s61.44-228.693 153.6-293.547v-116.053c0-29.013 23.893-51.2 51.2-51.2h307.2c27.307 0 51.2 22.187 51.2 51.2v116.053c92.16 64.853 153.6 172.373 153.6 293.547 0 197.973-160.427 358.4-358.4 358.4zM503.467 391.68l-42.667-30.72v-117.76h-204.8v117.76l-44.373 30.72c-34.133 23.893-61.44 54.613-80.213 92.16-18.773 35.84-29.013 76.8-29.013 117.76 0 141.653 114.347 256 256 256s256-114.347 256-256-40.96-162.133-110.933-209.92z" />
<glyph unicode="&#xe916;" glyph-name="linkedin" horiz-adv-x="1078" d="M226.358 846.821c0-32.337-10.779-59.284-32.337-80.842s-48.505-32.337-80.842-32.337c-32.337 0-59.284 10.779-80.842 32.337s-32.337 48.505-32.337 80.842c0 32.337 10.779 59.284 32.337 80.842s48.505 32.337 80.842 32.337c32.337 0 59.284-10.779 80.842-32.337s32.337-48.505 32.337-80.842zM231.747 647.411h-231.747v-706.021h226.358v706.021zM587.453 647.411h-226.358v-706.021h220.968v371.874c0 204.8 269.474 226.358 269.474 0v-371.874h220.968v447.326c0 350.316-398.821 334.147-495.832 167.074v97.011z" />
<glyph unicode="&#xe917;" glyph-name="lock" horiz-adv-x="825" d="M667.022-61.156h-509.156c-39.822 0-78.222 15.644-106.667 44.089s-44.089 66.844-44.089 106.667v304.356c0 39.822 15.644 78.222 44.089 106.667s66.844 44.089 106.667 44.089h507.733c39.822 0 78.222-15.644 106.667-44.089s44.089-66.844 44.089-106.667v-304.356c0-39.822-15.644-78.222-44.089-106.667s-66.844-44.089-106.667-44.089zM157.867 446.578c-14.222 0-27.022-5.689-36.978-15.644s-15.644-22.756-15.644-36.978v-304.356c0-14.222 5.689-27.022 15.644-36.978s22.756-15.644 36.978-15.644h507.733c14.222 0 27.022 5.689 36.978 15.644s15.644 22.756 15.644 36.978v304.356c0 14.222-5.689 27.022-15.644 36.978s-22.756 15.644-36.978 15.644h-507.733zM412.444 142.222c-27.022 0-52.622 9.956-71.111 29.867-18.489 18.489-29.867 44.089-29.867 71.111s9.956 52.622 29.867 71.111c18.489 18.489 44.089 29.867 71.111 29.867s52.622-9.956 71.111-29.867c18.489-18.489 29.867-44.089 29.867-71.111s-9.956-52.622-29.867-71.111c-18.489-18.489-44.089-29.867-71.111-29.867zM412.444 243.2v0c0 0 0-1.422 0-1.422h1.422c0 0 0 1.422 0 1.422zM615.822 446.578c-27.022 0-49.778 22.756-49.778 49.778v203.378c0 41.244-15.644 79.644-45.511 108.089-28.444 28.444-66.844 45.511-108.089 45.511s-79.644-15.644-108.089-45.511c-28.444-28.444-45.511-66.844-45.511-108.089v-203.378c0-27.022-22.756-49.778-49.778-49.778s-49.778 22.756-49.778 49.778v203.378c0 68.267 27.022 130.844 73.956 179.2 48.356 48.356 110.933 73.956 179.2 73.956s130.844-27.022 179.2-73.956c48.356-48.356 73.956-110.933 73.956-179.2v-203.378c0-27.022-22.756-49.778-49.778-49.778z" />
<glyph unicode="&#xe918;" glyph-name="mail" horiz-adv-x="1229" d="M122.88-48.64c-35.84 0-61.44 10.24-87.040 35.84s-35.84 51.2-35.84 87.040v737.28c0 35.84 10.24 61.44 35.84 87.040s51.2 35.84 87.040 35.84h983.040c35.84 0 61.44-10.24 87.040-35.84s35.84-51.2 35.84-87.040v-737.28c0-35.84-10.24-61.44-35.84-87.040s-51.2-35.84-87.040-35.84h-983.040zM614.4 381.44l-491.52 307.2v-614.4h983.040v614.4l-491.52-307.2zM614.4 504.32l491.52 307.2h-983.040l491.52-307.2zM122.88 688.64v0z" />
<glyph unicode="&#xe919;" glyph-name="map_marker_plain" horiz-adv-x="784" d="M346.417-24.783c-289.77 411.779-344.238 455.353-344.238 605.685s172.119 376.919 383.455 376.919 383.455-167.762 383.455-376.919-54.468-193.906-344.238-605.685c-4.357-6.536-10.894-10.894-17.43-15.251s-15.251-4.357-21.787-4.357c-8.715 0-15.251 0-21.787 4.357s-13.072 8.715-17.43 15.251v0s0 0 0 0zM385.634 426.213c41.396 0 82.791 17.43 113.294 45.753s47.932 69.719 47.932 111.115-17.43 80.613-47.932 111.115c-30.502 28.323-69.719 45.753-113.294 45.753s-82.791-17.43-113.294-45.753c-30.502-28.323-47.932-69.719-47.932-111.115s17.43-80.613 47.932-111.115c30.502-28.323 69.719-45.753 113.294-45.753z" />
<glyph unicode="&#xe91a;" glyph-name="map_marker" horiz-adv-x="796" d="M398.222-45.037c-11.378 0-18.963 3.793-26.548 11.378-15.17 15.17-371.674 375.467-371.674 591.644s174.459 398.222 398.222 398.222 398.222-174.459 398.222-398.222-356.504-576.474-371.674-591.644c-7.585-7.585-15.17-11.378-26.548-11.378zM398.222 880.356c-182.044 0-322.37-140.326-322.37-322.37s212.385-394.43 322.37-512c109.985 117.57 322.37 367.881 322.37 512s-140.326 322.37-322.37 322.37zM398.222 364.563c-106.193 0-193.422 87.23-193.422 193.422s87.23 193.422 193.422 193.422 193.422-87.23 193.422-193.422-87.23-193.422-193.422-193.422zM398.222 675.556c-64.474 0-117.57-53.096-117.57-117.57s53.096-117.57 117.57-117.57 117.57 53.096 117.57 117.57-53.096 117.57-117.57 117.57z" />
<glyph unicode="&#xe91b;" glyph-name="map" d="M682.667-64l-341.333 119.467-264.533-102.4c-17.067-8.533-38.4-4.267-51.2 4.267-17.067 12.8-25.6 25.6-25.6 46.933v797.867c0 12.8 0 21.333 12.8 34.133 8.533 8.533 17.067 17.067 29.867 21.333l298.667 102.4 341.333-119.467 264.533 102.4c17.067 8.533 38.4 4.267 51.2-8.533 17.067-12.8 25.6-29.867 25.6-46.933v-797.867c0-12.8 0-21.333-8.533-34.133-8.533-8.533-17.067-17.067-29.867-21.333l-302.933-102.4zM627.2 76.8v665.6l-226.133 81.067v-665.6l226.133-81.067zM738.133 76.8l170.667 55.467v674.133l-170.667-64v-665.6zM115.2 89.6l170.667 64v665.6l-170.667-55.467v-674.133z" />
<glyph unicode="&#xe91c;" glyph-name="masquer" horiz-adv-x="1126" d="M563.2 243.2c-56.32 0-107.52 20.48-143.36 61.44-40.96 40.96-61.44 92.16-61.44 143.36s20.48 107.52 61.44 143.36 92.16 61.44 143.36 61.44 107.52-20.48 143.36-61.44c40.96-40.96 61.44-92.16 61.44-143.36s-20.48-107.52-61.44-143.36-92.16-61.44-143.36-61.44zM563.2 550.4c-25.6 0-51.2-10.24-71.68-30.72s-30.72-46.080-30.72-71.68 10.24-51.2 30.72-71.68c35.84-35.84 107.52-35.84 143.36 0s30.72 46.080 30.72 71.68-10.24 51.2-30.72 71.68c-20.48 20.48-46.080 30.72-71.68 30.72zM563.2 38.4c-250.88 0-465.92 148.48-563.2 389.12 0 10.24 0 25.6 0 35.84 97.28 245.76 312.32 394.24 563.2 394.24s465.92-148.48 558.080-389.12c0-10.24 0-25.6 0-35.84-92.16-240.64-307.2-389.12-558.080-389.12zM107.52 448c81.92-189.44 256-307.2 455.68-307.2s373.76 117.76 455.68 307.2c-81.92 189.44-256 307.2-455.68 307.2s-373.76-117.76-455.68-307.2zM104.69 40.502l923.199 923.199 72.408-72.408-923.199-923.199-72.408 72.408z" />
<glyph unicode="&#xe91d;" glyph-name="minus" horiz-adv-x="6827" d="M0 960h6826.667v-1024h-6826.667v1024z" />
<glyph unicode="&#xe91e;" glyph-name="phone" horiz-adv-x="983" d="M311.296 284.16c188.416-188.416 364.544-208.896 417.792-212.992 61.44 0 126.976 49.152 151.552 102.4-45.056 53.248-102.4 90.112-163.84 135.168-36.864-36.864-81.92-106.496-143.36-81.92-32.768 12.288-118.784 53.248-192.512 126.976s-114.688 159.744-126.976 192.512c-24.576 61.44 45.056 106.496 81.92 143.36-45.056 65.536-81.92 122.88-135.168 163.84-53.248-28.672-102.4-90.112-102.4-155.648 0-53.248 24.576-225.28 212.992-417.792zM724.992-27.136c-69.632 0-270.336 28.672-483.328 241.664-212.992 208.896-241.664 409.6-241.664 479.232 0 110.592 77.824 212.992 176.128 253.952 12.288 4.096 24.576 8.192 36.864 4.096 12.288 0 24.576-4.096 32.768-12.288 77.824-57.344 135.168-143.36 180.224-212.992 8.192-12.288 12.288-32.768 12.288-49.152s-8.192-32.768-20.48-45.056l-65.536-65.536c16.384-32.768 45.056-94.208 98.304-143.36 53.248-53.248 110.592-81.92 143.36-98.304l65.536 65.536c12.288 12.288 28.672 20.48 45.056 20.48s32.768 0 49.152-12.288c69.632-49.152 151.552-102.4 212.992-180.224 8.192-8.192 12.288-20.48 16.384-36.864 0-12.288 0-24.576-4.096-36.864-40.96-94.208-147.456-176.128-253.952-172.032z" />
<glyph unicode="&#xe91f;" glyph-name="play" horiz-adv-x="904" d="M882.447 441.976l-873.412 505.976v-1008.941s873.412 505.976 873.412 505.976z" />
<glyph unicode="&#xe920;" glyph-name="plus" d="M460.8 960h153.6v-1024h-153.6v1024zM0 550.4h1024v-153.6h-1024v153.6z" />
<glyph unicode="&#xe921;" glyph-name="quotes" horiz-adv-x="1210" d="M544.582 915.782c6.982-10.473 10.473-22.109 12.8-33.745s1.164-24.436 0-36.073c-2.327-11.636-8.145-23.273-15.127-32.582-6.982-10.473-16.291-18.618-26.764-24.436-112.873-70.982-203.636-173.382-258.327-294.4 55.855 4.655 111.709-8.145 160.582-34.909 48.873-27.927 88.436-69.818 112.873-119.855s33.745-107.055 25.6-162.909c-8.145-55.855-32.582-107.055-70.982-148.945s-87.273-69.818-141.964-82.618c-54.691-12.8-111.709-8.145-164.073 11.636-52.364 20.945-97.745 55.855-129.164 102.4-32.582 44.218-50.036 100.073-50.036 155.927v2.327c0 6.982 0 13.964 0 22.109 0 13.964 2.327 33.745 5.818 57.018 6.982 47.709 19.782 114.036 45.382 187.345 52.364 147.782 155.927 331.636 365.382 461.964 10.473 6.982 22.109 10.473 33.745 12.8s24.436 1.164 36.073 0c11.636-2.327 23.273-8.145 32.582-15.127 10.473-6.982 18.618-16.291 24.436-26.764zM1196.218 915.782c6.982-10.473 10.473-22.109 12.8-33.745s1.164-24.436 0-36.073c-2.327-11.636-8.145-23.273-15.127-32.582-6.982-10.473-16.291-18.618-26.764-24.436-112.873-70.982-203.636-173.382-258.327-294.4 55.855 4.655 111.709-8.145 160.582-34.909s88.436-69.818 112.873-119.855c24.436-50.036 33.745-107.055 25.6-162.909s-32.582-107.055-70.982-148.945c-38.4-41.891-87.273-69.818-141.964-82.618s-111.709-8.145-164.073 11.636c-52.364 20.945-97.745 55.855-129.164 102.4s-48.873 101.236-48.873 157.091v2.327c0 6.982 0 13.964 0 22.109 0 13.964 2.327 33.745 5.818 57.018 6.982 47.709 19.782 114.036 45.382 187.345 51.2 147.782 155.927 330.473 364.218 461.964 10.473 6.982 22.109 10.473 33.745 12.8s24.436 1.164 36.073 0c11.636-2.327 23.273-8.145 32.582-15.127 10.473-6.982 18.618-16.291 24.436-26.764z" />
<glyph unicode="&#xe922;" glyph-name="search" horiz-adv-x="983" d="M942.080-55.808c-12.288 0-20.48 0-28.672 12.288l-188.416 188.416c-77.824-65.536-176.128-102.4-282.624-102.4s-229.376 45.056-311.296 131.072c-81.92 81.92-131.072 192.512-131.072 311.296s45.056 229.376 131.072 311.296 90.112 73.728 143.36 94.208c106.496 45.056 229.376 45.056 335.872 0 53.248-20.48 102.4-53.248 143.36-94.208s73.728-90.112 94.208-143.36c20.48-53.248 32.768-110.592 32.768-167.936s-12.288-114.688-32.768-167.936c-16.384-40.96-40.96-77.824-69.632-114.688l188.416-188.416c16.384-16.384 16.384-40.96 0-57.344s-20.48-12.288-28.672-12.288zM442.368 845.312c-49.152 0-94.208-8.192-139.264-28.672-45.056-16.384-81.92-45.056-114.688-77.824-69.632-69.632-106.496-159.744-106.496-253.952s36.864-184.32 106.496-253.952c69.632-69.632 159.744-106.496 253.952-106.496s184.32 36.864 253.952 106.496c32.768 32.768 61.44 73.728 77.824 114.688 16.384 45.056 28.672 90.112 28.672 139.264s-8.192 94.208-28.672 139.264c-16.384 45.056-45.056 81.92-77.824 114.688s-73.728 61.44-114.688 77.824c-45.056 16.384-90.112 28.672-139.264 28.672z" />
<glyph unicode="&#xe923;" glyph-name="star" horiz-adv-x="1117" d="M558.545 960l125.673-386.327h404.945l-330.473-237.382 125.673-386.327-330.473 237.382-330.473-237.382 125.673 386.327-321.164 237.382h404.945l125.673 386.327z" />
<glyph unicode="&#xe924;" glyph-name="superficie" d="M901.522 221.114v439.718c24.094 6.024 46.18 18.071 64.251 36.141s30.118 40.157 38.149 64.251c6.024 24.094 6.024 50.196 0 74.29s-20.078 46.18-36.141 64.251c-18.071 18.071-40.157 30.118-64.251 36.141s-50.196 6.024-74.29 0c-24.094-6.024-46.18-20.078-64.251-38.149s-30.118-40.157-36.141-64.251h-441.725c-6.024 24.094-18.071 46.18-36.141 64.251s-40.157 30.118-64.251 38.149c-24.094 6.024-50.196 6.024-74.29 0s-46.18-20.078-64.251-36.141c-18.071-18.071-30.118-40.157-36.141-64.251s-6.024-50.196 0-74.29c6.024-24.094 20.078-46.18 38.149-64.251s40.157-30.118 64.251-36.141v-439.718c-24.094-6.024-46.18-18.071-64.251-36.141s-30.118-40.157-38.149-64.251c-6.024-24.094-6.024-50.196 0-74.29s20.078-46.18 36.141-64.251c18.071-18.071 40.157-30.118 64.251-36.141s50.196-6.024 74.29 0c24.094 6.024 46.18 20.078 64.251 38.149s30.118 40.157 36.141 64.251h439.718c6.024-24.094 18.071-46.18 36.141-64.251s40.157-30.118 64.251-38.149c24.094-6.024 50.196-6.024 74.29 0s46.18 20.078 64.251 36.141c18.071 18.071 30.118 40.157 36.141 64.251s6.024 50.196 0 74.29c-6.024 24.094-20.078 46.18-38.149 64.251s-40.157 30.118-64.251 36.141zM865.38 871.655c14.055 0 28.11-4.016 40.157-12.047s20.078-20.078 26.102-32.125c6.024-14.055 6.024-28.11 4.016-42.165s-10.039-26.102-20.078-36.141c-10.039-10.039-22.086-16.063-36.141-20.078-14.055-2.008-28.11 0-42.165 4.016-14.055 6.024-24.094 14.055-32.125 26.102s-12.047 26.102-12.047 40.157 8.031 38.149 20.078 50.196c14.055 14.055 32.125 20.078 50.196 20.078zM76.298 799.373c0 14.055 4.016 28.11 12.047 40.157s20.078 20.078 32.125 26.102c14.055 6.024 28.11 6.024 42.165 4.016s26.102-10.039 36.141-20.078c10.039-10.039 16.063-22.086 20.078-36.141 2.008-14.055 0-28.11-4.016-42.165-6.024-14.055-14.055-24.094-26.102-32.125s-26.102-12.047-40.157-12.047-38.149 8.031-50.196 20.078c-14.055 14.055-20.078 32.125-20.078 50.196zM148.58 10.29c-14.055 0-28.11 4.016-40.157 12.047s-20.078 20.078-26.102 32.125c-6.024 14.055-6.024 28.11-4.016 42.165s10.039 26.102 20.078 36.141c10.039 10.039 22.086 16.063 36.141 20.078 14.055 2.008 28.11 0 42.165-4.016 14.055-6.024 24.094-14.055 32.125-26.102s12.047-26.102 12.047-40.157-8.031-38.149-20.078-50.196c-14.055-14.055-32.125-20.078-50.196-20.078zM726.839 118.714h-439.718c-6.024 24.094-20.078 46.18-38.149 64.251s-40.157 30.118-64.251 38.149v439.718c24.094 6.024 46.18 20.078 64.251 38.149s30.118 40.157 38.149 64.251h439.718c6.024-24.094 20.078-46.18 38.149-64.251s40.157-30.118 64.251-38.149v-439.718c-24.094-6.024-46.18-20.078-64.251-38.149s-30.118-40.157-38.149-64.251zM865.38 10.29c-14.055 0-28.11 4.016-40.157 12.047s-20.078 20.078-26.102 32.125c-6.024 14.055-6.024 28.11-4.016 42.165s10.039 26.102 20.078 36.141c10.039 10.039 22.086 16.063 36.141 20.078 14.055 2.008 28.11 0 42.165-4.016 14.055-6.024 24.094-14.055 32.125-26.102s12.047-26.102 12.047-40.157c0-18.071-8.031-38.149-20.078-50.196s-32.125-20.078-50.196-20.078z" />
<glyph unicode="&#xe925;" glyph-name="users" horiz-adv-x="1265" d="M423.655 484.141c30.118 0 62.243 6.024 90.353 18.071s54.212 30.118 76.298 50.196c22.086 22.086 40.157 48.188 50.196 76.298 12.047 28.11 18.071 58.227 18.071 90.353s-6.024 62.243-18.071 90.353c-12.047 28.11-30.118 54.212-50.196 76.298-22.086 22.086-48.188 40.157-76.298 50.196-28.11 12.047-58.227 18.071-90.353 18.071-62.243 0-122.478-24.094-166.651-68.267s-68.267-104.408-68.267-166.651 24.094-122.478 68.267-166.651 104.408-68.267 166.651-68.267zM345.349 797.365c20.078 20.078 48.188 32.125 78.306 32.125s28.11-2.008 42.165-8.031c14.055-6.024 26.102-14.055 36.141-24.094s18.071-22.086 24.094-36.141c6.024-14.055 8.031-28.11 8.031-42.165s-2.008-28.11-8.031-42.165c-6.024-14.055-14.055-26.102-24.094-36.141s-22.086-18.071-36.141-24.094c-14.055-6.024-28.11-8.031-42.165-8.031-30.118 0-56.22 12.047-78.306 32.125s-32.125 48.188-32.125 78.306 12.047 56.22 32.125 78.306zM546.133 421.898h-214.839c-110.431 0-196.769-48.188-252.988-126.494-54.212-78.306-78.306-178.698-78.306-283.106v0c0-16.063 6.024-32.125 18.071-44.173s28.11-18.071 44.173-18.071 0 0 0 0h750.933s0 0 0 0c0 0 0 0 0 0 16.063 0 32.125 6.024 44.173 18.071s18.071 28.11 18.071 44.173c0 104.408-24.094 204.8-80.314 281.098-56.22 78.306-142.557 126.494-252.988 126.494zM331.294 295.404h214.839c68.267 0 116.455-28.11 150.588-74.29 26.102-36.141 44.173-86.337 52.204-144.565h-620.424c8.031 58.227 26.102 108.424 52.204 144.565 34.133 46.18 82.322 74.29 150.588 74.29zM728.847 879.686c8.031-20.078 28.11-32.125 50.196-38.149 10.039-2.008 18.071-4.016 28.11-4.016v0c28.11-2.008 54.212-14.055 74.29-34.133s32.125-46.18 34.133-74.29c2.008-28.11-6.024-56.22-22.086-78.306s-40.157-38.149-68.267-46.18c-10.039-2.008-20.078-6.024-28.11-10.039-20.078-10.039-38.149-24.094-44.173-44.173v0c-8.031-32.125 10.039-66.259 42.165-66.259s64.251 6.024 94.369 20.078c30.118 12.047 56.22 32.125 78.306 56.22s40.157 52.204 50.196 82.322c10.039 30.118 14.055 64.251 12.047 96.376s-12.047 64.251-28.11 92.361c-16.063 28.11-36.141 54.212-62.243 74.29s-56.22 34.133-86.337 42.165c-32.125 8.031-64.251 10.039-96.376 4.016s-46.18-40.157-32.125-70.275v0zM1174.588 293.396c-56.22 78.306-142.557 126.494-252.988 126.494h-14.055c-16.063 0-32.125-6.024-44.173-18.071s-18.071-28.11-18.071-44.173 6.024-32.125 18.071-44.173 28.11-18.071 44.173-18.071h14.055c68.267 0 116.455-28.11 150.588-74.29 26.102-36.141 44.173-86.337 52.204-144.565h-122.478c-16.063 0-32.125-6.024-44.173-18.071s-18.071-28.11-18.071-44.173 6.024-32.125 18.071-44.173 28.11-18.071 44.173-18.071h186.729s0 0 0 0c0 0 0 0 0 0 16.063 0 32.125 6.024 44.173 18.071s18.071 28.11 18.071 44.173c0 104.408-24.094 204.8-80.314 281.098z" />
<glyph unicode="&#xe926;" glyph-name="video" horiz-adv-x="1143" d="M909.653 504.32c0 54.613-39.253 100.693-90.453 110.933 20.48 34.133 32.427 73.387 32.427 116.053 0 126.293-102.4 226.987-226.987 226.987s-160.427-49.493-199.68-119.467c-37.547 71.68-110.933 121.173-197.973 121.173-124.587 0-226.987-102.4-226.987-226.987s17.067-98.987 46.080-136.533c-13.653-10.24-25.6-23.893-34.133-39.253s-11.947-34.133-11.947-51.2v-455.68c0-63.147 51.2-114.347 114.347-114.347h682.667c63.147 0 114.347 51.2 114.347 114.347v150.187l226.987-114.347v397.653l-226.987-114.347v134.827zM626.347 845.653c63.147 0 114.347-51.2 114.347-114.347s-51.2-114.347-114.347-114.347-114.347 51.2-114.347 114.347 51.2 114.347 114.347 114.347zM226.987 845.653c63.147 0 114.347-51.2 114.347-114.347s-51.2-114.347-114.347-114.347-114.347 51.2-114.347 114.347 51.2 114.347 114.347 114.347zM114.347 50.347v455.68h682.667v-455.68s-682.667 0-682.667 0z" />
<glyph unicode="&#xe927;" glyph-name="web" horiz-adv-x="983" d="M704.512 366.080c0 32.768 8.192 65.536 8.192 98.304s0 65.536-8.192 98.304h167.936c8.192-32.768 12.288-65.536 12.288-98.304s-4.096-65.536-12.288-98.304zM618.496 91.648c28.672 53.248 53.248 114.688 69.632 176.128h143.36c-49.152-81.92-122.88-143.36-212.992-176.128zM606.208 366.080h-229.376c-4.096 32.768-8.192 65.536-8.192 98.304s0 65.536 8.192 98.304h229.376c4.096-32.768 8.192-65.536 8.192-98.304s0-65.536-8.192-98.304zM491.52 71.168c-40.96 57.344-73.728 122.88-94.208 196.608h188.416c-20.48-69.632-53.248-135.168-94.208-196.608zM294.912 660.992h-143.36c49.152 81.92 122.88 143.36 212.992 176.128-28.672-53.248-53.248-114.688-69.632-176.128zM151.552 267.776h143.36c16.384-61.44 40.96-118.784 69.632-176.128-90.112 32.768-163.84 94.208-212.992 176.128zM110.592 366.080c-8.192 32.768-12.288 65.536-12.288 98.304s4.096 65.536 12.288 98.304h167.936c0-32.768-8.192-65.536-8.192-98.304s0-65.536 8.192-98.304zM491.52 857.6c40.96-57.344 73.728-122.88 94.208-196.608h-188.416c20.48 69.632 53.248 135.168 94.208 196.608zM831.488 660.992h-143.36c-16.384 61.44-36.864 118.784-69.632 176.128 90.112-32.768 163.84-94.208 212.992-176.128zM491.52 955.904c-270.336 0-491.52-221.184-491.52-491.52s53.248-253.952 143.36-348.16c45.056-45.056 98.304-81.92 159.744-106.496s122.88-36.864 188.416-36.864c131.072 0 253.952 53.248 348.16 143.36 94.208 94.208 143.36 217.088 143.36 348.16s-12.288 126.976-36.864 188.416c-24.576 61.44-61.44 114.688-106.496 159.744s-98.304 81.92-159.744 106.496c-61.44 24.576-122.88 36.864-188.416 36.864z" />
<glyph unicode="&#xe928;" glyph-name="webcam" horiz-adv-x="805" d="M402.286 144.457c-223.086 0-402.286 179.2-402.286 402.286s179.2 402.286 402.286 402.286 402.286-179.2 402.286-402.286-179.2-402.286-402.286-402.286zM402.286 875.886c-182.857 0-329.143-146.286-329.143-329.143s146.286-329.143 329.143-329.143 329.143 146.286 329.143 329.143-146.286 329.143-329.143 329.143zM402.286 371.2c-95.086 0-175.543 76.8-175.543 175.543s76.8 175.543 175.543 175.543 175.543-76.8 175.543-175.543-76.8-175.543-175.543-175.543zM402.286 645.486c-54.857 0-102.4-43.886-102.4-102.4s43.886-102.4 102.4-102.4 102.4 43.886 102.4 102.4-43.886 102.4-102.4 102.4zM629.029-38.4h-453.486c-21.943 0-36.571 14.629-36.571 36.571s14.629 36.571 36.571 36.571h190.171v146.286c0 21.943 14.629 36.571 36.571 36.571s36.571-14.629 36.571-36.571v-146.286h190.171c21.943 0 36.571-14.629 36.571-36.571s-14.629-36.571-36.571-36.571z" />
<glyph unicode="&#xe929;" glyph-name="youtube" horiz-adv-x="1336" d="M667.826 960c53.426 0 111.304 0 164.73 0h62.33c0 0 62.33-4.452 62.33-4.452h57.878c0 0 53.426-8.904 53.426-8.904 57.878 0 111.304-26.713 151.374-66.783s66.783-93.496 71.235-146.922v-26.713c0 0 8.904-57.878 8.904-57.878 4.452-57.878 8.904-124.661 8.904-186.991s0-129.113-8.904-186.991v-57.878c-4.452-8.904-4.452-17.809-8.904-26.713-4.452-57.878-31.165-111.304-71.235-146.922-40.070-40.070-93.496-62.33-151.374-66.783h-53.426c0 0-57.878-8.904-57.878-8.904h-62.33c0 0-62.33-4.452-62.33-4.452-53.426 0-111.304 0-164.73 0s-111.304 0-164.73 0h-62.33c0 0-62.33 4.452-62.33 4.452h-57.878c0 0-53.426 8.904-53.426 8.904-57.878 0-111.304 26.713-151.374 66.783s-66.783 93.496-71.235 146.922v26.713c0 0-8.904 57.878-8.904 57.878-4.452 62.33-8.904 124.661-8.904 186.991s0 129.113 8.904 186.991v57.878c4.452 8.904 4.452 17.809 8.904 26.713 4.452 57.878 31.165 111.304 71.235 146.922 40.070 40.070 93.496 62.33 151.374 66.783h53.426c0 0 57.878 8.904 57.878 8.904h62.33c0 0 62.33 4.452 62.33 4.452 53.426 0 111.304 0 164.73 0zM667.826 830.887c-53.426 0-106.852 0-160.278 0h-62.33c0 0-62.33-4.452-62.33-4.452h-57.878c0 0-53.426-8.904-53.426-8.904-26.713 0-53.426-13.357-71.235-31.165s-31.165-44.522-35.617-71.235c-8.904-75.687-13.357-173.635-13.357-258.226s8.904-182.539 13.357-258.226c4.452-53.426 48.974-97.948 106.852-102.4h53.426c0 0 57.878-8.904 57.878-8.904h62.33c0 0 62.33-4.452 62.33-4.452 53.426 0 106.852 0 160.278 0s106.852 0 160.278 0h62.33c0 0 62.33 4.452 62.33 4.452h57.878c0 0 53.426 8.904 53.426 8.904 26.713 0 53.426 13.357 71.235 31.165s31.165 44.522 35.617 71.235c8.904 75.687 13.357 173.635 13.357 258.226s-8.904 182.539-13.357 258.226c0 26.713-13.357 53.426-35.617 71.235-17.809 17.809-44.522 31.165-71.235 31.165h-53.426c0 0-57.878 8.904-57.878 8.904h-62.33c0 0-62.33 4.452-62.33 4.452-53.426 0-106.852 0-160.278 0zM538.713 608.278c0 4.452 0 13.357 0 17.809s8.904 8.904 13.357 13.357c4.452 0 13.357 4.452 17.809 4.452s13.357 0 17.809 0h4.452c0 0 267.13-155.826 267.13-155.826 4.452 0 8.904-8.904 13.357-13.357 0-4.452 4.452-8.904 4.452-17.809 0-4.452 0-13.357 0-17.809s-4.452-8.904-8.904-13.357h-4.452c0 0-267.13-155.826-267.13-155.826-4.452 0-13.357-4.452-17.809-4.452s-13.357 0-17.809 0c-4.452 0-8.904 8.904-13.357 13.357 0 4.452-4.452 8.904-8.904 17.809v0 311.652z" />
<glyph unicode="&#xe92a;" glyph-name="fav" horiz-adv-x="1161" d="M580.619-64c-15.835 0-26.392 5.278-36.948 15.835l-453.938 453.938c-58.062 58.062-95.010 142.515-89.732 226.969 0 89.732 36.948 168.907 100.289 232.247 131.959 126.68 337.814 126.68 469.773-5.278l10.557-10.557 15.835 15.835c126.68 126.68 337.814 126.68 469.773 0 0 0 0 0 5.278-5.278 58.062-63.34 89.732-142.515 89.732-232.247s-36.948-168.907-95.010-232.247l-448.66-448.66c-10.557-5.278-21.113-10.557-36.948-10.557zM327.258 854.433c-58.062 0-116.124-21.113-158.351-63.34s-63.34-95.010-63.34-158.351c0-58.062 21.113-116.124 63.34-158.351 0 0 5.278-5.278 5.278-5.278l406.433-406.433 411.711 411.711c42.227 42.227 63.34 100.289 63.34 158.351s-21.113 116.124-63.34 158.351c0 0 0 0 0 0-89.732 84.454-226.969 84.454-316.701 0l-52.784-52.784c-21.113-21.113-52.784-21.113-73.897 0l-52.784 52.784c-52.784 42.227-110.845 63.34-168.907 63.34z" />
<glyph unicode="&#xe92b;" glyph-name="favin" d="M950.9 823.5c-53.7 58.5-131.7 87.7-209.7 87.7s-151.2-29.2-204.8-87.7l-14.6-14.6-14.6 14.6c-53.7 58.5-131.7 87.7-209.8 87.7s-156-29.2-209.6-82.9c-117-117-117-302.3 0-419.4l399.8-399.8c9.8-9.8 19.5-14.6 34.1-14.6v0c9.8 0 24.4 0 29.3 9.8l399.8 399.8c58.5 53.6 87.8 131.7 87.8 209.7s-34.1 156-87.7 209.7z" />
<glyph unicode="&#xe92c;" glyph-name="blob" d="M158.436 102.495c178.157-194.086 393.861-194.086 647.206 0s253.345 412.065 0 653.843c-253.345 241.778-469.144 241.778-647.206 0s-178.062-459.757 0-653.843z" />
<glyph unicode="&#xe92d;" glyph-name="artdevivre" d="M235.804 174.080c-3.887 12.8-6.068 22.945-10.145 32.332-2.086 4.836-6.637 9.481-11.188 12.326-13.369 8.439-28.255 14.696-40.96 23.988s-23.040 22.092-17.161 39.348c5.784 17.256 19.153 25.979 39.443 25.6-5.594 21.144-11.093 41.624-15.929 59.733-20.859 4.93-40.486 7.68-58.785 14.317-27.022 9.861-32.332 34.513-14.601 56.889 2.655 3.413 5.784 8.154 5.404 11.947-2.276 25.316 4.361 36.219 28.35 43.899 2.465 0.853 5.025 1.517 7.206 2.276 1.801 19.247-5.215 28.444-24.841 30.436-12.705 1.233-25.505 6.827-36.978 12.8-22.945 11.947-27.022 36.030-9.292 54.803 6.068 6.447 9.007 11.473 7.87 20.575-0.948 7.016 2.465 14.507 4.456 23.893-2.75 2.37-7.49 5.879-11.567 9.956-13.843 13.843-14.601 29.677-0.853 43.425 6.258 6.258 5.973 11.662 6.068 19.816 0.095 11.378 5.973 22.756 10.524 37.926-26.738 45.89-25.6 54.613 14.317 70.447-1.801 9.197-4.172 18.584-5.404 28.065-3.698 26.927 8.818 44.089 32.521 45.227 22.376 1.138 36.314-14.791 35.271-41.244-0.379-9.197-2.465-18.394-3.793-27.496 36.219-19.721 40.201-30.815 8.344-76.61 11.378-10.619 19.532-22.85 13.179-39.917-0.853-2.181 1.233-6.163 3.034-8.533 18.679-25.695 18.679-28.444-0.569-53.096 2.939-7.964 5.31-15.739 8.818-22.945 1.896-3.793 5.404-7.396 9.007-9.766 24.178-15.17 27.876-36.978 8.059-57.458-8.249-8.439-18.773-15.076-29.013-21.144-20.385-11.852-20.575-11.473-12.326-35.271 32.427 3.887 35.745 1.896 51.105-28.16 1.707-3.224 6.353-5.215 10.050-7.111 25.41-13.369 30.625-35.081 11.283-56.51-11.947-13.179-27.307-23.324-43.046-36.409 3.887-14.696 8.439-31.953 12.895-48.45 2.086-1.043 3.129-1.991 3.982-1.896 36.693 3.508 50.441-10.619 45.227-47.692-1.517-10.809-2.844-22.566-8.059-31.668-10.619-18.679-8.818-36.124-1.327-54.708 4.077-10.145 6.637-20.859 11.093-35.081 5.404 16.687 9.387 30.056 14.127 43.236 10.050 28.065 21.807 55.372 44.847 75.473 5.499 4.741 14.033 5.973 21.144 8.818 1.991-6.921 6.637-14.317 5.499-20.764-6.637-39.348-13.843-78.696-22.661-117.665-3.224-14.127-8.913-29.487-18.204-40.107-19.816-22.661-16.498-44.658-6.353-69.31 7.68-18.489 12.895-38.021 19.437-57.647-16.498-5.12-26.927-2.844-29.961 14.886-6.258 36.030-27.022 61.63-53.57 86.661-35.271 33.375-64.853 72.723-96.332 109.985-3.319 3.982-6.163 12.705-4.077 15.834 2.844 4.267 11.378 8.249 16.119 7.016 17.73-4.646 35.176-10.619 51.959-17.73 8.723-3.224 15.929-10.24 26.359-17.541zM441.363 532.859c3.887 25.6 3.508 24.841-17.541 35.84-12.99 6.732-26.169 14.412-36.504 24.462-16.403 15.929-13.653 38.495 5.499 50.631 8.533 5.404 13.748 10.050 14.127 21.049 0.19 6.258 5.879 12.421 9.766 19.721-2.465 3.413-5.784 7.585-8.723 12.231-11.283 18.015-7.775 31.953 10.24 44.942 3.698 2.655 7.585 8.059 7.585 12.231 0 15.834 7.49 25.79 20.196 31.384-3.129 16.498-9.197 32.521-8.344 48.166 1.233 21.144 20.954 21.997 37.073 24.367 1.422 13.653 1.517 26.833 4.361 39.443 4.456 19.532 19.911 28.539 39.633 25.031 18.394-3.224 28.444-15.17 26.169-35.176-1.517-13.274-6.827-26.169-10.619-39.822 31.573-28.16 31.004-34.228-9.671-75.188 10.24-12.99 11.757-27.212 3.224-42.287-1.138-1.991 0.19-6.068 1.422-8.723 12.326-26.359 10.714-33.090-12.8-51.105 1.043-6.921 1.612-13.938 3.413-20.67 1.517-5.594 3.034-12.136 6.921-15.929 18.489-17.92 17.92-42.003-3.603-55.846-11.283-7.301-24.462-12.041-37.357-16.403-20.29-6.827-20.48-6.258-18.679-29.487 0.853-0.664 1.612-1.707 2.56-1.801 39.538-1.896 52.433-25.41 32.427-59.544-4.646-7.964-10.524-15.455-16.593-22.376-20.48-23.419-24.367-39.538-16.308-71.68 12.8 18.394 25.031 37.736 39.159 55.561 7.68 9.671 17.92 17.825 28.16 24.841 4.456 3.034 12.99 3.887 17.73 1.707 3.224-1.517 5.215-10.619 4.077-15.455-14.981-62.293-34.039-122.596-79.076-171.141-4.077-4.361-6.068-12.705-5.594-18.963 6.732-87.514 14.127-175.028 21.239-262.542 0.379-4.836 0.095-9.671 0.095-15.739-7.301 0-14.127 0-22.566 0-4.172 47.218-8.628 94.056-12.516 140.99-2.75 32.806-4.456 65.707-7.585 98.513-0.664 7.016-4.646 14.222-8.533 20.385-30.815 47.881-62.104 95.479-92.634 143.55-2.939 4.551-3.793 14.127-0.948 17.636 3.034 3.698 12.895 5.973 17.351 3.793 17.446-8.439 34.513-18.11 50.536-29.013 9.197-6.258 16.308-15.644 24.462-23.704 0 26.453 0.284 51.864-0.379 77.274-0.095 3.413-4.551 6.827-7.206 10.050-9.007 10.999-19.247 21.239-26.927 33.090-24.273 37.641-10.714 63.81 33.28 65.707zM716.705 455.111c13.179 14.886 13.843 26.927-1.612 40.77-9.861 8.818-17.067 21.618-22.471 33.944-10.050 22.85-1.138 40.865 22.756 46.744 10.145 2.465 17.256 5.879 22.756 15.265 3.224 5.499 10.904 8.439 16.593 12.516-1.138 6.921-2.844 13.938-3.319 20.954-1.043 15.739 5.594 27.117 21.713 29.961 11.093 1.991 16.782 8.059 23.23 16.972 5.689 7.87 17.161 11.662 27.686 18.299 6.353 54.803 10.335 58.88 54.139 50.821 5.025 10.145 9.007 21.049 15.265 30.53 12.99 19.627 32.427 22.945 51.2 9.956 16.403-11.378 18.773-30.341 4.836-49.019-6.447-8.723-14.886-15.929-22.471-23.799 16.213-42.856 16.213-42.856-39.159-66.655 4.456-15.36 1.612-28.824-11.947-39.159-2.086-1.612-3.698-5.31-3.698-8.059 0.19-32.616 0.095-32.901-31.289-43.141-2.56-7.87-5.784-15.36-7.301-23.23-0.853-4.646-0.095-10.24 1.612-14.791 10.050-25.695 0.095-45.701-26.927-49.967-12.231-1.991-25.221-1.327-37.641 0.284-23.040 2.844-22.945 3.508-30.72-20.954 37.452-18.204 39.822-46.744 5.404-70.732-8.059-5.594-16.782-11.567-25.979-13.748-18.489-4.456-25.884-16.972-31.858-33.375-21.713-59.733-44.563-119.087-66.844-178.536-1.991-5.404-3.413-11.093-5.594-18.204 17.351 9.956 32.332 20.006 48.545 27.496 11.757 5.404 24.936 8.154 37.736 10.524 4.361 0.759 11.662-1.991 13.748-5.499 2.086-3.413 0.948-10.999-1.707-14.696-30.91-42.382-64.569-82.679-110.175-109.321-19.911-11.662-31.953-25.126-35.745-46.744-3.129-17.636-13.369-20.196-30.056-14.791 9.576 28.444 19.532 56.13 27.97 84.29 2.655 8.818 2.56 19.153 1.233 28.444-7.585 51.484-16.119 102.779-23.609 154.169-0.759 5.025 1.707 13.653 5.215 15.455 4.741 2.276 13.938 1.801 17.73-1.517 10.524-9.292 20.196-19.911 28.255-31.289 6.542-9.197 10.335-20.29 16.877-33.659 6.921 17.92 12.895 33.375 18.868 48.83 14.033 36.219 28.444 72.439 41.908 108.942 2.181 5.879 1.327 13.464-0.095 19.816-3.508 15.929-10.24 31.479-11.852 47.502-3.982 40.012 19.342 55.561 56.794 38.4z" />
<glyph unicode="&#xe92e;" glyph-name="astronomie" d="M821.381 170.761c37.167-6.827 71.87-7.87 106.287 1.896 27.212 7.775 36.788 25.126 30.436 52.812-0.948 4.267-1.233 9.292-3.603 12.516-22.376 30.72-4.551 58.596 6.163 90.074 26.927-39.159 50.347-77.369 48.83-124.587-1.233-37.926-24.747-61.061-58.785-73.956-43.994-16.687-89.505-16.593-134.921-8.533-131.319 23.23-251.828 75.473-367.881 139.093-105.339 57.742-204.895 124.302-293.357 206.033-41.719 38.495-81.541 78.886-110.649 128.284-15.076 25.79-26.643 52.812-29.013 83.247-3.603 46.364 17.351 77.843 61.724 92.919 34.039 11.567 68.551 10.999 105.908 7.585-13.559-15.929-24.841-29.961-37.167-43.046-3.129-3.319-9.766-3.508-14.886-4.551-13.938-2.844-28.444-3.793-41.719-8.344-21.618-7.49-30.436-25.031-25.41-47.218 8.249-36.219 28.255-66.086 52.243-95.763 51.674 134.258 140.231 229.073 279.419 268.421 111.218 31.479 219.307 17.825 320.379-38.21 115.484-64 183.751-162.892 205.369-292.883 21.523-129.801-14.696-244.053-99.366-345.79zM402.015 521.197c0.19-41.719 31.289-71.87 73.766-71.49 41.15 0.379 71.775 31.099 71.775 72.154 0 41.244-31.858 72.913-73.197 72.723-41.908-0.284-72.533-31.384-72.344-73.387zM400.593 656.498c13.748-0.284 24.178 9.481 24.652 23.135s-9.387 24.083-23.135 24.462c-14.127 0.379-24.083-9.007-24.462-22.945-0.379-13.748 9.481-24.273 22.945-24.652zM765.724 498.157c-0.379 13.559-11.093 24.178-24.178 23.609-13.369-0.474-22.945-11.093-22.566-25.126 0.284-13.843 10.714-23.988 24.083-23.609 13.179 0.474 23.040 11.378 22.661 25.126zM633.079 360.865c-0.379 13.369-10.999 23.324-24.652 23.040-13.559-0.284-23.704-10.904-23.324-24.273 0.379-13.464 10.999-23.419 24.652-23.040 13.653 0.19 23.704 10.809 23.324 24.273zM724.859 90.548c-145.825-76.99-288.711-81.161-427.804 2.75-133.025 80.213-196.836 202.809-202.43 361.339 183.751-169.339 391.206-289.849 630.234-364.089zM498.347 522.524c0.284-14.317-8.818-24.367-22.661-24.936-14.507-0.569-24.747 9.576-24.747 24.462 0.095 14.507 9.197 23.704 23.514 23.799 14.222 0.095 23.609-9.102 23.893-23.324z" />
<glyph unicode="&#xe94a;" glyph-name="geologie" d="M605.393 271.55c0.474-49.588 4.456-96.806 18.584-142.791 14.317-46.27 36.788-87.514 77.843-121.837-30.625-4.93-57.363-10.43-84.385-13.464-100.314-11.188-198.353-2.181-292.599 35.745-36.409 14.696-70.637 33.564-101.357 58.121-3.224 2.56-7.016 8.154-6.353 11.473 14.412 67.224 40.201 128.664 93.677 174.839 9.766 8.439 21.049 15.36 32.047 22.281 23.23 14.791 43.994 17.92 71.301 2.276 55.751-31.953 117.57-40.391 181.381-28.539 2.465 0.759 5.025 1.138 9.861 1.896zM343.514 347.496c-94.436-43.141-139.852-123.070-167.253-221.108-18.394 23.514-36.409 43.236-50.631 65.327-58.406 91.022-92.444 190.104-95.194 299.141-0.379 16.403 4.077 25.6 19.342 33.090 67.982 33.185 138.24 48.45 212.954 29.108 31.858-8.249 25.6-2.37 23.609-32.996-3.793-58.69 10.050-112.356 46.744-159.194 3.319-4.267 6.542-8.439 10.43-13.369zM798.53 396.041c64.474-74.335 129.517-149.239 195.034-224.711-24.273-31.953-54.993-55.372-87.135-76.8-42.098-27.97-87.799-49.114-135.585-65.327-6.258-2.181-15.36-1.043-21.428 1.896-37.073 18.299-59.828 49.778-74.24 87.23-19.816 51.39-25.979 105.339-24.841 160.142 0.095 3.698 2.56 8.818 5.499 10.619 25.221 15.455 52.338 28.255 75.852 45.796 23.704 17.541 43.804 39.727 66.844 61.156zM456.439 738.418c-95.763-33.47-121.458-57.458-158.436-147.816-42.572 12.516-85.902 19.342-130.844 14.791-44.753-4.551-86.945-16.877-129.327-36.788 5.973 35.366 15.834 67.793 30.53 98.607 45.037 94.341 118.329 159.099 212.954 200.913 4.646 2.086 10.714 3.413 15.455 2.276 41.529-9.481 81.067-23.799 114.536-51.295 25.221-20.764 41.813-46.649 45.132-80.687zM373.665 899.034c32.521 2.655 65.043 7.016 97.564 7.775 73.766 1.707 144.119-12.136 207.076-53.001 14.222-9.197 27.022-20.764 40.107-31.763 2.75-2.276 4.741-6.732 5.12-10.335 4.077-39.538 5.404-78.981-9.387-117.001-8.059-20.764-18.394-33.090-35.935-43.141-6.542 7.49-12.8 15.644-20.101 22.661-40.107 38.4-88.557 58.975-143.36 64.853-9.007 0.948-12.705 2.939-14.317 12.8-9.956 59.923-47.976 98.797-98.418 127.716-9.292 5.31-19.058 9.766-28.634 14.601 0.095 1.612 0.19 3.224 0.284 4.836zM615.917 416.616c47.313 26.927 74.524 66.37 83.058 117.191 3.603 21.239-0.095 43.615 0.19 65.517 0 4.551 1.233 11.378 4.267 13.369 44.563 28.255 59.449 72.249 65.422 121.079 0.569 4.456 0.853 8.913 1.327 13.369 0.095 0.853 0.759 1.517 1.422 2.844 1.043-0.569 2.465-0.948 2.844-1.801 49.304-97.28 61.25-195.319 5.12-294.305-7.301-12.8-18.11-23.609-25.41-36.314-17.446-30.151-44.942-29.772-73.956-26.548-23.040 2.56-44.563 9.007-64.284 25.6zM531.627 689.873c53.191-8.913 117.76-45.416 125.44-109.985 6.732-56.984-29.393-132.361-107.52-134.447-45.985-1.233-80.024 23.419-87.23 63.81-3.887 21.997 1.517 42.003 16.119 58.975 15.644 18.204 38.305 20.385 62.388 6.921 4.93-2.75 10.524-5.973 15.929-6.258 10.050-0.474 18.679 3.982 22.281 14.033 4.267 11.852 0 22.661-10.335 27.781-11.473 5.689-12.99 13.274-12.8 24.462 0.284 19.247-2.37 23.324-24.273 54.708zM668.634 345.79c-39.348-22.092-77.179-35.84-119.182-35.745-65.233 0.19-122.88 19.721-169.908 66.276-23.324 23.040-24.936 35.081-6.447 62.104 6.447 9.387 15.076 18.015 24.462 24.462 20.29 14.033 24.841 12.421 38.21-7.016 28.824-41.813 70.447-56.604 119.277-54.613 9.861 0.379 16.403-1.801 23.040-9.481 22.85-26.264 54.044-37.452 90.548-45.985zM510.767 624.071c-21.807 7.87-38.779-2.086-54.044-14.696-27.781-22.85-39.822-53.57-39.917-90.548-32.711-7.964-60.492-24.083-81.067-54.044-1.517 3.698-2.939 5.784-3.129 8.059-5.404 57.079 3.034 111.313 36.124 159.479 7.775 11.283 18.489 20.764 28.539 30.246 16.687 15.644 36.030 21.239 58.027 11.947 15.17-6.353 30.815-11.947 45.037-20.006 11.188-6.163 13.938-17.825 10.43-30.436z" />
<glyph unicode="&#xe94b;" glyph-name="grandssites" d="M420.76 923.108c-3.612-8.353-77.227-174.327-112.384-253.44-14.677-33.119-26.719-60.824-26.795-61.573-0.076-0.901 6.846-5.272 25.818-16.337 14.222-8.277 25.97-14.981 26.046-14.905 2.332 3.157 207.218 283.468 207.521 284.075 0.303 0.455-22.357 14.004-55.998 33.498-31.090 17.986-57.581 33.271-58.937 33.944l-2.408 1.28-2.863-6.542zM523.131 677.954c-92.738-65.64-168.913-119.761-169.282-120.282-0.455-0.673 3.916-9.036 13.928-26.425 8.050-14.004 14.981-25.591 15.426-25.818 0.749-0.303 376.206 173.122 377.486 174.327 0.673 0.673-66.844 117.125-67.973 117.276-0.531 0.076-76.857-53.523-169.586-119.078zM213.011 548.115c-13.094-1.508-27.629-6.324-39.14-12.876-25.363-14.526-42.828-38.912-49.076-68.418-1.877-8.884-1.877-28.757 0-37.632 7.528-35.755 31.991-64.133 65.489-75.947 11.52-4.068 20.546-5.566 33.271-5.566 17.237 0 30.635 3.233 45.843 10.989 24.766 12.648 43.207 35.006 50.811 61.497 2.939 10.458 3.84 16.858 3.84 27.847s-0.901 17.389-3.84 27.847c-8.884 31.166-33.195 56.68-63.905 67.214-12.8 4.361-30.568 6.466-43.292 5.044zM801.261 508.89c-182.234-13.625-405.333-30.037-408.121-30.037h-2.863v-61.715h2.863c1.508 0 71.737-5.044 155.961-11.292s197.812-14.677 252.388-18.669l99.129-7.377v68.343c0 37.632-0.076 68.267-0.152 68.267-0.152-0.066-44.791-3.451-99.205-7.519zM379.895 385.754c-21.001-36.276-26.643-46.516-26.046-47.417 1.052-1.583 338.271-239.739 339.096-239.436 1.052 0.379 68.343 116.821 67.745 117.343-0.749 0.749-376.282 174.554-377.107 174.554-0.455 0-2.114-2.266-3.688-5.044zM307.105 304.156c-18.745-10.989-25.591-15.36-25.515-16.261 0.076-0.749 12.117-28.454 26.795-61.573 35.148-79.113 108.762-245.087 112.384-253.44l2.863-6.552 2.408 1.28c1.356 0.673 27.847 16.033 58.937 34.020 51.712 29.886 56.529 32.815 55.628 34.020-3.916 5.869-207.218 283.544-207.521 283.544-0.237-0.057-11.909-6.836-25.979-15.038z" />
<glyph unicode="&#xe94c;" glyph-name="montagne" d="M994.133 267.283c-162.323 366.459-219.876 468.29-208.972 456.059-9.481 11.378-35.935 38.305-67.319 38.305-34.513 0-65.801-44.279-65.801-44.279s-32.616-70.258-72.439-155.876c-55.467 118.519-103.253 219.686-106.667 224.332-8.533 11.378-34.133 45.511-79.739 45.511s-86.85-58.406-86.85-58.406-269.084-579.319-281.884-606.341c-12.8-27.022 24.178-29.867 24.178-29.867h697.553c32.711 0 11.378 42.667 11.378 42.667s-9.766 21.144-25.79 55.561h253.724c24.841-0.095 8.628 32.332 8.628 32.332zM592.498 427.046c-7.87-7.87-17.067-21.333-36.978-15.644s-36.978 31.289-45.511 54.139c-8.533 22.756-46.933 140.895-108.184 140.895 0 0-41.244 11.378-81.161-35.556 0 0-17.067-22.756-39.822-21.333s-25.6 7.111-25.6 7.111-8.533-1.422 0 14.222l89.695 195.034c0 0 15.644 27.022 51.295 27.022s49.873-31.289 49.873-31.289l146.679-316.018c-0.284 0 7.49-10.714-0.284-18.584zM824.51 509.63c-0.379-0.379-0.759-0.759-0.948-1.043-0.664 1.043-2.655 2.465-7.585 3.887-15.076 4.361-21.428 18.015-35.556 29.867-41.719 34.987-44.468 35.081-64.095 34.133 0 0-26.738 8.533-56.984-27.022 0 0-25.41-22.471-42.667-21.333-17.256 1.043-12.8 12.8-12.8 12.8s2.844 11.283 9.292 23.135l59.070 127.81c0 0 17.161 24.178 44.089 24.178s39.822-21.333 39.822-21.333l69.784-150.945c0 0.095 4.551-28.16-1.422-34.133zM785.161 723.342c0.948-1.138 1.707-2.181 2.37-2.939-1.043 1.233-1.801 2.276-2.37 2.939z" />
<glyph unicode="&#xe94d;" glyph-name="musees" d="M401.256 828.397l92.255-288.237c6.447-19.247 9.007-24.367 17.92-24.367 12.8 0 15.36 6.447 20.48 24.367l80.687 288.237c11.567 42.287 76.895 60.207 185.837 60.207 144.782 0 170.382-16.593 170.382-78.127v-745.719c0-48.64-62.767-57.647-138.335-57.647s-142.222 8.913-142.222 57.647l15.36 422.874c0 16.593-2.56 19.247-10.24 19.247-9.007 0-14.127-6.447-17.92-20.575l-70.447-235.71c-15.36-51.295-42.287-62.767-102.495-62.767-57.647 0-102.495 7.68-116.527 60.207l-66.655 242.157c-5.12 14.127-9.007 16.687-16.687 16.687-9.007 0-11.567-3.887-11.567-19.247l12.8-431.787c0-40.96-55.087-48.64-122.975-48.64-69.215 0-125.63 7.68-125.63 48.64v754.536c0 61.535 23.135 78.127 174.27 78.127 117.855 0.095 161.47-12.705 171.71-60.113z" />
<glyph unicode="&#xe94e;" glyph-name="patrimoine" d="M417.564 685.606c16.403 0 31.004 0 46.649 0 0 23.419 0 46.080 0 68.646 0 23.799 3.982 27.781 27.686 28.065 3.129 0 6.258 0.379 10.524 0.569 0 7.49 0 14.507 0 21.428 0 35.84-0.095 71.585 0.095 107.425 0 5.025-2.844 12.516 6.542 12.705 7.016 0.19 16.308 3.129 15.17-10.050 28.634 0 56.225 0 83.816 0 18.773 0 24.273-5.499 24.367-23.893 0.095-13.084 0-26.264 0-39.348 0-20.67-5.879-26.738-26.359-26.738-26.927 0-53.855 0-81.541 0 0-13.748 0-27.022 0-42.193 3.698 0 7.775 0 11.852 0 20.385-0.095 25.505-5.31 25.505-26.074 0-19.816 0-39.727 0-59.544 0-3.508 0-6.921 0-11.188 15.739 0 30.436 0 46.649 0 0 14.127 0 27.781 0 41.434 0 12.421-0.284 24.841 0.19 37.167 0.379 10.714 6.542 17.541 17.256 17.73 20.575 0.474 41.055 0.379 61.63 0 9.766-0.19 16.972-5.973 16.972-15.644-0.19-47.123 0.948-94.341-2.844-141.179-1.612-19.437-13.559-38.305-22.187-56.794-4.361-9.197-5.499-17.825-4.267-27.591 12.8-101.926 25.41-203.852 38.116-305.778 7.301-58.69 14.696-117.381 22.092-175.976 0.379-3.129 1.138-6.258 1.896-10.714 17.636 0 35.271 0 52.812 0 20.575 0 24.747-4.267 24.747-24.936 0-9.956 0.095-19.816 0-29.772-0.19-16.119-6.447-22.471-22.661-22.566-74.43-0.095-148.764 0-223.194 0-111.218 0-222.436 0-333.748 0-21.239 0-26.169 5.025-26.169 26.264 0 9.197 0 18.394 0 27.686 0.095 17.636 5.784 23.324 23.704 23.324 15.55 0.095 31.194 0.284 46.744-0.095 6.827-0.19 9.102 2.181 9.956 8.818 12.041 99.176 24.367 198.258 36.693 297.339 8.154 65.327 16.687 130.655 24.652 196.077 0.664 5.215-1.233 10.999-3.129 16.119-7.964 21.049-17.636 41.624-24.273 63.052-3.413 11.188-2.181 23.893-2.276 35.84-0.284 31.573-0.19 63.052 0 94.625 0.095 15.929 5.973 21.902 21.807 22.092 17.73 0.19 35.461 0.19 53.096 0 14.981-0.19 21.428-6.447 21.523-21.428 0.095-24.462-0.095-49.209-0.095-74.904zM572.681 386.181c0 0-0.095 0 0 0-0.095 14.886 0.284 29.772-0.19 44.563-0.853 27.686-24.936 52.907-52.338 55.087-36.314 2.939-64.379-21.902-65.517-59.259-0.853-29.013-0.474-58.027-0.19-87.040 0.095-15.455 6.637-21.333 22.566-21.428 23.704-0.095 47.407-0.095 71.111 0 17.161 0 24.273 7.111 24.557 24.462 0.19 14.601 0 29.108 0 43.615z" />
<glyph unicode="&#xe94f;" glyph-name="sportnature" d="M622.459 448.759c36.314-14.033 71.49-27.876 106.856-41.055 35.461-13.179 71.111-25.979 106.856-38.4 7.585-2.655 9.576-6.542 9.387-14.033-0.474-21.333-10.43-36.409-29.961-43.899-10.335-3.982-21.807-7.775-32.616-7.396-51.484 1.801-102.969 3.698-154.264 8.059-68.551 5.879-136.913 14.696-205.464 20.764-31.004 2.75-62.009-0.853-92.065-9.766-20.48-6.163-37.641-2.56-52.527 13.653-37.641 40.96-86.471 58.69-140.231 65.422-3.887 0.474-7.775 0.948-12.326 1.612 9.007 56.699 3.224 111.881-4.836 166.874-1.517 10.145 1.896 16.687 11.283 21.428 35.935 18.11 74.43 25.695 114.157 27.591 6.637 0.284 9.766 2.37 11.757 8.913 17.351 56.604 57.458 85.333 114.916 91.781 35.556 3.982 35.271 3.508 45.985-30.056 7.301-22.945 15.55-45.701 24.083-68.267 2.56-6.732 1.517-9.861-4.646-13.369-25.126-14.412-50.157-29.108-74.904-44.184-5.404-3.224-10.904-7.49-14.127-12.705-6.258-9.861-4.836-20.006 3.129-28.919 8.059-9.007 20.954-11.567 31.953-5.31 23.799 13.653 47.218 27.781 70.732 41.719 3.793 2.276 7.585 4.456 12.326 7.206 7.585-11.852 15.076-23.609 23.419-36.693-14.127-18.489-28.824-37.547-43.425-56.604-2.655-3.508-5.499-6.921-7.87-10.714-7.585-12.326-5.594-25.126 5.12-33.375 11.378-8.723 26.169-7.585 35.65 3.982 14.507 17.73 28.255 36.219 42.287 54.329 2.465 3.129 5.025 6.163 8.439 10.335 14.886-8.628 29.677-17.161 45.132-26.074-10.43-20.764-21.049-40.107-29.867-60.397-3.224-7.396-3.982-17.161-2.181-25.031 2.181-9.481 10.904-14.886 21.144-15.076 10.999-0.284 19.437 4.646 24.557 14.507 10.524 20.859 21.144 41.624 32.142 63.147zM896 345.505c23.893-11.093 46.080-21.333 63.431-39.348s18.679-35.556 5.499-57.079c-12.421-20.385-31.289-33.28-51.959-43.899-41.339-21.049-85.333-30.815-131.603-30.815-80.972 0-161.944-0.664-242.916 0.474-18.204 0.284-36.409 5.879-54.424 10.050-47.218 11.093-93.487 5.12-139.757-5.499-12.8-2.939-26.169-4.646-39.348-4.836-49.967-0.569-99.935-1.043-149.902 0.19-21.049 0.569-42.951 2.655-62.767 9.292-32.806 10.809-46.459 39.727-40.865 74.145 5.12 31.479 23.23 55.941 40.201 81.541 8.059 12.136 16.687 14.981 30.815 13.464 39.633-4.172 76.99-13.084 107.71-40.296 5.973-5.31 11.283-11.473 17.067-17.067 24.367-23.893 53.855-32.521 86.566-24.178 47.692 12.326 95.479 11.188 143.834 6.353 94.91-9.671 189.156-27.117 284.919-25.221 22.281 0.474 45.227 3.034 66.465 9.481 39.159 11.852 60.871 40.581 67.034 83.247z" />
<glyph unicode="&#xe950;" glyph-name="sportsdeau" d="M603.401 627.2c-18.489 16.782-38.21 26.738-60.397 32.521-72.439 18.963-152.178-32.901-162.513-107.141-2.844-20.764-1.896-42.098-2.181-63.147-0.284-26.169 0-52.433-0.19-78.601 0-3.508-0.379-8.154-2.56-10.335-21.713-22.092-43.71-43.71-67.129-66.844-1.422 7.49-2.844 13.843-3.793 20.196-16.782 108.563-4.267 214.187 32.237 317.44 28.539 80.687 67.698 155.876 116.622 225.944 30.91 44.373 85.618 44.373 116.527 0 40.96-58.785 74.904-121.553 102.021-187.923 2.75-6.732 1.896-10.809-3.224-15.929-21.713-21.333-42.951-43.33-65.422-66.181zM421.167 268.326c19.816-17.636 41.624-28.634 66.655-33.564 71.396-13.938 146.204 37.926 155.496 110.080 3.224 25.126 1.896 50.916 2.276 76.326 0.284 21.428-0.095 42.856 0.19 64.284 0.095 3.698 1.043 8.533 3.413 10.999 20.575 21.239 41.624 42.098 62.578 63.052 0.664 0.664 1.801 0.853 4.361 2.086 2.56-20.196 5.594-39.538 7.396-59.070 12.231-135.016-20.67-260.741-81.161-379.923-22.092-43.52-48.356-85.144-74.524-126.388-24.936-39.443-81.92-41.339-109.606-3.793-44.563 60.587-79.265 126.767-107.52 196.361-1.138 2.75-0.853 7.964 1.043 9.861 22.756 23.135 45.606 45.89 69.404 69.689zM154.643-31.384c-15.36 0.19-28.444 6.068-39.253 16.877-22.376 22.376-44.753 44.753-66.939 67.319-18.868 19.247-21.333 51.959-2.844 71.585 26.074 27.686 53.191 54.519 81.636 79.739 21.997 19.532 49.967 27.022 78.981 29.298 15.265 1.233 28.729-4.646 39.822-15.265 10.999-10.619 21.428-21.902 32.521-32.427 21.997-20.954 21.807-46.175 14.601-72.723-7.111-26.169-20.29-48.83-39.348-68.077-19.342-19.532-38.874-38.969-58.311-58.596-11.283-11.378-24.652-17.825-40.865-17.73zM726.092 755.579c2.276 32.427 13.559 62.767 36.504 87.609 21.523 23.23 44.089 45.416 66.844 67.508 22.945 22.376 55.751 22.471 78.791 0.095 22.756-21.997 45.037-44.563 66.939-67.413 19.058-19.816 21.713-51.105 3.508-70.732-26.359-28.35-54.234-55.467-82.963-81.351-21.428-19.247-48.83-26.453-77.179-28.444-15.644-1.043-29.487 4.93-40.865 15.455-11.947 11.093-23.419 22.756-34.797 34.513-11.188 11.567-16.972 25.41-16.782 42.761zM717.084 699.164c14.696-14.412 31.004-30.246 47.407-46.27-152.936-151.988-305.683-303.692-458.145-455.206-14.222 13.748-30.72 29.677-47.502 45.985 153.316 152.367 305.967 304.166 458.24 455.49zM583.206 609.564c-59.923-59.544-118.329-117.76-176.83-175.881-0.19 1.138-0.664 3.034-0.664 4.93 0 30.625-0.759 61.25 0.19 91.876 2.37 78.791 79.644 127.621 150.756 95.479 9.292-4.267 17.541-10.809 26.548-16.403zM440.699 287.858c59.544 58.596 118.424 116.433 177.114 174.175-0.379 0.664 0.474-0.19 0.474-0.948-0.284-35.65 1.327-71.585-1.517-107.046-3.319-40.012-25.979-69.31-62.767-85.049-36.599-15.739-72.439-12.041-105.244 11.757-2.465 1.801-4.551 3.982-8.059 7.111z" />
<glyph unicode="&#xe951;" glyph-name="thermalisme" d="M511.621-33.659c-143.17 0-286.436 0-429.606 0-21.807 0-25.505 3.603-25.505 25.031 0 45.985 0 91.97 0 137.956 0 16.782 4.741 21.618 21.239 21.618 289.28 0 578.465 0 867.745 0 17.067 0 21.902-4.93 21.997-22.187 0-45.985 0-91.97 0-137.956 0-19.911-4.361-24.462-24.083-24.462-143.929 0-287.858 0-431.787 0zM755.864 534.281c18.679 0 23.324-4.551 23.324-22.945 0-32.901 0.095-65.801 0-98.607-0.19-37.167-26.359-63.241-63.621-63.336-36.030-0.095-72.154 0-108.184 0-3.793 0-7.68 0-12.61 0 0-34.513 0-67.887 0-102.116-54.329 0-107.425 0-161.659 0 0 33.659 0 67.129 0 102.116-4.741 0-8.533 0-12.231 0-36.030 0-72.154-0.095-108.184 0-36.788 0.095-63.052 25.6-63.526 62.293-0.379 33.944-0.19 67.887-0.095 101.831 0.095 15.55 5.31 20.764 21.333 20.764 43.236 0.095 443.070 0.095 485.452 0zM893.25 167.159c-253.345 0-505.837 0-759.182 0 0 15.55-0.474 30.341 0.19 45.132 0.379 9.292 5.973 14.791 15.739 15.17 3.224 0.095 6.353 0.095 9.576 0.095 236.089 0 472.178 0 708.267 0 22.092 0 25.41-3.508 25.41-25.979 0-11.283 0-22.566 0-34.418zM292.883 929.659c8.533-0.19 14.791-6.732 14.412-15.076-0.284-8.154-7.396-14.791-15.55-14.412-8.249 0.284-14.696 7.206-14.412 15.55 0.379 8.439 6.637 14.127 15.55 13.938zM555.804 644.267c-7.585 0.095-14.127 6.827-14.127 14.601 0 7.206 7.111 14.507 14.317 14.696s14.317-6.921 14.507-14.317c0.19-8.249-6.447-14.981-14.696-14.981zM124.681 783.834c8.249 0.19 15.265-6.542 15.17-14.601-0.095-7.87-6.542-14.317-14.317-14.317-7.87 0-14.507 6.353-14.696 14.033-0.095 7.87 6.258 14.791 13.843 14.886zM210.11 347.212c-0.284-8.439-7.111-14.791-15.455-14.222-7.964 0.474-13.748 6.921-13.464 15.076 0.19 7.775 6.827 13.938 14.886 13.748 7.87-0.284 14.317-7.016 14.033-14.601zM557.511 733.867c0.095-8.344-6.732-15.17-14.981-14.981-7.206 0.095-14.222 7.585-14.127 14.981 0.095 7.68 6.827 14.317 14.601 14.412 7.68 0.095 14.412-6.542 14.507-14.412zM832.379 361.719c7.964 0.095 14.601-6.163 14.601-13.938 0.095-8.439-6.447-15.076-14.791-14.886-7.964 0.19-14.033 6.353-14.222 14.507-0.19 7.585 6.637 14.222 14.412 14.317zM484.599 748.279c7.775 0.19 14.601-6.068 15.076-13.843 0.474-7.396-6.258-15.076-13.464-15.455-8.154-0.474-15.17 6.068-15.455 14.412-0.284 7.775 6.068 14.601 13.843 14.886zM486.495 658.679c-0.19-7.964-6.542-14.412-14.317-14.412-8.344 0-14.886 6.827-14.507 15.076 0.379 7.585 7.301 14.317 14.696 14.222 7.016 0 14.222-7.68 14.127-14.886zM917.239 769.517c0.19-7.775-6.637-14.601-14.317-14.507-7.87 0.095-14.601 6.637-14.696 14.317-0.095 7.585 6.921 14.696 14.317 14.601 7.87-0.19 14.507-6.732 14.696-14.412zM438.519 692.148c-7.68 0-14.317 6.447-14.601 14.317-0.284 7.775 6.068 14.412 14.033 14.601 8.344 0.19 15.17-6.353 14.981-14.601-0.19-7.87-6.637-14.222-14.412-14.317zM920.557 295.159c0.095-8.533-6.447-15.265-14.696-15.076-7.964 0.19-13.843 6.447-13.938 14.696-0.095 7.964 6.163 14.317 14.127 14.412s14.412-6.163 14.507-14.033zM387.793 751.881c7.301 0.284 14.791-6.353 15.265-13.559 0.569-8.059-6.068-15.265-14.222-15.455-7.68-0.095-14.317 6.163-14.601 14.033-0.379 7.585 5.973 14.601 13.559 14.981zM653.938 737.944c0.19-8.249-6.353-14.981-14.601-15.076-7.775-0.095-14.412 6.447-14.412 14.222 0 7.396 6.732 14.412 14.317 14.791 7.585 0.284 14.507-6.258 14.696-13.938zM832.379 391.87c-7.87 0.095-14.127 6.353-14.222 14.412-0.095 7.775 6.353 14.601 14.033 14.696 8.249 0.19 14.886-6.732 14.696-15.076-0.284-7.87-6.637-14.033-14.507-14.033zM210.204 406.566c0.19-7.68-6.353-14.507-14.033-14.696-8.154-0.284-15.076 6.542-14.981 14.696 0.095 7.775 6.732 14.317 14.412 14.317 7.49 0.095 14.412-6.637 14.601-14.317zM590.033 692.148c-8.154 0-14.886 6.827-14.791 14.981 0.095 7.585 6.921 14.033 14.601 13.938 7.964-0.19 14.507-6.637 14.412-14.222-0.095-7.775-6.827-14.601-14.222-14.696zM906.714 487.253c7.775-0.19 14.033-6.827 13.938-14.601-0.095-8.533-6.637-14.412-15.36-13.938-8.154 0.474-13.748 6.637-13.369 14.886 0.284 7.775 6.921 13.938 14.791 13.653zM121.742 487.253c7.775 0.095 14.317-6.163 14.507-14.033 0.19-8.249-5.499-14.317-13.748-14.601-8.723-0.284-15.076 5.689-14.981 14.222 0.095 7.964 6.353 14.317 14.222 14.412zM826.406 656.024c7.775 0.095 14.412-6.163 14.696-13.938 0.284-8.249-6.542-15.644-14.317-15.36-7.301 0.284-14.507 7.396-14.507 14.601-0.095 7.206 7.016 14.601 14.127 14.696zM121.837 280.083c-8.154 0.095-14.507 7.111-14.222 15.55 0.284 7.87 7.016 13.938 14.981 13.559 7.87-0.284 13.938-6.921 13.653-14.886-0.284-8.154-6.542-14.317-14.412-14.222zM882.157 810.098c-7.68-0.284-14.412 6.163-14.696 13.938-0.19 7.68 6.068 14.696 13.559 15.17 8.059 0.474 15.17-6.258 15.17-14.412 0-7.775-6.353-14.412-14.033-14.696zM858.453 870.495c0.284-7.396-6.732-14.886-14.033-14.981-7.49-0.19-14.601 6.732-14.791 14.222-0.19 7.775 6.258 14.601 14.033 14.696 7.87 0.284 14.507-5.973 14.791-13.938zM243.105 692.812c-0.19-7.87-6.637-14.033-14.601-13.843-8.344 0.095-14.033 5.879-14.033 14.222 0 8.723 6.353 14.886 14.886 14.412 8.059-0.474 13.938-6.827 13.748-14.791zM183.656 855.609c-7.396 0.284-14.222 7.49-14.127 15.076 0.095 7.68 7.016 14.507 14.507 14.222 8.344-0.284 15.076-7.301 14.601-15.36-0.379-7.775-7.396-14.222-14.981-13.938zM235.236 916.006c7.964-0.284 13.843-6.921 13.464-15.076-0.379-7.87-7.301-14.412-14.791-13.938-8.439 0.569-14.033 6.447-13.843 14.696 0.19 8.723 6.447 14.601 15.17 14.317zM195.603 597.144c8.249 0 14.507-6.068 14.412-14.127-0.095-7.87-6.637-14.412-14.412-14.317-7.87 0-14.317 6.447-14.317 14.412-0.095 8.059 5.973 14.033 14.317 14.033zM737.28 929.185c7.87-0.664 13.748-7.396 13.369-15.265-0.379-8.154-7.68-14.601-15.644-13.843-7.49 0.759-13.464 7.964-12.895 15.644 0.379 7.49 7.87 14.127 15.17 13.464zM186.975 641.707c0.095 7.964 6.542 14.317 14.412 14.317 7.775 0 14.222-6.637 14.127-14.601-0.095-7.585-7.016-14.601-14.601-14.601-7.111-0.19-14.033 7.301-13.938 14.886zM920.557 650.714c0-7.87-6.258-14.127-14.317-14.222-7.964-0.095-14.317 6.163-14.317 14.127-0.095 8.533 6.353 15.076 14.696 14.791 7.964-0.284 13.938-6.542 13.938-14.696zM832.379 597.144c8.344 0.095 14.507-5.784 14.601-13.938 0.095-7.87-6.353-14.412-14.222-14.601-7.775-0.095-14.601 6.447-14.696 14.222-0.19 8.059 6.068 14.222 14.317 14.317zM210.204 465.446c0.095-7.775-6.258-14.317-14.127-14.507-8.439-0.19-15.076 6.258-14.886 14.601 0.095 7.68 6.637 14.033 14.507 14.033 7.68 0 14.412-6.542 14.507-14.127zM813.701 693.001c-0.095-8.344-5.784-14.033-14.222-14.127-7.87-0.095-14.317 6.163-14.507 14.033-0.095 8.439 6.447 14.791 14.886 14.696 8.059-0.095 13.938-6.353 13.843-14.601zM920.557 710.637c0.19-7.964-5.973-14.601-13.748-14.886s-14.412 5.879-14.791 13.843c-0.379 8.344 6.068 15.265 14.222 15.265 7.775 0 14.127-6.353 14.317-14.222zM136.249 710.353c0-7.964-6.163-14.412-14.033-14.601-7.775-0.19-14.222 6.163-14.507 14.127-0.284 8.249 6.353 15.076 14.507 14.981 7.68-0.095 13.938-6.637 14.033-14.507zM288.806 729.221c-0.284-7.111-7.964-14.317-14.886-14.127-8.154 0.284-14.507 7.396-13.938 15.644 0.474 7.206 7.111 13.748 14.033 13.748 7.49 0 15.076-7.87 14.791-15.265zM475.876 777.387c-7.87-0.284-14.601 5.973-14.886 13.938-0.284 8.059 5.689 14.507 13.748 14.886 7.68 0.284 14.886-6.258 14.981-13.843 0.284-8.059-5.973-14.696-13.843-14.981zM160.616 824.699c0.095-7.49-6.637-14.601-14.033-14.791-7.49-0.095-14.222 6.353-14.601 14.222-0.379 8.059 6.447 15.076 14.507 15.076 7.49 0 14.033-6.732 14.127-14.507zM195.603 510.009c-7.964 0-14.412 6.353-14.317 14.222 0.095 7.775 6.827 14.601 14.317 14.696 7.585 0.095 14.222-6.732 14.317-14.601 0.095-8.059-6.258-14.317-14.317-14.317zM832.569 538.927c7.49 0 14.222-6.921 14.317-14.601 0.095-7.87-6.353-14.222-14.317-14.317-8.154 0-14.412 6.258-14.317 14.222 0.095 7.775 6.827 14.696 14.317 14.696zM817.967 465.636c0.19 7.585 7.206 14.127 14.981 13.843 7.87-0.19 14.222-6.921 13.938-14.696-0.284-8.059-6.732-14.033-14.791-13.843-7.964 0.19-14.222 6.732-14.127 14.696zM195.982 302.933c7.68-0.19 14.127-7.206 13.938-14.886-0.19-7.49-7.396-14.412-14.791-14.127-7.585 0.284-14.127 7.396-13.843 14.981 0.284 7.87 7.016 14.317 14.696 14.033zM711.964 745.908c0.19-7.964-5.973-14.696-13.748-14.981s-14.507 5.973-14.886 13.938c-0.379 7.964 5.784 14.696 13.748 14.981 7.775 0.19 14.696-6.258 14.886-13.938zM122.121 368.45c7.68-0.095 14.222-6.827 14.127-14.601-0.095-7.964-6.542-14.412-14.412-14.317s-14.222 6.637-14.127 14.601c0 7.87 6.637 14.412 14.412 14.317zM567.182 791.988c0.095-8.059-5.973-14.222-14.222-14.317-8.059-0.095-14.317 5.973-14.601 14.127-0.19 7.585 6.732 14.507 14.317 14.507 8.059-0.095 14.317-6.258 14.507-14.317zM136.249 650.43c-0.095-7.964-6.542-14.127-14.507-13.938-7.964 0.095-14.222 6.447-14.127 14.412 0.095 8.439 6.732 14.886 15.076 14.507 7.87-0.379 13.653-6.827 13.559-14.981zM906.335 368.45c7.68-0.095 14.222-6.827 14.222-14.601 0-7.964-6.542-14.412-14.412-14.317s-14.222 6.637-14.127 14.601c0 7.87 6.542 14.412 14.317 14.317zM920.557 412.729c-0.379-7.964-6.827-13.559-15.17-13.274-8.154 0.379-14.033 6.827-13.464 14.886 0.569 7.964 7.301 14.033 15.076 13.653 7.68-0.474 13.938-7.49 13.559-15.265zM121.742 427.994c7.68 0.095 14.222-6.353 14.507-14.222 0.284-8.059-5.784-14.222-14.033-14.222-8.344-0.095-14.507 5.879-14.507 13.843-0.095 7.87 6.353 14.507 14.033 14.601zM846.886 288.427c0-7.585-6.827-14.507-14.317-14.507-7.396 0-14.317 7.111-14.317 14.601 0 7.775 6.732 14.507 14.412 14.412 7.775-0.095 14.222-6.637 14.222-14.507zM691.674 909.464c0.095-8.818-6.163-15.265-14.601-15.17-7.68 0.095-14.033 6.827-13.938 14.886 0.095 7.775 6.921 14.222 14.791 14.033 7.585-0.19 13.748-6.258 13.748-13.748zM136.249 591.265c-0.19-7.68-7.111-14.412-14.696-14.222-7.68 0.19-14.127 7.206-13.938 14.886 0.284 7.87 6.921 14.317 14.696 14.127 7.87-0.19 14.127-6.732 13.938-14.791zM594.963 844.231c0-8.154-6.827-15.076-14.886-14.886-7.301 0.095-13.748 7.206-13.559 14.981s6.542 14.222 14.317 14.412c7.301 0.095 14.033-6.827 14.127-14.507zM638.104 884.053c-0.095-7.585-7.111-14.317-14.696-14.033-7.49 0.284-14.222 7.49-13.938 14.981 0.19 7.301 6.732 13.938 13.748 13.938 8.344 0 14.981-6.637 14.886-14.886zM405.144 898.844c7.111-0.19 13.464-6.827 13.653-14.127 0.095-7.964-7.206-15.076-15.17-14.696-7.301 0.379-13.464 6.827-13.559 14.127 0 8.249 6.732 14.886 15.076 14.696zM906.050 606.151c7.775 0.095 14.412-6.353 14.601-14.222 0.19-7.68-6.542-14.601-14.127-14.791s-14.412 6.637-14.507 14.317c-0.19 7.964 6.163 14.507 14.033 14.696zM365.037 909.179c0.19-7.87-6.163-14.696-13.748-14.886-8.344-0.19-14.981 6.353-14.981 14.696 0 7.87 6.163 14.127 14.317 14.317 7.68 0.19 14.222-6.258 14.412-14.127zM768.19 729.6c0-7.775-6.637-14.507-14.317-14.507-7.49-0.095-14.127 6.827-14.127 14.696 0 7.68 6.732 14.601 14.317 14.601 7.396 0.095 14.222-7.016 14.127-14.791zM344.841 745.339c0-7.87-6.827-14.696-14.317-14.507-7.87 0.19-14.412 6.827-14.412 14.507 0 7.775 6.637 14.507 14.317 14.507 7.87 0 14.507-6.637 14.412-14.507zM447.81 858.453c7.68 0 13.938-6.732 13.748-14.791-0.095-7.49-6.353-14.127-13.369-14.317-8.059-0.19-15.076 6.732-14.981 14.981 0 7.775 6.542 14.127 14.601 14.127zM808.012 901.31c0-8.154-5.973-14.127-14.222-14.412-7.396-0.19-14.222 6.827-14.222 14.601s6.542 14.317 14.412 14.317c7.68 0.19 14.033-6.447 14.033-14.507zM905.292 517.879c-7.68 0.569-13.748 7.49-13.274 15.36 0.474 8.059 7.016 13.653 15.265 13.179 8.059-0.474 13.843-7.016 13.369-15.076-0.569-7.68-7.87-14.033-15.36-13.464zM136.249 532.196c0-7.775-6.637-14.412-14.317-14.412s-14.317 6.637-14.317 14.412c0 7.964 6.163 14.127 14.317 14.127 8.154 0.095 14.317-5.973 14.317-14.127zM374.234 510.009c30.151 14.507 82.394 86.85 82.394 86.85h110.080l58.121-79.076-250.596-7.775z" />
</font>
</defs>
</svg>
