<?xml version="1.0" standalone="no"?>
<!DOCTYPE svg PUBLIC "-//W3C//DTD SVG 1.1//EN" "http://www.w3.org/Graphics/SVG/1.1/DTD/svg11.dtd" >
<svg xmlns="http://www.w3.org/2000/svg" xmlns:xlink="http://www.w3.org/1999/xlink" version="1.1">
<metadata>
Created by FontForge 20201107 at Wed Oct 27 17:11:08 2021
 By 
Copyright 2021 The Urbanist Project Authors (https://github.com/coreyhu/Urbanist)
</metadata>
<defs>
<font id="Urbanist-ThinItalic" horiz-adv-x="998" >
  <font-face 
    font-family="Urbanist Thin"
    font-weight="250"
    font-style="italic"
    font-stretch="normal"
    units-per-em="2000"
    panose-1="2 11 10 4 4 2 0 0 2 3"
    ascent="1600"
    descent="-400"
    x-height="1000"
    cap-height="1400"
    bbox="-312 -500 2633 1958"
    underline-thickness="50"
    underline-position="-125"
    unicode-range="U+000D-FFFD"
  />
<missing-glyph horiz-adv-x="1000" 
d="M100 -500v2400h800v-2400h-800zM200 -400h600v2200h-600v-2200z" />
    <glyph glyph-name=".notdef" horiz-adv-x="1000" 
d="M100 -500v2400h800v-2400h-800zM200 -400h600v2200h-600v-2200z" />
    <glyph glyph-name=".null" horiz-adv-x="1200" 
 />
    <glyph glyph-name=".null" horiz-adv-x="1200" 
 />
    <glyph glyph-name="nonmarkingreturn" unicode="&#xd;" horiz-adv-x="1200" 
 />
    <glyph glyph-name="nonmarkingreturn" unicode="&#xfeff;" horiz-adv-x="1200" 
 />
    <glyph glyph-name="space" unicode=" " horiz-adv-x="480" 
 />
    <glyph glyph-name="exclam" unicode="!" horiz-adv-x="290" 
d="M57 420l137 980h60l-137 -980h-60zM24 -26q-19 0 -30.5 13.5t-9.5 32.5q3 18 18.5 31t34.5 13q18 0 29 -13t8 -31q-2 -19 -17 -32.5t-33 -13.5z" />
    <glyph glyph-name="quotedbl" unicode="&#x22;" horiz-adv-x="466" 
d="M105 878l73 522h60l-73 -522h-60zM351 878l73 522h60l-73 -522h-60z" />
    <glyph glyph-name="numbersign" unicode="#" horiz-adv-x="1464" 
d="M1406 968h-228l-219 -534h230l-25 -58h-228l-154 -376h-60l154 376h-552l-154 -376h-60l154 376h-230l25 58h228l219 534h-230l24 58h230l152 374h60l-152 -374h552l152 374h60l-152 -374h228zM899 434l219 534h-552l-219 -534h552z" />
    <glyph glyph-name="dollar" unicode="$" horiz-adv-x="1158" 
d="M670 1358q-114 0 -217 -39.5t-172 -110.5t-83 -166q-15 -108 32.5 -167.5t140 -90.5t211.5 -54q126 -24 231 -70t163.5 -121.5t42.5 -188.5q-15 -111 -90 -193t-186 -129.5t-235 -53.5l-28 -198h-60l28 198q-104 4 -196 38.5t-154.5 95.5t-80.5 144l59 22
q17 -79 79.5 -132.5t150 -80.5t178.5 -27q113 0 216.5 39t174.5 110t84 167q14 98 -40 160.5t-147 99t-199 56.5q-135 26 -240 65.5t-158.5 112t-36.5 198.5q16 110 91 192.5t186.5 129.5t235.5 52l29 208h60l-29 -208q99 -4 189 -37.5t154.5 -94t85.5 -146.5l-61 -20
q-17 79 -80 132.5t-150.5 80.5t-178.5 27z" />
    <glyph glyph-name="percent" unicode="%" horiz-adv-x="1108" 
d="M16 0l1004 1400h70l-1004 -1400h-70zM300 900q-53 0 -93 26t-59.5 69.5t-12.5 96.5q8 53 40 97t79 70.5t100 26.5t93 -26.5t60 -70.5t12 -97q-7 -53 -39.5 -96.5t-79.5 -69.5t-100 -26zM309 960q56 0 99.5 39t50.5 93q8 56 -24.5 95t-88.5 39q-55 0 -99 -39t-52 -95
q-7 -54 26 -93t88 -39zM754 114q-53 0 -93.5 26.5t-60.5 70.5t-13 97q8 53 40.5 96.5t80 69.5t100.5 26t93 -26t60 -69.5t12 -96.5q-7 -53 -39.5 -97t-79.5 -70.5t-100 -26.5zM762 174q54 0 99 39.5t52 94.5q8 54 -26 93t-88 39q-55 0 -99.5 -39t-52.5 -93
q-7 -55 26.5 -94.5t88.5 -39.5z" />
    <glyph glyph-name="ampersand" unicode="&#x26;" horiz-adv-x="1406" 
d="M364 -26q-116 0 -195 55.5t-114.5 144.5t-22.5 188q9 66 30.5 113.5t65.5 96.5t121 116.5t198 173.5q-56 66 -91 108t-53 72t-22 60t2 72q10 69 52 126.5t103.5 91.5t129.5 34q69 0 121.5 -34t79 -91t16.5 -127q-6 -43 -20 -74.5t-41 -62t-73 -71.5t-118 -104l393 -458
l224 194l-12 -84l-178 -156l274 -316l-48 -42l-272 314q-122 -107 -199 -174t-130.5 -103t-103 -49.5t-117.5 -13.5zM372 34q61 0 105.5 13t93 47.5t120.5 98.5t187 167l-395 460q-119 -105 -192 -169t-113 -107.5t-58 -85t-26 -100.5q-12 -90 20.5 -163.5t99.5 -117
t158 -43.5zM495 904q91 79 138 121t66.5 72.5t25.5 76.5q11 80 -37 136t-128 56q-82 0 -144 -58.5t-73 -133.5q-7 -47 4 -78t46.5 -72.5t101.5 -119.5z" />
    <glyph glyph-name="quotesingle" unicode="'" horiz-adv-x="220" 
d="M105 878l73 522h60l-73 -522h-60z" />
    <glyph glyph-name="parenleft" unicode="(" horiz-adv-x="554" 
d="M280 -112q-86 89 -129 212.5t-50.5 263.5t11.5 280q12 86 34 172t54 168t75 157.5t97 141t120 117.5h60q-66 -64 -119 -130.5t-94 -138t-72.5 -148.5t-54.5 -161.5t-40 -177.5q-16 -158 -5.5 -292.5t52.5 -249.5t121 -214h-60z" />
    <glyph glyph-name="parenright" unicode=")" horiz-adv-x="554" 
d="M-14 -112q107 99 181.5 214t122.5 249.5t76 292.5q10 93 10.5 177.5t-9 161.5t-30.5 148.5t-55.5 138t-83.5 130.5h60q52 -52 87.5 -117.5t57.5 -141t31 -157.5t6.5 -168t-14.5 -172q-19 -140 -66 -280t-124.5 -263.5t-189.5 -212.5h-60z" />
    <glyph glyph-name="asterisk" unicode="*" horiz-adv-x="690" 
d="M209 866l-43 36l170 196l-219 76l25 56l222 -74l34 244h60l-34 -244l242 74l11 -56l-243 -76l116 -196l-55 -36l-114 198z" />
    <glyph glyph-name="plus" unicode="+" horiz-adv-x="1160" 
d="M466 100l66 470h-470l8 60h470l66 470h60l-66 -470h470l-8 -60h-470l-66 -470h-60z" />
    <glyph glyph-name="comma" unicode="," horiz-adv-x="322" 
d="M-34 -112l109 338h60l-129 -338h-40z" />
    <glyph glyph-name="hyphen" unicode="-" horiz-adv-x="880" 
d="M110 630h640l-8 -60h-640z" />
    <glyph glyph-name="period" unicode="." horiz-adv-x="290" 
d="M22 -26q-18 0 -29 13.5t-9 32.5q3 18 18 31t33 13q20 0 31 -13t8 -31q-2 -19 -17 -32.5t-35 -13.5z" />
    <glyph glyph-name="slash" unicode="/" horiz-adv-x="624" 
d="M642 1400l-616 -1512h-60l616 1512h60z" />
    <glyph glyph-name="zero" unicode="0" horiz-adv-x="1178" 
d="M488 -26q-128 0 -219 56.5t-144.5 156.5t-69.5 231.5t5 281.5q21 151 74 282.5t134.5 231t188.5 156t235 56.5t218 -56.5t143.5 -156t69.5 -231t-5 -282.5q-21 -150 -74 -281.5t-134.5 -231.5t-187.5 -156.5t-234 -56.5zM496 34q152 0 269 90.5t192.5 242t100.5 333.5
q27 191 -6.5 341.5t-126 237.5t-241.5 87q-118 0 -213.5 -53t-167.5 -145.5t-118 -213t-65 -254.5q-26 -184 7 -335t125 -241t244 -90z" />
    <glyph glyph-name="one" unicode="1" horiz-adv-x="430" 
d="M112 0l188 1340h-130l28 60h170l-196 -1400h-60z" />
    <glyph glyph-name="two" unicode="2" horiz-adv-x="1048" 
d="M-18 0l7 52q109 96 228.5 200.5t233.5 210.5t207.5 207t153.5 192t70 164q13 93 -21.5 170.5t-104 123.5t-162.5 46t-176.5 -46t-140 -123.5t-69.5 -170.5h-60q16 110 82 201t164 145t208 54q109 0 191.5 -54t123.5 -145t25 -201q-10 -74 -71 -170t-154.5 -203
t-203.5 -214.5t-220.5 -205t-204.5 -173.5h750l-8 -60h-848z" />
    <glyph glyph-name="three" unicode="3" horiz-adv-x="952" 
d="M374 -26q-129 0 -214.5 53.5t-123 143.5t-22.5 199h60q-13 -93 18 -169t104 -121.5t186 -45.5q92 0 179.5 45.5t149.5 121.5t75 169q16 112 -29 186.5t-134.5 112t-209.5 37.5l8 60q168 0 283 76.5t135 223.5q12 82 -24.5 150t-103.5 109t-149 41q-83 0 -162.5 -41
t-135 -109t-67.5 -150h-60q11 74 51 139.5t101 115t133.5 77.5t147.5 28q99 0 179 -49t122 -130.5t28 -180.5q-16 -120 -93 -206.5t-187 -121.5q87 -30 141.5 -83t76 -125t9.5 -160q-15 -109 -86.5 -199t-174 -143.5t-211.5 -53.5z" />
    <glyph glyph-name="four" unicode="4" horiz-adv-x="1040" 
d="M592 0l61 434h-610l9 64l716 902h80l-127 -906h170l-8 -60h-170l-61 -434h-60zM128 498l533 -4l110 808z" />
    <glyph glyph-name="five" unicode="5" horiz-adv-x="1074" 
d="M410 -26q-123 0 -215 59.5t-137 160t-28 222.5h60q-14 -105 25 -191.5t118 -138.5t185 -52q105 0 199 52t158.5 138.5t78.5 191.5q15 105 -24.5 192t-119 138.5t-184.5 51.5h-326l204 602h630l-8 -60h-582l-162 -482h212q143 0 244 -55t148 -154.5t28 -232.5
q-13 -91 -58.5 -171.5t-115.5 -141t-154.5 -95t-175.5 -34.5z" />
    <glyph glyph-name="six" unicode="6" horiz-adv-x="1060" 
d="M422 -26q-130 0 -228.5 64.5t-147.5 172.5t-31 239q11 83 37.5 133.5t72.5 120.5l497 696h70l-388 -542q101 56 202.5 65t191 -21.5t155 -94.5t97 -155t15.5 -202q-14 -98 -63 -184.5t-124 -152t-166.5 -102.5t-189.5 -37zM430 34q121 0 223 58.5t169.5 154t82.5 205.5
q16 114 -27 207.5t-129 149t-200 55.5q-118 0 -220 -57t-170 -151t-84 -204q-16 -118 27.5 -212.5t130 -150t197.5 -55.5z" />
    <glyph glyph-name="seven" unicode="7" horiz-adv-x="1046" 
d="M66 0l960 1340h-896l8 60h966l-8 -60l-962 -1340h-68z" />
    <glyph glyph-name="eight" unicode="8" horiz-adv-x="1024" 
d="M410 -26q-119 0 -209.5 53.5t-136 143.5t-30.5 199q17 125 107.5 224t213.5 144q-94 42 -147.5 130.5t-38.5 197.5q14 99 79 180.5t161.5 130.5t204.5 49t190.5 -49t124.5 -130.5t28 -180.5q-15 -109 -93 -197.5t-185 -130.5q113 -45 174.5 -144t44.5 -224
q-15 -109 -86.5 -199t-177 -143.5t-224.5 -53.5zM418 34q102 0 191.5 45.5t149.5 121.5t73 169t-25.5 169.5t-115 121.5t-178.5 45q-100 0 -189.5 -45t-150 -121.5t-73.5 -169.5t25.5 -169t115.5 -121.5t177 -45.5zM521 766q91 0 171 40.5t134 108.5t65 151q12 83 -22.5 151
t-103 108.5t-159.5 40.5t-171 -40.5t-134 -108.5t-66 -151q-11 -83 23.5 -151t103 -108.5t159.5 -40.5z" />
    <glyph glyph-name="nine" unicode="9" horiz-adv-x="1020" 
d="M302 0l422 588q-120 -66 -238.5 -64t-212.5 59.5t-143.5 158.5t-30.5 232q13 93 59.5 175t117 144t157 97.5t179.5 35.5q123 0 216.5 -61.5t140.5 -164t30 -226.5q-11 -78 -36.5 -125t-69.5 -115l-523 -734h-68zM491 582q112 0 209 54t161.5 143t78.5 193
q16 112 -25.5 201.5t-123.5 142t-187 52.5q-115 0 -211.5 -55t-160 -145.5t-78.5 -195.5q-15 -108 25.5 -196.5t122 -141t189.5 -52.5z" />
    <glyph glyph-name="colon" unicode=":" horiz-adv-x="290" 
d="M154 910q-18 0 -29.5 13.5t-8.5 32.5q2 18 17 31t33 13q20 0 31 -13t9 -31q-3 -19 -17.5 -32.5t-34.5 -13.5zM22 -26q-18 0 -29 13.5t-9 32.5q3 18 18 31t33 13q20 0 31 -13t8 -31q-2 -19 -17 -32.5t-35 -13.5z" />
    <glyph glyph-name="semicolon" unicode=";" horiz-adv-x="334" 
d="M-34 -112l109 338h60l-129 -338h-40zM200 910q-19 0 -31 13t-9 31q2 20 17.5 33t34.5 13q18 0 29 -13t9 -33q-3 -18 -17.5 -31t-32.5 -13z" />
    <glyph glyph-name="less" unicode="&#x3c;" horiz-adv-x="1160" 
d="M1019 268l-960 284l13 94l1041 286l-9 -64l-984 -268l908 -270z" />
    <glyph glyph-name="equal" unicode="=" horiz-adv-x="1160" 
d="M35 378l8 60h1000l-8 -60h-1000zM89 762l8 60h1000l-8 -60h-1000z" />
    <glyph glyph-name="greater" unicode="&#x3e;" horiz-adv-x="1160" 
d="M19 268l9 62l984 270l-908 268l9 64l959 -286l-13 -94z" />
    <glyph glyph-name="question" unicode="?" horiz-adv-x="922" 
d="M399 522q12 88 66.5 161.5t138.5 116.5q76 38 126.5 109.5t62.5 156.5q12 84 -19 152.5t-94 109t-146 40.5t-157 -40.5t-124 -109t-62 -152.5h-60q15 100 75 182t148.5 131t187.5 49q100 0 175.5 -49t113 -131t22.5 -182q-14 -102 -75.5 -187.5t-153.5 -132.5
q-67 -34 -111 -93.5t-54 -130.5h-60zM338 -26q-18 0 -29 14t-9 32q3 18 18 31t33 13q20 0 31 -13t8 -31q-2 -18 -17 -32t-35 -14z" />
    <glyph glyph-name="at" unicode="@" horiz-adv-x="1651" 
d="M709 -136q-154 0 -282.5 49.5t-218.5 140.5t-130.5 217t-18.5 280t99 289t194 237.5t260.5 160.5t297.5 58q156 0 283 -58t214.5 -161t126 -238t16.5 -288q-10 -71 -38.5 -145.5t-71 -137t-97 -101t-117.5 -38.5q-55 0 -100.5 26.5t-70 73t-16.5 105.5
q-55 -82 -138.5 -131.5t-188.5 -49.5q-109 0 -192 53.5t-123.5 144t-25.5 200.5q16 110 82 200t164 143.5t207 53.5q105 0 174.5 -49.5t100.5 -131.5l23 161h60l-85 -603q-7 -56 37 -96t100 -40q71 0 123.5 53.5t86.5 136.5t46 172q20 142 -16 266t-117 218t-197.5 147.5
t-258.5 53.5q-141 0 -272.5 -53t-239.5 -147t-179 -218t-91 -267q-20 -142 17.5 -257t120 -198t200.5 -127.5t260 -44.5zM721 213q94 0 167 52.5t119 134.5t58 169q11 82 -10 154.5t-79.5 118.5t-160.5 46q-94 0 -176.5 -45.5t-138.5 -121.5t-69 -170q-13 -95 22.5 -172
t106 -121.5t161.5 -44.5z" />
    <glyph glyph-name="A" unicode="A" horiz-adv-x="1272" 
d="M688 1400h92l314 -1400h-64l-77 340h-736l-171 -340h-64zM248 400h692l-213 950z" />
    <glyph glyph-name="B" unicode="B" horiz-adv-x="1070" 
d="M22 0l196 1400h444q96 0 169.5 -38.5t110.5 -114t21 -186.5q-10 -74 -48.5 -136.5t-85.5 -102.5t-86 -46q57 -17 99.5 -54t69 -88.5t36 -110.5t0.5 -121q-17 -125 -78.5 -215t-150 -138.5t-187.5 -48.5h-510zM90 60h450q83 0 157.5 44.5t126 122t64.5 175.5
q13 88 -16.5 165t-91 125t-144.5 48h-450zM194 800h384q119 0 213 67t112 194q20 143 -55 211t-194 68h-384z" />
    <glyph glyph-name="C" unicode="C" horiz-adv-x="1418" 
d="M666 -26q-142 0 -259 56.5t-197.5 156t-115.5 231t-14 282.5q21 150 93 281.5t180.5 231.5t241.5 156.5t275 56.5q170 0 301.5 -79t207.5 -211l-56 -28q-68 119 -191.5 188.5t-269.5 69.5q-132 0 -253.5 -53t-220.5 -145.5t-164 -213t-84 -254.5q-19 -138 12.5 -258.5
t105 -212.5t180 -143.5t236.5 -51.5q153 0 294.5 71t239.5 185l48 -28q-112 -132 -266 -210t-324 -78z" />
    <glyph glyph-name="D" unicode="D" horiz-adv-x="1342" 
d="M22 0l196 1400h462q146 0 265 -54.5t201.5 -151t119 -223t16.5 -271.5t-92 -271.5t-181.5 -223t-244 -151t-280.5 -54.5h-462zM90 60h402q134 0 257 49.5t223 137.5t165.5 204t84.5 249t-14.5 249t-109 204t-184.5 137.5t-242 49.5h-402z" />
    <glyph glyph-name="E" unicode="E" horiz-adv-x="1052" 
d="M22 0l196 1400h832l-8 -60h-772l-79 -560h656l-8 -60h-656l-93 -660h772l-8 -60h-832z" />
    <glyph glyph-name="F" unicode="F" horiz-adv-x="952" 
d="M22 0l196 1400h812l-8 -60h-752l-79 -560h656l-8 -60h-656l-101 -720h-60z" />
    <glyph glyph-name="G" unicode="G" horiz-adv-x="1536" 
d="M668 -26q-143 0 -260.5 56.5t-198 156.5t-115.5 231.5t-14 281.5t93 281.5t181 231.5t242 156.5t276 56.5q168 0 301 -78.5t209 -209.5l-59 -30q-73 123 -194.5 190.5t-264.5 67.5q-132 0 -254 -53t-221.5 -145.5t-164.5 -213t-84 -254.5q-19 -136 13 -256.5
t105.5 -212.5t180.5 -144.5t237 -52.5q118 0 228.5 43t204 118.5t161.5 175t101 211.5h-472l9 60h540q-28 -139 -102.5 -260t-181 -212.5t-234 -143.5t-262.5 -52z" />
    <glyph glyph-name="H" unicode="H" horiz-adv-x="1214" 
d="M1132 1400h60l-196 -1400h-60l101 720h-854l-101 -720h-60l196 1400h60l-87 -620h854z" />
    <glyph glyph-name="I" unicode="I" horiz-adv-x="360" 
d="M52 0l196 1400h60l-196 -1400h-60z" />
    <glyph glyph-name="J" unicode="J" horiz-adv-x="738" 
d="M162 -26q-61 0 -115.5 20t-97.5 62l45 46q35 -33 80 -50.5t96 -17.5q81 0 154 44.5t123 115.5t61 152l148 1054h60l-148 -1054q-13 -97 -73 -182t-147.5 -137.5t-185.5 -52.5z" />
    <glyph glyph-name="K" unicode="K" horiz-adv-x="984" 
d="M826 0h-76l-413 690l-185 -190l-70 -500h-60l196 1400h60l-113 -806l789 806h78l-649 -662z" />
    <glyph glyph-name="L" unicode="L" horiz-adv-x="970" 
d="M22 0l196 1400h60l-188 -1340h690l-8 -60h-750z" />
    <glyph glyph-name="M" unicode="M" horiz-adv-x="1692" 
d="M22 0l466 1400h26l271 -1132l587 1132h26l76 -1400h-62l-66 1228l-565 -1090h-30l-259 1090l-410 -1228h-60z" />
    <glyph glyph-name="N" unicode="N" horiz-adv-x="1218" 
d="M22 0l196 1400h66l671 -1292l181 1292h60l-196 -1400h-64l-673 1292l-181 -1292h-60z" />
    <glyph glyph-name="O" unicode="O" horiz-adv-x="1540" 
d="M668 -26q-142 0 -259.5 56.5t-198 156.5t-116 231.5t-14.5 281.5t93 281.5t181.5 231.5t242.5 156.5t275 56.5q143 0 260 -56.5t197.5 -156.5t116 -231.5t14.5 -281.5t-93 -281.5t-181.5 -231.5t-242 -156.5t-275.5 -56.5zM676 34q132 0 254 53t221 145t164.5 212.5
t84.5 255.5q19 137 -13 257.5t-105.5 212.5t-180 144t-237.5 52q-132 0 -254 -53t-221 -145t-164.5 -212.5t-84.5 -255.5q-19 -137 13 -257.5t105.5 -212.5t180.5 -144t237 -52z" />
    <glyph glyph-name="P" unicode="P" horiz-adv-x="1000" 
d="M22 0l196 1400h408q110 0 191.5 -52.5t121 -143t23.5 -204.5q-16 -115 -82 -205.5t-162.5 -142.5t-203.5 -52h-348l-84 -600h-60zM174 660h348q91 0 173 44t138 121t69 175q14 98 -20 175t-103.5 121t-160.5 44h-348z" />
    <glyph glyph-name="Q" unicode="Q" horiz-adv-x="1538" 
d="M1312 -10l-151 176q-106 -90 -232.5 -141t-260.5 -51q-143 0 -260.5 56.5t-198 156.5t-115.5 231.5t-14 281.5t93 281.5t181 231.5t242 156.5t276 56.5t259.5 -56.5t197 -156.5t115.5 -231.5t14 -281.5q-20 -142 -86 -268t-165 -224l153 -176zM676 34q116 0 234.5 46
t212.5 128l-230 268l48 44l230 -268q92 93 151 209t76 239q19 137 -13 257.5t-106 212.5t-180 144t-235 52q-132 0 -254 -53t-221.5 -145.5t-164.5 -213t-84 -254.5q-19 -137 13 -257.5t106 -212.5t180.5 -144t236.5 -52z" />
    <glyph glyph-name="R" unicode="R" horiz-adv-x="1040" 
d="M22 0l196 1400h428q110 0 191.5 -52.5t121 -143t23.5 -204.5q-15 -109 -75.5 -196t-149.5 -140.5t-189 -61.5l264 -602h-70l-264 600h-332l-84 -600h-60zM174 660h368q91 0 173 44t138 121t69 175q14 98 -20 175t-103.5 121t-160.5 44h-368z" />
    <glyph glyph-name="S" unicode="S" horiz-adv-x="1198" 
d="M496 -26q-109 0 -207 33.5t-166 95.5t-86 149l59 22q17 -79 79.5 -132.5t150 -80.5t178.5 -27q113 0 216.5 39t174.5 110t84 167q14 98 -40 160.5t-147 99t-199 56.5q-135 26 -240 65.5t-158.5 112t-36.5 198.5q16 115 96 199.5t198 130.5t247 46q104 0 201 -32
t167.5 -94.5t92.5 -153.5l-61 -20q-17 79 -80 132.5t-150.5 80.5t-178.5 27q-114 0 -217 -39.5t-172 -110.5t-83 -166q-15 -108 32.5 -167.5t140 -90.5t211.5 -54q126 -24 231 -70t163.5 -121.5t42.5 -188.5q-16 -115 -96.5 -199.5t-198.5 -130.5t-248 -46z" />
    <glyph glyph-name="T" unicode="T" horiz-adv-x="1258" 
d="M1276 1400l-8 -60h-520l-188 -1340h-60l188 1340h-518l8 60h1098z" />
    <glyph glyph-name="U" unicode="U" horiz-adv-x="1300" 
d="M548 -26q-168 0 -275 82t-150 220.5t-19 307.5l114 816h60l-114 -816q-21 -150 15.5 -275t130.5 -200t246 -75q154 0 269.5 76t186.5 201t92 273l114 816h60l-114 -816q-18 -127 -69 -237.5t-131 -194.5t-185 -131t-231 -47z" />
    <glyph glyph-name="V" unicode="V" horiz-adv-x="1118" 
d="M430 0l-312 1400h64l291 -1308l659 1308h64l-706 -1400h-60z" />
    <glyph glyph-name="W" unicode="W" horiz-adv-x="1552" 
d="M280 0l-162 1400h62l152 -1314l518 1314h48l152 -1314l518 1314h62l-552 -1400h-80l-145 1250l-495 -1250h-78z" />
    <glyph glyph-name="X" unicode="X" horiz-adv-x="1220" 
d="M-38 0l613 704l-411 696h74l380 -646l560 646h74l-603 -696l413 -704h-74l-385 652l-565 -652h-76z" />
    <glyph glyph-name="Y" unicode="Y" horiz-adv-x="1108" 
d="M1076 1400h70l-571 -764l-89 -636h-60l89 636l-357 764h70l326 -698z" />
    <glyph glyph-name="Z" unicode="Z" horiz-adv-x="1292" 
d="M-18 0l8 60l1234 1280h-1054l8 60h1132l-8 -60l-1234 -1280h1054l-8 -60h-1132z" />
    <glyph glyph-name="bracketleft" unicode="[" horiz-adv-x="460" 
d="M254 -52l-8 -60h-240l212 1512h240l-8 -60h-180l-196 -1392h180z" />
    <glyph glyph-name="backslash" unicode="\" horiz-adv-x="626" 
d="M372 -112l-194 1512h60l194 -1512h-60z" />
    <glyph glyph-name="bracketright" unicode="]" horiz-adv-x="460" 
d="M-14 -112l8 60h180l196 1392h-180l8 60h240l-212 -1512h-240z" />
    <glyph glyph-name="asciicircum" unicode="^" horiz-adv-x="652" 
d="M122 1000l328 650h20l144 -650h-64l-111 502l-255 -502h-62z" />
    <glyph glyph-name="underscore" unicode="_" horiz-adv-x="1240" 
d="M14 -52h1000l-8 -60h-1000z" />
    <glyph glyph-name="grave" unicode="`" horiz-adv-x="540" 
d="M298 1398h60l40 -288h-40z" />
    <glyph glyph-name="a" unicode="a" horiz-adv-x="1134" 
d="M1036 1000h60l-140 -1000h-60l33 234q-70 -117 -184.5 -188.5t-260.5 -71.5q-109 0 -198.5 41t-151.5 113.5t-89.5 167.5t-12.5 204q15 110 69.5 205.5t137 168t183.5 113.5t210 41q146 0 240 -71.5t132 -188.5zM492 34q129 0 228 63t161.5 169t80.5 234
q19 131 -14.5 237t-115 168.5t-208.5 62.5q-129 0 -243.5 -63t-192.5 -169.5t-96 -235.5q-18 -131 31 -236.5t146.5 -167.5t222.5 -62z" />
    <glyph glyph-name="b" unicode="b" horiz-adv-x="1175" 
d="M635 1028q145 0 254.5 -71t164 -191t33.5 -266q-15 -109 -69.5 -204t-137 -167.5t-183.5 -113.5t-210 -41q-145 0 -239 71.5t-132 188.5l-33 -234h-60l210 1500h60l-102 -732q70 117 184.5 188.5t259.5 71.5zM495 34q129 0 244 63t192.5 169t95.5 234q19 132 -30.5 238
t-147 168t-222.5 62q-129 0 -228 -63.5t-161.5 -170t-80.5 -234.5q-18 -130 15 -235.5t114.5 -168t208.5 -62.5z" />
    <glyph glyph-name="c" unicode="c" horiz-adv-x="1018" 
d="M837 212l48 -28q-81 -96 -193 -153t-234 -57q-138 0 -241.5 71t-154 190.5t-30.5 264.5q15 110 67.5 205.5t131.5 168t175.5 113.5t199.5 41q122 0 218.5 -57t150.5 -153l-56 -28q-52 86 -138.5 132t-182.5 46q-124 0 -232.5 -64t-182 -170.5t-91.5 -233.5
q-18 -129 26.5 -234.5t135.5 -168.5t212 -63q105 0 203.5 50t167.5 128z" />
    <glyph glyph-name="d" unicode="d" horiz-adv-x="1174" 
d="M1106 1500h60l-210 -1500h-60l33 234q-70 -117 -184.5 -188.5t-260.5 -71.5q-109 0 -198.5 41t-151.5 113.5t-89.5 167.5t-12.5 204q15 110 69.5 205.5t137 168t183.5 113.5t210 41q146 0 240 -71.5t132 -188.5zM492 34q129 0 228 63t161.5 169t80.5 234
q19 131 -14.5 237t-115 168.5t-208.5 62.5q-128 0 -243 -63t-193 -169.5t-96 -235.5q-18 -131 31 -236.5t146.5 -167.5t222.5 -62z" />
    <glyph glyph-name="e" unicode="e" horiz-adv-x="1118" 
d="M458 -26q-138 0 -241.5 71t-154 190.5t-30.5 264.5q15 110 67.5 205.5t131.5 168t175.5 113.5t199.5 41q107 0 191.5 -40t141 -114t79.5 -176.5t8 -227.5h-938q-7 -125 40 -223.5t135 -155.5t203 -57q128 0 240 68t188 188l58 -14q-79 -133 -211.5 -217.5t-282.5 -84.5z
M96 530h878q13 117 -33 217t-135.5 160.5t-207.5 60.5q-119 0 -224 -59t-179 -158.5t-99 -220.5z" />
    <glyph glyph-name="f" unicode="f" horiz-adv-x="620" 
d="M352 1300l-42 -300h322l-8 -60h-322l-132 -940h-60l132 940h-158l8 60h158l42 300q9 62 46.5 113t92.5 81t117 30q45 0 83 -17t66 -49l-48 -42q-19 23 -48 35.5t-62 12.5q-67 0 -122 -48t-65 -116z" />
    <glyph glyph-name="g" unicode="g" horiz-adv-x="1136" 
d="M998 1000h60l-147 -1050q-12 -87 -63 -167.5t-127 -144.5t-164.5 -101t-177.5 -37q-104 0 -193 50.5t-146.5 133.5t-66.5 180l59 26q5 -90 56.5 -165t131 -120t168.5 -45q77 0 154.5 32.5t143.5 87.5t110 125t55 145l39 282q-71 -115 -183 -186.5t-249 -71.5
q-103 0 -188 41t-143.5 113.5t-84 167.5t-10.5 204q15 110 67.5 205.5t131.5 168t175.5 113.5t199.5 41q137 0 228.5 -71t131.5 -187zM466 34q124 0 221.5 65t159.5 171t79 230q18 127 -14.5 233.5t-112 170.5t-201.5 64q-123 0 -232 -63t-182.5 -169.5t-91.5 -235.5
q-18 -130 27 -235.5t136 -168t211 -62.5z" />
    <glyph glyph-name="h" unicode="h" horiz-adv-x="1039" 
d="M946 609l-85 -609h-60l85 609q14 100 -23 181t-111.5 129.5t-173.5 48.5t-187.5 -48.5t-148.5 -129.5t-74 -181l-85 -609h-60l210 1500h60l-94 -675q68 92 170.5 147.5t216.5 55.5q116 0 203 -56.5t130.5 -151.5t26.5 -211z" />
    <glyph glyph-name="i" unicode="i" horiz-adv-x="300" 
d="M162 1000h60l-140 -1000h-60zM223 1210q-19 0 -31 12.5t-9 31.5q3 20 18 32t34 12q18 0 29.5 -12t8.5 -31q-3 -20 -17.5 -32.5t-32.5 -12.5z" />
    <glyph glyph-name="j" unicode="j" horiz-adv-x="406" 
d="M-249 -500l9 60q88 0 162.5 38.5t123.5 104.5t61 149l161 1148h60l-161 -1148q-14 -98 -72.5 -178t-148 -127t-195.5 -47zM329 1210q-19 0 -31 12.5t-9 31.5q3 20 18 32t34 12q18 0 29.5 -12t8.5 -31q-3 -20 -17.5 -32.5t-32.5 -12.5z" />
    <glyph glyph-name="k" unicode="k" horiz-adv-x="915" 
d="M717 0h-68l-243 552l-287 -294l-36 -258h-60l210 1500h60l-161 -1148l635 648h78l-392 -398z" />
    <glyph glyph-name="l" unicode="l" horiz-adv-x="301" 
d="M23 0l210 1500h60l-210 -1500h-60z" />
    <glyph glyph-name="m" unicode="m" horiz-adv-x="1777" 
d="M22 0l140 1000h60l-24 -175q68 92 170.5 147.5t216.5 55.5q120 0 210 -61t129 -160q67 99 173.5 160t226.5 61q116 0 203 -56.5t130.5 -151.5t26.5 -211l-85 -609h-60l85 605q14 97 -21.5 179.5t-107.5 133t-169 50.5q-96 0 -182 -46.5t-144.5 -128t-73.5 -188.5
l-85 -605h-60l85 605q15 107 -21 188.5t-108.5 128t-169.5 46.5q-96 0 -182.5 -50.5t-145 -133t-72.5 -179.5l-85 -605h-60z" />
    <glyph glyph-name="n" unicode="n" horiz-adv-x="1038" 
d="M945 609l-85 -609h-60l85 609q14 100 -23 181t-111.5 129.5t-173.5 48.5t-187.5 -48.5t-148.5 -129.5t-74 -181l-85 -609h-60l140 1000h60l-24 -175q68 92 170.5 147.5t216.5 55.5q116 0 203 -56.5t130.5 -151.5t26.5 -211z" />
    <glyph glyph-name="o" unicode="o" horiz-adv-x="1120" 
d="M458 -26q-138 0 -241.5 71t-154 190.5t-30.5 264.5q15 110 67.5 205.5t131.5 168t175.5 113.5t199.5 41q138 0 241.5 -71t154.5 -191t30 -266q-15 -109 -67.5 -204t-131.5 -167.5t-175 -113.5t-200 -41zM466 34q124 0 233 64.5t182.5 170.5t90.5 231q18 126 -25.5 232.5
t-134 171t-214.5 64.5q-125 0 -234 -64.5t-181.5 -171t-90.5 -232.5q-18 -130 27 -235.5t136 -168t211 -62.5z" />
    <glyph glyph-name="p" unicode="p" horiz-adv-x="1174" 
d="M11 -500h-60l211 1500h60l-33 -234q71 117 185.5 188.5t259.5 71.5q109 0 198.5 -41t151.5 -113.5t89.5 -167.5t12.5 -204t-69.5 -205t-137 -168.5t-183.5 -113.5t-210 -41q-145 0 -239.5 71.5t-132.5 188.5zM625 966q-127 0 -226 -62.5t-162 -168t-81 -235.5
q-18 -128 14.5 -234.5t113.5 -170t210 -63.5q125 0 240 62t194.5 168t97.5 238q18 128 -30 234t-145 169t-226 63z" />
    <glyph glyph-name="q" unicode="q" horiz-adv-x="1174" 
d="M484 -28q-145 0 -254.5 71t-163.5 191t-34 266q15 109 69.5 204t137 167.5t183.5 113.5t210 41q146 0 240 -71.5t131 -188.5l33 234h60l-211 -1500h-60l103 732q-70 -117 -184 -188.5t-260 -71.5zM623 966q-129 0 -243.5 -63t-192 -169t-95.5 -234q-18 -132 31 -238
t146.5 -168t222.5 -62q129 0 228 63.5t161.5 170t80.5 234.5q18 130 -15.5 235.5t-115 168t-208.5 62.5z" />
    <glyph glyph-name="r" unicode="r" horiz-adv-x="672" 
d="M22 0l140 1000h60l-24 -175q68 92 170.5 147.5t216.5 55.5q59 0 111 -15l-34 -56q-42 11 -85 11q-99 0 -187.5 -48.5t-148.5 -129.5t-74 -181l-85 -609h-60z" />
    <glyph glyph-name="s" unicode="s" horiz-adv-x="852" 
d="M339 -20q-86 0 -163.5 29t-130.5 78t-66 109l60 24q11 -54 61 -94.5t117 -63t130 -22.5q78 0 150 27.5t121 76.5t58 114q10 68 -28.5 107.5t-103 64.5t-135.5 48q-110 36 -186 68t-111 79.5t-24 130.5q12 85 71.5 147.5t146.5 96.5t181 34q125 0 217.5 -55.5
t116.5 -142.5l-56 -30q-13 53 -57.5 90.5t-105 57.5t-123.5 20q-79 0 -151 -26.5t-121 -75.5t-59 -116q-10 -69 20.5 -105.5t94.5 -59.5t154 -53t167 -63t120.5 -83.5t31.5 -133.5q-12 -85 -71.5 -147.5t-146 -96.5t-179.5 -34z" />
    <glyph glyph-name="t" unicode="t" horiz-adv-x="670" 
d="M646 940h-274l-134 -940h-60l134 940h-206l8 60h206l42 314h60l-42 -314h274z" />
    <glyph glyph-name="u" unicode="u" 
d="M37 393l85 607h60l-85 -607q-14 -99 23 -180.5t111.5 -130t173.5 -48.5t187.5 48.5t148.5 130t74 180.5l85 607h60l-140 -1000h-60l24 177q-67 -91 -170 -147t-217 -56q-116 0 -203 56.5t-130 151.5t-27 211z" />
    <glyph glyph-name="v" unicode="v" horiz-adv-x="924" 
d="M400 0h-72l-225 1004h64l207 -930l469 930h64z" />
    <glyph glyph-name="w" unicode="w" horiz-adv-x="1564" 
d="M366 0h-68l-196 1000h58l184 -928l442 928h76l182 -928l442 928h60l-476 -1000h-70l-186 940z" />
    <glyph glyph-name="x" unicode="x" horiz-adv-x="966" 
d="M-18 0l436 502l-295 502h74l266 -450l392 450h74l-437 -502l296 -502h-74l-265 452l-393 -452h-74z" />
    <glyph glyph-name="y" unicode="y" horiz-adv-x="946" 
d="M846 1000h62l-757 -1500h-64l253 500l-218 1000h66l193 -916z" />
    <glyph glyph-name="z" unicode="z" horiz-adv-x="1014" 
d="M968 940l-898 -880h774l-8 -60h-854l8 60l898 880h-774l8 60h854z" />
    <glyph glyph-name="braceleft" unicode="{" horiz-adv-x="790" 
d="M528 -114q-97 0 -170 47.5t-108.5 127t-22.5 175.5l34 246q3 38 -20.5 56t-55.5 30t-54.5 27.5t-18.5 46.5q5 35 32.5 51t62.5 27t64 29t36 55l34 246q14 96 72 175.5t144 127t183 47.5h48l-8 -60h-48q-79 0 -150.5 -39t-120 -105t-60.5 -146l-35 -248
q-8 -43 -22.5 -65.5t-46.5 -42t-93 -52.5q53 -34 80 -53t34.5 -40.5t3.5 -64.5l-35 -248q-11 -80 18.5 -146t90 -105t140.5 -39h48l-8 -60h-48z" />
    <glyph glyph-name="bar" unicode="|" horiz-adv-x="340" 
d="M238 1400h60l-239 -1702h-60z" />
    <glyph glyph-name="braceright" unicode="}" horiz-adv-x="790" 
d="M-14 -114l8 60h48q80 0 151.5 39t120 105t59.5 146l35 248q8 43 21.5 64.5t45.5 40.5t95 53q-51 33 -78 52.5t-35.5 42t-4.5 65.5l35 248q12 80 -18.5 146t-91 105t-139.5 39h-48l8 60h48q97 0 170 -47.5t109 -127t22 -175.5l-34 -246q-3 -37 21 -55t55.5 -29t54.5 -27
t18 -51q-4 -31 -31.5 -46.5t-63 -27.5t-64 -30t-36.5 -56l-34 -246q-13 -96 -71.5 -175.5t-144.5 -127t-183 -47.5h-48z" />
    <glyph glyph-name="asciitilde" unicode="~" horiz-adv-x="1161" 
d="M811 443q-61 0 -128.5 38.5t-134.5 88.5t-128.5 88t-111.5 37q-54 1 -100 -29t-72 -79.5t-20 -105.5l-60 -14q-11 69 23.5 135.5t98.5 110.5t141 44q58 0 122 -38t130 -88t130 -88t121 -38q55 0 102 30t73 77.5t18 100.5l60 18q13 -75 -24 -140.5t-102 -106.5t-138 -41z
" />
    <glyph glyph-name="uni00A0" unicode="&#xa0;" horiz-adv-x="480" 
 />
    <glyph glyph-name="exclamdown" unicode="&#xa1;" horiz-adv-x="250" 
d="M170 1026q20 0 31 -13t8 -33q-2 -18 -17 -31t-35 -13q-18 0 -29 13t-9 31q3 20 18 33t33 13zM137 580l-138 -980h-60l138 980h60z" />
    <glyph glyph-name="cent" unicode="&#xa2;" horiz-adv-x="1092" 
d="M450 0l28 200q-130 9 -226.5 78.5t-143 180t-28.5 243.5q19 133 97 243t193.5 179t248.5 78l27 198h60l-27 -198q126 -6 223.5 -71t146.5 -169l-56 -30q-45 96 -140.5 154t-208.5 58q-121 0 -229.5 -59.5t-182.5 -160t-92 -222.5q-17 -125 29.5 -225.5t139 -159.5
t211.5 -59q113 0 224.5 58t183.5 154l47 -30q-77 -103 -193 -168.5t-244 -71.5l-28 -200h-60z" />
    <glyph glyph-name="sterling" unicode="&#xa3;" horiz-adv-x="1134" 
d="M6 0l8 60q63 0 121.5 17t106 49t78.5 76t38 98q12 84 -5 137t-49.5 90.5t-70.5 70.5t-70.5 75t-47.5 105.5t-1 161.5q14 101 64 189t126.5 154.5t170 104.5t193.5 38q101 0 184 -38t141 -104.5t83.5 -154.5t11.5 -189h-60q17 117 -27.5 213.5t-133.5 154.5t-207 58
q-117 0 -222 -58t-176 -154.5t-88 -213.5q-14 -97 2 -156.5t48.5 -97.5t71 -69t71 -68.5t48.5 -95.5t3 -153q-7 -54 -41 -102t-80 -84t-93 -54h760l-8 -60h-950zM69 452l9 60h736l-9 -60h-736z" />
    <glyph glyph-name="currency" unicode="&#xa4;" horiz-adv-x="950" 
d="M66 304l-36 42l137 122q-46 67 -52.5 149t24 164t95.5 149l-104 124l48 42l106 -124q73 55 158 74t165.5 1t137.5 -73l139 122l36 -42l-137 -122q48 -67 55 -150t-23 -166t-96 -150l101 -120l-48 -42l-103 120q-76 -58 -161 -77t-165 1t-140 78zM434 398q82 0 155.5 40.5
t124 108.5t62.5 151t-18.5 150.5t-93 107.5t-146.5 40q-83 0 -156.5 -40t-122.5 -107.5t-61 -150.5q-12 -85 20 -153t94.5 -107.5t141.5 -39.5z" />
    <glyph glyph-name="yen" unicode="&#xa5;" horiz-adv-x="1148" 
d="M446 0l32 227h-334l8 60h334l29 206h-334l8 60h334l12 83l-357 764h70l326 -698l522 698h70l-571 -764l-12 -83h334l-8 -60h-334l-29 -206h334l-8 -60h-334l-32 -227h-60z" />
    <glyph glyph-name="brokenbar" unicode="&#xa6;" horiz-adv-x="300" 
d="M85 448h60l-106 -750h-60zM218 1400h60l-105 -750h-60z" />
    <glyph glyph-name="section" unicode="&#xa7;" horiz-adv-x="1056" 
d="M388 -424q-124 0 -217 55.5t-117 142.5l56 30q14 -53 58 -90.5t104.5 -57.5t123.5 -20q79 0 151 26.5t121.5 75.5t58.5 116q10 69 -19.5 109t-93 64t-156.5 45q-125 29 -213.5 82t-129 137t-23.5 207q13 92 65.5 173.5t134 139t178.5 77.5q-148 20 -210.5 83t-46.5 175
q12 85 71.5 147.5t146.5 96.5t181 34q125 0 217.5 -55.5t116.5 -142.5l-56 -30q-13 53 -57.5 90.5t-105.5 57.5t-124 20q-79 0 -151 -26.5t-120.5 -75.5t-58.5 -116q-10 -69 19 -108.5t92.5 -63.5t157.5 -46q127 -30 215 -82t128.5 -136.5t22.5 -211.5q-13 -92 -67 -173.5
t-135 -138.5t-177 -76q147 -19 210.5 -82t47.5 -174q-12 -85 -71.5 -147.5t-146.5 -96.5t-181 -34zM452 156q96 0 181.5 45.5t143 122t70.5 168.5q16 111 -25 189.5t-115 120.5t-159 42q-96 0 -181.5 -45t-143 -123.5t-71.5 -177.5q-14 -97 26 -174.5t113.5 -122.5
t160.5 -45z" />
    <glyph glyph-name="dieresis" unicode="&#xa8;" horiz-adv-x="1146" 
d="M503 1089q-19 0 -32 12.5t-10 31.5q2 18 18.5 32t35.5 14q18 0 30 -14t10 -32q-3 -19 -18.5 -31.5t-33.5 -12.5zM755 1089q-19 0 -32 12.5t-10 31.5q2 18 18.5 32t35.5 14q18 0 30 -14t10 -32q-3 -19 -18.5 -31.5t-33.5 -12.5z" />
    <glyph glyph-name="copyright" unicode="&#xa9;" horiz-adv-x="1724" 
d="M744 -138q-162 0 -295 60.5t-225.5 168.5t-133.5 249.5t-18 303.5t103.5 303.5t203 249.5t273 168.5t312.5 60.5t295 -60.5t225.5 -168.5t133.5 -249.5t18 -303.5t-103.5 -303.5t-203 -249.5t-273 -168.5t-312.5 -60.5zM753 -78q152 0 291 57t251.5 157t186 230.5
t94.5 277.5q21 151 -17.5 282.5t-124.5 231t-208.5 155t-269.5 53.5q-150 -1 -288.5 -58t-252 -156t-188 -229t-95.5 -279q-21 -152 17.5 -283.5t124.5 -230t209 -153.5t270 -55zM1151 356l48 -28q-81 -96 -193 -153t-234 -57q-138 0 -241.5 71t-154 190.5t-30.5 264.5
q15 110 67.5 205.5t131.5 168t175.5 113.5t199.5 41q122 0 218.5 -57t150.5 -153l-56 -28q-52 86 -138.5 132t-182.5 46q-124 0 -232.5 -64t-182 -170.5t-91.5 -233.5q-18 -129 26.5 -234.5t135.5 -168.5t212 -63q105 0 203.5 50t167.5 128z" />
    <glyph glyph-name="ordfeminine" unicode="&#xaa;" horiz-adv-x="1134" 
d="M1036 1000h60l-140 -1000h-60l33 234q-70 -117 -184.5 -188.5t-260.5 -71.5q-109 0 -198.5 41t-151.5 113.5t-89.5 167.5t-12.5 204q15 110 69.5 205.5t137 168t183.5 113.5t210 41q146 0 240 -71.5t132 -188.5zM492 34q129 0 228 63t161.5 169t80.5 234
q19 131 -14.5 237t-115 168.5t-208.5 62.5q-129 0 -243.5 -63t-192.5 -169.5t-96 -235.5q-18 -131 31 -236.5t146.5 -167.5t222.5 -62z" />
    <glyph glyph-name="guillemotleft" unicode="&#xab;" horiz-adv-x="900" 
d="M358 261l-252 340l348 338h80l-348 -338l252 -340h-80zM658 261l-252 340l348 338h80l-348 -338l252 -340h-80z" />
    <glyph glyph-name="logicalnot" unicode="&#xac;" horiz-adv-x="934" 
d="M743 335l66 470h-714l8 60h774l-74 -530h-60z" />
    <glyph glyph-name="uni00AD" unicode="&#xad;" horiz-adv-x="920" 
d="M150 630h640l-8 -60h-640z" />
    <glyph glyph-name="registered" unicode="&#xae;" horiz-adv-x="896" 
d="M422 512q-82 1 -148 32t-111.5 85t-65.5 123.5t-9 147.5q11 79 51 149t101 124t135.5 84.5t155.5 30.5q83 0 149 -31.5t111 -86t64.5 -124t8.5 -146.5q-11 -78 -50.5 -147.5t-100.5 -123.5t-135.5 -85t-155.5 -32zM430 572q90 0 171 44.5t136 119t67 164.5
q13 90 -21.5 164.5t-102.5 119t-158 44.5t-171 -44.5t-135.5 -119t-67.5 -164.5q-12 -90 22 -164.5t102 -119t158 -44.5zM340 714l53 380h138q44 0 70 -31.5t19 -78.5q-5 -39 -32.5 -68.5t-64.5 -37.5l73 -164h-70l-71 162h-32l-23 -162h-60zM431 936h78q18 0 33 14.5
t18 33.5q3 21 -8 35.5t-29 14.5h-78z" />
    <glyph glyph-name="macron" unicode="&#xaf;" horiz-adv-x="1200" 
d="M339 1250h676l-8 -60h-676z" />
    <glyph glyph-name="degree" unicode="&#xb0;" horiz-adv-x="544" 
d="M298 888q-53 0 -92.5 26t-59.5 69.5t-13 96.5q8 53 40 96.5t79 69.5t100 26t93 -26t60 -69.5t12 -96.5q-7 -53 -39 -96.5t-79.5 -69.5t-100.5 -26zM307 948q56 0 99.5 38.5t50.5 93.5q8 56 -24.5 94t-88.5 38q-55 0 -99 -38t-52 -94q-7 -55 26 -93.5t88 -38.5z" />
    <glyph glyph-name="plusminus" unicode="&#xb1;" horiz-adv-x="1160" 
d="M494 300l66 470h-470l8 60h470l66 470h60l-66 -470h470l-8 -60h-470l-66 -470h-60zM-18 0l8 60h1000l-8 -60h-1000z" />
    <glyph glyph-name="uni00B2" unicode="&#xb2;" horiz-adv-x="670" 
d="M113 818l10 74q40 24 105.5 68.5t133.5 98.5t116.5 108t54.5 97q8 59 -28 95.5t-95 36.5t-107 -36.5t-56 -95.5h-72q9 59 44.5 105t88 72.5t112.5 26.5q89 0 143.5 -57.5t41.5 -146.5q-6 -45 -43.5 -97t-92 -103.5t-114 -96.5t-110.5 -77h308l-10 -72h-430z" />
    <glyph glyph-name="uni00B3" unicode="&#xb3;" horiz-adv-x="540" 
d="M285 798q-82 0 -133 52.5t-40 135.5h72q-7 -52 25 -84t86 -32q53 0 93.5 32t47.5 84q8 59 -30 93t-115 34l10 72q68 0 110.5 28t49.5 82q6 45 -23 72t-74 27t-81.5 -27t-42.5 -72h-72q11 76 71 123.5t135 47.5q76 0 123 -47.5t36 -123.5q-7 -46 -34.5 -88t-58.5 -56
q41 -34 59 -69t9 -96q-11 -83 -76.5 -135.5t-146.5 -52.5z" />
    <glyph glyph-name="acute" unicode="&#xb4;" horiz-adv-x="540" 
d="M258 1110l120 288h60l-140 -288h-40z" />
    <glyph glyph-name="uni00B5" unicode="&#xb5;" 
d="M-79 -432l201 1432h60l-77 -548q-16 -115 19.5 -210t109 -151.5t172.5 -56.5q98 0 187.5 56.5t151.5 151.5t78 210l77 548h60l-140 -1000h-60l29 206q-77 -109 -178.5 -170.5t-212.5 -61.5q-118 0 -203 65.5t-124 168.5l-90 -640h-60z" />
    <glyph glyph-name="paragraph" unicode="&#xb6;" horiz-adv-x="702" 
d="M279 -302l144 1020q-94 0 -165 46t-106 123t-22 171q14 94 70.5 171.5t140 124t177.5 46.5h60l-239 -1702h-60zM421 -302l239 1702h60l-239 -1702h-60z" />
    <glyph glyph-name="periodcentered" unicode="&#xb7;" horiz-adv-x="250" 
d="M104 555q-18 0 -29.5 13.5t-8.5 32.5q2 18 17 31t33 13q20 0 31 -13t9 -31q-3 -19 -17.5 -32.5t-34.5 -13.5z" />
    <glyph glyph-name="cedilla" unicode="&#xb8;" horiz-adv-x="1174" 
d="M427 -360q-59 -16 -106.5 14t-55.5 88l60 15q5 -33 32.5 -50.5t62.5 -8.5t57 39t17 64q-4 34 -32 51.5t-63 8.5l-73 -19l136 188l48 -30l-56 -78q39 -7 67 -35t33 -70q8 -58 -29.5 -110t-97.5 -67z" />
    <glyph glyph-name="uni00B9" unicode="&#xb9;" horiz-adv-x="401" 
d="M202 818l78 559h-89l20 72h151l-88 -631h-72z" />
    <glyph glyph-name="ordmasculine" unicode="&#xba;" horiz-adv-x="1120" 
d="M458 -26q-138 0 -241.5 71t-154 190.5t-30.5 264.5q15 110 67.5 205.5t131.5 168t175.5 113.5t199.5 41q138 0 241.5 -71t154.5 -191t30 -266q-15 -109 -67.5 -204t-131.5 -167.5t-175 -113.5t-200 -41zM466 34q124 0 233 64.5t182.5 170.5t90.5 231q18 126 -25.5 232.5
t-134 171t-214.5 64.5q-125 0 -234 -64.5t-181.5 -171t-90.5 -232.5q-18 -130 27 -235.5t136 -168t211 -62.5z" />
    <glyph glyph-name="guillemotright" unicode="&#xbb;" horiz-adv-x="920" 
d="M338 261l348 340l-252 338h80l252 -338l-348 -340h-80zM38 261l348 340l-252 338h80l252 -338l-348 -340h-80z" />
    <glyph glyph-name="onequarter" unicode="&#xbc;" horiz-adv-x="1525" 
d="M202 818l78 559h-89l20 72h151l-88 -631h-72zM89 0l1004 1400h70l-1004 -1400h-70zM1132 0l19 139h-283l12 87l314 405h98l-59 -420h79l-10 -72h-79l-19 -139h-72zM955 211h206l46 324z" />
    <glyph glyph-name="onehalf" unicode="&#xbd;" horiz-adv-x="1521" 
d="M202 818l78 559h-89l20 72h151l-88 -631h-72zM89 0l1004 1400h70l-1004 -1400h-70zM849 0l10 74q40 24 105.5 68.5t133.5 98.5t116.5 108t54.5 97q9 60 -27.5 96t-95.5 36t-106.5 -36t-56.5 -96h-72q9 59 44.5 105t88 72.5t112.5 26.5q59 0 104 -26.5t67.5 -72.5
t13.5 -105q-6 -45 -43.5 -97t-92 -103.5t-114 -96.5t-110.5 -77h308l-10 -72h-430z" />
    <glyph glyph-name="threequarters" unicode="&#xbe;" horiz-adv-x="1664" 
d="M285 798q-82 0 -133 52.5t-40 135.5h72q-7 -52 25 -84t86 -32q53 0 93.5 32t47.5 84q8 59 -30 93t-115 34l10 72q68 0 110.5 28t49.5 82q6 45 -23 72t-74 27t-81.5 -27t-42.5 -72h-72q11 76 71 123.5t135 47.5q76 0 123 -47.5t36 -123.5q-7 -46 -34.5 -88t-58.5 -56
q41 -34 59 -69t9 -96q-11 -83 -76.5 -135.5t-146.5 -52.5zM228 0l1004 1400h70l-1004 -1400h-70zM1271 0l19 139h-283l12 87l314 405h98l-59 -420h79l-10 -72h-79l-19 -139h-72zM1094 211h206l46 324z" />
    <glyph glyph-name="questiondown" unicode="&#xbf;" horiz-adv-x="884" 
d="M283 -428q-100 0 -175 49t-112.5 131t-23.5 182q14 102 76 188.5t153 131.5q68 34 112 94t54 132h60q-12 -86 -66.5 -160t-138.5 -118q-76 -39 -127 -110.5t-63 -157.5q-11 -83 20 -151.5t94 -109.5t146 -41t157.5 41t125 109.5t61.5 151.5h60q-14 -100 -74.5 -182
t-149.5 -131t-189 -49zM475 936q-19 0 -30.5 13t-9.5 31q3 20 18.5 33t34.5 13q18 0 29 -13t8 -33q-2 -18 -17 -31t-33 -13z" />
    <glyph glyph-name="Agrave" unicode="&#xc0;" horiz-adv-x="1272" 
d="M688 1400h92l314 -1400h-64l-77 340h-736l-171 -340h-64zM248 400h692l-213 950zM650 1798h60l40 -288h-40z" />
    <glyph glyph-name="Aacute" unicode="&#xc1;" horiz-adv-x="1272" 
d="M688 1400h92l314 -1400h-64l-77 340h-736l-171 -340h-64zM248 400h692l-213 950zM740 1510l120 288h60l-140 -288h-40z" />
    <glyph glyph-name="Acircumflex" unicode="&#xc2;" horiz-adv-x="1272" 
d="M688 1400h92l314 -1400h-64l-77 340h-736l-171 -340h-64zM248 400h692l-213 950zM821 1798l152 -288h-40l-154 210l-209 -210h-40l231 288h60z" />
    <glyph glyph-name="Atilde" unicode="&#xc3;" horiz-adv-x="1272" 
d="M688 1400h92l314 -1400h-64l-77 340h-736l-171 -340h-64zM248 400h692l-213 950zM910 1551q-37 0 -75 22t-76 51t-74.5 51t-71.5 22q-36 0 -64.5 -32t-24.5 -74l-60 -16q-8 41 13 83t61.5 70.5t88.5 28.5q38 0 79 -22t81 -51t78 -51t70 -22q24 0 44 20t31.5 45t7.5 41
l58 18q8 -43 -13.5 -85.5t-62.5 -70.5t-90 -28z" />
    <glyph glyph-name="Adieresis" unicode="&#xc4;" horiz-adv-x="1272" 
d="M688 1400h92l314 -1400h-64l-77 340h-736l-171 -340h-64zM248 400h692l-213 950zM622 1489q-19 0 -32 12.5t-10 31.5q2 18 18.5 32t35.5 14q18 0 30 -14t10 -32q-3 -19 -18.5 -31.5t-33.5 -12.5zM874 1489q-19 0 -32 12.5t-10 31.5q2 18 18.5 32t35.5 14q18 0 30 -14
t10 -32q-3 -19 -18.5 -31.5t-33.5 -12.5z" />
    <glyph glyph-name="Aring" unicode="&#xc5;" horiz-adv-x="1272" 
d="M688 1400h92l314 -1400h-64l-77 340h-736l-171 -340h-64zM248 400h692l-213 950zM750 1515q-57 0 -91.5 41.5t-26.5 98.5q5 37 28 68.5t57 50.5t72 19q57 0 92 -41t27 -97q-8 -58 -54.5 -99t-103.5 -41zM757 1563q38 0 68 26.5t35 65.5q5 36 -17.5 62t-60.5 26
q-37 0 -67 -26t-35 -62q-5 -39 17.5 -65.5t59.5 -26.5z" />
    <glyph glyph-name="AE" unicode="&#xc6;" horiz-adv-x="1574" 
d="M-18 0l706 1400h884l-8 -60h-632l-86 -610h536l-8 -60h-536l-86 -610h632l-8 -60h-692l47 340h-514l-171 -340h-64zM248 400h492l132 940h-148z" />
    <glyph glyph-name="Ccedilla" unicode="&#xc7;" horiz-adv-x="1418" 
d="M666 -26q-142 0 -259 56.5t-197.5 156t-115.5 231t-14 282.5q21 150 93 281.5t180.5 231.5t241.5 156.5t275 56.5q170 0 301.5 -79t207.5 -211l-56 -28q-68 119 -191.5 188.5t-269.5 69.5q-132 0 -253.5 -53t-220.5 -145.5t-164 -213t-84 -254.5q-19 -138 12.5 -258.5
t105 -212.5t180 -143.5t236.5 -51.5q153 0 294.5 71t239.5 185l48 -28q-112 -132 -266 -210t-324 -78zM617 -360q-59 -16 -106.5 14t-55.5 88l60 15q5 -33 32.5 -50.5t62.5 -8.5t57 39t17 64q-4 34 -32 51.5t-63 8.5l-73 -19l136 188l48 -30l-56 -78q39 -7 67 -35t33 -70
q8 -58 -29.5 -110t-97.5 -67z" />
    <glyph glyph-name="Egrave" unicode="&#xc8;" horiz-adv-x="1052" 
d="M22 0l196 1400h832l-8 -60h-772l-79 -560h656l-8 -60h-656l-93 -660h772l-8 -60h-832zM540 1798h60l40 -288h-40z" />
    <glyph glyph-name="Eacute" unicode="&#xc9;" horiz-adv-x="1052" 
d="M22 0l196 1400h832l-8 -60h-772l-79 -560h656l-8 -60h-656l-93 -660h772l-8 -60h-832zM630 1510l120 288h60l-140 -288h-40z" />
    <glyph glyph-name="Ecircumflex" unicode="&#xca;" horiz-adv-x="1052" 
d="M22 0l196 1400h832l-8 -60h-772l-79 -560h656l-8 -60h-656l-93 -660h772l-8 -60h-832zM711 1798l152 -288h-40l-154 210l-209 -210h-40l231 288h60z" />
    <glyph glyph-name="Edieresis" unicode="&#xcb;" horiz-adv-x="1052" 
d="M22 0l196 1400h832l-8 -60h-772l-79 -560h656l-8 -60h-656l-93 -660h772l-8 -60h-832zM512 1489q-19 0 -32 12.5t-10 31.5q2 18 18.5 32t35.5 14q18 0 30 -14t10 -32q-3 -19 -18.5 -31.5t-33.5 -12.5zM764 1489q-19 0 -32 12.5t-10 31.5q2 18 18.5 32t35.5 14
q18 0 30 -14t10 -32q-3 -19 -18.5 -31.5t-33.5 -12.5z" />
    <glyph glyph-name="Igrave" unicode="&#xcc;" horiz-adv-x="360" 
d="M52 0l196 1400h60l-196 -1400h-60zM194 1798h60l40 -288h-40z" />
    <glyph glyph-name="Iacute" unicode="&#xcd;" horiz-adv-x="360" 
d="M52 0l196 1400h60l-196 -1400h-60zM284 1510l120 288h60l-140 -288h-40z" />
    <glyph glyph-name="Icircumflex" unicode="&#xce;" horiz-adv-x="360" 
d="M52 0l196 1400h60l-196 -1400h-60zM365 1798l152 -288h-40l-154 210l-209 -210h-40l231 288h60z" />
    <glyph glyph-name="Idieresis" unicode="&#xcf;" horiz-adv-x="360" 
d="M52 0l196 1400h60l-196 -1400h-60zM166 1489q-19 0 -32 12.5t-10 31.5q2 18 18.5 32t35.5 14q18 0 30 -14t10 -32q-3 -19 -18.5 -31.5t-33.5 -12.5zM418 1489q-19 0 -32 12.5t-10 31.5q2 18 18.5 32t35.5 14q18 0 30 -14t10 -32q-3 -19 -18.5 -31.5t-33.5 -12.5z" />
    <glyph glyph-name="Eth" unicode="&#xd0;" horiz-adv-x="1452" 
d="M130 0l101 720h-128l8 60h128l87 620h464q145 0 264 -54.5t202 -151t119.5 -223t16.5 -271.5t-92.5 -271.5t-182 -223t-244 -151t-279.5 -54.5h-464zM198 60h404q135 0 258.5 50.5t223 139.5t165 204.5t83.5 245.5q19 135 -15.5 251.5t-111.5 203.5t-185.5 136t-237.5 49
h-404l-79 -560h398l-8 -60h-398z" />
    <glyph glyph-name="Ntilde" unicode="&#xd1;" horiz-adv-x="1218" 
d="M22 0l196 1400h66l671 -1292l181 1292h60l-196 -1400h-64l-673 1292l-181 -1292h-60zM883 1551q-37 0 -75 22t-76 51t-74.5 51t-71.5 22q-36 0 -64.5 -32t-24.5 -74l-60 -16q-8 41 13 83t61.5 70.5t88.5 28.5q38 0 79 -22t81 -51t78 -51t70 -22q24 0 44 20t31.5 45
t7.5 41l58 18q8 -43 -13.5 -85.5t-62.5 -70.5t-90 -28z" />
    <glyph glyph-name="Ograve" unicode="&#xd2;" horiz-adv-x="1540" 
d="M668 -26q-142 0 -259.5 56.5t-198 156.5t-116 231.5t-14.5 281.5t93 281.5t181.5 231.5t242.5 156.5t275 56.5q143 0 260 -56.5t197.5 -156.5t116 -231.5t14.5 -281.5t-93 -281.5t-181.5 -231.5t-242 -156.5t-275.5 -56.5zM676 34q132 0 254 53t221 145t164.5 212.5
t84.5 255.5q19 137 -13 257.5t-105.5 212.5t-180 144t-237.5 52q-132 0 -254 -53t-221 -145t-164.5 -212.5t-84.5 -255.5q-19 -137 13 -257.5t105.5 -212.5t180.5 -144t237 -52zM784 1798h60l40 -288h-40z" />
    <glyph glyph-name="Oacute" unicode="&#xd3;" horiz-adv-x="1540" 
d="M668 -26q-142 0 -259.5 56.5t-198 156.5t-116 231.5t-14.5 281.5t93 281.5t181.5 231.5t242.5 156.5t275 56.5q143 0 260 -56.5t197.5 -156.5t116 -231.5t14.5 -281.5t-93 -281.5t-181.5 -231.5t-242 -156.5t-275.5 -56.5zM676 34q132 0 254 53t221 145t164.5 212.5
t84.5 255.5q19 137 -13 257.5t-105.5 212.5t-180 144t-237.5 52q-132 0 -254 -53t-221 -145t-164.5 -212.5t-84.5 -255.5q-19 -137 13 -257.5t105.5 -212.5t180.5 -144t237 -52zM874 1510l120 288h60l-140 -288h-40z" />
    <glyph glyph-name="Ocircumflex" unicode="&#xd4;" horiz-adv-x="1540" 
d="M668 -26q-142 0 -259.5 56.5t-198 156.5t-116 231.5t-14.5 281.5t93 281.5t181.5 231.5t242.5 156.5t275 56.5q143 0 260 -56.5t197.5 -156.5t116 -231.5t14.5 -281.5t-93 -281.5t-181.5 -231.5t-242 -156.5t-275.5 -56.5zM676 34q132 0 254 53t221 145t164.5 212.5
t84.5 255.5q19 137 -13 257.5t-105.5 212.5t-180 144t-237.5 52q-132 0 -254 -53t-221 -145t-164.5 -212.5t-84.5 -255.5q-19 -137 13 -257.5t105.5 -212.5t180.5 -144t237 -52zM955 1798l152 -288h-40l-154 210l-209 -210h-40l231 288h60z" />
    <glyph glyph-name="Otilde" unicode="&#xd5;" horiz-adv-x="1540" 
d="M668 -26q-142 0 -259.5 56.5t-198 156.5t-116 231.5t-14.5 281.5t93 281.5t181.5 231.5t242.5 156.5t275 56.5q143 0 260 -56.5t197.5 -156.5t116 -231.5t14.5 -281.5t-93 -281.5t-181.5 -231.5t-242 -156.5t-275.5 -56.5zM676 34q132 0 254 53t221 145t164.5 212.5
t84.5 255.5q19 137 -13 257.5t-105.5 212.5t-180 144t-237.5 52q-132 0 -254 -53t-221 -145t-164.5 -212.5t-84.5 -255.5q-19 -137 13 -257.5t105.5 -212.5t180.5 -144t237 -52zM1044 1551q-37 0 -75 22t-76 51t-74.5 51t-71.5 22q-36 0 -64.5 -32t-24.5 -74l-60 -16
q-8 41 13 83t61.5 70.5t88.5 28.5q38 0 79 -22t81 -51t78 -51t70 -22q24 0 44 20t31.5 45t7.5 41l58 18q8 -43 -13.5 -85.5t-62.5 -70.5t-90 -28z" />
    <glyph glyph-name="Odieresis" unicode="&#xd6;" horiz-adv-x="1540" 
d="M668 -26q-142 0 -259.5 56.5t-198 156.5t-116 231.5t-14.5 281.5t93 281.5t181.5 231.5t242.5 156.5t275 56.5q143 0 260 -56.5t197.5 -156.5t116 -231.5t14.5 -281.5t-93 -281.5t-181.5 -231.5t-242 -156.5t-275.5 -56.5zM676 34q132 0 254 53t221 145t164.5 212.5
t84.5 255.5q19 137 -13 257.5t-105.5 212.5t-180 144t-237.5 52q-132 0 -254 -53t-221 -145t-164.5 -212.5t-84.5 -255.5q-19 -137 13 -257.5t105.5 -212.5t180.5 -144t237 -52zM756 1489q-19 0 -32 12.5t-10 31.5q2 18 18.5 32t35.5 14q18 0 30 -14t10 -32
q-3 -19 -18.5 -31.5t-33.5 -12.5zM1008 1489q-19 0 -32 12.5t-10 31.5q2 18 18.5 32t35.5 14q18 0 30 -14t10 -32q-3 -19 -18.5 -31.5t-33.5 -12.5z" />
    <glyph glyph-name="multiply" unicode="&#xd7;" horiz-adv-x="910" 
d="M55 226l-36 42l379 332l-285 332l48 42l285 -332l379 332l38 -42l-381 -332l287 -332l-50 -42l-285 332z" />
    <glyph glyph-name="Oslash" unicode="&#xd8;" horiz-adv-x="1540" 
d="M259 -62l-48 30l92 128q-124 99 -186.5 258t-36.5 346q21 150 93 281.5t181.5 231.5t242.5 156.5t275 56.5q92 0 172.5 -23t148.5 -67l90 126l48 -30l-92 -128q125 -97 186 -256t35 -348q-21 -150 -93 -281.5t-181.5 -231.5t-242 -156.5t-275.5 -56.5q-90 0 -170 24
t-149 66zM341 150l815 1134q-62 39 -135.5 60.5t-156.5 21.5q-132 0 -254 -53t-221 -145t-164.5 -212.5t-84.5 -255.5q-24 -171 32 -315.5t169 -234.5zM676 34q132 0 254 53t221 145t164.5 212.5t84.5 255.5q24 171 -31.5 316t-166.5 236l-816 -1136q62 -39 135.5 -60.5
t154.5 -21.5z" />
    <glyph glyph-name="Ugrave" unicode="&#xd9;" horiz-adv-x="1300" 
d="M548 -26q-168 0 -275 82t-150 220.5t-19 307.5l114 816h60l-114 -816q-21 -150 15.5 -275t130.5 -200t246 -75q154 0 269.5 76t186.5 201t92 273l114 816h60l-114 -816q-18 -127 -69 -237.5t-131 -194.5t-185 -131t-231 -47zM664 1798h60l40 -288h-40z" />
    <glyph glyph-name="Uacute" unicode="&#xda;" horiz-adv-x="1300" 
d="M548 -26q-168 0 -275 82t-150 220.5t-19 307.5l114 816h60l-114 -816q-21 -150 15.5 -275t130.5 -200t246 -75q154 0 269.5 76t186.5 201t92 273l114 816h60l-114 -816q-18 -127 -69 -237.5t-131 -194.5t-185 -131t-231 -47zM754 1510l120 288h60l-140 -288h-40z" />
    <glyph glyph-name="Ucircumflex" unicode="&#xdb;" horiz-adv-x="1300" 
d="M548 -26q-168 0 -275 82t-150 220.5t-19 307.5l114 816h60l-114 -816q-21 -150 15.5 -275t130.5 -200t246 -75q154 0 269.5 76t186.5 201t92 273l114 816h60l-114 -816q-18 -127 -69 -237.5t-131 -194.5t-185 -131t-231 -47zM835 1798l152 -288h-40l-154 210l-209 -210
h-40l231 288h60z" />
    <glyph glyph-name="Udieresis" unicode="&#xdc;" horiz-adv-x="1300" 
d="M548 -26q-168 0 -275 82t-150 220.5t-19 307.5l114 816h60l-114 -816q-21 -150 15.5 -275t130.5 -200t246 -75q154 0 269.5 76t186.5 201t92 273l114 816h60l-114 -816q-18 -127 -69 -237.5t-131 -194.5t-185 -131t-231 -47zM636 1489q-19 0 -32 12.5t-10 31.5
q2 18 18.5 32t35.5 14q18 0 30 -14t10 -32q-3 -19 -18.5 -31.5t-33.5 -12.5zM888 1489q-19 0 -32 12.5t-10 31.5q2 18 18.5 32t35.5 14q18 0 30 -14t10 -32q-3 -19 -18.5 -31.5t-33.5 -12.5z" />
    <glyph glyph-name="Yacute" unicode="&#xdd;" horiz-adv-x="1108" 
d="M1076 1400h70l-571 -764l-89 -636h-60l89 636l-357 764h70l326 -698zM658 1510l120 288h60l-140 -288h-40z" />
    <glyph glyph-name="Thorn" unicode="&#xde;" horiz-adv-x="980" 
d="M22 0l196 1400h60l-42 -300h348q110 0 191.5 -52.5t121 -143t23.5 -204.5q-16 -115 -82 -205.5t-162.5 -142.5t-203.5 -52h-348l-42 -300h-60zM132 360h348q91 0 172.5 44t137.5 121t70 175t-20 175t-103.5 121t-160.5 44h-348z" />
    <glyph glyph-name="germandbls" unicode="&#xdf;" horiz-adv-x="1010" 
d="M22 0l139 994q12 83 53.5 156.5t105 129.5t141 88t161.5 32q96 0 168 -50.5t107.5 -134.5t20.5 -185q-9 -69 -41 -131t-79 -111t-105 -80q54 -16 96.5 -49t71 -79t39.5 -101t2 -117q-14 -100 -74 -182t-148.5 -131t-187.5 -49h-74l-12 60h94q83 0 157 41t124 109.5
t61 151.5q12 83 -18.5 151t-93 108.5t-145.5 40.5h-94l8 60h28q79 0 150 41.5t120 111.5t61 155t-17 155.5t-88.5 112.5t-138.5 42q-95 0 -179.5 -47t-142 -125.5t-71.5 -173.5l-139 -994h-60z" />
    <glyph glyph-name="agrave" unicode="&#xe0;" horiz-adv-x="1134" 
d="M1036 1000h60l-140 -1000h-60l33 234q-70 -117 -184.5 -188.5t-260.5 -71.5q-109 0 -198.5 41t-151.5 113.5t-89.5 167.5t-12.5 204q15 110 69.5 205.5t137 168t183.5 113.5t210 41q146 0 240 -71.5t132 -188.5zM492 34q129 0 228 63t161.5 169t80.5 234
q19 131 -14.5 237t-115 168.5t-208.5 62.5q-129 0 -243.5 -63t-192.5 -169.5t-96 -235.5q-18 -131 31 -236.5t146.5 -167.5t222.5 -62zM540 1398h60l40 -288h-40z" />
    <glyph glyph-name="aacute" unicode="&#xe1;" horiz-adv-x="1134" 
d="M1036 1000h60l-140 -1000h-60l33 234q-70 -117 -184.5 -188.5t-260.5 -71.5q-109 0 -198.5 41t-151.5 113.5t-89.5 167.5t-12.5 204q15 110 69.5 205.5t137 168t183.5 113.5t210 41q146 0 240 -71.5t132 -188.5zM492 34q129 0 228 63t161.5 169t80.5 234
q19 131 -14.5 237t-115 168.5t-208.5 62.5q-129 0 -243.5 -63t-192.5 -169.5t-96 -235.5q-18 -131 31 -236.5t146.5 -167.5t222.5 -62zM630 1110l120 288h60l-140 -288h-40z" />
    <glyph glyph-name="acircumflex" unicode="&#xe2;" horiz-adv-x="1134" 
d="M1036 1000h60l-140 -1000h-60l33 234q-70 -117 -184.5 -188.5t-260.5 -71.5q-109 0 -198.5 41t-151.5 113.5t-89.5 167.5t-12.5 204q15 110 69.5 205.5t137 168t183.5 113.5t210 41q146 0 240 -71.5t132 -188.5zM492 34q129 0 228 63t161.5 169t80.5 234
q19 131 -14.5 237t-115 168.5t-208.5 62.5q-129 0 -243.5 -63t-192.5 -169.5t-96 -235.5q-18 -131 31 -236.5t146.5 -167.5t222.5 -62zM711 1398l152 -288h-40l-154 210l-209 -210h-40l231 288h60z" />
    <glyph glyph-name="atilde" unicode="&#xe3;" horiz-adv-x="1134" 
d="M1036 1000h60l-140 -1000h-60l33 234q-70 -117 -184.5 -188.5t-260.5 -71.5q-109 0 -198.5 41t-151.5 113.5t-89.5 167.5t-12.5 204q15 110 69.5 205.5t137 168t183.5 113.5t210 41q146 0 240 -71.5t132 -188.5zM492 34q129 0 228 63t161.5 169t80.5 234
q19 131 -14.5 237t-115 168.5t-208.5 62.5q-129 0 -243.5 -63t-192.5 -169.5t-96 -235.5q-18 -131 31 -236.5t146.5 -167.5t222.5 -62zM800 1151q-37 0 -75 22t-76 51t-74.5 51t-71.5 22q-36 0 -64.5 -32t-24.5 -74l-60 -16q-8 41 13 83t61.5 70.5t88.5 28.5q38 0 79 -22
t81 -51t78 -51t70 -22q24 0 44 20t31.5 45t7.5 41l58 18q8 -43 -13.5 -85.5t-62.5 -70.5t-90 -28z" />
    <glyph glyph-name="adieresis" unicode="&#xe4;" horiz-adv-x="1134" 
d="M1036 1000h60l-140 -1000h-60l33 234q-70 -117 -184.5 -188.5t-260.5 -71.5q-109 0 -198.5 41t-151.5 113.5t-89.5 167.5t-12.5 204q15 110 69.5 205.5t137 168t183.5 113.5t210 41q146 0 240 -71.5t132 -188.5zM492 34q129 0 228 63t161.5 169t80.5 234
q19 131 -14.5 237t-115 168.5t-208.5 62.5q-129 0 -243.5 -63t-192.5 -169.5t-96 -235.5q-18 -131 31 -236.5t146.5 -167.5t222.5 -62zM512 1089q-19 0 -32 12.5t-10 31.5q2 18 18.5 32t35.5 14q18 0 30 -14t10 -32q-3 -19 -18.5 -31.5t-33.5 -12.5zM764 1089
q-19 0 -32 12.5t-10 31.5q2 18 18.5 32t35.5 14q18 0 30 -14t10 -32q-3 -19 -18.5 -31.5t-33.5 -12.5z" />
    <glyph glyph-name="aring" unicode="&#xe5;" horiz-adv-x="1134" 
d="M1036 1000h60l-140 -1000h-60l33 234q-70 -117 -184.5 -188.5t-260.5 -71.5q-109 0 -198.5 41t-151.5 113.5t-89.5 167.5t-12.5 204q15 110 69.5 205.5t137 168t183.5 113.5t210 41q146 0 240 -71.5t132 -188.5zM492 34q129 0 228 63t161.5 169t80.5 234
q19 131 -14.5 237t-115 168.5t-208.5 62.5q-129 0 -243.5 -63t-192.5 -169.5t-96 -235.5q-18 -131 31 -236.5t146.5 -167.5t222.5 -62zM640 1115q-57 0 -91.5 41.5t-26.5 98.5q5 37 28 68.5t57 50.5t72 19q57 0 92 -41t27 -97q-8 -58 -54.5 -99t-103.5 -41zM647 1163
q38 0 68 26.5t35 65.5q5 36 -17.5 62t-60.5 26q-37 0 -67 -26t-35 -62q-5 -39 17.5 -65.5t59.5 -26.5z" />
    <glyph glyph-name="ae" unicode="&#xe6;" horiz-adv-x="1816" 
d="M213 -24q-82 0 -141.5 33.5t-88 95.5t-16.5 145q11 75 52 139t108.5 103t155.5 39h452q21 119 -13.5 218t-119 159t-212.5 60q-74 0 -148 -27l-24 53q47 17 92 25.5t88 8.5q152 0 259.5 -87t145.5 -227q52 93 130 163.5t173.5 110.5t197.5 40q107 0 191.5 -40t141 -114
t79.5 -176.5t8 -227.5h-938q-7 -125 40 -223.5t135 -155.5t203 -57q128 0 240 68t188 188l58 -14q-79 -133 -211.5 -217.5t-282.5 -84.5q-108 0 -196 44.5t-146.5 123t-78.5 179.5q-56 -103 -138.5 -181t-180.5 -121t-203 -43zM222 36q141 0 259.5 80t185.5 198
q41 73 58 157h-450q-100 0 -167.5 -63.5t-80.5 -157.5q-12 -84 35.5 -149t159.5 -65zM794 530h878q13 117 -33 217t-135.5 160.5t-207.5 60.5q-119 0 -224 -59t-179 -158.5t-99 -220.5z" />
    <glyph glyph-name="ccedilla" unicode="&#xe7;" horiz-adv-x="1019" 
d="M837 212l48 -28q-81 -96 -193 -153t-234 -57q-138 0 -241.5 71t-154 190.5t-30.5 264.5q15 110 67.5 205.5t131.5 168t175.5 113.5t199.5 41q122 0 218.5 -57t150.5 -153l-56 -28q-52 86 -138.5 132t-182.5 46q-124 0 -232.5 -64t-182 -170.5t-91.5 -233.5
q-18 -129 26.5 -234.5t135.5 -168.5t212 -63q105 0 203.5 50t167.5 128zM409 -360q-59 -16 -106.5 14t-55.5 88l60 15q5 -33 32.5 -50.5t62.5 -8.5t57 39t17 64q-4 34 -32 51.5t-63 8.5l-73 -19l136 188l48 -30l-56 -78q39 -7 67 -35t33 -70q8 -58 -29.5 -110t-97.5 -67z
" />
    <glyph glyph-name="egrave" unicode="&#xe8;" horiz-adv-x="1118" 
d="M458 -26q-138 0 -241.5 71t-154 190.5t-30.5 264.5q15 110 67.5 205.5t131.5 168t175.5 113.5t199.5 41q107 0 191.5 -40t141 -114t79.5 -176.5t8 -227.5h-938q-7 -125 40 -223.5t135 -155.5t203 -57q128 0 240 68t188 188l58 -14q-79 -133 -211.5 -217.5t-282.5 -84.5z
M96 530h878q13 117 -33 217t-135.5 160.5t-207.5 60.5q-119 0 -224 -59t-179 -158.5t-99 -220.5zM517 1398h60l40 -288h-40z" />
    <glyph glyph-name="eacute" unicode="&#xe9;" horiz-adv-x="1118" 
d="M458 -26q-138 0 -241.5 71t-154 190.5t-30.5 264.5q15 110 67.5 205.5t131.5 168t175.5 113.5t199.5 41q107 0 191.5 -40t141 -114t79.5 -176.5t8 -227.5h-938q-7 -125 40 -223.5t135 -155.5t203 -57q128 0 240 68t188 188l58 -14q-79 -133 -211.5 -217.5t-282.5 -84.5z
M96 530h878q13 117 -33 217t-135.5 160.5t-207.5 60.5q-119 0 -224 -59t-179 -158.5t-99 -220.5zM607 1110l120 288h60l-140 -288h-40z" />
    <glyph glyph-name="ecircumflex" unicode="&#xea;" horiz-adv-x="1118" 
d="M458 -26q-138 0 -241.5 71t-154 190.5t-30.5 264.5q15 110 67.5 205.5t131.5 168t175.5 113.5t199.5 41q107 0 191.5 -40t141 -114t79.5 -176.5t8 -227.5h-938q-7 -125 40 -223.5t135 -155.5t203 -57q128 0 240 68t188 188l58 -14q-79 -133 -211.5 -217.5t-282.5 -84.5z
M96 530h878q13 117 -33 217t-135.5 160.5t-207.5 60.5q-119 0 -224 -59t-179 -158.5t-99 -220.5zM688 1398l152 -288h-40l-154 210l-209 -210h-40l231 288h60z" />
    <glyph glyph-name="edieresis" unicode="&#xeb;" horiz-adv-x="1118" 
d="M458 -26q-138 0 -241.5 71t-154 190.5t-30.5 264.5q15 110 67.5 205.5t131.5 168t175.5 113.5t199.5 41q107 0 191.5 -40t141 -114t79.5 -176.5t8 -227.5h-938q-7 -125 40 -223.5t135 -155.5t203 -57q128 0 240 68t188 188l58 -14q-79 -133 -211.5 -217.5t-282.5 -84.5z
M96 530h878q13 117 -33 217t-135.5 160.5t-207.5 60.5q-119 0 -224 -59t-179 -158.5t-99 -220.5zM489 1089q-19 0 -32 12.5t-10 31.5q2 18 18.5 32t35.5 14q18 0 30 -14t10 -32q-3 -19 -18.5 -31.5t-33.5 -12.5zM741 1089q-19 0 -32 12.5t-10 31.5q2 18 18.5 32t35.5 14
q18 0 30 -14t10 -32q-3 -19 -18.5 -31.5t-33.5 -12.5z" />
    <glyph glyph-name="igrave" unicode="&#xec;" horiz-adv-x="300" 
d="M162 1000h60l-140 -1000h-60zM108 1398h60l40 -288h-40z" />
    <glyph glyph-name="iacute" unicode="&#xed;" horiz-adv-x="300" 
d="M162 1000h60l-140 -1000h-60zM198 1110l120 288h60l-140 -288h-40z" />
    <glyph glyph-name="icircumflex" unicode="&#xee;" horiz-adv-x="300" 
d="M162 1000h60l-140 -1000h-60zM279 1398l152 -288h-40l-154 210l-209 -210h-40l231 288h60z" />
    <glyph glyph-name="idieresis" unicode="&#xef;" horiz-adv-x="300" 
d="M162 1000h60l-140 -1000h-60zM80 1089q-19 0 -32 12.5t-10 31.5q2 18 18.5 32t35.5 14q18 0 30 -14t10 -32q-3 -19 -18.5 -31.5t-33.5 -12.5zM332 1089q-19 0 -32 12.5t-10 31.5q2 18 18.5 32t35.5 14q18 0 30 -14t10 -32q-3 -19 -18.5 -31.5t-33.5 -12.5z" />
    <glyph glyph-name="eth" unicode="&#xf0;" horiz-adv-x="1124" 
d="M480 1070l-38 44l500 428l36 -42zM480 -26q-138 0 -242.5 67.5t-156.5 181.5t-32 253q15 104 66.5 195t130.5 160t175.5 108t199.5 39q134 0 235.5 -62t154.5 -166q-6 129 -46 248.5t-110.5 214.5t-169.5 150t-224 55l8 60q150 0 270.5 -74t201 -205t112.5 -304.5
t6 -372.5q-23 -162 -103.5 -285.5t-203 -193t-272.5 -69.5zM488 34q126 0 235 61.5t182 162t90 218.5q17 121 -28.5 221.5t-137.5 160.5t-216 60q-125 0 -233.5 -61t-181 -161.5t-89.5 -219.5q-17 -120 28 -220.5t136.5 -161t214.5 -60.5z" />
    <glyph glyph-name="ntilde" unicode="&#xf1;" horiz-adv-x="1038" 
d="M945 609l-85 -609h-60l85 609q14 100 -23 181t-111.5 129.5t-173.5 48.5t-187.5 -48.5t-148.5 -129.5t-74 -181l-85 -609h-60l140 1000h60l-24 -175q68 92 170.5 147.5t216.5 55.5q116 0 203 -56.5t130.5 -151.5t26.5 -211zM757 1151q-37 0 -75 22t-76 51t-74.5 51
t-71.5 22q-36 0 -64.5 -32t-24.5 -74l-60 -16q-8 41 13 83t61.5 70.5t88.5 28.5q38 0 79 -22t81 -51t78 -51t70 -22q24 0 44 20t31.5 45t7.5 41l58 18q8 -43 -13.5 -85.5t-62.5 -70.5t-90 -28z" />
    <glyph glyph-name="ograve" unicode="&#xf2;" horiz-adv-x="1120" 
d="M458 -26q-138 0 -241.5 71t-154 190.5t-30.5 264.5q15 110 67.5 205.5t131.5 168t175.5 113.5t199.5 41q138 0 241.5 -71t154.5 -191t30 -266q-15 -109 -67.5 -204t-131.5 -167.5t-175 -113.5t-200 -41zM466 34q124 0 233 64.5t182.5 170.5t90.5 231q18 126 -25.5 232.5
t-134 171t-214.5 64.5q-125 0 -234 -64.5t-181.5 -171t-90.5 -232.5q-18 -130 27 -235.5t136 -168t211 -62.5zM518 1398h60l40 -288h-40z" />
    <glyph glyph-name="oacute" unicode="&#xf3;" horiz-adv-x="1120" 
d="M458 -26q-138 0 -241.5 71t-154 190.5t-30.5 264.5q15 110 67.5 205.5t131.5 168t175.5 113.5t199.5 41q138 0 241.5 -71t154.5 -191t30 -266q-15 -109 -67.5 -204t-131.5 -167.5t-175 -113.5t-200 -41zM466 34q124 0 233 64.5t182.5 170.5t90.5 231q18 126 -25.5 232.5
t-134 171t-214.5 64.5q-125 0 -234 -64.5t-181.5 -171t-90.5 -232.5q-18 -130 27 -235.5t136 -168t211 -62.5zM608 1110l120 288h60l-140 -288h-40z" />
    <glyph glyph-name="ocircumflex" unicode="&#xf4;" horiz-adv-x="1120" 
d="M458 -26q-138 0 -241.5 71t-154 190.5t-30.5 264.5q15 110 67.5 205.5t131.5 168t175.5 113.5t199.5 41q138 0 241.5 -71t154.5 -191t30 -266q-15 -109 -67.5 -204t-131.5 -167.5t-175 -113.5t-200 -41zM466 34q124 0 233 64.5t182.5 170.5t90.5 231q18 126 -25.5 232.5
t-134 171t-214.5 64.5q-125 0 -234 -64.5t-181.5 -171t-90.5 -232.5q-18 -130 27 -235.5t136 -168t211 -62.5zM689 1398l152 -288h-40l-154 210l-209 -210h-40l231 288h60z" />
    <glyph glyph-name="otilde" unicode="&#xf5;" horiz-adv-x="1120" 
d="M458 -26q-138 0 -241.5 71t-154 190.5t-30.5 264.5q15 110 67.5 205.5t131.5 168t175.5 113.5t199.5 41q138 0 241.5 -71t154.5 -191t30 -266q-15 -109 -67.5 -204t-131.5 -167.5t-175 -113.5t-200 -41zM466 34q124 0 233 64.5t182.5 170.5t90.5 231q18 126 -25.5 232.5
t-134 171t-214.5 64.5q-125 0 -234 -64.5t-181.5 -171t-90.5 -232.5q-18 -130 27 -235.5t136 -168t211 -62.5zM778 1151q-37 0 -75 22t-76 51t-74.5 51t-71.5 22q-36 0 -64.5 -32t-24.5 -74l-60 -16q-8 41 13 83t61.5 70.5t88.5 28.5q38 0 79 -22t81 -51t78 -51t70 -22
q24 0 44 20t31.5 45t7.5 41l58 18q8 -43 -13.5 -85.5t-62.5 -70.5t-90 -28z" />
    <glyph glyph-name="odieresis" unicode="&#xf6;" horiz-adv-x="1120" 
d="M458 -26q-138 0 -241.5 71t-154 190.5t-30.5 264.5q15 110 67.5 205.5t131.5 168t175.5 113.5t199.5 41q138 0 241.5 -71t154.5 -191t30 -266q-15 -109 -67.5 -204t-131.5 -167.5t-175 -113.5t-200 -41zM466 34q124 0 233 64.5t182.5 170.5t90.5 231q18 126 -25.5 232.5
t-134 171t-214.5 64.5q-125 0 -234 -64.5t-181.5 -171t-90.5 -232.5q-18 -130 27 -235.5t136 -168t211 -62.5zM490 1089q-19 0 -32 12.5t-10 31.5q2 18 18.5 32t35.5 14q18 0 30 -14t10 -32q-3 -19 -18.5 -31.5t-33.5 -12.5zM742 1089q-19 0 -32 12.5t-10 31.5q2 18 18.5 32
t35.5 14q18 0 30 -14t10 -32q-3 -19 -18.5 -31.5t-33.5 -12.5z" />
    <glyph glyph-name="divide" unicode="&#xf7;" horiz-adv-x="1160" 
d="M62 570l8 60h1000l-8 -60h-1000zM628 1044q32 0 51.5 -26t15.5 -56q-4 -33 -30.5 -56.5t-58.5 -23.5q-36 0 -54.5 23.5t-14.5 56.5q4 30 29.5 56t61.5 26zM526 316q32 0 53.5 -25t17.5 -57q-5 -33 -33 -55.5t-60 -22.5q-36 0 -55 22.5t-14 55.5q4 32 29.5 57t61.5 25z
" />
    <glyph glyph-name="oslash" unicode="&#xf8;" horiz-adv-x="1120" 
d="M178 -40l-48 30l57 78q-87 72 -130.5 185.5t-24.5 246.5q15 110 67.5 205.5t131.5 168t175.5 113.5t199.5 41q65 0 122 -15.5t104 -44.5l56 76l48 -30l-57 -78q88 -72 130 -185.5t23 -250.5q-15 -109 -67.5 -204t-131.5 -167.5t-175 -113.5t-200 -41q-63 0 -120.5 17.5
t-104.5 44.5zM225 122l569 794q-101 62 -215 54t-218.5 -70.5t-177.5 -166t-91 -233.5q-16 -117 21 -216t112 -162zM270 88q105 -63 220 -55t218 71t174.5 166t89.5 230q17 117 -19.5 217.5t-110.5 164.5z" />
    <glyph glyph-name="ugrave" unicode="&#xf9;" 
d="M37 393l85 607h60l-85 -607q-14 -99 23 -180.5t111.5 -130t173.5 -48.5t187.5 48.5t148.5 130t74 180.5l85 607h60l-140 -1000h-60l24 177q-67 -91 -170 -147t-217 -56q-116 0 -203 56.5t-130 151.5t-27 211zM457 1398h60l40 -288h-40z" />
    <glyph glyph-name="uacute" unicode="&#xfa;" 
d="M37 393l85 607h60l-85 -607q-14 -99 23 -180.5t111.5 -130t173.5 -48.5t187.5 48.5t148.5 130t74 180.5l85 607h60l-140 -1000h-60l24 177q-67 -91 -170 -147t-217 -56q-116 0 -203 56.5t-130 151.5t-27 211zM547 1110l120 288h60l-140 -288h-40z" />
    <glyph glyph-name="ucircumflex" unicode="&#xfb;" 
d="M37 393l85 607h60l-85 -607q-14 -99 23 -180.5t111.5 -130t173.5 -48.5t187.5 48.5t148.5 130t74 180.5l85 607h60l-140 -1000h-60l24 177q-67 -91 -170 -147t-217 -56q-116 0 -203 56.5t-130 151.5t-27 211zM628 1398l152 -288h-40l-154 210l-209 -210h-40l231 288h60z
" />
    <glyph glyph-name="udieresis" unicode="&#xfc;" 
d="M37 393l85 607h60l-85 -607q-14 -99 23 -180.5t111.5 -130t173.5 -48.5t187.5 48.5t148.5 130t74 180.5l85 607h60l-140 -1000h-60l24 177q-67 -91 -170 -147t-217 -56q-116 0 -203 56.5t-130 151.5t-27 211zM429 1089q-19 0 -32 12.5t-10 31.5q2 18 18.5 32t35.5 14
q18 0 30 -14t10 -32q-3 -19 -18.5 -31.5t-33.5 -12.5zM681 1089q-19 0 -32 12.5t-10 31.5q2 18 18.5 32t35.5 14q18 0 30 -14t10 -32q-3 -19 -18.5 -31.5t-33.5 -12.5z" />
    <glyph glyph-name="yacute" unicode="&#xfd;" horiz-adv-x="946" 
d="M846 1000h62l-757 -1500h-64l253 500l-218 1000h66l193 -916zM521 1110l120 288h60l-140 -288h-40z" />
    <glyph glyph-name="thorn" unicode="&#xfe;" horiz-adv-x="1174" 
d="M-49 -500l267 1900h60l-89 -634q71 117 185.5 188.5t259.5 71.5q109 0 198.5 -41t151.5 -113.5t89.5 -167.5t12.5 -204t-69.5 -205t-137 -168.5t-183.5 -113.5t-210 -41q-145 0 -239.5 71.5t-132.5 188.5l-103 -732h-60zM494 32q125 0 240 62t194.5 168t97.5 238
q18 128 -30 234t-145 169t-226 63q-127 0 -226 -62.5t-162 -168t-81 -235.5q-18 -128 14.5 -234.5t113.5 -170t210 -63.5z" />
    <glyph glyph-name="ydieresis" unicode="&#xff;" horiz-adv-x="946" 
d="M846 1000h62l-757 -1500h-64l253 500l-218 1000h66l193 -916zM403 1089q-19 0 -32 12.5t-10 31.5q2 18 18.5 32t35.5 14q18 0 30 -14t10 -32q-3 -19 -18.5 -31.5t-33.5 -12.5zM655 1089q-19 0 -32 12.5t-10 31.5q2 18 18.5 32t35.5 14q18 0 30 -14t10 -32
q-3 -19 -18.5 -31.5t-33.5 -12.5z" />
    <glyph glyph-name="Amacron" unicode="&#x100;" horiz-adv-x="1272" 
d="M688 1400h92l314 -1400h-64l-77 340h-736l-171 -340h-64zM248 400h692l-213 950zM431 1650h676l-8 -60h-676z" />
    <glyph glyph-name="amacron" unicode="&#x101;" horiz-adv-x="1134" 
d="M1036 1000h60l-140 -1000h-60l33 234q-70 -117 -184.5 -188.5t-260.5 -71.5q-109 0 -198.5 41t-151.5 113.5t-89.5 167.5t-12.5 204q15 110 69.5 205.5t137 168t183.5 113.5t210 41q146 0 240 -71.5t132 -188.5zM492 34q129 0 228 63t161.5 169t80.5 234
q19 131 -14.5 237t-115 168.5t-208.5 62.5q-129 0 -243.5 -63t-192.5 -169.5t-96 -235.5q-18 -131 31 -236.5t146.5 -167.5t222.5 -62zM321 1250h676l-8 -60h-676z" />
    <glyph glyph-name="Abreve" unicode="&#x102;" horiz-adv-x="1272" 
d="M688 1400h92l314 -1400h-64l-77 340h-736l-171 -340h-64zM248 400h692l-213 950zM747 1488q-91 0 -160 45t-103.5 120.5t-22.5 166.5h60q-10 -77 19.5 -138.5t86.5 -97.5t128 -36q74 0 141 37t113 98.5t56 136.5h60q-13 -94 -69.5 -169t-138.5 -119t-170 -44z" />
    <glyph glyph-name="abreve" unicode="&#x103;" horiz-adv-x="1134" 
d="M1036 1000h60l-140 -1000h-60l33 234q-70 -117 -184.5 -188.5t-260.5 -71.5q-109 0 -198.5 41t-151.5 113.5t-89.5 167.5t-12.5 204q15 110 69.5 205.5t137 168t183.5 113.5t210 41q146 0 240 -71.5t132 -188.5zM492 34q129 0 228 63t161.5 169t80.5 234
q19 131 -14.5 237t-115 168.5t-208.5 62.5q-129 0 -243.5 -63t-192.5 -169.5t-96 -235.5q-18 -131 31 -236.5t146.5 -167.5t222.5 -62zM637 1088q-91 0 -160 45t-103.5 120.5t-22.5 166.5h60q-10 -77 19.5 -138.5t86.5 -97.5t128 -36q74 0 141 37t113 98.5t56 136.5h60
q-13 -94 -69.5 -169t-138.5 -119t-170 -44z" />
    <glyph glyph-name="Aogonek" unicode="&#x104;" horiz-adv-x="1272" 
d="M688 1400h92l314 -1400h-64l-77 340h-736l-171 -340h-64zM248 400h692l-213 950zM929 -371q-42 1 -70.5 21.5t-41 53.5t-7.5 69q4 27 17.5 53t38.5 48l192 168l36 -42q-80 -70 -125 -109t-65 -59t-26 -32t-8 -27q-4 -31 13.5 -56.5t55.5 -27.5q39 0 78 28t46 79h60
q-7 -49 -35.5 -86.5t-70.5 -59t-88 -21.5z" />
    <glyph glyph-name="aogonek" unicode="&#x105;" horiz-adv-x="1134" 
d="M1036 1000h60l-140 -1000h-60l33 234q-70 -117 -184.5 -188.5t-260.5 -71.5q-109 0 -198.5 41t-151.5 113.5t-89.5 167.5t-12.5 204q15 110 69.5 205.5t137 168t183.5 113.5t210 41q146 0 240 -71.5t132 -188.5zM492 34q129 0 228 63t161.5 169t80.5 234
q19 131 -14.5 237t-115 168.5t-208.5 62.5q-129 0 -243.5 -63t-192.5 -169.5t-96 -235.5q-18 -131 31 -236.5t146.5 -167.5t222.5 -62zM791 -371q-42 1 -70.5 21.5t-41 53.5t-7.5 69q4 27 17.5 53t38.5 48l192 168l36 -42q-80 -70 -125 -109t-65 -59t-26 -32t-8 -27
q-4 -31 13.5 -56.5t55.5 -27.5q39 0 78 28t46 79h60q-7 -49 -35.5 -86.5t-70.5 -59t-88 -21.5z" />
    <glyph glyph-name="Cacute" unicode="&#x106;" horiz-adv-x="1418" 
d="M666 -26q-142 0 -259 56.5t-197.5 156t-115.5 231t-14 282.5q21 150 93 281.5t180.5 231.5t241.5 156.5t275 56.5q170 0 301.5 -79t207.5 -211l-56 -28q-68 119 -191.5 188.5t-269.5 69.5q-132 0 -253.5 -53t-220.5 -145.5t-164 -213t-84 -254.5q-19 -138 12.5 -258.5
t105 -212.5t180 -143.5t236.5 -51.5q153 0 294.5 71t239.5 185l48 -28q-112 -132 -266 -210t-324 -78zM872 1510l120 288h60l-140 -288h-40z" />
    <glyph glyph-name="cacute" unicode="&#x107;" horiz-adv-x="1019" 
d="M837 212l48 -28q-81 -96 -193 -153t-234 -57q-138 0 -241.5 71t-154 190.5t-30.5 264.5q15 110 67.5 205.5t131.5 168t175.5 113.5t199.5 41q122 0 218.5 -57t150.5 -153l-56 -28q-52 86 -138.5 132t-182.5 46q-124 0 -232.5 -64t-182 -170.5t-91.5 -233.5
q-18 -129 26.5 -234.5t135.5 -168.5t212 -63q105 0 203.5 50t167.5 128zM608 1110l120 288h60l-140 -288h-40z" />
    <glyph glyph-name="Ccircumflex" unicode="&#x108;" horiz-adv-x="1418" 
d="M666 -26q-142 0 -259 56.5t-197.5 156t-115.5 231t-14 282.5q21 150 93 281.5t180.5 231.5t241.5 156.5t275 56.5q170 0 301.5 -79t207.5 -211l-56 -28q-68 119 -191.5 188.5t-269.5 69.5q-132 0 -253.5 -53t-220.5 -145.5t-164 -213t-84 -254.5q-19 -138 12.5 -258.5
t105 -212.5t180 -143.5t236.5 -51.5q153 0 294.5 71t239.5 185l48 -28q-112 -132 -266 -210t-324 -78zM953 1798l152 -288h-40l-154 210l-209 -210h-40l231 288h60z" />
    <glyph glyph-name="ccircumflex" unicode="&#x109;" horiz-adv-x="1019" 
d="M837 212l48 -28q-81 -96 -193 -153t-234 -57q-138 0 -241.5 71t-154 190.5t-30.5 264.5q15 110 67.5 205.5t131.5 168t175.5 113.5t199.5 41q122 0 218.5 -57t150.5 -153l-56 -28q-52 86 -138.5 132t-182.5 46q-124 0 -232.5 -64t-182 -170.5t-91.5 -233.5
q-18 -129 26.5 -234.5t135.5 -168.5t212 -63q105 0 203.5 50t167.5 128zM689 1398l152 -288h-40l-154 210l-209 -210h-40l231 288h60z" />
    <glyph glyph-name="Cdotaccent" unicode="&#x10a;" horiz-adv-x="1418" 
d="M666 -26q-142 0 -259 56.5t-197.5 156t-115.5 231t-14 282.5q21 150 93 281.5t180.5 231.5t241.5 156.5t275 56.5q170 0 301.5 -79t207.5 -211l-56 -28q-68 119 -191.5 188.5t-269.5 69.5q-132 0 -253.5 -53t-220.5 -145.5t-164 -213t-84 -254.5q-19 -138 12.5 -258.5
t105 -212.5t180 -143.5t236.5 -51.5q153 0 294.5 71t239.5 185l48 -28q-112 -132 -266 -210t-324 -78zM897 1610q-19 0 -31 12.5t-9 31.5q3 20 18 32t34 12q18 0 29.5 -12t8.5 -31q-3 -20 -17.5 -32.5t-32.5 -12.5z" />
    <glyph glyph-name="cdotaccent" unicode="&#x10b;" horiz-adv-x="1019" 
d="M837 212l48 -28q-81 -96 -193 -153t-234 -57q-138 0 -241.5 71t-154 190.5t-30.5 264.5q15 110 67.5 205.5t131.5 168t175.5 113.5t199.5 41q122 0 218.5 -57t150.5 -153l-56 -28q-52 86 -138.5 132t-182.5 46q-124 0 -232.5 -64t-182 -170.5t-91.5 -233.5
q-18 -129 26.5 -234.5t135.5 -168.5t212 -63q105 0 203.5 50t167.5 128zM633 1210q-19 0 -31 12.5t-9 31.5q3 20 18 32t34 12q18 0 29.5 -12t8.5 -31q-3 -20 -17.5 -32.5t-32.5 -12.5z" />
    <glyph glyph-name="Ccaron" unicode="&#x10c;" horiz-adv-x="1418" 
d="M666 -26q-142 0 -259 56.5t-197.5 156t-115.5 231t-14 282.5q21 150 93 281.5t180.5 231.5t241.5 156.5t275 56.5q170 0 301.5 -79t207.5 -211l-56 -28q-68 119 -191.5 188.5t-269.5 69.5q-132 0 -253.5 -53t-220.5 -145.5t-164 -213t-84 -254.5q-19 -138 12.5 -258.5
t105 -212.5t180 -143.5t236.5 -51.5q153 0 294.5 71t239.5 185l48 -28q-112 -132 -266 -210t-324 -78zM851 1510l-152 288h40l154 -210l209 210h40l-231 -288h-60z" />
    <glyph glyph-name="ccaron" unicode="&#x10d;" horiz-adv-x="1019" 
d="M837 212l48 -28q-81 -96 -193 -153t-234 -57q-138 0 -241.5 71t-154 190.5t-30.5 264.5q15 110 67.5 205.5t131.5 168t175.5 113.5t199.5 41q122 0 218.5 -57t150.5 -153l-56 -28q-52 86 -138.5 132t-182.5 46q-124 0 -232.5 -64t-182 -170.5t-91.5 -233.5
q-18 -129 26.5 -234.5t135.5 -168.5t212 -63q105 0 203.5 50t167.5 128zM587 1110l-152 288h40l154 -210l209 210h40l-231 -288h-60z" />
    <glyph glyph-name="Dcaron" unicode="&#x10e;" horiz-adv-x="1343" 
d="M22 0l196 1400h462q146 0 265 -54.5t201.5 -151t119 -223t16.5 -271.5t-92 -271.5t-181.5 -223t-244 -151t-280.5 -54.5h-462zM90 60h402q134 0 257 49.5t223 137.5t165.5 204t84.5 249t-14.5 249t-109 204t-184.5 137.5t-242 49.5h-402zM735 1510l-152 288h40l154 -210
l209 210h40l-231 -288h-60z" />
    <glyph glyph-name="dcaron" unicode="&#x10f;" horiz-adv-x="1174" 
d="M1106 1500h60l-210 -1500h-60l33 234q-70 -117 -184.5 -188.5t-260.5 -71.5q-109 0 -198.5 41t-151.5 113.5t-89.5 167.5t-12.5 204q15 110 69.5 205.5t137 168t183.5 113.5t210 41q146 0 240 -71.5t132 -188.5zM492 34q129 0 228 63t161.5 169t80.5 234
q19 131 -14.5 237t-115 168.5t-208.5 62.5q-128 0 -243 -63t-193 -169.5t-96 -235.5q-18 -131 31 -236.5t146.5 -167.5t222.5 -62zM1236 1212l120 288h60l-140 -288h-40z" />
    <glyph glyph-name="Emacron" unicode="&#x112;" horiz-adv-x="1052" 
d="M22 0l196 1400h832l-8 -60h-772l-79 -560h656l-8 -60h-656l-93 -660h772l-8 -60h-832zM321 1650h676l-8 -60h-676z" />
    <glyph glyph-name="emacron" unicode="&#x113;" horiz-adv-x="1118" 
d="M458 -26q-138 0 -241.5 71t-154 190.5t-30.5 264.5q15 110 67.5 205.5t131.5 168t175.5 113.5t199.5 41q107 0 191.5 -40t141 -114t79.5 -176.5t8 -227.5h-938q-7 -125 40 -223.5t135 -155.5t203 -57q128 0 240 68t188 188l58 -14q-79 -133 -211.5 -217.5t-282.5 -84.5z
M96 530h878q13 117 -33 217t-135.5 160.5t-207.5 60.5q-119 0 -224 -59t-179 -158.5t-99 -220.5zM298 1250h676l-8 -60h-676z" />
    <glyph glyph-name="Edotaccent" unicode="&#x116;" horiz-adv-x="1052" 
d="M22 0l196 1400h832l-8 -60h-772l-79 -560h656l-8 -60h-656l-93 -660h772l-8 -60h-832zM655 1610q-19 0 -31 12.5t-9 31.5q3 20 18 32t34 12q18 0 29.5 -12t8.5 -31q-3 -20 -17.5 -32.5t-32.5 -12.5z" />
    <glyph glyph-name="edotaccent" unicode="&#x117;" horiz-adv-x="1118" 
d="M458 -26q-138 0 -241.5 71t-154 190.5t-30.5 264.5q15 110 67.5 205.5t131.5 168t175.5 113.5t199.5 41q107 0 191.5 -40t141 -114t79.5 -176.5t8 -227.5h-938q-7 -125 40 -223.5t135 -155.5t203 -57q128 0 240 68t188 188l58 -14q-79 -133 -211.5 -217.5t-282.5 -84.5z
M96 530h878q13 117 -33 217t-135.5 160.5t-207.5 60.5q-119 0 -224 -59t-179 -158.5t-99 -220.5zM632 1210q-19 0 -31 12.5t-9 31.5q3 20 18 32t34 12q18 0 29.5 -12t8.5 -31q-3 -20 -17.5 -32.5t-32.5 -12.5z" />
    <glyph glyph-name="Eogonek" unicode="&#x118;" horiz-adv-x="1052" 
d="M22 0l196 1400h832l-8 -60h-772l-79 -560h656l-8 -60h-656l-93 -660h772l-8 -60h-832zM560 -371q-42 1 -70.5 21.5t-41 53.5t-7.5 69q4 27 17.5 53t38.5 48l192 168l36 -42q-80 -70 -125 -109t-65 -59t-26 -32t-8 -27q-4 -31 13.5 -56.5t55.5 -27.5q39 0 78 28t46 79h60
q-7 -49 -35.5 -86.5t-70.5 -59t-88 -21.5z" />
    <glyph glyph-name="eogonek" unicode="&#x119;" horiz-adv-x="1118" 
d="M458 -26q-138 0 -241.5 71t-154 190.5t-30.5 264.5q15 110 67.5 205.5t131.5 168t175.5 113.5t199.5 41q107 0 191.5 -40t141 -114t79.5 -176.5t8 -227.5h-938q-7 -125 40 -223.5t135 -155.5t203 -57q128 0 240 68t188 188l58 -14q-79 -133 -211.5 -217.5t-282.5 -84.5z
M96 530h878q13 117 -33 217t-135.5 160.5t-207.5 60.5q-119 0 -224 -59t-179 -158.5t-99 -220.5zM453 -371q-42 1 -70.5 21.5t-41 53.5t-7.5 69q4 27 17.5 53t38.5 48l192 168l36 -42q-80 -70 -125 -109t-65 -59t-26 -32t-8 -27q-4 -31 13.5 -56.5t55.5 -27.5q39 0 78 28
t46 79h60q-7 -49 -35.5 -86.5t-70.5 -59t-88 -21.5z" />
    <glyph glyph-name="Ecaron" unicode="&#x11a;" horiz-adv-x="1052" 
d="M22 0l196 1400h832l-8 -60h-772l-79 -560h656l-8 -60h-656l-93 -660h772l-8 -60h-832zM609 1510l-152 288h40l154 -210l209 210h40l-231 -288h-60z" />
    <glyph glyph-name="ecaron" unicode="&#x11b;" horiz-adv-x="1118" 
d="M458 -26q-138 0 -241.5 71t-154 190.5t-30.5 264.5q15 110 67.5 205.5t131.5 168t175.5 113.5t199.5 41q107 0 191.5 -40t141 -114t79.5 -176.5t8 -227.5h-938q-7 -125 40 -223.5t135 -155.5t203 -57q128 0 240 68t188 188l58 -14q-79 -133 -211.5 -217.5t-282.5 -84.5z
M96 530h878q13 117 -33 217t-135.5 160.5t-207.5 60.5q-119 0 -224 -59t-179 -158.5t-99 -220.5zM586 1110l-152 288h40l154 -210l209 210h40l-231 -288h-60z" />
    <glyph glyph-name="Gcircumflex" unicode="&#x11c;" horiz-adv-x="1536" 
d="M668 -26q-143 0 -260.5 56.5t-198 156.5t-115.5 231.5t-14 281.5t93 281.5t181 231.5t242 156.5t276 56.5q168 0 301 -78.5t209 -209.5l-59 -30q-73 123 -194.5 190.5t-264.5 67.5q-132 0 -254 -53t-221.5 -145.5t-164.5 -213t-84 -254.5q-19 -136 13 -256.5
t105.5 -212.5t180.5 -144.5t237 -52.5q118 0 228.5 43t204 118.5t161.5 175t101 211.5h-472l9 60h540q-28 -139 -102.5 -260t-181 -212.5t-234 -143.5t-262.5 -52zM955 1798l152 -288h-40l-154 210l-209 -210h-40l231 288h60z" />
    <glyph glyph-name="gcircumflex" unicode="&#x11d;" horiz-adv-x="1136" 
d="M998 1000h60l-147 -1050q-12 -87 -63 -167.5t-127 -144.5t-164.5 -101t-177.5 -37q-104 0 -193 50.5t-146.5 133.5t-66.5 180l59 26q5 -90 56.5 -165t131 -120t168.5 -45q77 0 154.5 32.5t143.5 87.5t110 125t55 145l39 282q-71 -115 -183 -186.5t-249 -71.5
q-103 0 -188 41t-143.5 113.5t-84 167.5t-10.5 204q15 110 67.5 205.5t131.5 168t175.5 113.5t199.5 41q137 0 228.5 -71t131.5 -187zM466 34q124 0 221.5 65t159.5 171t79 230q18 127 -14.5 233.5t-112 170.5t-201.5 64q-123 0 -232 -63t-182.5 -169.5t-91.5 -235.5
q-18 -130 27 -235.5t136 -168t211 -62.5zM697 1398l152 -288h-40l-154 210l-209 -210h-40l231 288h60z" />
    <glyph glyph-name="Gbreve" unicode="&#x11e;" horiz-adv-x="1536" 
d="M668 -26q-143 0 -260.5 56.5t-198 156.5t-115.5 231.5t-14 281.5t93 281.5t181 231.5t242 156.5t276 56.5q168 0 301 -78.5t209 -209.5l-59 -30q-73 123 -194.5 190.5t-264.5 67.5q-132 0 -254 -53t-221.5 -145.5t-164.5 -213t-84 -254.5q-19 -136 13 -256.5
t105.5 -212.5t180.5 -144.5t237 -52.5q118 0 228.5 43t204 118.5t161.5 175t101 211.5h-472l9 60h540q-28 -139 -102.5 -260t-181 -212.5t-234 -143.5t-262.5 -52zM881 1488q-91 0 -160 45t-103.5 120.5t-22.5 166.5h60q-10 -77 19.5 -138.5t86.5 -97.5t128 -36q74 0 141 37
t113 98.5t56 136.5h60q-13 -94 -69.5 -169t-138.5 -119t-170 -44z" />
    <glyph glyph-name="gbreve" unicode="&#x11f;" horiz-adv-x="1136" 
d="M998 1000h60l-147 -1050q-12 -87 -63 -167.5t-127 -144.5t-164.5 -101t-177.5 -37q-104 0 -193 50.5t-146.5 133.5t-66.5 180l59 26q5 -90 56.5 -165t131 -120t168.5 -45q77 0 154.5 32.5t143.5 87.5t110 125t55 145l39 282q-71 -115 -183 -186.5t-249 -71.5
q-103 0 -188 41t-143.5 113.5t-84 167.5t-10.5 204q15 110 67.5 205.5t131.5 168t175.5 113.5t199.5 41q137 0 228.5 -71t131.5 -187zM466 34q124 0 221.5 65t159.5 171t79 230q18 127 -14.5 233.5t-112 170.5t-201.5 64q-123 0 -232 -63t-182.5 -169.5t-91.5 -235.5
q-18 -130 27 -235.5t136 -168t211 -62.5zM623 1088q-91 0 -160 45t-103.5 120.5t-22.5 166.5h60q-10 -77 19.5 -138.5t86.5 -97.5t128 -36q74 0 141 37t113 98.5t56 136.5h60q-13 -94 -69.5 -169t-138.5 -119t-170 -44z" />
    <glyph glyph-name="Gdotaccent" unicode="&#x120;" horiz-adv-x="1536" 
d="M668 -26q-143 0 -260.5 56.5t-198 156.5t-115.5 231.5t-14 281.5t93 281.5t181 231.5t242 156.5t276 56.5q168 0 301 -78.5t209 -209.5l-59 -30q-73 123 -194.5 190.5t-264.5 67.5q-132 0 -254 -53t-221.5 -145.5t-164.5 -213t-84 -254.5q-19 -136 13 -256.5
t105.5 -212.5t180.5 -144.5t237 -52.5q118 0 228.5 43t204 118.5t161.5 175t101 211.5h-472l9 60h540q-28 -139 -102.5 -260t-181 -212.5t-234 -143.5t-262.5 -52zM899 1610q-19 0 -31 12.5t-9 31.5q3 20 18 32t34 12q18 0 29.5 -12t8.5 -31q-3 -20 -17.5 -32.5t-32.5 -12.5
z" />
    <glyph glyph-name="gdotaccent" unicode="&#x121;" horiz-adv-x="1136" 
d="M998 1000h60l-147 -1050q-12 -87 -63 -167.5t-127 -144.5t-164.5 -101t-177.5 -37q-104 0 -193 50.5t-146.5 133.5t-66.5 180l59 26q5 -90 56.5 -165t131 -120t168.5 -45q77 0 154.5 32.5t143.5 87.5t110 125t55 145l39 282q-71 -115 -183 -186.5t-249 -71.5
q-103 0 -188 41t-143.5 113.5t-84 167.5t-10.5 204q15 110 67.5 205.5t131.5 168t175.5 113.5t199.5 41q137 0 228.5 -71t131.5 -187zM466 34q124 0 221.5 65t159.5 171t79 230q18 127 -14.5 233.5t-112 170.5t-201.5 64q-123 0 -232 -63t-182.5 -169.5t-91.5 -235.5
q-18 -130 27 -235.5t136 -168t211 -62.5zM641 1210q-19 0 -31 12.5t-9 31.5q3 20 18 32t34 12q18 0 29.5 -12t8.5 -31q-3 -20 -17.5 -32.5t-32.5 -12.5z" />
    <glyph glyph-name="uni0122" unicode="&#x122;" horiz-adv-x="1536" 
d="M668 -26q-143 0 -260.5 56.5t-198 156.5t-115.5 231.5t-14 281.5t93 281.5t181 231.5t242 156.5t276 56.5q168 0 301 -78.5t209 -209.5l-59 -30q-73 123 -194.5 190.5t-264.5 67.5q-132 0 -254 -53t-221.5 -145.5t-164.5 -213t-84 -254.5q-19 -136 13 -256.5
t105.5 -212.5t180.5 -144.5t237 -52.5q118 0 228.5 43t204 118.5t161.5 175t101 211.5h-472l9 60h540q-28 -139 -102.5 -260t-181 -212.5t-234 -143.5t-262.5 -52zM516 -441l109 338h60l-129 -338h-40z" />
    <glyph glyph-name="Hcircumflex" unicode="&#x124;" horiz-adv-x="1214" 
d="M1132 1400h60l-196 -1400h-60l101 720h-854l-101 -720h-60l196 1400h60l-87 -620h854zM792 1798l152 -288h-40l-154 210l-209 -210h-40l231 288h60z" />
    <glyph glyph-name="hcircumflex" unicode="&#x125;" horiz-adv-x="1039" 
d="M946 609l-85 -609h-60l85 609q14 100 -23 181t-111.5 129.5t-173.5 48.5t-187.5 -48.5t-148.5 -129.5t-74 -181l-85 -609h-60l210 1500h60l-94 -675q68 92 170.5 147.5t216.5 55.5q116 0 203 -56.5t130.5 -151.5t26.5 -211zM729 1823l152 -288h-40l-154 210l-209 -210
h-40l231 288h60z" />
    <glyph glyph-name="Itilde" unicode="&#x128;" horiz-adv-x="360" 
d="M52 0l196 1400h60l-196 -1400h-60zM454 1551q-37 0 -75 22t-76 51t-74.5 51t-71.5 22q-36 0 -64.5 -32t-24.5 -74l-60 -16q-8 41 13 83t61.5 70.5t88.5 28.5q38 0 79 -22t81 -51t78 -51t70 -22q24 0 44 20t31.5 45t7.5 41l58 18q8 -43 -13.5 -85.5t-62.5 -70.5t-90 -28z
" />
    <glyph glyph-name="itilde" unicode="&#x129;" horiz-adv-x="300" 
d="M315 1121q-25 0 -52 17.5t-53.5 40.5t-52 41t-50.5 18t-45 -26t-17 -59l-42 -13q-6 33 9 66.5t43.5 56.5t61.5 23q27 0 55.5 -18t56.5 -41t54.5 -40.5t49.5 -17.5q25 0 43.5 32.5t14.5 52.5l41 14q8 -52 -28.5 -99.5t-88.5 -47.5zM162 1000h60l-140 -1000h-60z" />
    <glyph glyph-name="Imacron" unicode="&#x12a;" horiz-adv-x="360" 
d="M52 0l196 1400h60l-196 -1400h-60zM-25 1650h676l-8 -60h-676z" />
    <glyph glyph-name="imacron" unicode="&#x12b;" horiz-adv-x="300" 
d="M57 1250h300l-4 -60h-299zM162 1000h60l-140 -1000h-60z" />
    <glyph glyph-name="Iogonek" unicode="&#x12e;" horiz-adv-x="360" 
d="M52 0l196 1400h60l-196 -1400h-60zM-53 -371q-42 1 -70.5 21.5t-41 53.5t-7.5 69q4 27 17.5 53t38.5 48l192 168l36 -42q-80 -70 -125 -109t-65 -59t-26 -32t-8 -27q-4 -31 13.5 -56.5t55.5 -27.5q39 0 78 28t46 79h60q-7 -49 -35.5 -86.5t-70.5 -59t-88 -21.5z" />
    <glyph glyph-name="iogonek" unicode="&#x12f;" horiz-adv-x="300" 
d="M162 1000h60l-140 -1000h-60zM223 1210q-19 0 -31 12.5t-9 31.5q3 20 18 32t34 12q18 0 29.5 -12t8.5 -31q-3 -20 -17.5 -32.5t-32.5 -12.5zM-83 -371q-42 1 -70.5 21.5t-41 53.5t-7.5 69q4 27 17.5 53t38.5 48l192 168l36 -42q-80 -70 -125 -109t-65 -59t-26 -32t-8 -27
q-4 -31 13.5 -56.5t55.5 -27.5q39 0 78 28t46 79h60q-7 -49 -35.5 -86.5t-70.5 -59t-88 -21.5z" />
    <glyph glyph-name="Idotaccent" unicode="&#x130;" horiz-adv-x="360" 
d="M52 0l196 1400h60l-196 -1400h-60zM309 1610q-19 0 -31 12.5t-9 31.5q3 20 18 32t34 12q18 0 29.5 -12t8.5 -31q-3 -20 -17.5 -32.5t-32.5 -12.5z" />
    <glyph glyph-name="dotlessi" unicode="&#x131;" horiz-adv-x="300" 
d="M162 1000h60l-140 -1000h-60z" />
    <glyph glyph-name="IJ" unicode="&#x132;" horiz-adv-x="1098" 
d="M52 0l196 1400h60l-196 -1400h-60zM522 -26q-61 0 -115.5 20t-97.5 62l45 46q35 -33 80 -50.5t96 -17.5q81 0 154 44.5t123 115.5t61 152l148 1054h60l-148 -1054q-13 -97 -73 -182t-147.5 -137.5t-185.5 -52.5z" />
    <glyph glyph-name="ij" unicode="&#x133;" horiz-adv-x="626" 
d="M162 1000h60l-140 -1000h-60zM223 1210q-19 0 -31 12.5t-9 31.5q3 20 18 32t34 12q18 0 29.5 -12t8.5 -31q-3 -20 -17.5 -32.5t-32.5 -12.5zM-29 -500l9 60q88 0 162.5 38.5t123.5 104.5t61 149l161 1148h60l-161 -1148q-14 -98 -72.5 -178t-148 -127t-195.5 -47z
M549 1210q-19 0 -31 12.5t-9 31.5q3 20 18 32t34 12q18 0 29.5 -12t8.5 -31q-3 -20 -17.5 -32.5t-32.5 -12.5z" />
    <glyph glyph-name="Jcircumflex" unicode="&#x134;" horiz-adv-x="738" 
d="M162 -26q-61 0 -115.5 20t-97.5 62l45 46q35 -33 80 -50.5t96 -17.5q81 0 154 44.5t123 115.5t61 152l148 1054h60l-148 -1054q-13 -97 -73 -182t-147.5 -137.5t-185.5 -52.5zM773 1798l152 -288h-40l-154 210l-209 -210h-40l231 288h60z" />
    <glyph glyph-name="jcircumflex" unicode="&#x135;" horiz-adv-x="406" 
d="M-249 -500l9 60q88 0 162.5 38.5t123.5 104.5t61 149l161 1148h60l-161 -1148q-14 -98 -72.5 -178t-148 -127t-195.5 -47zM385 1398l152 -288h-40l-154 210l-209 -210h-40l231 288h60z" />
    <glyph glyph-name="uni0136" unicode="&#x136;" horiz-adv-x="984" 
d="M826 0h-76l-413 690l-185 -190l-70 -500h-60l196 1400h60l-113 -806l789 806h78l-649 -662zM241 -441l109 338h60l-129 -338h-40z" />
    <glyph glyph-name="uni0137" unicode="&#x137;" horiz-adv-x="915" 
d="M717 0h-68l-243 552l-287 -294l-36 -258h-60l210 1500h60l-161 -1148l635 648h78l-392 -398zM190 -441l109 338h60l-129 -338h-40z" />
    <glyph glyph-name="Lacute" unicode="&#x139;" horiz-adv-x="970" 
d="M22 0l196 1400h60l-188 -1340h690l-8 -60h-750zM254 1510l120 288h60l-140 -288h-40z" />
    <glyph glyph-name="lacute" unicode="&#x13a;" horiz-adv-x="301" 
d="M23 0l210 1500h60l-210 -1500h-60zM269 1610l120 288h60l-140 -288h-40z" />
    <glyph glyph-name="uni013B" unicode="&#x13b;" horiz-adv-x="970" 
d="M22 0l196 1400h60l-188 -1340h690l-8 -60h-750zM243 -441l109 338h60l-129 -338h-40z" />
    <glyph glyph-name="uni013C" unicode="&#x13c;" horiz-adv-x="301" 
d="M23 0l210 1500h60l-210 -1500h-60zM-101 -441l109 338h60l-129 -338h-40z" />
    <glyph glyph-name="Lcaron" unicode="&#x13d;" horiz-adv-x="970" 
d="M22 0l196 1400h60l-188 -1340h690l-8 -60h-750zM616 1212l120 288h60l-140 -288h-40z" />
    <glyph glyph-name="lcaron" unicode="&#x13e;" horiz-adv-x="301" 
d="M23 0l210 1500h60l-210 -1500h-60zM354 1212l120 288h60l-140 -288h-40z" />
    <glyph glyph-name="Nacute" unicode="&#x143;" horiz-adv-x="1218" 
d="M22 0l196 1400h66l671 -1292l181 1292h60l-196 -1400h-64l-673 1292l-181 -1292h-60zM713 1510l120 288h60l-140 -288h-40z" />
    <glyph glyph-name="nacute" unicode="&#x144;" horiz-adv-x="1038" 
d="M945 609l-85 -609h-60l85 609q14 100 -23 181t-111.5 129.5t-173.5 48.5t-187.5 -48.5t-148.5 -129.5t-74 -181l-85 -609h-60l140 1000h60l-24 -175q68 92 170.5 147.5t216.5 55.5q116 0 203 -56.5t130.5 -151.5t26.5 -211zM587 1110l120 288h60l-140 -288h-40z" />
    <glyph glyph-name="uni0145" unicode="&#x145;" horiz-adv-x="1218" 
d="M22 0l196 1400h66l671 -1292l181 1292h60l-196 -1400h-64l-673 1292l-181 -1292h-60zM357 -441l109 338h60l-129 -338h-40z" />
    <glyph glyph-name="uni0146" unicode="&#x146;" horiz-adv-x="1038" 
d="M945 609l-85 -609h-60l85 609q14 100 -23 181t-111.5 129.5t-173.5 48.5t-187.5 -48.5t-148.5 -129.5t-74 -181l-85 -609h-60l140 1000h60l-24 -175q68 92 170.5 147.5t216.5 55.5q116 0 203 -56.5t130.5 -151.5t26.5 -211zM287 -441l109 338h60l-129 -338h-40z" />
    <glyph glyph-name="Ncaron" unicode="&#x147;" horiz-adv-x="1218" 
d="M22 0l196 1400h66l671 -1292l181 1292h60l-196 -1400h-64l-673 1292l-181 -1292h-60zM692 1510l-152 288h40l154 -210l209 210h40l-231 -288h-60z" />
    <glyph glyph-name="ncaron" unicode="&#x148;" horiz-adv-x="1038" 
d="M945 609l-85 -609h-60l85 609q14 100 -23 181t-111.5 129.5t-173.5 48.5t-187.5 -48.5t-148.5 -129.5t-74 -181l-85 -609h-60l140 1000h60l-24 -175q68 92 170.5 147.5t216.5 55.5q116 0 203 -56.5t130.5 -151.5t26.5 -211zM566 1110l-152 288h40l154 -210l209 210h40
l-231 -288h-60z" />
    <glyph glyph-name="Omacron" unicode="&#x14c;" horiz-adv-x="1540" 
d="M668 -26q-142 0 -259.5 56.5t-198 156.5t-116 231.5t-14.5 281.5t93 281.5t181.5 231.5t242.5 156.5t275 56.5q143 0 260 -56.5t197.5 -156.5t116 -231.5t14.5 -281.5t-93 -281.5t-181.5 -231.5t-242 -156.5t-275.5 -56.5zM676 34q132 0 254 53t221 145t164.5 212.5
t84.5 255.5q19 137 -13 257.5t-105.5 212.5t-180 144t-237.5 52q-132 0 -254 -53t-221 -145t-164.5 -212.5t-84.5 -255.5q-19 -137 13 -257.5t105.5 -212.5t180.5 -144t237 -52zM565 1650h676l-8 -60h-676z" />
    <glyph glyph-name="omacron" unicode="&#x14d;" horiz-adv-x="1120" 
d="M458 -26q-138 0 -241.5 71t-154 190.5t-30.5 264.5q15 110 67.5 205.5t131.5 168t175.5 113.5t199.5 41q138 0 241.5 -71t154.5 -191t30 -266q-15 -109 -67.5 -204t-131.5 -167.5t-175 -113.5t-200 -41zM466 34q124 0 233 64.5t182.5 170.5t90.5 231q18 126 -25.5 232.5
t-134 171t-214.5 64.5q-125 0 -234 -64.5t-181.5 -171t-90.5 -232.5q-18 -130 27 -235.5t136 -168t211 -62.5zM299 1250h676l-8 -60h-676z" />
    <glyph glyph-name="Ohungarumlaut" unicode="&#x150;" horiz-adv-x="1540" 
d="M668 -26q-142 0 -259.5 56.5t-198 156.5t-116 231.5t-14.5 281.5t93 281.5t181.5 231.5t242.5 156.5t275 56.5q143 0 260 -56.5t197.5 -156.5t116 -231.5t14.5 -281.5t-93 -281.5t-181.5 -231.5t-242 -156.5t-275.5 -56.5zM676 34q132 0 254 53t221 145t164.5 212.5
t84.5 255.5q19 137 -13 257.5t-105.5 212.5t-180 144t-237.5 52q-132 0 -254 -53t-221 -145t-164.5 -212.5t-84.5 -255.5q-19 -137 13 -257.5t105.5 -212.5t180.5 -144t237 -52zM995 1510l120 288h60l-140 -288h-40zM768 1510l120 288h60l-140 -288h-40z" />
    <glyph glyph-name="ohungarumlaut" unicode="&#x151;" horiz-adv-x="1120" 
d="M458 -26q-138 0 -241.5 71t-154 190.5t-30.5 264.5q15 110 67.5 205.5t131.5 168t175.5 113.5t199.5 41q138 0 241.5 -71t154.5 -191t30 -266q-15 -109 -67.5 -204t-131.5 -167.5t-175 -113.5t-200 -41zM466 34q124 0 233 64.5t182.5 170.5t90.5 231q18 126 -25.5 232.5
t-134 171t-214.5 64.5q-125 0 -234 -64.5t-181.5 -171t-90.5 -232.5q-18 -130 27 -235.5t136 -168t211 -62.5zM729 1110l120 288h60l-140 -288h-40zM502 1110l120 288h60l-140 -288h-40z" />
    <glyph glyph-name="OE" unicode="&#x152;" horiz-adv-x="2206" 
d="M668 -26q-142 0 -259.5 56.5t-198 156.5t-116 231.5t-14.5 281.5t93 281.5t181.5 231.5t242.5 156.5t275 56.5q140 0 255.5 -55t197 -152t117.5 -223l56 404h706l-8 -60h-646l-86 -610h550l-8 -60h-550l-86 -610h646l-8 -60h-706l56 404q-71 -126 -179.5 -223
t-239.5 -152t-271 -55zM676 34q132 0 254 53t221 145t164.5 212.5t84.5 255.5q19 137 -13 257.5t-105.5 212.5t-180 144t-237.5 52q-132 0 -254 -53t-221 -145t-164.5 -212.5t-84.5 -255.5q-19 -137 13 -257.5t105.5 -212.5t180.5 -144t237 -52z" />
    <glyph glyph-name="oe" unicode="&#x153;" horiz-adv-x="2058" 
d="M458 -26q-138 0 -241.5 71t-154 190.5t-30.5 264.5q15 110 67.5 205.5t131.5 168t175.5 113.5t199.5 41q108 0 195.5 -44.5t146.5 -123t79 -180.5q50 102 130.5 180.5t180.5 123t208 44.5q107 0 191.5 -40t141 -114t79.5 -176.5t8 -227.5h-938q-7 -125 40 -223.5
t135 -155.5t203 -57q128 0 240 68t188 188l58 -14q-79 -133 -211.5 -217.5t-282.5 -84.5q-108 0 -195.5 44.5t-146 122.5t-79.5 179q-49 -101 -130 -179t-181 -122.5t-208 -44.5zM466 34q124 0 233 64.5t182.5 170.5t90.5 231q18 126 -25.5 232.5t-134 171t-214.5 64.5
q-125 0 -234 -64.5t-181.5 -171t-90.5 -232.5q-18 -130 27 -235.5t136 -168t211 -62.5zM1036 530h878q13 117 -33 217t-135.5 160.5t-207.5 60.5q-119 0 -224 -59t-179 -158.5t-99 -220.5z" />
    <glyph glyph-name="Racute" unicode="&#x154;" horiz-adv-x="1040" 
d="M22 0l196 1400h428q110 0 191.5 -52.5t121 -143t23.5 -204.5q-15 -109 -75.5 -196t-149.5 -140.5t-189 -61.5l264 -602h-70l-264 600h-332l-84 -600h-60zM174 660h368q91 0 173 44t138 121t69 175q14 98 -20 175t-103.5 121t-160.5 44h-368zM498 1510l120 288h60
l-140 -288h-40z" />
    <glyph glyph-name="racute" unicode="&#x155;" horiz-adv-x="672" 
d="M22 0l140 1000h60l-24 -175q68 92 170.5 147.5t216.5 55.5q59 0 111 -15l-34 -56q-42 11 -85 11q-99 0 -187.5 -48.5t-148.5 -129.5t-74 -181l-85 -609h-60zM408 1110l120 288h60l-140 -288h-40z" />
    <glyph glyph-name="uni0156" unicode="&#x156;" horiz-adv-x="1040" 
d="M22 0l196 1400h428q110 0 191.5 -52.5t121 -143t23.5 -204.5q-15 -109 -75.5 -196t-149.5 -140.5t-189 -61.5l264 -602h-70l-264 600h-332l-84 -600h-60zM174 660h368q91 0 173 44t138 121t69 175q14 98 -20 175t-103.5 121t-160.5 44h-368zM253 -441l109 338h60
l-129 -338h-40z" />
    <glyph glyph-name="uni0157" unicode="&#x157;" horiz-adv-x="672" 
d="M22 0l140 1000h60l-24 -175q68 92 170.5 147.5t216.5 55.5q59 0 111 -15l-34 -56q-42 11 -85 11q-99 0 -187.5 -48.5t-148.5 -129.5t-74 -181l-85 -609h-60zM-102 -441l109 338h60l-129 -338h-40z" />
    <glyph glyph-name="Rcaron" unicode="&#x158;" horiz-adv-x="1040" 
d="M22 0l196 1400h428q110 0 191.5 -52.5t121 -143t23.5 -204.5q-15 -109 -75.5 -196t-149.5 -140.5t-189 -61.5l264 -602h-70l-264 600h-332l-84 -600h-60zM174 660h368q91 0 173 44t138 121t69 175q14 98 -20 175t-103.5 121t-160.5 44h-368zM477 1510l-152 288h40
l154 -210l209 210h40l-231 -288h-60z" />
    <glyph glyph-name="rcaron" unicode="&#x159;" horiz-adv-x="672" 
d="M22 0l140 1000h60l-24 -175q68 92 170.5 147.5t216.5 55.5q59 0 111 -15l-34 -56q-42 11 -85 11q-99 0 -187.5 -48.5t-148.5 -129.5t-74 -181l-85 -609h-60zM387 1110l-152 288h40l154 -210l209 210h40l-231 -288h-60z" />
    <glyph glyph-name="Sacute" unicode="&#x15a;" horiz-adv-x="1198" 
d="M496 -26q-109 0 -207 33.5t-166 95.5t-86 149l59 22q17 -79 79.5 -132.5t150 -80.5t178.5 -27q113 0 216.5 39t174.5 110t84 167q14 98 -40 160.5t-147 99t-199 56.5q-135 26 -240 65.5t-158.5 112t-36.5 198.5q16 115 96 199.5t198 130.5t247 46q104 0 201 -32
t167.5 -94.5t92.5 -153.5l-61 -20q-17 79 -80 132.5t-150.5 80.5t-178.5 27q-114 0 -217 -39.5t-172 -110.5t-83 -166q-15 -108 32.5 -167.5t140 -90.5t211.5 -54q126 -24 231 -70t163.5 -121.5t42.5 -188.5q-16 -115 -96.5 -199.5t-198.5 -130.5t-248 -46zM703 1510
l120 288h60l-140 -288h-40z" />
    <glyph glyph-name="sacute" unicode="&#x15b;" horiz-adv-x="852" 
d="M339 -20q-86 0 -163.5 29t-130.5 78t-66 109l60 24q11 -54 61 -94.5t117 -63t130 -22.5q78 0 150 27.5t121 76.5t58 114q10 68 -28.5 107.5t-103 64.5t-135.5 48q-110 36 -186 68t-111 79.5t-24 130.5q12 85 71.5 147.5t146.5 96.5t181 34q125 0 217.5 -55.5
t116.5 -142.5l-56 -30q-13 53 -57.5 90.5t-105 57.5t-123.5 20q-79 0 -151 -26.5t-121 -75.5t-59 -116q-10 -69 20.5 -105.5t94.5 -59.5t154 -53t167 -63t120.5 -83.5t31.5 -133.5q-12 -85 -71.5 -147.5t-146 -96.5t-179.5 -34zM474 1110l120 288h60l-140 -288h-40z" />
    <glyph glyph-name="Scircumflex" unicode="&#x15c;" horiz-adv-x="1198" 
d="M496 -26q-109 0 -207 33.5t-166 95.5t-86 149l59 22q17 -79 79.5 -132.5t150 -80.5t178.5 -27q113 0 216.5 39t174.5 110t84 167q14 98 -40 160.5t-147 99t-199 56.5q-135 26 -240 65.5t-158.5 112t-36.5 198.5q16 115 96 199.5t198 130.5t247 46q104 0 201 -32
t167.5 -94.5t92.5 -153.5l-61 -20q-17 79 -80 132.5t-150.5 80.5t-178.5 27q-114 0 -217 -39.5t-172 -110.5t-83 -166q-15 -108 32.5 -167.5t140 -90.5t211.5 -54q126 -24 231 -70t163.5 -121.5t42.5 -188.5q-16 -115 -96.5 -199.5t-198.5 -130.5t-248 -46zM784 1798
l152 -288h-40l-154 210l-209 -210h-40l231 288h60z" />
    <glyph glyph-name="scircumflex" unicode="&#x15d;" horiz-adv-x="852" 
d="M339 -20q-86 0 -163.5 29t-130.5 78t-66 109l60 24q11 -54 61 -94.5t117 -63t130 -22.5q78 0 150 27.5t121 76.5t58 114q10 68 -28.5 107.5t-103 64.5t-135.5 48q-110 36 -186 68t-111 79.5t-24 130.5q12 85 71.5 147.5t146.5 96.5t181 34q125 0 217.5 -55.5
t116.5 -142.5l-56 -30q-13 53 -57.5 90.5t-105 57.5t-123.5 20q-79 0 -151 -26.5t-121 -75.5t-59 -116q-10 -69 20.5 -105.5t94.5 -59.5t154 -53t167 -63t120.5 -83.5t31.5 -133.5q-12 -85 -71.5 -147.5t-146 -96.5t-179.5 -34zM555 1398l152 -288h-40l-154 210l-209 -210
h-40l231 288h60z" />
    <glyph glyph-name="Scedilla" unicode="&#x15e;" horiz-adv-x="1198" 
d="M496 -26q-109 0 -207 33.5t-166 95.5t-86 149l59 22q17 -79 79.5 -132.5t150 -80.5t178.5 -27q113 0 216.5 39t174.5 110t84 167q14 98 -40 160.5t-147 99t-199 56.5q-135 26 -240 65.5t-158.5 112t-36.5 198.5q16 115 96 199.5t198 130.5t247 46q104 0 201 -32
t167.5 -94.5t92.5 -153.5l-61 -20q-17 79 -80 132.5t-150.5 80.5t-178.5 27q-114 0 -217 -39.5t-172 -110.5t-83 -166q-15 -108 32.5 -167.5t140 -90.5t211.5 -54q126 -24 231 -70t163.5 -121.5t42.5 -188.5q-16 -115 -96.5 -199.5t-198.5 -130.5t-248 -46zM512 -360
q-59 -16 -106.5 14t-55.5 88l60 15q5 -33 32.5 -50.5t62.5 -8.5t57 39t17 64q-4 34 -32 51.5t-63 8.5l-73 -19l136 188l48 -30l-56 -78q39 -7 67 -35t33 -70q8 -58 -29.5 -110t-97.5 -67z" />
    <glyph glyph-name="scedilla" unicode="&#x15f;" horiz-adv-x="852" 
d="M339 -20q-86 0 -163.5 29t-130.5 78t-66 109l60 24q11 -54 61 -94.5t117 -63t130 -22.5q78 0 150 27.5t121 76.5t58 114q10 68 -28.5 107.5t-103 64.5t-135.5 48q-110 36 -186 68t-111 79.5t-24 130.5q12 85 71.5 147.5t146.5 96.5t181 34q125 0 217.5 -55.5
t116.5 -142.5l-56 -30q-13 53 -57.5 90.5t-105 57.5t-123.5 20q-79 0 -151 -26.5t-121 -75.5t-59 -116q-10 -69 20.5 -105.5t94.5 -59.5t154 -53t167 -63t120.5 -83.5t31.5 -133.5q-12 -85 -71.5 -147.5t-146 -96.5t-179.5 -34zM337 -360q-59 -16 -106.5 14t-55.5 88l60 15
q5 -33 32.5 -50.5t62.5 -8.5t57 39t17 64q-4 34 -32 51.5t-63 8.5l-73 -19l136 188l48 -30l-56 -78q39 -7 67 -35t33 -70q8 -58 -29.5 -110t-97.5 -67z" />
    <glyph glyph-name="Scaron" unicode="&#x160;" horiz-adv-x="1198" 
d="M496 -26q-109 0 -207 33.5t-166 95.5t-86 149l59 22q17 -79 79.5 -132.5t150 -80.5t178.5 -27q113 0 216.5 39t174.5 110t84 167q14 98 -40 160.5t-147 99t-199 56.5q-135 26 -240 65.5t-158.5 112t-36.5 198.5q16 115 96 199.5t198 130.5t247 46q104 0 201 -32
t167.5 -94.5t92.5 -153.5l-61 -20q-17 79 -80 132.5t-150.5 80.5t-178.5 27q-114 0 -217 -39.5t-172 -110.5t-83 -166q-15 -108 32.5 -167.5t140 -90.5t211.5 -54q126 -24 231 -70t163.5 -121.5t42.5 -188.5q-16 -115 -96.5 -199.5t-198.5 -130.5t-248 -46zM682 1510
l-152 288h40l154 -210l209 210h40l-231 -288h-60z" />
    <glyph glyph-name="scaron" unicode="&#x161;" horiz-adv-x="852" 
d="M339 -20q-86 0 -163.5 29t-130.5 78t-66 109l60 24q11 -54 61 -94.5t117 -63t130 -22.5q78 0 150 27.5t121 76.5t58 114q10 68 -28.5 107.5t-103 64.5t-135.5 48q-110 36 -186 68t-111 79.5t-24 130.5q12 85 71.5 147.5t146.5 96.5t181 34q125 0 217.5 -55.5
t116.5 -142.5l-56 -30q-13 53 -57.5 90.5t-105 57.5t-123.5 20q-79 0 -151 -26.5t-121 -75.5t-59 -116q-10 -69 20.5 -105.5t94.5 -59.5t154 -53t167 -63t120.5 -83.5t31.5 -133.5q-12 -85 -71.5 -147.5t-146 -96.5t-179.5 -34zM453 1110l-152 288h40l154 -210l209 210h40
l-231 -288h-60z" />
    <glyph glyph-name="uni0162" unicode="&#x162;" horiz-adv-x="1259" 
d="M1276 1400l-8 -60h-520l-188 -1340h-60l188 1340h-518l8 60h1098zM477 -360q-59 -16 -106.5 14t-55.5 88l60 15q5 -33 32.5 -50.5t62.5 -8.5t57 39t17 64q-4 34 -32 51.5t-63 8.5l-73 -19l136 188l48 -30l-56 -78q39 -7 67 -35t33 -70q8 -58 -29.5 -110t-97.5 -67z" />
    <glyph glyph-name="uni0163" unicode="&#x163;" horiz-adv-x="670" 
d="M646 940h-274l-134 -940h-60l134 940h-206l8 60h206l42 314h60l-42 -314h274zM155 -360q-59 -16 -106.5 14t-55.5 88l60 15q5 -33 32.5 -50.5t62.5 -8.5t57 39t17 64q-4 34 -32 51.5t-63 8.5l-73 -19l136 188l48 -30l-56 -78q39 -7 67 -35t33 -70q8 -58 -29.5 -110
t-97.5 -67z" />
    <glyph glyph-name="Tcaron" unicode="&#x164;" horiz-adv-x="1259" 
d="M1276 1400l-8 -60h-520l-188 -1340h-60l188 1340h-518l8 60h1098zM712 1510l-152 288h40l154 -210l209 210h40l-231 -288h-60z" />
    <glyph glyph-name="tcaron" unicode="&#x165;" horiz-adv-x="670" 
d="M646 940h-274l-134 -940h-60l134 940h-206l8 60h206l42 314h60l-42 -314h274zM580 1212l120 288h60l-140 -288h-40z" />
    <glyph glyph-name="Utilde" unicode="&#x168;" horiz-adv-x="1300" 
d="M548 -26q-168 0 -275 82t-150 220.5t-19 307.5l114 816h60l-114 -816q-21 -150 15.5 -275t130.5 -200t246 -75q154 0 269.5 76t186.5 201t92 273l114 816h60l-114 -816q-18 -127 -69 -237.5t-131 -194.5t-185 -131t-231 -47zM924 1551q-37 0 -75 22t-76 51t-74.5 51
t-71.5 22q-36 0 -64.5 -32t-24.5 -74l-60 -16q-8 41 13 83t61.5 70.5t88.5 28.5q38 0 79 -22t81 -51t78 -51t70 -22q24 0 44 20t31.5 45t7.5 41l58 18q8 -43 -13.5 -85.5t-62.5 -70.5t-90 -28z" />
    <glyph glyph-name="utilde" unicode="&#x169;" 
d="M37 393l85 607h60l-85 -607q-14 -99 23 -180.5t111.5 -130t173.5 -48.5t187.5 48.5t148.5 130t74 180.5l85 607h60l-140 -1000h-60l24 177q-67 -91 -170 -147t-217 -56q-116 0 -203 56.5t-130 151.5t-27 211zM717 1151q-37 0 -75 22t-76 51t-74.5 51t-71.5 22
q-36 0 -64.5 -32t-24.5 -74l-60 -16q-8 41 13 83t61.5 70.5t88.5 28.5q38 0 79 -22t81 -51t78 -51t70 -22q24 0 44 20t31.5 45t7.5 41l58 18q8 -43 -13.5 -85.5t-62.5 -70.5t-90 -28z" />
    <glyph glyph-name="Umacron" unicode="&#x16a;" horiz-adv-x="1300" 
d="M548 -26q-168 0 -275 82t-150 220.5t-19 307.5l114 816h60l-114 -816q-21 -150 15.5 -275t130.5 -200t246 -75q154 0 269.5 76t186.5 201t92 273l114 816h60l-114 -816q-18 -127 -69 -237.5t-131 -194.5t-185 -131t-231 -47zM445 1650h676l-8 -60h-676z" />
    <glyph glyph-name="umacron" unicode="&#x16b;" 
d="M37 393l85 607h60l-85 -607q-14 -99 23 -180.5t111.5 -130t173.5 -48.5t187.5 48.5t148.5 130t74 180.5l85 607h60l-140 -1000h-60l24 177q-67 -91 -170 -147t-217 -56q-116 0 -203 56.5t-130 151.5t-27 211zM238 1250h676l-8 -60h-676z" />
    <glyph glyph-name="Ubreve" unicode="&#x16c;" horiz-adv-x="1300" 
d="M548 -26q-168 0 -275 82t-150 220.5t-19 307.5l114 816h60l-114 -816q-21 -150 15.5 -275t130.5 -200t246 -75q154 0 269.5 76t186.5 201t92 273l114 816h60l-114 -816q-18 -127 -69 -237.5t-131 -194.5t-185 -131t-231 -47zM761 1488q-91 0 -160 45t-103.5 120.5
t-22.5 166.5h60q-10 -77 19.5 -138.5t86.5 -97.5t128 -36q74 0 141 37t113 98.5t56 136.5h60q-13 -94 -69.5 -169t-138.5 -119t-170 -44z" />
    <glyph glyph-name="ubreve" unicode="&#x16d;" 
d="M37 393l85 607h60l-85 -607q-14 -99 23 -180.5t111.5 -130t173.5 -48.5t187.5 48.5t148.5 130t74 180.5l85 607h60l-140 -1000h-60l24 177q-67 -91 -170 -147t-217 -56q-116 0 -203 56.5t-130 151.5t-27 211zM554 1088q-91 0 -160 45t-103.5 120.5t-22.5 166.5h60
q-10 -77 19.5 -138.5t86.5 -97.5t128 -36q74 0 141 37t113 98.5t56 136.5h60q-13 -94 -69.5 -169t-138.5 -119t-170 -44z" />
    <glyph glyph-name="Uring" unicode="&#x16e;" horiz-adv-x="1300" 
d="M548 -26q-168 0 -275 82t-150 220.5t-19 307.5l114 816h60l-114 -816q-21 -150 15.5 -275t130.5 -200t246 -75q154 0 269.5 76t186.5 201t92 273l114 816h60l-114 -816q-18 -127 -69 -237.5t-131 -194.5t-185 -131t-231 -47zM764 1515q-57 0 -91.5 41.5t-26.5 98.5
q5 37 28 68.5t57 50.5t72 19q57 0 92 -41t27 -97q-8 -58 -54.5 -99t-103.5 -41zM771 1563q38 0 68 26.5t35 65.5q5 36 -17.5 62t-60.5 26q-37 0 -67 -26t-35 -62q-5 -39 17.5 -65.5t59.5 -26.5z" />
    <glyph glyph-name="uring" unicode="&#x16f;" 
d="M37 393l85 607h60l-85 -607q-14 -99 23 -180.5t111.5 -130t173.5 -48.5t187.5 48.5t148.5 130t74 180.5l85 607h60l-140 -1000h-60l24 177q-67 -91 -170 -147t-217 -56q-116 0 -203 56.5t-130 151.5t-27 211zM557 1115q-57 0 -91.5 41.5t-26.5 98.5q5 37 28 68.5t57 50.5
t72 19q57 0 92 -41t27 -97q-8 -58 -54.5 -99t-103.5 -41zM564 1163q38 0 68 26.5t35 65.5q5 36 -17.5 62t-60.5 26q-37 0 -67 -26t-35 -62q-5 -39 17.5 -65.5t59.5 -26.5z" />
    <glyph glyph-name="Uhungarumlaut" unicode="&#x170;" horiz-adv-x="1300" 
d="M548 -26q-168 0 -275 82t-150 220.5t-19 307.5l114 816h60l-114 -816q-21 -150 15.5 -275t130.5 -200t246 -75q154 0 269.5 76t186.5 201t92 273l114 816h60l-114 -816q-18 -127 -69 -237.5t-131 -194.5t-185 -131t-231 -47zM875 1510l120 288h60l-140 -288h-40z
M648 1510l120 288h60l-140 -288h-40z" />
    <glyph glyph-name="uhungarumlaut" unicode="&#x171;" 
d="M37 393l85 607h60l-85 -607q-14 -99 23 -180.5t111.5 -130t173.5 -48.5t187.5 48.5t148.5 130t74 180.5l85 607h60l-140 -1000h-60l24 177q-67 -91 -170 -147t-217 -56q-116 0 -203 56.5t-130 151.5t-27 211zM668 1110l120 288h60l-140 -288h-40zM441 1110l120 288h60
l-140 -288h-40z" />
    <glyph glyph-name="Uogonek" unicode="&#x172;" horiz-adv-x="1300" 
d="M548 -26q-168 0 -275 82t-150 220.5t-19 307.5l114 816h60l-114 -816q-21 -150 15.5 -275t130.5 -200t246 -75q154 0 269.5 76t186.5 201t92 273l114 816h60l-114 -816q-18 -127 -69 -237.5t-131 -194.5t-185 -131t-231 -47zM473 -387q-42 1 -70.5 21.5t-41 53.5t-7.5 69
q4 27 17.5 53t38.5 48l192 168l36 -42q-80 -70 -125 -109t-65 -59t-26 -32t-8 -27q-4 -31 13.5 -56.5t55.5 -27.5q39 0 78 28t46 79h60q-7 -49 -35.5 -86.5t-70.5 -59t-88 -21.5z" />
    <glyph glyph-name="uogonek" unicode="&#x173;" 
d="M37 393l85 607h60l-85 -607q-14 -99 23 -180.5t111.5 -130t173.5 -48.5t187.5 48.5t148.5 130t74 180.5l85 607h60l-140 -1000h-60l24 177q-67 -91 -170 -147t-217 -56q-116 0 -203 56.5t-130 151.5t-27 211zM655 -371q-42 1 -70.5 21.5t-41 53.5t-7.5 69q4 27 17.5 53
t38.5 48l192 168l36 -42q-80 -70 -125 -109t-65 -59t-26 -32t-8 -27q-4 -31 13.5 -56.5t55.5 -27.5q39 0 78 28t46 79h60q-7 -49 -35.5 -86.5t-70.5 -59t-88 -21.5z" />
    <glyph glyph-name="Wcircumflex" unicode="&#x174;" horiz-adv-x="1552" 
d="M280 0l-162 1400h62l152 -1314l518 1314h48l152 -1314l518 1314h62l-552 -1400h-80l-145 1250l-495 -1250h-78zM961 1798l152 -288h-40l-154 210l-209 -210h-40l231 288h60z" />
    <glyph glyph-name="wcircumflex" unicode="&#x175;" horiz-adv-x="1564" 
d="M366 0h-68l-196 1000h58l184 -928l442 928h76l182 -928l442 928h60l-476 -1000h-70l-186 940zM911 1398l152 -288h-40l-154 210l-209 -210h-40l231 288h60z" />
    <glyph glyph-name="Ycircumflex" unicode="&#x176;" horiz-adv-x="1108" 
d="M1076 1400h70l-571 -764l-89 -636h-60l89 636l-357 764h70l326 -698zM738 1798l152 -288h-40l-154 210l-209 -210h-40l231 288h60z" />
    <glyph glyph-name="ycircumflex" unicode="&#x177;" horiz-adv-x="946" 
d="M846 1000h62l-757 -1500h-64l253 500l-218 1000h66l193 -916zM602 1398l152 -288h-40l-154 210l-209 -210h-40l231 288h60z" />
    <glyph glyph-name="Ydieresis" unicode="&#x178;" horiz-adv-x="1108" 
d="M1076 1400h70l-571 -764l-89 -636h-60l89 636l-357 764h70l326 -698zM540 1489q-19 0 -32 12.5t-10 31.5q2 18 18.5 32t35.5 14q18 0 30 -14t10 -32q-3 -19 -18.5 -31.5t-33.5 -12.5zM792 1489q-19 0 -32 12.5t-10 31.5q2 18 18.5 32t35.5 14q18 0 30 -14t10 -32
q-3 -19 -18.5 -31.5t-33.5 -12.5z" />
    <glyph glyph-name="Zacute" unicode="&#x179;" horiz-adv-x="1292" 
d="M-18 0l8 60l1234 1280h-1054l8 60h1132l-8 -60l-1234 -1280h1054l-8 -60h-1132zM750 1510l120 288h60l-140 -288h-40z" />
    <glyph glyph-name="zacute" unicode="&#x17a;" horiz-adv-x="1014" 
d="M968 940l-898 -880h774l-8 -60h-854l8 60l898 880h-774l8 60h854zM555 1110l120 288h60l-140 -288h-40z" />
    <glyph glyph-name="Zdotaccent" unicode="&#x17b;" horiz-adv-x="1292" 
d="M-18 0l8 60l1234 1280h-1054l8 60h1132l-8 -60l-1234 -1280h1054l-8 -60h-1132zM775 1610q-19 0 -31 12.5t-9 31.5q3 20 18 32t34 12q18 0 29.5 -12t8.5 -31q-3 -20 -17.5 -32.5t-32.5 -12.5z" />
    <glyph glyph-name="zdotaccent" unicode="&#x17c;" horiz-adv-x="1014" 
d="M968 940l-898 -880h774l-8 -60h-854l8 60l898 880h-774l8 60h854zM580 1210q-19 0 -31 12.5t-9 31.5q3 20 18 32t34 12q18 0 29.5 -12t8.5 -31q-3 -20 -17.5 -32.5t-32.5 -12.5z" />
    <glyph glyph-name="Zcaron" unicode="&#x17d;" horiz-adv-x="1292" 
d="M-18 0l8 60l1234 1280h-1054l8 60h1132l-8 -60l-1234 -1280h1054l-8 -60h-1132zM729 1510l-152 288h40l154 -210l209 210h40l-231 -288h-60z" />
    <glyph glyph-name="zcaron" unicode="&#x17e;" horiz-adv-x="1014" 
d="M968 940l-898 -880h774l-8 -60h-854l8 60l898 880h-774l8 60h854zM534 1110l-152 288h40l154 -210l209 210h40l-231 -288h-60z" />
    <glyph glyph-name="uni01CD" unicode="&#x1cd;" horiz-adv-x="1272" 
d="M688 1400h92l314 -1400h-64l-77 340h-736l-171 -340h-64zM248 400h692l-213 950zM719 1510l-152 288h40l154 -210l209 210h40l-231 -288h-60z" />
    <glyph glyph-name="uni01CE" unicode="&#x1ce;" horiz-adv-x="1134" 
d="M1036 1000h60l-140 -1000h-60l33 234q-70 -117 -184.5 -188.5t-260.5 -71.5q-109 0 -198.5 41t-151.5 113.5t-89.5 167.5t-12.5 204q15 110 69.5 205.5t137 168t183.5 113.5t210 41q146 0 240 -71.5t132 -188.5zM492 34q129 0 228 63t161.5 169t80.5 234
q19 131 -14.5 237t-115 168.5t-208.5 62.5q-129 0 -243.5 -63t-192.5 -169.5t-96 -235.5q-18 -131 31 -236.5t146.5 -167.5t222.5 -62zM609 1110l-152 288h40l154 -210l209 210h40l-231 -288h-60z" />
    <glyph glyph-name="uni01CF" unicode="&#x1cf;" horiz-adv-x="360" 
d="M52 0l196 1400h60l-196 -1400h-60zM263 1510l-152 288h40l154 -210l209 210h40l-231 -288h-60z" />
    <glyph glyph-name="uni01D0" unicode="&#x1d0;" horiz-adv-x="300" 
d="M162 1000h60l-140 -1000h-60zM177 1110l-152 288h40l154 -210l209 210h40l-231 -288h-60z" />
    <glyph glyph-name="uni01D1" unicode="&#x1d1;" horiz-adv-x="1540" 
d="M668 -26q-142 0 -259.5 56.5t-198 156.5t-116 231.5t-14.5 281.5t93 281.5t181.5 231.5t242.5 156.5t275 56.5q143 0 260 -56.5t197.5 -156.5t116 -231.5t14.5 -281.5t-93 -281.5t-181.5 -231.5t-242 -156.5t-275.5 -56.5zM676 34q132 0 254 53t221 145t164.5 212.5
t84.5 255.5q19 137 -13 257.5t-105.5 212.5t-180 144t-237.5 52q-132 0 -254 -53t-221 -145t-164.5 -212.5t-84.5 -255.5q-19 -137 13 -257.5t105.5 -212.5t180.5 -144t237 -52zM853 1510l-152 288h40l154 -210l209 210h40l-231 -288h-60z" />
    <glyph glyph-name="uni01D2" unicode="&#x1d2;" horiz-adv-x="1120" 
d="M458 -26q-138 0 -241.5 71t-154 190.5t-30.5 264.5q15 110 67.5 205.5t131.5 168t175.5 113.5t199.5 41q138 0 241.5 -71t154.5 -191t30 -266q-15 -109 -67.5 -204t-131.5 -167.5t-175 -113.5t-200 -41zM466 34q124 0 233 64.5t182.5 170.5t90.5 231q18 126 -25.5 232.5
t-134 171t-214.5 64.5q-125 0 -234 -64.5t-181.5 -171t-90.5 -232.5q-18 -130 27 -235.5t136 -168t211 -62.5zM587 1110l-152 288h40l154 -210l209 210h40l-231 -288h-60z" />
    <glyph glyph-name="uni01D3" unicode="&#x1d3;" horiz-adv-x="1300" 
d="M548 -26q-168 0 -275 82t-150 220.5t-19 307.5l114 816h60l-114 -816q-21 -150 15.5 -275t130.5 -200t246 -75q154 0 269.5 76t186.5 201t92 273l114 816h60l-114 -816q-18 -127 -69 -237.5t-131 -194.5t-185 -131t-231 -47zM733 1510l-152 288h40l154 -210l209 210h40
l-231 -288h-60z" />
    <glyph glyph-name="uni01D4" unicode="&#x1d4;" 
d="M37 393l85 607h60l-85 -607q-14 -99 23 -180.5t111.5 -130t173.5 -48.5t187.5 48.5t148.5 130t74 180.5l85 607h60l-140 -1000h-60l24 177q-67 -91 -170 -147t-217 -56q-116 0 -203 56.5t-130 151.5t-27 211zM526 1110l-152 288h40l154 -210l209 210h40l-231 -288h-60z
" />
    <glyph glyph-name="uni01D5" unicode="&#x1d5;" horiz-adv-x="1300" 
d="M548 -26q-168 0 -275 82t-150 220.5t-19 307.5l114 816h60l-114 -816q-21 -150 15.5 -275t130.5 -200t246 -75q154 0 269.5 76t186.5 201t92 273l114 816h60l-114 -816q-18 -127 -69 -237.5t-131 -194.5t-185 -131t-231 -47zM636 1489q-19 0 -32 12.5t-10 31.5
q2 18 18.5 32t35.5 14q18 0 30 -14t10 -32q-3 -19 -18.5 -31.5t-33.5 -12.5zM888 1489q-19 0 -32 12.5t-10 31.5q2 18 18.5 32t35.5 14q18 0 30 -14t10 -32q-3 -19 -18.5 -31.5t-33.5 -12.5zM468 1810h676l-8 -60h-676z" />
    <glyph glyph-name="uni01D6" unicode="&#x1d6;" 
d="M37 393l85 607h60l-85 -607q-14 -99 23 -180.5t111.5 -130t173.5 -48.5t187.5 48.5t148.5 130t74 180.5l85 607h60l-140 -1000h-60l24 177q-67 -91 -170 -147t-217 -56q-116 0 -203 56.5t-130 151.5t-27 211zM429 1089q-19 0 -32 12.5t-10 31.5q2 18 18.5 32t35.5 14
q18 0 30 -14t10 -32q-3 -19 -18.5 -31.5t-33.5 -12.5zM681 1089q-19 0 -32 12.5t-10 31.5q2 18 18.5 32t35.5 14q18 0 30 -14t10 -32q-3 -19 -18.5 -31.5t-33.5 -12.5zM261 1410h676l-8 -60h-676z" />
    <glyph glyph-name="uni01D7" unicode="&#x1d7;" horiz-adv-x="1300" 
d="M548 -26q-168 0 -275 82t-150 220.5t-19 307.5l114 816h60l-114 -816q-21 -150 15.5 -275t130.5 -200t246 -75q154 0 269.5 76t186.5 201t92 273l114 816h60l-114 -816q-18 -127 -69 -237.5t-131 -194.5t-185 -131t-231 -47zM636 1489q-19 0 -32 12.5t-10 31.5
q2 18 18.5 32t35.5 14q18 0 30 -14t10 -32q-3 -19 -18.5 -31.5t-33.5 -12.5zM888 1489q-19 0 -32 12.5t-10 31.5q2 18 18.5 32t35.5 14q18 0 30 -14t10 -32q-3 -19 -18.5 -31.5t-33.5 -12.5zM777 1670l120 288h60l-140 -288h-40z" />
    <glyph glyph-name="uni01D8" unicode="&#x1d8;" 
d="M37 393l85 607h60l-85 -607q-14 -99 23 -180.5t111.5 -130t173.5 -48.5t187.5 48.5t148.5 130t74 180.5l85 607h60l-140 -1000h-60l24 177q-67 -91 -170 -147t-217 -56q-116 0 -203 56.5t-130 151.5t-27 211zM429 1089q-19 0 -32 12.5t-10 31.5q2 18 18.5 32t35.5 14
q18 0 30 -14t10 -32q-3 -19 -18.5 -31.5t-33.5 -12.5zM681 1089q-19 0 -32 12.5t-10 31.5q2 18 18.5 32t35.5 14q18 0 30 -14t10 -32q-3 -19 -18.5 -31.5t-33.5 -12.5zM570 1270l120 288h60l-140 -288h-40z" />
    <glyph glyph-name="uni01D9" unicode="&#x1d9;" horiz-adv-x="1300" 
d="M548 -26q-168 0 -275 82t-150 220.5t-19 307.5l114 816h60l-114 -816q-21 -150 15.5 -275t130.5 -200t246 -75q154 0 269.5 76t186.5 201t92 273l114 816h60l-114 -816q-18 -127 -69 -237.5t-131 -194.5t-185 -131t-231 -47zM636 1489q-19 0 -32 12.5t-10 31.5
q2 18 18.5 32t35.5 14q18 0 30 -14t10 -32q-3 -19 -18.5 -31.5t-33.5 -12.5zM888 1489q-19 0 -32 12.5t-10 31.5q2 18 18.5 32t35.5 14q18 0 30 -14t10 -32q-3 -19 -18.5 -31.5t-33.5 -12.5zM756 1670l-152 288h40l154 -210l209 210h40l-231 -288h-60z" />
    <glyph glyph-name="uni01DA" unicode="&#x1da;" 
d="M37 393l85 607h60l-85 -607q-14 -99 23 -180.5t111.5 -130t173.5 -48.5t187.5 48.5t148.5 130t74 180.5l85 607h60l-140 -1000h-60l24 177q-67 -91 -170 -147t-217 -56q-116 0 -203 56.5t-130 151.5t-27 211zM429 1089q-19 0 -32 12.5t-10 31.5q2 18 18.5 32t35.5 14
q18 0 30 -14t10 -32q-3 -19 -18.5 -31.5t-33.5 -12.5zM681 1089q-19 0 -32 12.5t-10 31.5q2 18 18.5 32t35.5 14q18 0 30 -14t10 -32q-3 -19 -18.5 -31.5t-33.5 -12.5zM549 1270l-152 288h40l154 -210l209 210h40l-231 -288h-60z" />
    <glyph glyph-name="uni01DB" unicode="&#x1db;" horiz-adv-x="1300" 
d="M548 -26q-168 0 -275 82t-150 220.5t-19 307.5l114 816h60l-114 -816q-21 -150 15.5 -275t130.5 -200t246 -75q154 0 269.5 76t186.5 201t92 273l114 816h60l-114 -816q-18 -127 -69 -237.5t-131 -194.5t-185 -131t-231 -47zM636 1489q-19 0 -32 12.5t-10 31.5
q2 18 18.5 32t35.5 14q18 0 30 -14t10 -32q-3 -19 -18.5 -31.5t-33.5 -12.5zM888 1489q-19 0 -32 12.5t-10 31.5q2 18 18.5 32t35.5 14q18 0 30 -14t10 -32q-3 -19 -18.5 -31.5t-33.5 -12.5zM687 1958h60l40 -288h-40z" />
    <glyph glyph-name="uni01DC" unicode="&#x1dc;" 
d="M37 393l85 607h60l-85 -607q-14 -99 23 -180.5t111.5 -130t173.5 -48.5t187.5 48.5t148.5 130t74 180.5l85 607h60l-140 -1000h-60l24 177q-67 -91 -170 -147t-217 -56q-116 0 -203 56.5t-130 151.5t-27 211zM429 1089q-19 0 -32 12.5t-10 31.5q2 18 18.5 32t35.5 14
q18 0 30 -14t10 -32q-3 -19 -18.5 -31.5t-33.5 -12.5zM681 1089q-19 0 -32 12.5t-10 31.5q2 18 18.5 32t35.5 14q18 0 30 -14t10 -32q-3 -19 -18.5 -31.5t-33.5 -12.5zM480 1558h60l40 -288h-40z" />
    <glyph glyph-name="uni01DE" unicode="&#x1de;" horiz-adv-x="1272" 
d="M688 1400h92l314 -1400h-64l-77 340h-736l-171 -340h-64zM248 400h692l-213 950zM622 1489q-19 0 -32 12.5t-10 31.5q2 18 18.5 32t35.5 14q18 0 30 -14t10 -32q-3 -19 -18.5 -31.5t-33.5 -12.5zM874 1489q-19 0 -32 12.5t-10 31.5q2 18 18.5 32t35.5 14q18 0 30 -14
t10 -32q-3 -19 -18.5 -31.5t-33.5 -12.5zM454 1810h676l-8 -60h-676z" />
    <glyph glyph-name="uni01DF" unicode="&#x1df;" horiz-adv-x="1134" 
d="M1036 1000h60l-140 -1000h-60l33 234q-70 -117 -184.5 -188.5t-260.5 -71.5q-109 0 -198.5 41t-151.5 113.5t-89.5 167.5t-12.5 204q15 110 69.5 205.5t137 168t183.5 113.5t210 41q146 0 240 -71.5t132 -188.5zM492 34q129 0 228 63t161.5 169t80.5 234
q19 131 -14.5 237t-115 168.5t-208.5 62.5q-129 0 -243.5 -63t-192.5 -169.5t-96 -235.5q-18 -131 31 -236.5t146.5 -167.5t222.5 -62zM512 1089q-19 0 -32 12.5t-10 31.5q2 18 18.5 32t35.5 14q18 0 30 -14t10 -32q-3 -19 -18.5 -31.5t-33.5 -12.5zM764 1089
q-19 0 -32 12.5t-10 31.5q2 18 18.5 32t35.5 14q18 0 30 -14t10 -32q-3 -19 -18.5 -31.5t-33.5 -12.5zM344 1410h676l-8 -60h-676z" />
    <glyph glyph-name="uni01E2" unicode="&#x1e2;" horiz-adv-x="1574" 
d="M-18 0l706 1400h884l-8 -60h-632l-86 -610h536l-8 -60h-536l-86 -610h632l-8 -60h-692l47 340h-514l-171 -340h-64zM248 400h492l132 940h-148zM827 1650h676l-8 -60h-676z" />
    <glyph glyph-name="uni01E3" unicode="&#x1e3;" horiz-adv-x="1816" 
d="M213 -24q-82 0 -141.5 33.5t-88 95.5t-16.5 145q11 75 52 139t108.5 103t155.5 39h452q21 119 -13.5 218t-119 159t-212.5 60q-74 0 -148 -27l-24 53q47 17 92 25.5t88 8.5q152 0 259.5 -87t145.5 -227q52 93 130 163.5t173.5 110.5t197.5 40q107 0 191.5 -40t141 -114
t79.5 -176.5t8 -227.5h-938q-7 -125 40 -223.5t135 -155.5t203 -57q128 0 240 68t188 188l58 -14q-79 -133 -211.5 -217.5t-282.5 -84.5q-108 0 -196 44.5t-146.5 123t-78.5 179.5q-56 -103 -138.5 -181t-180.5 -121t-203 -43zM222 36q141 0 259.5 80t185.5 198
q41 73 58 157h-450q-100 0 -167.5 -63.5t-80.5 -157.5q-12 -84 35.5 -149t159.5 -65zM794 530h878q13 117 -33 217t-135.5 160.5t-207.5 60.5q-119 0 -224 -59t-179 -158.5t-99 -220.5zM540 1250h676l-8 -60h-676z" />
    <glyph glyph-name="Gcaron" unicode="&#x1e6;" horiz-adv-x="1536" 
d="M668 -26q-143 0 -260.5 56.5t-198 156.5t-115.5 231.5t-14 281.5t93 281.5t181 231.5t242 156.5t276 56.5q168 0 301 -78.5t209 -209.5l-59 -30q-73 123 -194.5 190.5t-264.5 67.5q-132 0 -254 -53t-221.5 -145.5t-164.5 -213t-84 -254.5q-19 -136 13 -256.5
t105.5 -212.5t180.5 -144.5t237 -52.5q118 0 228.5 43t204 118.5t161.5 175t101 211.5h-472l9 60h540q-28 -139 -102.5 -260t-181 -212.5t-234 -143.5t-262.5 -52zM853 1510l-152 288h40l154 -210l209 210h40l-231 -288h-60z" />
    <glyph glyph-name="gcaron" unicode="&#x1e7;" horiz-adv-x="1136" 
d="M998 1000h60l-147 -1050q-12 -87 -63 -167.5t-127 -144.5t-164.5 -101t-177.5 -37q-104 0 -193 50.5t-146.5 133.5t-66.5 180l59 26q5 -90 56.5 -165t131 -120t168.5 -45q77 0 154.5 32.5t143.5 87.5t110 125t55 145l39 282q-71 -115 -183 -186.5t-249 -71.5
q-103 0 -188 41t-143.5 113.5t-84 167.5t-10.5 204q15 110 67.5 205.5t131.5 168t175.5 113.5t199.5 41q137 0 228.5 -71t131.5 -187zM466 34q124 0 221.5 65t159.5 171t79 230q18 127 -14.5 233.5t-112 170.5t-201.5 64q-123 0 -232 -63t-182.5 -169.5t-91.5 -235.5
q-18 -130 27 -235.5t136 -168t211 -62.5zM595 1110l-152 288h40l154 -210l209 210h40l-231 -288h-60z" />
    <glyph glyph-name="uni01E8" unicode="&#x1e8;" horiz-adv-x="984" 
d="M826 0h-76l-413 690l-185 -190l-70 -500h-60l196 1400h60l-113 -806l789 806h78l-649 -662zM575 1510l-152 288h40l154 -210l209 210h40l-231 -288h-60z" />
    <glyph glyph-name="uni01E9" unicode="&#x1e9;" horiz-adv-x="915" 
d="M717 0h-68l-243 552l-287 -294l-36 -258h-60l210 1500h60l-161 -1148l635 648h78l-392 -398zM550 1510l-152 288h40l154 -210l209 210h40l-231 -288h-60z" />
    <glyph glyph-name="uni0218" unicode="&#x218;" horiz-adv-x="1198" 
d="M496 -26q-109 0 -207 33.5t-166 95.5t-86 149l59 22q17 -79 79.5 -132.5t150 -80.5t178.5 -27q113 0 216.5 39t174.5 110t84 167q14 98 -40 160.5t-147 99t-199 56.5q-135 26 -240 65.5t-158.5 112t-36.5 198.5q16 115 96 199.5t198 130.5t247 46q104 0 201 -32
t167.5 -94.5t92.5 -153.5l-61 -20q-17 79 -80 132.5t-150.5 80.5t-178.5 27q-114 0 -217 -39.5t-172 -110.5t-83 -166q-15 -108 32.5 -167.5t140 -90.5t211.5 -54q126 -24 231 -70t163.5 -121.5t42.5 -188.5q-16 -115 -96.5 -199.5t-198.5 -130.5t-248 -46zM411 -441
l109 338h60l-129 -338h-40z" />
    <glyph glyph-name="uni0219" unicode="&#x219;" horiz-adv-x="852" 
d="M339 -20q-86 0 -163.5 29t-130.5 78t-66 109l60 24q11 -54 61 -94.5t117 -63t130 -22.5q78 0 150 27.5t121 76.5t58 114q10 68 -28.5 107.5t-103 64.5t-135.5 48q-110 36 -186 68t-111 79.5t-24 130.5q12 85 71.5 147.5t146.5 96.5t181 34q125 0 217.5 -55.5
t116.5 -142.5l-56 -30q-13 53 -57.5 90.5t-105 57.5t-123.5 20q-79 0 -151 -26.5t-121 -75.5t-59 -116q-10 -69 20.5 -105.5t94.5 -59.5t154 -53t167 -63t120.5 -83.5t31.5 -133.5q-12 -85 -71.5 -147.5t-146 -96.5t-179.5 -34zM236 -441l109 338h60l-129 -338h-40z" />
    <glyph glyph-name="uni021A" unicode="&#x21a;" horiz-adv-x="1259" 
d="M1276 1400l-8 -60h-520l-188 -1340h-60l188 1340h-518l8 60h1098zM376 -441l109 338h60l-129 -338h-40z" />
    <glyph glyph-name="uni021B" unicode="&#x21b;" horiz-adv-x="670" 
d="M646 940h-274l-134 -940h-60l134 940h-206l8 60h206l42 314h60l-42 -314h274zM54 -441l109 338h60l-129 -338h-40z" />
    <glyph glyph-name="uni022A" unicode="&#x22a;" horiz-adv-x="1540" 
d="M668 -26q-142 0 -259.5 56.5t-198 156.5t-116 231.5t-14.5 281.5t93 281.5t181.5 231.5t242.5 156.5t275 56.5q143 0 260 -56.5t197.5 -156.5t116 -231.5t14.5 -281.5t-93 -281.5t-181.5 -231.5t-242 -156.5t-275.5 -56.5zM676 34q132 0 254 53t221 145t164.5 212.5
t84.5 255.5q19 137 -13 257.5t-105.5 212.5t-180 144t-237.5 52q-132 0 -254 -53t-221 -145t-164.5 -212.5t-84.5 -255.5q-19 -137 13 -257.5t105.5 -212.5t180.5 -144t237 -52zM756 1489q-19 0 -32 12.5t-10 31.5q2 18 18.5 32t35.5 14q18 0 30 -14t10 -32
q-3 -19 -18.5 -31.5t-33.5 -12.5zM1008 1489q-19 0 -32 12.5t-10 31.5q2 18 18.5 32t35.5 14q18 0 30 -14t10 -32q-3 -19 -18.5 -31.5t-33.5 -12.5zM588 1810h676l-8 -60h-676z" />
    <glyph glyph-name="uni022B" unicode="&#x22b;" horiz-adv-x="1120" 
d="M458 -26q-138 0 -241.5 71t-154 190.5t-30.5 264.5q15 110 67.5 205.5t131.5 168t175.5 113.5t199.5 41q138 0 241.5 -71t154.5 -191t30 -266q-15 -109 -67.5 -204t-131.5 -167.5t-175 -113.5t-200 -41zM466 34q124 0 233 64.5t182.5 170.5t90.5 231q18 126 -25.5 232.5
t-134 171t-214.5 64.5q-125 0 -234 -64.5t-181.5 -171t-90.5 -232.5q-18 -130 27 -235.5t136 -168t211 -62.5zM490 1089q-19 0 -32 12.5t-10 31.5q2 18 18.5 32t35.5 14q18 0 30 -14t10 -32q-3 -19 -18.5 -31.5t-33.5 -12.5zM742 1089q-19 0 -32 12.5t-10 31.5q2 18 18.5 32
t35.5 14q18 0 30 -14t10 -32q-3 -19 -18.5 -31.5t-33.5 -12.5zM322 1410h676l-8 -60h-676z" />
    <glyph glyph-name="uni0232" unicode="&#x232;" horiz-adv-x="1108" 
d="M1076 1400h70l-571 -764l-89 -636h-60l89 636l-357 764h70l326 -698zM349 1650h676l-8 -60h-676z" />
    <glyph glyph-name="uni0233" unicode="&#x233;" horiz-adv-x="946" 
d="M846 1000h62l-757 -1500h-64l253 500l-218 1000h66l193 -916zM212 1250h676l-8 -60h-676z" />
    <glyph glyph-name="uni0237" unicode="&#x237;" horiz-adv-x="406" 
d="M-249 -500l9 60q88 0 162.5 38.5t123.5 104.5t61 149l161 1148h60l-161 -1148q-14 -98 -72.5 -178t-148 -127t-195.5 -47z" />
    <glyph glyph-name="quoteleft" unicode="&#x2bb;" horiz-adv-x="222" 
d="M85 878l155 522h40l-135 -522h-60z" />
    <glyph glyph-name="quoteleft" unicode="&#x2018;" horiz-adv-x="222" 
d="M85 878l155 522h40l-135 -522h-60z" />
    <glyph glyph-name="uni02BC" unicode="&#x2bc;" horiz-adv-x="302" 
d="M65 878l135 522h60l-155 -522h-40z" />
    <glyph glyph-name="circumflex" unicode="&#x2c6;" horiz-adv-x="469" 
d="M362 1398l152 -288h-40l-154 210l-209 -210h-40l231 288h60z" />
    <glyph glyph-name="caron" unicode="&#x2c7;" horiz-adv-x="435" 
d="M246 1110l-152 288h40l154 -210l209 210h40l-231 -288h-60z" />
    <glyph glyph-name="breve" unicode="&#x2d8;" horiz-adv-x="1144" 
d="M627 1088q-91 0 -160 45t-103.5 120.5t-22.5 166.5h60q-10 -77 19.5 -138.5t86.5 -97.5t128 -36q74 0 141 37t113 98.5t56 136.5h60q-13 -94 -69.5 -169t-138.5 -119t-170 -44z" />
    <glyph glyph-name="dotaccent" unicode="&#x2d9;" horiz-adv-x="890" 
d="M518 1210q-19 0 -31 12.5t-9 31.5q3 20 18 32t34 12q18 0 29.5 -12t8.5 -31q-3 -20 -17.5 -32.5t-32.5 -12.5z" />
    <glyph glyph-name="ring" unicode="&#x2da;" horiz-adv-x="1076" 
d="M596 1115q-57 0 -91.5 41.5t-26.5 98.5q5 37 28 68.5t57 50.5t72 19q57 0 92 -41t27 -97q-8 -58 -54.5 -99t-103.5 -41zM603 1163q38 0 68 26.5t35 65.5q5 36 -17.5 62t-60.5 26q-37 0 -67 -26t-35 -62q-5 -39 17.5 -65.5t59.5 -26.5z" />
    <glyph glyph-name="ogonek" unicode="&#x2db;" horiz-adv-x="910" 
d="M289 -371q-42 1 -70.5 21.5t-41 53.5t-7.5 69q4 27 17.5 53t38.5 48l192 168l36 -42q-80 -70 -125 -109t-65 -59t-26 -32t-8 -27q-4 -31 13.5 -56.5t55.5 -27.5q39 0 78 28t46 79h60q-7 -49 -35.5 -86.5t-70.5 -59t-88 -21.5z" />
    <glyph glyph-name="tilde" unicode="&#x2dc;" horiz-adv-x="1154" 
d="M799 1169q-37 0 -75 22t-76 51t-74.5 51t-71.5 22q-36 0 -64.5 -32t-24.5 -74l-60 -16q-8 41 13 83t61.5 70.5t88.5 28.5q38 0 79 -22t81 -51t78 -51t70 -22q24 0 44 20t31.5 45t7.5 41l58 18q8 -43 -13.5 -85.5t-62.5 -70.5t-90 -28z" />
    <glyph glyph-name="hungarumlaut" unicode="&#x2dd;" horiz-adv-x="767" 
d="M485 1110l120 288h60l-140 -288h-40zM258 1110l120 288h60l-140 -288h-40z" />
    <glyph glyph-name="gravecomb" unicode="&#x300;" horiz-adv-x="0" 
d="M298 1398h60l40 -288h-40z" />
    <glyph glyph-name="acutecomb" unicode="&#x301;" horiz-adv-x="0" 
d="M258 1110l120 288h60l-140 -288h-40z" />
    <glyph glyph-name="uni0302" unicode="&#x302;" horiz-adv-x="0" 
d="M362 1398l152 -288h-40l-154 210l-209 -210h-40l231 288h60z" />
    <glyph glyph-name="tildecomb" unicode="&#x303;" horiz-adv-x="0" 
d="M819 1151q-37 0 -75 22t-76 51t-74.5 51t-71.5 22q-36 0 -64.5 -32t-24.5 -74l-60 -16q-8 41 13 83t61.5 70.5t88.5 28.5q38 0 79 -22t81 -51t78 -51t70 -22q24 0 44 20t31.5 45t7.5 41l58 18q8 -43 -13.5 -85.5t-62.5 -70.5t-90 -28z" />
    <glyph glyph-name="uni0304" unicode="&#x304;" horiz-adv-x="0" 
d="M339 1250h676l-8 -60h-676z" />
    <glyph glyph-name="uni0306" unicode="&#x306;" horiz-adv-x="0" 
d="M627 1088q-91 0 -160 45t-103.5 120.5t-22.5 166.5h60q-10 -77 19.5 -138.5t86.5 -97.5t128 -36q74 0 141 37t113 98.5t56 136.5h60q-13 -94 -69.5 -169t-138.5 -119t-170 -44z" />
    <glyph glyph-name="uni0307" unicode="&#x307;" horiz-adv-x="0" 
d="M518 1210q-19 0 -31 12.5t-9 31.5q3 20 18 32t34 12q18 0 29.5 -12t8.5 -31q-3 -20 -17.5 -32.5t-32.5 -12.5z" />
    <glyph glyph-name="uni0308" unicode="&#x308;" horiz-adv-x="0" 
d="M503 1089q-19 0 -32 12.5t-10 31.5q2 18 18.5 32t35.5 14q18 0 30 -14t10 -32q-3 -19 -18.5 -31.5t-33.5 -12.5zM755 1089q-19 0 -32 12.5t-10 31.5q2 18 18.5 32t35.5 14q18 0 30 -14t10 -32q-3 -19 -18.5 -31.5t-33.5 -12.5z" />
    <glyph glyph-name="uni030A" unicode="&#x30a;" horiz-adv-x="0" 
d="M596 1115q-57 0 -91.5 41.5t-26.5 98.5q5 37 28 68.5t57 50.5t72 19q57 0 92 -41t27 -97q-8 -58 -54.5 -99t-103.5 -41zM603 1163q38 0 68 26.5t35 65.5q5 36 -17.5 62t-60.5 26q-37 0 -67 -26t-35 -62q-5 -39 17.5 -65.5t59.5 -26.5z" />
    <glyph glyph-name="uni030B" unicode="&#x30b;" horiz-adv-x="0" 
d="M485 1110l120 288h60l-140 -288h-40zM258 1110l120 288h60l-140 -288h-40z" />
    <glyph glyph-name="uni030C" unicode="&#x30c;" horiz-adv-x="0" 
d="M246 1110l-152 288h40l154 -210l209 210h40l-231 -288h-60z" />
    <glyph glyph-name="dotbelowcomb" unicode="&#x323;" horiz-adv-x="0" 
d="M518 -359q-19 0 -31 12.5t-9 31.5q3 20 18 32t34 12q18 0 29.5 -12t8.5 -31q-3 -20 -17.5 -32.5t-32.5 -12.5z" />
    <glyph glyph-name="uni0326" unicode="&#x326;" horiz-adv-x="0" 
d="M240 -441l109 338h60l-129 -338h-40z" />
    <glyph glyph-name="uni0327" unicode="&#x327;" horiz-adv-x="0" 
d="M427 -360q-59 -16 -106.5 14t-55.5 88l60 15q5 -33 32.5 -50.5t62.5 -8.5t57 39t17 64q-4 34 -32 51.5t-63 8.5l-73 -19l136 188l48 -30l-56 -78q39 -7 67 -35t33 -70q8 -58 -29.5 -110t-97.5 -67z" />
    <glyph glyph-name="uni0328" unicode="&#x328;" horiz-adv-x="0" 
d="M289 -371q-42 1 -70.5 21.5t-41 53.5t-7.5 69q4 27 17.5 53t38.5 48l192 168l36 -42q-80 -70 -125 -109t-65 -59t-26 -32t-8 -27q-4 -31 13.5 -56.5t55.5 -27.5q39 0 78 28t46 79h60q-7 -49 -35.5 -86.5t-70.5 -59t-88 -21.5z" />
    <glyph glyph-name="uni03BC" unicode="&#x3bc;" 
d="M-79 -432l201 1432h60l-77 -548q-16 -115 19.5 -210t109 -151.5t172.5 -56.5q98 0 187.5 56.5t151.5 151.5t78 210l77 548h60l-140 -1000h-60l29 206q-77 -109 -178.5 -170.5t-212.5 -61.5q-118 0 -203 65.5t-124 168.5l-90 -640h-60z" />
    <glyph glyph-name="uni1E04" unicode="&#x1e04;" horiz-adv-x="1070" 
d="M22 0l196 1400h444q96 0 169.5 -38.5t110.5 -114t21 -186.5q-10 -74 -48.5 -136.5t-85.5 -102.5t-86 -46q57 -17 99.5 -54t69 -88.5t36 -110.5t0.5 -121q-17 -125 -78.5 -215t-150 -138.5t-187.5 -48.5h-510zM90 60h450q83 0 157.5 44.5t126 122t64.5 175.5
q13 88 -16.5 165t-91 125t-144.5 48h-450zM194 800h384q119 0 213 67t112 194q20 143 -55 211t-194 68h-384zM400 -359q-19 0 -31 12.5t-9 31.5q3 20 18 32t34 12q18 0 29.5 -12t8.5 -31q-3 -20 -17.5 -32.5t-32.5 -12.5z" />
    <glyph glyph-name="uni1E05" unicode="&#x1e05;" horiz-adv-x="1175" 
d="M635 1028q145 0 254.5 -71t164 -191t33.5 -266q-15 -109 -69.5 -204t-137 -167.5t-183.5 -113.5t-210 -41q-145 0 -239 71.5t-132 188.5l-33 -234h-60l210 1500h60l-102 -732q70 117 184.5 188.5t259.5 71.5zM495 34q129 0 244 63t192.5 169t95.5 234q19 132 -30.5 238
t-147 168t-222.5 62q-129 0 -228 -63.5t-161.5 -170t-80.5 -234.5q-18 -130 15 -235.5t114.5 -168t208.5 -62.5zM453 -359q-19 0 -31 12.5t-9 31.5q3 20 18 32t34 12q18 0 29.5 -12t8.5 -31q-3 -20 -17.5 -32.5t-32.5 -12.5z" />
    <glyph glyph-name="uni1E0C" unicode="&#x1e0c;" horiz-adv-x="1343" 
d="M22 0l196 1400h462q146 0 265 -54.5t201.5 -151t119 -223t16.5 -271.5t-92 -271.5t-181.5 -223t-244 -151t-280.5 -54.5h-462zM90 60h402q134 0 257 49.5t223 137.5t165.5 204t84.5 249t-14.5 249t-109 204t-184.5 137.5t-242 49.5h-402zM537 -359q-19 0 -31 12.5
t-9 31.5q3 20 18 32t34 12q18 0 29.5 -12t8.5 -31q-3 -20 -17.5 -32.5t-32.5 -12.5z" />
    <glyph glyph-name="uni1E0D" unicode="&#x1e0d;" horiz-adv-x="1174" 
d="M1106 1500h60l-210 -1500h-60l33 234q-70 -117 -184.5 -188.5t-260.5 -71.5q-109 0 -198.5 41t-151.5 113.5t-89.5 167.5t-12.5 204q15 110 69.5 205.5t137 168t183.5 113.5t210 41q146 0 240 -71.5t132 -188.5zM492 34q129 0 228 63t161.5 169t80.5 234
q19 131 -14.5 237t-115 168.5t-208.5 62.5q-128 0 -243 -63t-193 -169.5t-96 -235.5q-18 -131 31 -236.5t146.5 -167.5t222.5 -62zM467 -359q-19 0 -31 12.5t-9 31.5q3 20 18 32t34 12q18 0 29.5 -12t8.5 -31q-3 -20 -17.5 -32.5t-32.5 -12.5z" />
    <glyph glyph-name="uni1E20" unicode="&#x1e20;" horiz-adv-x="1536" 
d="M668 -26q-143 0 -260.5 56.5t-198 156.5t-115.5 231.5t-14 281.5t93 281.5t181 231.5t242 156.5t276 56.5q168 0 301 -78.5t209 -209.5l-59 -30q-73 123 -194.5 190.5t-264.5 67.5q-132 0 -254 -53t-221.5 -145.5t-164.5 -213t-84 -254.5q-19 -136 13 -256.5
t105.5 -212.5t180.5 -144.5t237 -52.5q118 0 228.5 43t204 118.5t161.5 175t101 211.5h-472l9 60h540q-28 -139 -102.5 -260t-181 -212.5t-234 -143.5t-262.5 -52zM565 1650h676l-8 -60h-676z" />
    <glyph glyph-name="uni1E21" unicode="&#x1e21;" horiz-adv-x="1136" 
d="M998 1000h60l-147 -1050q-12 -87 -63 -167.5t-127 -144.5t-164.5 -101t-177.5 -37q-104 0 -193 50.5t-146.5 133.5t-66.5 180l59 26q5 -90 56.5 -165t131 -120t168.5 -45q77 0 154.5 32.5t143.5 87.5t110 125t55 145l39 282q-71 -115 -183 -186.5t-249 -71.5
q-103 0 -188 41t-143.5 113.5t-84 167.5t-10.5 204q15 110 67.5 205.5t131.5 168t175.5 113.5t199.5 41q137 0 228.5 -71t131.5 -187zM466 34q124 0 221.5 65t159.5 171t79 230q18 127 -14.5 233.5t-112 170.5t-201.5 64q-123 0 -232 -63t-182.5 -169.5t-91.5 -235.5
q-18 -130 27 -235.5t136 -168t211 -62.5zM307 1250h676l-8 -60h-676z" />
    <glyph glyph-name="uni1E24" unicode="&#x1e24;" horiz-adv-x="1214" 
d="M1132 1400h60l-196 -1400h-60l101 720h-854l-101 -720h-60l196 1400h60l-87 -620h854zM472 -359q-19 0 -31 12.5t-9 31.5q3 20 18 32t34 12q18 0 29.5 -12t8.5 -31q-3 -20 -17.5 -32.5t-32.5 -12.5z" />
    <glyph glyph-name="uni1E25" unicode="&#x1e25;" horiz-adv-x="1039" 
d="M946 609l-85 -609h-60l85 609q14 100 -23 181t-111.5 129.5t-173.5 48.5t-187.5 -48.5t-148.5 -129.5t-74 -181l-85 -609h-60l210 1500h60l-94 -675q68 92 170.5 147.5t216.5 55.5q116 0 203 -56.5t130.5 -151.5t26.5 -211zM405 -359q-19 0 -31 12.5t-9 31.5q3 20 18 32
t34 12q18 0 29.5 -12t8.5 -31q-3 -20 -17.5 -32.5t-32.5 -12.5z" />
    <glyph glyph-name="uni1E2E" unicode="&#x1e2e;" horiz-adv-x="360" 
d="M52 0l196 1400h60l-196 -1400h-60zM166 1489q-19 0 -32 12.5t-10 31.5q2 18 18.5 32t35.5 14q18 0 30 -14t10 -32q-3 -19 -18.5 -31.5t-33.5 -12.5zM418 1489q-19 0 -32 12.5t-10 31.5q2 18 18.5 32t35.5 14q18 0 30 -14t10 -32q-3 -19 -18.5 -31.5t-33.5 -12.5z
M307 1670l120 288h60l-140 -288h-40z" />
    <glyph glyph-name="uni1E2F" unicode="&#x1e2f;" horiz-adv-x="300" 
d="M162 1000h60l-140 -1000h-60zM80 1089q-19 0 -32 12.5t-10 31.5q2 18 18.5 32t35.5 14q18 0 30 -14t10 -32q-3 -19 -18.5 -31.5t-33.5 -12.5zM332 1089q-19 0 -32 12.5t-10 31.5q2 18 18.5 32t35.5 14q18 0 30 -14t10 -32q-3 -19 -18.5 -31.5t-33.5 -12.5zM221 1270
l120 288h60l-140 -288h-40z" />
    <glyph glyph-name="uni1E36" unicode="&#x1e36;" horiz-adv-x="970" 
d="M22 0l196 1400h60l-188 -1340h690l-8 -60h-750zM360 -359q-19 0 -31 12.5t-9 31.5q3 20 18 32t34 12q18 0 29.5 -12t8.5 -31q-3 -20 -17.5 -32.5t-32.5 -12.5z" />
    <glyph glyph-name="uni1E37" unicode="&#x1e37;" horiz-adv-x="301" 
d="M23 0l210 1500h60l-210 -1500h-60zM16 -359q-19 0 -31 12.5t-9 31.5q3 20 18 32t34 12q18 0 29.5 -12t8.5 -31q-3 -20 -17.5 -32.5t-32.5 -12.5z" />
    <glyph glyph-name="uni1E3E" unicode="&#x1e3e;" horiz-adv-x="1692" 
d="M22 0l466 1400h26l271 -1132l587 1132h26l76 -1400h-62l-66 1228l-565 -1090h-30l-259 1090l-410 -1228h-60zM950 1510l120 288h60l-140 -288h-40z" />
    <glyph glyph-name="uni1E3F" unicode="&#x1e3f;" horiz-adv-x="1776" 
d="M22 0l140 1000h60l-24 -175q68 92 170.5 147.5t216.5 55.5q120 0 210 -61t129 -160q67 99 173.5 160t226.5 61q116 0 203 -56.5t130.5 -151.5t26.5 -211l-85 -609h-60l85 605q14 97 -21.5 179.5t-107.5 133t-169 50.5q-96 0 -182 -46.5t-144.5 -128t-73.5 -188.5
l-85 -605h-60l85 605q15 107 -21 188.5t-108.5 128t-169.5 46.5q-96 0 -182.5 -50.5t-145 -133t-72.5 -179.5l-85 -605h-60zM957 1110l120 288h60l-140 -288h-40z" />
    <glyph glyph-name="uni1E40" unicode="&#x1e40;" horiz-adv-x="1692" 
d="M22 0l466 1400h26l271 -1132l587 1132h26l76 -1400h-62l-66 1228l-565 -1090h-30l-259 1090l-410 -1228h-60zM975 1610q-19 0 -31 12.5t-9 31.5q3 20 18 32t34 12q18 0 29.5 -12t8.5 -31q-3 -20 -17.5 -32.5t-32.5 -12.5z" />
    <glyph glyph-name="uni1E41" unicode="&#x1e41;" horiz-adv-x="1776" 
d="M22 0l140 1000h60l-24 -175q68 92 170.5 147.5t216.5 55.5q120 0 210 -61t129 -160q67 99 173.5 160t226.5 61q116 0 203 -56.5t130.5 -151.5t26.5 -211l-85 -609h-60l85 605q14 97 -21.5 179.5t-107.5 133t-169 50.5q-96 0 -182 -46.5t-144.5 -128t-73.5 -188.5
l-85 -605h-60l85 605q15 107 -21 188.5t-108.5 128t-169.5 46.5q-96 0 -182.5 -50.5t-145 -133t-72.5 -179.5l-85 -605h-60zM982 1210q-19 0 -31 12.5t-9 31.5q3 20 18 32t34 12q18 0 29.5 -12t8.5 -31q-3 -20 -17.5 -32.5t-32.5 -12.5z" />
    <glyph glyph-name="uni1E42" unicode="&#x1e42;" horiz-adv-x="1692" 
d="M22 0l466 1400h26l271 -1132l587 1132h26l76 -1400h-62l-66 1228l-565 -1090h-30l-259 1090l-410 -1228h-60zM710 -359q-19 0 -31 12.5t-9 31.5q3 20 18 32t34 12q18 0 29.5 -12t8.5 -31q-3 -20 -17.5 -32.5t-32.5 -12.5z" />
    <glyph glyph-name="uni1E43" unicode="&#x1e43;" horiz-adv-x="1776" 
d="M22 0l140 1000h60l-24 -175q68 92 170.5 147.5t216.5 55.5q120 0 210 -61t129 -160q67 99 173.5 160t226.5 61q116 0 203 -56.5t130.5 -151.5t26.5 -211l-85 -609h-60l85 605q14 97 -21.5 179.5t-107.5 133t-169 50.5q-96 0 -182 -46.5t-144.5 -128t-73.5 -188.5
l-85 -605h-60l85 605q15 107 -21 188.5t-108.5 128t-169.5 46.5q-96 0 -182.5 -50.5t-145 -133t-72.5 -179.5l-85 -605h-60zM774 -359q-19 0 -31 12.5t-9 31.5q3 20 18 32t34 12q18 0 29.5 -12t8.5 -31q-3 -20 -17.5 -32.5t-32.5 -12.5z" />
    <glyph glyph-name="uni1E44" unicode="&#x1e44;" horiz-adv-x="1218" 
d="M22 0l196 1400h66l671 -1292l181 1292h60l-196 -1400h-64l-673 1292l-181 -1292h-60zM738 1610q-19 0 -31 12.5t-9 31.5q3 20 18 32t34 12q18 0 29.5 -12t8.5 -31q-3 -20 -17.5 -32.5t-32.5 -12.5z" />
    <glyph glyph-name="uni1E45" unicode="&#x1e45;" horiz-adv-x="1038" 
d="M945 609l-85 -609h-60l85 609q14 100 -23 181t-111.5 129.5t-173.5 48.5t-187.5 -48.5t-148.5 -129.5t-74 -181l-85 -609h-60l140 1000h60l-24 -175q68 92 170.5 147.5t216.5 55.5q116 0 203 -56.5t130.5 -151.5t26.5 -211zM612 1210q-19 0 -31 12.5t-9 31.5q3 20 18 32
t34 12q18 0 29.5 -12t8.5 -31q-3 -20 -17.5 -32.5t-32.5 -12.5z" />
    <glyph glyph-name="uni1E46" unicode="&#x1e46;" horiz-adv-x="1218" 
d="M22 0l196 1400h66l671 -1292l181 1292h60l-196 -1400h-64l-673 1292l-181 -1292h-60zM474 -359q-19 0 -31 12.5t-9 31.5q3 20 18 32t34 12q18 0 29.5 -12t8.5 -31q-3 -20 -17.5 -32.5t-32.5 -12.5z" />
    <glyph glyph-name="uni1E47" unicode="&#x1e47;" horiz-adv-x="1038" 
d="M945 609l-85 -609h-60l85 609q14 100 -23 181t-111.5 129.5t-173.5 48.5t-187.5 -48.5t-148.5 -129.5t-74 -181l-85 -609h-60l140 1000h60l-24 -175q68 92 170.5 147.5t216.5 55.5q116 0 203 -56.5t130.5 -151.5t26.5 -211zM404 -359q-19 0 -31 12.5t-9 31.5q3 20 18 32
t34 12q18 0 29.5 -12t8.5 -31q-3 -20 -17.5 -32.5t-32.5 -12.5z" />
    <glyph glyph-name="uni1E62" unicode="&#x1e62;" horiz-adv-x="1198" 
d="M496 -26q-109 0 -207 33.5t-166 95.5t-86 149l59 22q17 -79 79.5 -132.5t150 -80.5t178.5 -27q113 0 216.5 39t174.5 110t84 167q14 98 -40 160.5t-147 99t-199 56.5q-135 26 -240 65.5t-158.5 112t-36.5 198.5q16 115 96 199.5t198 130.5t247 46q104 0 201 -32
t167.5 -94.5t92.5 -153.5l-61 -20q-17 79 -80 132.5t-150.5 80.5t-178.5 27q-114 0 -217 -39.5t-172 -110.5t-83 -166q-15 -108 32.5 -167.5t140 -90.5t211.5 -54q126 -24 231 -70t163.5 -121.5t42.5 -188.5q-16 -115 -96.5 -199.5t-198.5 -130.5t-248 -46zM528 -359
q-19 0 -31 12.5t-9 31.5q3 20 18 32t34 12q18 0 29.5 -12t8.5 -31q-3 -20 -17.5 -32.5t-32.5 -12.5z" />
    <glyph glyph-name="uni1E63" unicode="&#x1e63;" horiz-adv-x="852" 
d="M339 -20q-86 0 -163.5 29t-130.5 78t-66 109l60 24q11 -54 61 -94.5t117 -63t130 -22.5q78 0 150 27.5t121 76.5t58 114q10 68 -28.5 107.5t-103 64.5t-135.5 48q-110 36 -186 68t-111 79.5t-24 130.5q12 85 71.5 147.5t146.5 96.5t181 34q125 0 217.5 -55.5
t116.5 -142.5l-56 -30q-13 53 -57.5 90.5t-105 57.5t-123.5 20q-79 0 -151 -26.5t-121 -75.5t-59 -116q-10 -69 20.5 -105.5t94.5 -59.5t154 -53t167 -63t120.5 -83.5t31.5 -133.5q-12 -85 -71.5 -147.5t-146 -96.5t-179.5 -34zM353 -359q-19 0 -31 12.5t-9 31.5q3 20 18 32
t34 12q18 0 29.5 -12t8.5 -31q-3 -20 -17.5 -32.5t-32.5 -12.5z" />
    <glyph glyph-name="uni1E6C" unicode="&#x1e6c;" horiz-adv-x="1259" 
d="M1276 1400l-8 -60h-520l-188 -1340h-60l188 1340h-518l8 60h1098zM493 -359q-19 0 -31 12.5t-9 31.5q3 20 18 32t34 12q18 0 29.5 -12t8.5 -31q-3 -20 -17.5 -32.5t-32.5 -12.5z" />
    <glyph glyph-name="uni1E6D" unicode="&#x1e6d;" horiz-adv-x="670" 
d="M646 940h-274l-134 -940h-60l134 940h-206l8 60h206l42 314h60l-42 -314h274zM171 -359q-19 0 -31 12.5t-9 31.5q3 20 18 32t34 12q18 0 29.5 -12t8.5 -31q-3 -20 -17.5 -32.5t-32.5 -12.5z" />
    <glyph glyph-name="Wgrave" unicode="&#x1e80;" horiz-adv-x="1552" 
d="M280 0l-162 1400h62l152 -1314l518 1314h48l152 -1314l518 1314h62l-552 -1400h-80l-145 1250l-495 -1250h-78zM790 1798h60l40 -288h-40z" />
    <glyph glyph-name="wgrave" unicode="&#x1e81;" horiz-adv-x="1564" 
d="M366 0h-68l-196 1000h58l184 -928l442 928h76l182 -928l442 928h60l-476 -1000h-70l-186 940zM740 1398h60l40 -288h-40z" />
    <glyph glyph-name="Wacute" unicode="&#x1e82;" horiz-adv-x="1552" 
d="M280 0l-162 1400h62l152 -1314l518 1314h48l152 -1314l518 1314h62l-552 -1400h-80l-145 1250l-495 -1250h-78zM880 1510l120 288h60l-140 -288h-40z" />
    <glyph glyph-name="wacute" unicode="&#x1e83;" horiz-adv-x="1564" 
d="M366 0h-68l-196 1000h58l184 -928l442 928h76l182 -928l442 928h60l-476 -1000h-70l-186 940zM830 1110l120 288h60l-140 -288h-40z" />
    <glyph glyph-name="Wdieresis" unicode="&#x1e84;" horiz-adv-x="1552" 
d="M280 0l-162 1400h62l152 -1314l518 1314h48l152 -1314l518 1314h62l-552 -1400h-80l-145 1250l-495 -1250h-78zM762 1489q-19 0 -32 12.5t-10 31.5q2 18 18.5 32t35.5 14q18 0 30 -14t10 -32q-3 -19 -18.5 -31.5t-33.5 -12.5zM1014 1489q-19 0 -32 12.5t-10 31.5
q2 18 18.5 32t35.5 14q18 0 30 -14t10 -32q-3 -19 -18.5 -31.5t-33.5 -12.5z" />
    <glyph glyph-name="wdieresis" unicode="&#x1e85;" horiz-adv-x="1564" 
d="M366 0h-68l-196 1000h58l184 -928l442 928h76l182 -928l442 928h60l-476 -1000h-70l-186 940zM712 1089q-19 0 -32 12.5t-10 31.5q2 18 18.5 32t35.5 14q18 0 30 -14t10 -32q-3 -19 -18.5 -31.5t-33.5 -12.5zM964 1089q-19 0 -32 12.5t-10 31.5q2 18 18.5 32t35.5 14
q18 0 30 -14t10 -32q-3 -19 -18.5 -31.5t-33.5 -12.5z" />
    <glyph glyph-name="uni1E92" unicode="&#x1e92;" horiz-adv-x="1292" 
d="M-18 0l8 60l1234 1280h-1054l8 60h1132l-8 -60l-1234 -1280h1054l-8 -60h-1132zM511 -359q-19 0 -31 12.5t-9 31.5q3 20 18 32t34 12q18 0 29.5 -12t8.5 -31q-3 -20 -17.5 -32.5t-32.5 -12.5z" />
    <glyph glyph-name="uni1E93" unicode="&#x1e93;" horiz-adv-x="1014" 
d="M968 940l-898 -880h774l-8 -60h-854l8 60l898 880h-774l8 60h854zM372 -359q-19 0 -31 12.5t-9 31.5q3 20 18 32t34 12q18 0 29.5 -12t8.5 -31q-3 -20 -17.5 -32.5t-32.5 -12.5z" />
    <glyph glyph-name="uni1E97" unicode="&#x1e97;" horiz-adv-x="670" 
d="M646 940h-274l-134 -940h-60l134 940h-206l8 60h206l42 314h60l-42 -314h274zM280 1403q-19 0 -32 12.5t-10 31.5q2 18 18.5 32t35.5 14q18 0 30 -14t10 -32q-3 -19 -18.5 -31.5t-33.5 -12.5zM532 1403q-19 0 -32 12.5t-10 31.5q2 18 18.5 32t35.5 14q18 0 30 -14t10 -32
q-3 -19 -18.5 -31.5t-33.5 -12.5z" />
    <glyph glyph-name="uni1E9E" unicode="&#x1e9e;" horiz-adv-x="1070" 
d="M22 0l139 992q12 84 54 157.5t105.5 129.5t141.5 87.5t162 31.5q95 0 171 -26.5t116.5 -81t28.5 -138.5q-6 -41 -40 -89t-105.5 -127.5t-189.5 -215.5q76 8 145.5 -15t121.5 -71.5t77 -117.5t13 -154q-12 -90 -58.5 -158t-114.5 -113t-145.5 -68t-151.5 -23h-74l-12 60
h94q83 0 171 32.5t153 100t79 171.5q14 102 -32.5 168t-125.5 98t-162 32h-66v32q0 18 34.5 58.5t85.5 94t103 110t89 108t41 87.5q8 65 -26 106t-95.5 60.5t-136.5 19.5q-95 0 -179 -46.5t-141 -124.5t-71 -173l-139 -994h-60z" />
    <glyph glyph-name="uni1EA0" unicode="&#x1ea0;" horiz-adv-x="1272" 
d="M688 1400h92l314 -1400h-64l-77 340h-736l-171 -340h-64zM248 400h692l-213 950zM501 -359q-19 0 -31 12.5t-9 31.5q3 20 18 32t34 12q18 0 29.5 -12t8.5 -31q-3 -20 -17.5 -32.5t-32.5 -12.5z" />
    <glyph glyph-name="uni1EA1" unicode="&#x1ea1;" horiz-adv-x="1134" 
d="M1036 1000h60l-140 -1000h-60l33 234q-70 -117 -184.5 -188.5t-260.5 -71.5q-109 0 -198.5 41t-151.5 113.5t-89.5 167.5t-12.5 204q15 110 69.5 205.5t137 168t183.5 113.5t210 41q146 0 240 -71.5t132 -188.5zM492 34q129 0 228 63t161.5 169t80.5 234
q19 131 -14.5 237t-115 168.5t-208.5 62.5q-129 0 -243.5 -63t-192.5 -169.5t-96 -235.5q-18 -131 31 -236.5t146.5 -167.5t222.5 -62zM447 -359q-19 0 -31 12.5t-9 31.5q3 20 18 32t34 12q18 0 29.5 -12t8.5 -31q-3 -20 -17.5 -32.5t-32.5 -12.5z" />
    <glyph glyph-name="uni1EAC" unicode="&#x1eac;" horiz-adv-x="1272" 
d="M688 1400h92l314 -1400h-64l-77 340h-736l-171 -340h-64zM248 400h692l-213 950zM501 -359q-19 0 -31 12.5t-9 31.5q3 20 18 32t34 12q18 0 29.5 -12t8.5 -31q-3 -20 -17.5 -32.5t-32.5 -12.5zM821 1798l152 -288h-40l-154 210l-209 -210h-40l231 288h60z" />
    <glyph glyph-name="uni1EAD" unicode="&#x1ead;" horiz-adv-x="1134" 
d="M1036 1000h60l-140 -1000h-60l33 234q-70 -117 -184.5 -188.5t-260.5 -71.5q-109 0 -198.5 41t-151.5 113.5t-89.5 167.5t-12.5 204q15 110 69.5 205.5t137 168t183.5 113.5t210 41q146 0 240 -71.5t132 -188.5zM492 34q129 0 228 63t161.5 169t80.5 234
q19 131 -14.5 237t-115 168.5t-208.5 62.5q-129 0 -243.5 -63t-192.5 -169.5t-96 -235.5q-18 -131 31 -236.5t146.5 -167.5t222.5 -62zM447 -359q-19 0 -31 12.5t-9 31.5q3 20 18 32t34 12q18 0 29.5 -12t8.5 -31q-3 -20 -17.5 -32.5t-32.5 -12.5zM711 1398l152 -288h-40
l-154 210l-209 -210h-40l231 288h60z" />
    <glyph glyph-name="uni1EB6" unicode="&#x1eb6;" horiz-adv-x="1272" 
d="M688 1400h92l314 -1400h-64l-77 340h-736l-171 -340h-64zM248 400h692l-213 950zM501 -359q-19 0 -31 12.5t-9 31.5q3 20 18 32t34 12q18 0 29.5 -12t8.5 -31q-3 -20 -17.5 -32.5t-32.5 -12.5zM747 1488q-91 0 -160 45t-103.5 120.5t-22.5 166.5h60q-10 -77 19.5 -138.5
t86.5 -97.5t128 -36q74 0 141 37t113 98.5t56 136.5h60q-13 -94 -69.5 -169t-138.5 -119t-170 -44z" />
    <glyph glyph-name="uni1EB7" unicode="&#x1eb7;" horiz-adv-x="1134" 
d="M1036 1000h60l-140 -1000h-60l33 234q-70 -117 -184.5 -188.5t-260.5 -71.5q-109 0 -198.5 41t-151.5 113.5t-89.5 167.5t-12.5 204q15 110 69.5 205.5t137 168t183.5 113.5t210 41q146 0 240 -71.5t132 -188.5zM492 34q129 0 228 63t161.5 169t80.5 234
q19 131 -14.5 237t-115 168.5t-208.5 62.5q-129 0 -243.5 -63t-192.5 -169.5t-96 -235.5q-18 -131 31 -236.5t146.5 -167.5t222.5 -62zM447 -359q-19 0 -31 12.5t-9 31.5q3 20 18 32t34 12q18 0 29.5 -12t8.5 -31q-3 -20 -17.5 -32.5t-32.5 -12.5zM637 1088q-91 0 -160 45
t-103.5 120.5t-22.5 166.5h60q-10 -77 19.5 -138.5t86.5 -97.5t128 -36q74 0 141 37t113 98.5t56 136.5h60q-13 -94 -69.5 -169t-138.5 -119t-170 -44z" />
    <glyph glyph-name="uni1EB8" unicode="&#x1eb8;" horiz-adv-x="1052" 
d="M22 0l196 1400h832l-8 -60h-772l-79 -560h656l-8 -60h-656l-93 -660h772l-8 -60h-832zM391 -359q-19 0 -31 12.5t-9 31.5q3 20 18 32t34 12q18 0 29.5 -12t8.5 -31q-3 -20 -17.5 -32.5t-32.5 -12.5z" />
    <glyph glyph-name="uni1EB9" unicode="&#x1eb9;" horiz-adv-x="1118" 
d="M458 -26q-138 0 -241.5 71t-154 190.5t-30.5 264.5q15 110 67.5 205.5t131.5 168t175.5 113.5t199.5 41q107 0 191.5 -40t141 -114t79.5 -176.5t8 -227.5h-938q-7 -125 40 -223.5t135 -155.5t203 -57q128 0 240 68t188 188l58 -14q-79 -133 -211.5 -217.5t-282.5 -84.5z
M96 530h878q13 117 -33 217t-135.5 160.5t-207.5 60.5q-119 0 -224 -59t-179 -158.5t-99 -220.5zM424 -359q-19 0 -31 12.5t-9 31.5q3 20 18 32t34 12q18 0 29.5 -12t8.5 -31q-3 -20 -17.5 -32.5t-32.5 -12.5z" />
    <glyph glyph-name="uni1EBC" unicode="&#x1ebc;" horiz-adv-x="1052" 
d="M22 0l196 1400h832l-8 -60h-772l-79 -560h656l-8 -60h-656l-93 -660h772l-8 -60h-832zM800 1551q-37 0 -75 22t-76 51t-74.5 51t-71.5 22q-36 0 -64.5 -32t-24.5 -74l-60 -16q-8 41 13 83t61.5 70.5t88.5 28.5q38 0 79 -22t81 -51t78 -51t70 -22q24 0 44 20t31.5 45
t7.5 41l58 18q8 -43 -13.5 -85.5t-62.5 -70.5t-90 -28z" />
    <glyph glyph-name="uni1EBD" unicode="&#x1ebd;" horiz-adv-x="1118" 
d="M458 -26q-138 0 -241.5 71t-154 190.5t-30.5 264.5q15 110 67.5 205.5t131.5 168t175.5 113.5t199.5 41q107 0 191.5 -40t141 -114t79.5 -176.5t8 -227.5h-938q-7 -125 40 -223.5t135 -155.5t203 -57q128 0 240 68t188 188l58 -14q-79 -133 -211.5 -217.5t-282.5 -84.5z
M96 530h878q13 117 -33 217t-135.5 160.5t-207.5 60.5q-119 0 -224 -59t-179 -158.5t-99 -220.5zM777 1151q-37 0 -75 22t-76 51t-74.5 51t-71.5 22q-36 0 -64.5 -32t-24.5 -74l-60 -16q-8 41 13 83t61.5 70.5t88.5 28.5q38 0 79 -22t81 -51t78 -51t70 -22q24 0 44 20
t31.5 45t7.5 41l58 18q8 -43 -13.5 -85.5t-62.5 -70.5t-90 -28z" />
    <glyph glyph-name="uni1EC6" unicode="&#x1ec6;" horiz-adv-x="1052" 
d="M22 0l196 1400h832l-8 -60h-772l-79 -560h656l-8 -60h-656l-93 -660h772l-8 -60h-832zM391 -359q-19 0 -31 12.5t-9 31.5q3 20 18 32t34 12q18 0 29.5 -12t8.5 -31q-3 -20 -17.5 -32.5t-32.5 -12.5zM711 1798l152 -288h-40l-154 210l-209 -210h-40l231 288h60z" />
    <glyph glyph-name="uni1EC7" unicode="&#x1ec7;" horiz-adv-x="1118" 
d="M458 -26q-138 0 -241.5 71t-154 190.5t-30.5 264.5q15 110 67.5 205.5t131.5 168t175.5 113.5t199.5 41q107 0 191.5 -40t141 -114t79.5 -176.5t8 -227.5h-938q-7 -125 40 -223.5t135 -155.5t203 -57q128 0 240 68t188 188l58 -14q-79 -133 -211.5 -217.5t-282.5 -84.5z
M96 530h878q13 117 -33 217t-135.5 160.5t-207.5 60.5q-119 0 -224 -59t-179 -158.5t-99 -220.5zM424 -359q-19 0 -31 12.5t-9 31.5q3 20 18 32t34 12q18 0 29.5 -12t8.5 -31q-3 -20 -17.5 -32.5t-32.5 -12.5zM688 1398l152 -288h-40l-154 210l-209 -210h-40l231 288h60z
" />
    <glyph glyph-name="uni1ECA" unicode="&#x1eca;" horiz-adv-x="360" 
d="M52 0l196 1400h60l-196 -1400h-60zM45 -359q-19 0 -31 12.5t-9 31.5q3 20 18 32t34 12q18 0 29.5 -12t8.5 -31q-3 -20 -17.5 -32.5t-32.5 -12.5z" />
    <glyph glyph-name="uni1ECB" unicode="&#x1ecb;" horiz-adv-x="300" 
d="M162 1000h60l-140 -1000h-60zM223 1210q-19 0 -31 12.5t-9 31.5q3 20 18 32t34 12q18 0 29.5 -12t8.5 -31q-3 -20 -17.5 -32.5t-32.5 -12.5zM15 -359q-19 0 -31 12.5t-9 31.5q3 20 18 32t34 12q18 0 29.5 -12t8.5 -31q-3 -20 -17.5 -32.5t-32.5 -12.5z" />
    <glyph glyph-name="uni1ECC" unicode="&#x1ecc;" horiz-adv-x="1540" 
d="M668 -26q-142 0 -259.5 56.5t-198 156.5t-116 231.5t-14.5 281.5t93 281.5t181.5 231.5t242.5 156.5t275 56.5q143 0 260 -56.5t197.5 -156.5t116 -231.5t14.5 -281.5t-93 -281.5t-181.5 -231.5t-242 -156.5t-275.5 -56.5zM676 34q132 0 254 53t221 145t164.5 212.5
t84.5 255.5q19 137 -13 257.5t-105.5 212.5t-180 144t-237.5 52q-132 0 -254 -53t-221 -145t-164.5 -212.5t-84.5 -255.5q-19 -137 13 -257.5t105.5 -212.5t180.5 -144t237 -52zM635 -359q-19 0 -31 12.5t-9 31.5q3 20 18 32t34 12q18 0 29.5 -12t8.5 -31
q-3 -20 -17.5 -32.5t-32.5 -12.5z" />
    <glyph glyph-name="uni1ECD" unicode="&#x1ecd;" horiz-adv-x="1120" 
d="M458 -26q-138 0 -241.5 71t-154 190.5t-30.5 264.5q15 110 67.5 205.5t131.5 168t175.5 113.5t199.5 41q138 0 241.5 -71t154.5 -191t30 -266q-15 -109 -67.5 -204t-131.5 -167.5t-175 -113.5t-200 -41zM466 34q124 0 233 64.5t182.5 170.5t90.5 231q18 126 -25.5 232.5
t-134 171t-214.5 64.5q-125 0 -234 -64.5t-181.5 -171t-90.5 -232.5q-18 -130 27 -235.5t136 -168t211 -62.5zM425 -359q-19 0 -31 12.5t-9 31.5q3 20 18 32t34 12q18 0 29.5 -12t8.5 -31q-3 -20 -17.5 -32.5t-32.5 -12.5z" />
    <glyph glyph-name="uni1ED8" unicode="&#x1ed8;" horiz-adv-x="1540" 
d="M668 -26q-142 0 -259.5 56.5t-198 156.5t-116 231.5t-14.5 281.5t93 281.5t181.5 231.5t242.5 156.5t275 56.5q143 0 260 -56.5t197.5 -156.5t116 -231.5t14.5 -281.5t-93 -281.5t-181.5 -231.5t-242 -156.5t-275.5 -56.5zM676 34q132 0 254 53t221 145t164.5 212.5
t84.5 255.5q19 137 -13 257.5t-105.5 212.5t-180 144t-237.5 52q-132 0 -254 -53t-221 -145t-164.5 -212.5t-84.5 -255.5q-19 -137 13 -257.5t105.5 -212.5t180.5 -144t237 -52zM635 -359q-19 0 -31 12.5t-9 31.5q3 20 18 32t34 12q18 0 29.5 -12t8.5 -31
q-3 -20 -17.5 -32.5t-32.5 -12.5zM955 1798l152 -288h-40l-154 210l-209 -210h-40l231 288h60z" />
    <glyph glyph-name="uni1ED9" unicode="&#x1ed9;" horiz-adv-x="1120" 
d="M458 -26q-138 0 -241.5 71t-154 190.5t-30.5 264.5q15 110 67.5 205.5t131.5 168t175.5 113.5t199.5 41q138 0 241.5 -71t154.5 -191t30 -266q-15 -109 -67.5 -204t-131.5 -167.5t-175 -113.5t-200 -41zM466 34q124 0 233 64.5t182.5 170.5t90.5 231q18 126 -25.5 232.5
t-134 171t-214.5 64.5q-125 0 -234 -64.5t-181.5 -171t-90.5 -232.5q-18 -130 27 -235.5t136 -168t211 -62.5zM425 -359q-19 0 -31 12.5t-9 31.5q3 20 18 32t34 12q18 0 29.5 -12t8.5 -31q-3 -20 -17.5 -32.5t-32.5 -12.5zM689 1398l152 -288h-40l-154 210l-209 -210h-40
l231 288h60z" />
    <glyph glyph-name="uni1EE4" unicode="&#x1ee4;" horiz-adv-x="1300" 
d="M548 -26q-168 0 -275 82t-150 220.5t-19 307.5l114 816h60l-114 -816q-21 -150 15.5 -275t130.5 -200t246 -75q154 0 269.5 76t186.5 201t92 273l114 816h60l-114 -816q-18 -127 -69 -237.5t-131 -194.5t-185 -131t-231 -47zM515 -359q-19 0 -31 12.5t-9 31.5q3 20 18 32
t34 12q18 0 29.5 -12t8.5 -31q-3 -20 -17.5 -32.5t-32.5 -12.5z" />
    <glyph glyph-name="uni1EE5" unicode="&#x1ee5;" 
d="M37 393l85 607h60l-85 -607q-14 -99 23 -180.5t111.5 -130t173.5 -48.5t187.5 48.5t148.5 130t74 180.5l85 607h60l-140 -1000h-60l24 177q-67 -91 -170 -147t-217 -56q-116 0 -203 56.5t-130 151.5t-27 211zM364 -359q-19 0 -31 12.5t-9 31.5q3 20 18 32t34 12
q18 0 29.5 -12t8.5 -31q-3 -20 -17.5 -32.5t-32.5 -12.5z" />
    <glyph glyph-name="Ygrave" unicode="&#x1ef2;" horiz-adv-x="1108" 
d="M1076 1400h70l-571 -764l-89 -636h-60l89 636l-357 764h70l326 -698zM568 1798h60l40 -288h-40z" />
    <glyph glyph-name="ygrave" unicode="&#x1ef3;" horiz-adv-x="946" 
d="M846 1000h62l-757 -1500h-64l253 500l-218 1000h66l193 -916zM431 1398h60l40 -288h-40z" />
    <glyph glyph-name="uni1EF4" unicode="&#x1ef4;" horiz-adv-x="1108" 
d="M1076 1400h70l-571 -764l-89 -636h-60l89 636l-357 764h70l326 -698zM419 -359q-19 0 -31 12.5t-9 31.5q3 20 18 32t34 12q18 0 29.5 -12t8.5 -31q-3 -20 -17.5 -32.5t-32.5 -12.5z" />
    <glyph glyph-name="uni1EF5" unicode="&#x1ef5;" horiz-adv-x="946" 
d="M846 1000h62l-757 -1500h-64l253 500l-218 1000h66l193 -916zM495 -359q-19 0 -31 12.5t-9 31.5q3 20 18 32t34 12q18 0 29.5 -12t8.5 -31q-3 -20 -17.5 -32.5t-32.5 -12.5z" />
    <glyph glyph-name="uni1EF8" unicode="&#x1ef8;" horiz-adv-x="1108" 
d="M1076 1400h70l-571 -764l-89 -636h-60l89 636l-357 764h70l326 -698zM828 1551q-37 0 -75 22t-76 51t-74.5 51t-71.5 22q-36 0 -64.5 -32t-24.5 -74l-60 -16q-8 41 13 83t61.5 70.5t88.5 28.5q38 0 79 -22t81 -51t78 -51t70 -22q24 0 44 20t31.5 45t7.5 41l58 18
q8 -43 -13.5 -85.5t-62.5 -70.5t-90 -28z" />
    <glyph glyph-name="uni1EF9" unicode="&#x1ef9;" horiz-adv-x="946" 
d="M846 1000h62l-757 -1500h-64l253 500l-218 1000h66l193 -916zM691 1151q-37 0 -75 22t-76 51t-74.5 51t-71.5 22q-36 0 -64.5 -32t-24.5 -74l-60 -16q-8 41 13 83t61.5 70.5t88.5 28.5q38 0 79 -22t81 -51t78 -51t70 -22q24 0 44 20t31.5 45t7.5 41l58 18
q8 -43 -13.5 -85.5t-62.5 -70.5t-90 -28z" />
    <glyph glyph-name="uni2002" unicode="&#x2002;" horiz-adv-x="1000" 
 />
    <glyph glyph-name="uni2009" unicode="&#x2009;" horiz-adv-x="400" 
 />
    <glyph glyph-name="uni200B" unicode="&#x200b;" horiz-adv-x="0" 
 />
    <glyph glyph-name="endash" unicode="&#x2013;" horiz-adv-x="1240" 
d="M110 630h1000l-8 -60h-1000z" />
    <glyph glyph-name="emdash" unicode="&#x2014;" horiz-adv-x="2040" 
d="M110 630h1800l-8 -60h-1800z" />
    <glyph glyph-name="quoteright" unicode="&#x2019;" horiz-adv-x="222" 
d="M65 878l135 522h60l-155 -522h-40z" />
    <glyph glyph-name="quoteright" unicode="&#x2032;" horiz-adv-x="222" 
d="M65 878l135 522h60l-155 -522h-40z" />
    <glyph glyph-name="quotesinglbase" unicode="&#x201a;" horiz-adv-x="242" 
d="M-74 -112l109 338h60l-129 -338h-40z" />
    <glyph glyph-name="quotedblleft" unicode="&#x201c;" horiz-adv-x="528" 
d="M145 878l155 522h40l-135 -522h-60zM391 882l155 522h40l-135 -522h-60z" />
    <glyph glyph-name="quotedblright" unicode="&#x201d;" horiz-adv-x="528" 
d="M65 878l135 522h60l-155 -522h-40zM311 878l135 522h60l-155 -522h-40z" />
    <glyph glyph-name="quotedblright" unicode="&#x2033;" horiz-adv-x="528" 
d="M65 878l135 522h60l-155 -522h-40zM311 878l135 522h60l-155 -522h-40z" />
    <glyph glyph-name="quotedblbase" unicode="&#x201e;" horiz-adv-x="442" 
d="M-74 -112l109 338h60l-129 -338h-40zM126 -112l109 338h60l-129 -338h-40z" />
    <glyph glyph-name="dagger" unicode="&#x2020;" horiz-adv-x="736" 
d="M142 1140l8 60h258l42 300h60l-42 -300h258l-8 -60h-258l-76 -540h-60l76 540h-258z" />
    <glyph glyph-name="daggerdbl" unicode="&#x2021;" horiz-adv-x="736" 
d="M97 822l8 58h258l37 260h-258l8 60h258l42 300h60l-42 -300h258l-8 -60h-258l-37 -260h258l-8 -58h-258l-37 -262h-60l37 262h-258z" />
    <glyph glyph-name="bullet" unicode="&#x2022;" horiz-adv-x="280" 
d="M116 540q-24 0 -39 17.5t-11 44.5q4 24 23 41t43 17q27 0 42.5 -17t11.5 -41q-4 -27 -23.5 -44.5t-46.5 -17.5z" />
    <glyph glyph-name="ellipsis" unicode="&#x2026;" horiz-adv-x="850" 
d="M22 -26q-18 0 -29 13.5t-9 32.5q3 18 18 31t33 13q20 0 31 -13t8 -31q-2 -19 -17 -32.5t-35 -13.5zM302 -26q-18 0 -29 13.5t-9 32.5q3 18 18 31t33 13q20 0 31 -13t8 -31q-2 -19 -17 -32.5t-35 -13.5zM582 -26q-18 0 -29 13.5t-9 32.5q3 18 18 31t33 13q20 0 31 -13
t8 -31q-2 -19 -17 -32.5t-35 -13.5z" />
    <glyph glyph-name="perthousand" unicode="&#x2030;" horiz-adv-x="1518" 
d="M16 0l1004 1400h70l-1004 -1400h-70zM300 900q-53 0 -93 26t-59.5 69.5t-12.5 96.5q8 53 40 97t79 70.5t100 26.5t93 -26.5t60 -70.5t12 -97q-7 -53 -39.5 -96.5t-79.5 -69.5t-100 -26zM309 960q56 0 99.5 39t50.5 93q8 56 -24.5 95t-88.5 39q-55 0 -99 -39t-52 -95
q-7 -54 26 -93t88 -39zM694 114q-53 0 -93.5 26.5t-60.5 70.5t-13 97q8 53 40.5 96.5t80 69.5t100.5 26t93 -26t60 -69.5t12 -96.5q-7 -53 -39.5 -97t-79.5 -70.5t-100 -26.5zM702 174q54 0 99 39.5t52 94.5q8 54 -26 93t-88 39q-55 0 -99.5 -39t-52.5 -93
q-7 -55 26.5 -94.5t88.5 -39.5zM1164 114q-53 0 -93.5 26.5t-60.5 70.5t-13 97q8 53 40.5 96.5t80 69.5t100.5 26t93 -26t60 -69.5t12 -96.5q-7 -53 -39.5 -97t-79.5 -70.5t-100 -26.5zM1172 174q54 0 99 39.5t52 94.5q8 54 -26 93t-88 39q-55 0 -99.5 -39t-52.5 -93
q-7 -55 26.5 -94.5t88.5 -39.5z" />
    <glyph glyph-name="uni2035" unicode="&#x2035;" horiz-adv-x="362" 
d="M227 878l-9 522h60l-11 -522h-40z" />
    <glyph glyph-name="guilsinglleft" unicode="&#x2039;" horiz-adv-x="600" 
d="M358 261l-252 340l348 338h80l-348 -338l252 -340h-80z" />
    <glyph glyph-name="guilsinglright" unicode="&#x203a;" horiz-adv-x="600" 
d="M38 261l348 340l-252 338h80l252 -338l-348 -340h-80z" />
    <glyph glyph-name="fraction" unicode="&#x2044;" horiz-adv-x="450" 
d="M-312 0l1004 1400h70l-1004 -1400h-70z" />
    <glyph glyph-name="fraction" unicode="&#x2215;" horiz-adv-x="450" 
d="M-312 0l1004 1400h70l-1004 -1400h-70z" />
    <glyph glyph-name="uni2070" unicode="&#x2070;" horiz-adv-x="648" 
d="M338 798q-69 0 -120.5 43.5t-74.5 119t-10 171.5q14 96 58.5 172t108 120t132.5 44q70 0 121 -44t74.5 -120t9.5 -172q-13 -96 -58 -171.5t-108 -119t-133 -43.5zM348 870q55 0 101 39t76.5 99.5t39.5 123.5q10 69 -4.5 129t-50 97.5t-88.5 37.5q-55 0 -101 -39
t-76.5 -99.5t-39.5 -125.5q-9 -67 5 -127t49.5 -97.5t88.5 -37.5z" />
    <glyph glyph-name="uni2074" unicode="&#x2074;" horiz-adv-x="674" 
d="M396 818l19 139h-283l12 86l314 406h98l-59 -420h79l-10 -72h-79l-19 -139h-72zM219 1029h206l46 324z" />
    <glyph glyph-name="uni2075" unicode="&#x2075;" horiz-adv-x="670" 
d="M319 798q-92 0 -148.5 59t-43.5 150h72q-8 -61 30.5 -99t99.5 -38t110.5 38t57.5 99q9 62 -29 104.5t-99 42.5q-36 0 -61 -3t-52 -10.5t-70 -20.5l75 329h348l-10 -72h-283l-34 -159q137 21 220.5 -34t66.5 -177q-13 -91 -85.5 -150t-164.5 -59z" />
    <glyph glyph-name="uni2076" unicode="&#x2076;" horiz-adv-x="706" 
d="M343 798q-103 0 -159 65t-43 156q4 30 17 60t42 74t80 114t131 179h84l-144 -201q78 19 139.5 -9.5t94 -87t22.5 -129.5q-9 -68 -49 -118t-97 -76.5t-118 -26.5zM353 870q67 0 119.5 41t62.5 108q11 74 -34.5 117.5t-104.5 43.5q-67 0 -120.5 -47.5t-62.5 -115.5
q-10 -65 31.5 -106t108.5 -41z" />
    <glyph glyph-name="uni2077" unicode="&#x2077;" horiz-adv-x="612" 
d="M153 818l398 559h-336l10 72h420l-10 -72l-398 -559h-84z" />
    <glyph glyph-name="uni2078" unicode="&#x2078;" horiz-adv-x="593" 
d="M309 798q-81 0 -132.5 52.5t-40.5 135.5q8 52 38.5 95t73.5 70q-28 26 -42.5 63.5t-8.5 80.5q11 77 70.5 125t135.5 48q77 0 124.5 -48t36.5 -125q-6 -43 -31.5 -80.5t-61.5 -63.5q36 -27 55 -70t11 -95q-11 -83 -78 -135.5t-150 -52.5zM319 870q54 0 96.5 32t49.5 84
q8 52 -25 89.5t-87 37.5q-52 0 -94.5 -37.5t-50.5 -89.5q-7 -52 26 -84t85 -32zM363 1185q47 0 84.5 32.5t44.5 77.5q6 47 -23 74t-76 27q-45 0 -81.5 -27t-42.5 -74q-7 -45 21 -77.5t73 -32.5z" />
    <glyph glyph-name="uni2079" unicode="&#x2079;" horiz-adv-x="659" 
d="M260 818l146 204q-77 -19 -137 6.5t-93 79t-30 121t51 133.5q41 58 99.5 82t117.5 24q66 0 114 -30.5t71.5 -80t17 -108.5t-48.5 -117l-6 -10l-220 -304h-82zM360 1086q52 0 95.5 28.5t69 74.5t20.5 99q-9 58 -50.5 83t-90.5 25q-51 0 -94.5 -26t-68 -69t-20.5 -95
q8 -57 49 -88.5t90 -31.5z" />
    <glyph glyph-name="uni2080" unicode="&#x2080;" horiz-adv-x="648" 
d="M221 -31q-69 0 -120.5 43t-74.5 118t-10 171q14 96 58.5 172t108 119.5t132.5 43.5q70 0 121 -43.5t74.5 -119.5t9.5 -172q-13 -96 -58 -171t-108 -118t-133 -43zM231 41q55 0 101 38.5t76.5 98.5t39.5 123q10 69 -4.5 129t-50 97t-88.5 37q-55 0 -101 -38.5t-76.5 -99
t-39.5 -125.5q-9 -67 5 -126.5t49.5 -96.5t88.5 -37z" />
    <glyph glyph-name="uni2081" unicode="&#x2081;" horiz-adv-x="401" 
d="M87 0l78 559h-89l20 72h151l-88 -631h-72z" />
    <glyph glyph-name="uni2082" unicode="&#x2082;" horiz-adv-x="670" 
d="M-2 0l10 74q40 24 105.5 68.5t133.5 98.5t116.5 108t54.5 97q9 60 -27.5 96t-95.5 36t-106.5 -36t-56.5 -96h-72q9 59 44.5 105t88 72.5t112.5 26.5q59 0 104 -26.5t67.5 -72.5t13.5 -105q-6 -45 -43.5 -97t-92 -103.5t-114 -96.5t-110.5 -77h308l-10 -72h-430z" />
    <glyph glyph-name="uni2083" unicode="&#x2083;" horiz-adv-x="540" 
d="M168 -31q-55 0 -96.5 24t-62.5 66t-13 97h72q-7 -52 24.5 -83.5t85.5 -31.5q53 0 94 31.5t48 83.5q8 59 -30.5 93t-115.5 34l11 72q68 0 110 28.5t49 82.5q7 45 -22.5 71.5t-74.5 26.5t-81 -26.5t-43 -71.5h-72q11 75 71 122.5t135 47.5q76 0 123 -47.5t36 -122.5
q-7 -47 -34 -88.5t-58 -55.5q40 -34 58 -69t10 -97q-8 -55 -41 -97t-81 -66t-102 -24z" />
    <glyph glyph-name="uni2084" unicode="&#x2084;" horiz-adv-x="674" 
d="M281 0l19 139h-283l12 87l314 405h98l-59 -420h79l-10 -72h-79l-19 -139h-72zM104 211h206l46 324z" />
    <glyph glyph-name="uni2085" unicode="&#x2085;" horiz-adv-x="670" 
d="M202 -31q-61 0 -107.5 26.5t-69.5 74t-14 108.5h72q-9 -61 29.5 -99t99.5 -38t110.5 38t58.5 99q8 61 -30 103.5t-99 42.5l-183 -34l75 327h348l-10 -72h-283l-34 -156l97 7q92 0 148 -64t43 -154q-9 -61 -45.5 -108.5t-90.5 -74t-115 -26.5z" />
    <glyph glyph-name="uni2086" unicode="&#x2086;" horiz-adv-x="682" 
d="M226 -31q-103 0 -159 64.5t-43 156.5q4 30 17 60t42.5 74t80.5 114.5t132 180.5h84l-146 -204q78 20 139.5 -9t94 -87t22.5 -129q-9 -68 -49 -118t-97 -76.5t-118 -26.5zM236 41q67 0 120 41t62 108q11 74 -34 117t-104 43q-67 0 -120.5 -47.5t-63.5 -115.5
q-9 -64 32 -105t108 -41z" />
    <glyph glyph-name="uni2087" unicode="&#x2087;" horiz-adv-x="612" 
d="M36 0l400 559h-336l10 72h420l-10 -72l-400 -559h-84z" />
    <glyph glyph-name="uni2088" unicode="&#x2088;" horiz-adv-x="593" 
d="M192 -31q-81 0 -132.5 52.5t-39.5 134.5q7 53 38 96t74 70q-28 25 -43 63t-9 81q11 77 70.5 124.5t135.5 47.5q77 0 124.5 -47.5t36.5 -124.5q-6 -43 -31 -81t-61 -63q36 -27 54.5 -70t11.5 -96q-12 -82 -79 -134.5t-150 -52.5zM202 41q54 0 97 31.5t50 83.5q7 53 -26 90
t-87 37q-52 0 -94.5 -37t-49.5 -90q-7 -52 25.5 -83.5t84.5 -31.5zM247 355q47 0 84.5 33t43.5 78q7 47 -22.5 73.5t-76.5 26.5q-45 0 -81 -26.5t-43 -73.5q-6 -45 22 -78t73 -33z" />
    <glyph glyph-name="uni2089" unicode="&#x2089;" horiz-adv-x="660" 
d="M145 0l146 204q-77 -19 -137 6.5t-92.5 79.5t-30 121.5t50.5 133.5q27 39 62.5 62t75.5 33t79 10q66 0 114 -30.5t71.5 -80t17 -108.5t-48.5 -117l-226 -314h-82zM245 269q52 0 95.5 28.5t69 74.5t20.5 98q-9 58 -50.5 83t-90.5 25q-51 0 -94.5 -26t-68 -68.5
t-20.5 -94.5q8 -58 49 -89t90 -31z" />
    <glyph glyph-name="Euro" unicode="&#x20ac;" horiz-adv-x="1202" 
d="M1022 -14q-141 -28 -266.5 2.5t-223 107t-157 190t-70.5 252.5h-248l9 60h238l28 204h-238l9 60h248q51 141 144 255t212.5 190t252.5 106t263 3l-9 -60q-124 26 -246.5 -1t-230.5 -96t-192 -170.5t-132 -226.5h378l-9 -60h-388l-28 -204h388l-9 -60h-378
q13 -127 69.5 -228.5t146 -169.5t204 -93.5t243.5 -0.5z" />
    <glyph glyph-name="trademark" unicode="&#x2122;" horiz-adv-x="2850" 
d="M1276 1400l-8 -60h-520l-188 -1340h-60l188 1340h-518l8 60h1098zM1181 0l466 1400h26l271 -1132l587 1132h26l76 -1400h-62l-66 1228l-565 -1090h-30l-259 1090l-410 -1228h-60z" />
    <glyph glyph-name="oneeighth" unicode="&#x215b;" horiz-adv-x="1444" 
d="M202 818l78 559h-89l20 72h151l-88 -631h-72zM89 0l1004 1400h70l-1004 -1400h-70zM1043 -31q-81 0 -132.5 52.5t-39.5 134.5q7 53 38 96t74 70q-28 25 -43 63t-9 81q11 77 70.5 124.5t135.5 47.5q77 0 124.5 -47.5t36.5 -124.5q-6 -43 -31 -81t-61 -63q36 -27 54.5 -70
t11.5 -96q-12 -82 -79 -134.5t-150 -52.5zM1053 41q54 0 97 31.5t50 83.5q7 53 -26 90t-87 37q-52 0 -94.5 -37t-49.5 -90q-7 -52 25.5 -83.5t84.5 -31.5zM1098 355q47 0 84.5 33t43.5 78q7 47 -22.5 73.5t-76.5 26.5q-45 0 -81 -26.5t-43 -73.5q-6 -45 22 -78t73 -33z" />
    <glyph glyph-name="threeeighths" unicode="&#x215c;" horiz-adv-x="1583" 
d="M285 798q-82 0 -133 52.5t-40 135.5h72q-7 -52 25 -84t86 -32q53 0 93.5 32t47.5 84q8 59 -30 93t-115 34l10 72q68 0 110.5 28t49.5 82q6 45 -23 72t-74 27t-81.5 -27t-42.5 -72h-72q11 76 71 123.5t135 47.5q76 0 123 -47.5t36 -123.5q-7 -46 -34.5 -88t-58.5 -56
q41 -34 59 -69t9 -96q-11 -83 -76.5 -135.5t-146.5 -52.5zM228 0l1004 1400h70l-1004 -1400h-70zM1182 -31q-81 0 -132.5 52.5t-39.5 134.5q7 53 38 96t74 70q-28 25 -43 63t-9 81q11 77 70.5 124.5t135.5 47.5q77 0 124.5 -47.5t36.5 -124.5q-6 -43 -31 -81t-61 -63
q36 -27 54.5 -70t11.5 -96q-12 -82 -79 -134.5t-150 -52.5zM1192 41q54 0 97 31.5t50 83.5q7 53 -26 90t-87 37q-52 0 -94.5 -37t-49.5 -90q-7 -52 25.5 -83.5t84.5 -31.5zM1237 355q47 0 84.5 33t43.5 78q7 47 -22.5 73.5t-76.5 26.5q-45 0 -81 -26.5t-43 -73.5
q-6 -45 22 -78t73 -33z" />
    <glyph glyph-name="fiveeighths" unicode="&#x215d;" horiz-adv-x="1713" 
d="M319 798q-92 0 -148.5 59t-43.5 150h72q-8 -61 30.5 -99t99.5 -38t110.5 38t57.5 99q9 62 -29 104.5t-99 42.5q-36 0 -61 -3t-52 -10.5t-70 -20.5l75 329h348l-10 -72h-283l-34 -159q137 21 220.5 -34t66.5 -177q-13 -91 -85.5 -150t-164.5 -59zM358 0l1004 1400h70
l-1004 -1400h-70zM1312 -31q-81 0 -132.5 52.5t-39.5 134.5q7 53 38 96t74 70q-28 25 -43 63t-9 81q11 77 70.5 124.5t135.5 47.5q77 0 124.5 -47.5t36.5 -124.5q-6 -43 -31 -81t-61 -63q36 -27 54.5 -70t11.5 -96q-12 -82 -79 -134.5t-150 -52.5zM1322 41q54 0 97 31.5
t50 83.5q7 53 -26 90t-87 37q-52 0 -94.5 -37t-49.5 -90q-7 -52 25.5 -83.5t84.5 -31.5zM1367 355q47 0 84.5 33t43.5 78q7 47 -22.5 73.5t-76.5 26.5q-45 0 -81 -26.5t-43 -73.5q-6 -45 22 -78t73 -33z" />
    <glyph glyph-name="seveneighths" unicode="&#x215e;" horiz-adv-x="1655" 
d="M153 818l398 559h-336l10 72h420l-10 -72l-398 -559h-84zM300 0l1004 1400h70l-1004 -1400h-70zM1254 -31q-81 0 -132.5 52.5t-39.5 134.5q7 53 38 96t74 70q-28 25 -43 63t-9 81q11 77 70.5 124.5t135.5 47.5q77 0 124.5 -47.5t36.5 -124.5q-6 -43 -31 -81t-61 -63
q36 -27 54.5 -70t11.5 -96q-12 -82 -79 -134.5t-150 -52.5zM1264 41q54 0 97 31.5t50 83.5q7 53 -26 90t-87 37q-52 0 -94.5 -37t-49.5 -90q-7 -52 25.5 -83.5t84.5 -31.5zM1309 355q47 0 84.5 33t43.5 78q7 47 -22.5 73.5t-76.5 26.5q-45 0 -81 -26.5t-43 -73.5
q-6 -45 22 -78t73 -33z" />
    <glyph glyph-name="arrowleft" unicode="&#x2190;" horiz-adv-x="1342" 
d="M488 284l-401 466l532 466l36 -42l-450 -394h1068l-8 -60h-1068l338 -394z" />
    <glyph glyph-name="arrowup" unicode="&#x2191;" horiz-adv-x="1094" 
d="M442 158l150 1070l-449 -396l-38 44l533 466l401 -466l-48 -44l-339 396l-150 -1070h-60z" />
    <glyph glyph-name="arrowright" unicode="&#x2192;" horiz-adv-x="1342" 
d="M736 284l-37 42l450 394h-1066l8 60h1066l-338 394l48 42l402 -466z" />
    <glyph glyph-name="arrowdown" unicode="&#x2193;" horiz-adv-x="1094" 
d="M470 160l-400 466l48 42l338 -394l150 1066h60l-150 -1066l452 394l36 -42z" />
    <glyph glyph-name="arrowboth" unicode="&#x2194;" horiz-adv-x="1562" 
d="M488 284l-401 466l532 466l36 -42l-450 -394h1172l-338 394l48 42l402 -466l-533 -466l-37 42l450 394h-1172l338 -394z" />
    <glyph glyph-name="arrowupdn" unicode="&#x2195;" horiz-adv-x="1094" 
d="M454 48l-400 468l48 44l338 -398l166 1176l-450 -396l-36 44l532 466l402 -466l-50 -44l-338 396l-166 -1176l450 398l38 -44z" />
    <glyph glyph-name="uni2196" unicode="&#x2196;" horiz-adv-x="1018" 
d="M843 322l-650 754l-79 -558h-60l93 660h660l-8 -60h-556l648 -754z" />
    <glyph glyph-name="uni2197" unicode="&#x2197;" horiz-adv-x="1016" 
d="M69 322l-36 42l860 754h-558l8 60h660l-93 -660h-60l79 558z" />
    <glyph glyph-name="uni2198" unicode="&#x2198;" horiz-adv-x="1016" 
d="M223 322l8 60h558l-648 754l48 42l648 -754l79 558h60l-93 -660h-660z" />
    <glyph glyph-name="uni2199" unicode="&#x2199;" horiz-adv-x="1016" 
d="M27 322l93 660h60l-79 -558l860 754l36 -42l-860 -754h558l-8 -60h-660z" />
    <glyph glyph-name="partialdiff" unicode="&#x2202;" horiz-adv-x="1164" 
d="M480 -26q-138 0 -242.5 67.5t-156.5 181.5t-32 253q15 104 66.5 195t130.5 160t175.5 108t199.5 39q134 0 235.5 -62t154.5 -166q-6 129 -46 248.5t-110.5 214.5t-169.5 150t-224 55l8 60q150 0 270.5 -74t201 -205t112.5 -304.5t6 -372.5q-23 -162 -103.5 -285.5
t-203 -193t-272.5 -69.5zM488 34q126 0 235 61.5t182 162t90 218.5q17 121 -28.5 221.5t-137.5 160.5t-216 60q-125 0 -233.5 -61t-181 -161.5t-89.5 -219.5q-17 -120 28 -220.5t136.5 -161t214.5 -60.5z" />
    <glyph glyph-name="emptyset" unicode="&#x2205;" horiz-adv-x="1160" 
d="M198 -40l-48 30l57 78q-87 72 -130.5 185.5t-24.5 246.5q15 110 67.5 205.5t131.5 168t175.5 113.5t199.5 41q65 0 122 -15.5t104 -44.5l56 76l48 -30l-57 -78q88 -72 130 -185.5t23 -250.5q-15 -109 -67.5 -204t-131.5 -167.5t-175 -113.5t-200 -41q-63 0 -120 17
t-105 45zM245 122l569 794q-101 62 -215 54t-218.5 -70.5t-177.5 -166t-91 -233.5q-16 -117 21 -216t112 -162zM290 88q105 -63 220 -55t218 71t174.5 166t89.5 230q17 117 -19.5 217.5t-110.5 164.5z" />
    <glyph glyph-name="product" unicode="&#x220f;" horiz-adv-x="1280" 
d="M178 1400h1120l-8 -60h-1120zM403 1364h60l-191 -1364h-60zM1003 1364h60l-191 -1364h-60z" />
    <glyph glyph-name="summation" unicode="&#x2211;" horiz-adv-x="980" 
d="M-18 0l8 60l416 638l-237 638l9 60h840l-9 -60h-772l237 -638l-416 -638h772l-8 -60h-840z" />
    <glyph glyph-name="minus" unicode="&#x2212;" horiz-adv-x="1160" 
d="M62 570l8 60h1000l-8 -60h-1000z" />
    <glyph glyph-name="radical" unicode="&#x221a;" horiz-adv-x="1240" 
d="M942 1400h316l-8 -60h-274l-678 -1340h-58l-159 708h64l138 -612z" />
    <glyph glyph-name="infinity" unicode="&#x221e;" horiz-adv-x="1434" 
d="M295 340q-77 10 -131 52t-79 105t-15 135q11 75 55 139t110 105t142 48q84 0 137.5 -26t98 -80.5t102.5 -139.5q77 81 136.5 135.5t116.5 82.5t125 28q93 -7 152.5 -47t84.5 -103.5t14 -141.5q-10 -75 -53.5 -138t-109 -104t-142.5 -50q-81 0 -132.5 23t-97 77
t-107.5 146q-84 -87 -144 -141.5t-120 -79.5t-143 -25zM308 400q72 0 120 21t101 71.5t139 139.5q-64 92 -103 142.5t-80 70t-112 19.5q-91 -10 -160.5 -76t-82.5 -156q-13 -94 40.5 -157.5t137.5 -74.5zM1042 400q90 11 160 76.5t82 155.5q14 93 -38.5 157.5t-160.5 74.5
q-60 0 -105 -23t-98 -74t-136 -135q54 -76 89.5 -122.5t64 -70t61 -31.5t81.5 -8z" />
    <glyph glyph-name="integral" unicode="&#x222b;" horiz-adv-x="727" 
d="M97 -26q-34 1 -60 21t-37 52t-1 69l59 -6q-8 -28 7.5 -49t45.5 -27q29 -3 53 15.5t32 48.5l274 1210q11 39 35.5 66t57.5 40.5t66 11.5q36 -3 61 -23t36 -51t3 -68l-57 6q6 30 -10.5 52.5t-44.5 23.5q-33 5 -57.5 -17.5t-29.5 -46.5l-274 -1208q-14 -58 -55 -88t-104 -32
z" />
    <glyph glyph-name="approxequal" unicode="&#x2248;" horiz-adv-x="1161" 
d="M771 753q-61 0 -128.5 38.5t-134.5 88.5t-128.5 88t-111.5 37q-54 1 -100 -29t-72 -79.5t-20 -105.5l-60 -14q-11 69 23.5 135.5t98.5 110.5t141 44q58 0 122 -38t130 -88t130 -88t121 -38q55 0 102 30t73 77.5t18 100.5l60 18q13 -75 -24 -140.5t-102 -106.5t-138 -41z
M771 205q-61 0 -128.5 38.5t-134.5 88.5t-128.5 88t-111.5 37q-54 1 -100 -29t-72 -79.5t-20 -105.5l-60 -14q-11 69 23.5 135.5t98.5 110.5t141 44q58 0 122 -38t130 -88t130 -88t121 -38q55 0 102 30t73 77.5t18 100.5l60 18q13 -75 -24 -140.5t-102 -106.5t-138 -41z" />
    <glyph glyph-name="notequal" unicode="&#x2260;" horiz-adv-x="1160" 
d="M848 1182l-155 -360h404l-8 -60h-422l-140 -324h516l-8 -60h-534l-157 -360h-62l157 360h-404l8 60h420l142 324h-516l8 60h534l155 360h62z" />
    <glyph glyph-name="lessequal" unicode="&#x2264;" horiz-adv-x="1160" 
d="M1031 348l-961 284l14 94l1040 286l-9 -64l-984 -268l908 -270zM-18 0l8 60h1000l-8 -60h-1000z" />
    <glyph glyph-name="greaterequal" unicode="&#x2265;" horiz-adv-x="1160" 
d="M31 348l8 62l984 270l-908 268l9 64l960 -286l-14 -94zM-18 0l8 60h1000l-8 -60h-1000z" />
    <glyph glyph-name="lozenge" unicode="&#x25ca;" horiz-adv-x="696" 
d="M230 0l-170 702l364 698h44l168 -698l-366 -702h-40zM268 134l306 568l-146 568l-304 -568z" />
    <glyph glyph-name="uniFFFD" unicode="&#xfffd;" horiz-adv-x="1630" 
d="M714 -26q-54 0 -103 20t-86 62l-355 414q-36 42 -48.5 94t-5.5 106q8 54 36 106t74 92l472 414q48 42 102.5 62t108.5 20t102.5 -20t84.5 -62l356 -414q36 -42 49 -93t5 -105q-7 -54 -34.5 -106t-75.5 -94l-473 -414q-46 -40 -100.5 -61t-108.5 -21zM775 350q14 0 23.5 9
t10.5 21q2 12 -5 21t-21 9q-12 0 -22 -9t-12 -21q-1 -12 6.5 -21t19.5 -9zM767 520h60v2q10 65 74 98q50 26 84.5 72.5t41.5 103.5q8 54 -12.5 98.5t-62 71t-95.5 26.5q-55 0 -103.5 -26.5t-81.5 -71t-41 -98.5h60q8 57 54.5 96.5t103.5 39.5t91.5 -39.5t26.5 -96.5
q-5 -40 -29 -73.5t-58 -50.5q-45 -22 -75.5 -62.5t-37.5 -87.5v-2z" />
    </font>
</defs>
</svg>
