<?xml version="1.0" standalone="no"?>
<!DOCTYPE svg PUBLIC "-//W3C//DTD SVG 1.1//EN" "http://www.w3.org/Graphics/SVG/1.1/DTD/svg11.dtd" >
<svg xmlns="http://www.w3.org/2000/svg" xmlns:xlink="http://www.w3.org/1999/xlink" version="1.1">
<metadata>
Created by FontForge 20201107 at Wed Oct 27 17:11:08 2021
 By 
Copyright 2021 The Urbanist Project Authors (https://github.com/coreyhu/Urbanist)
</metadata>
<defs>
<font id="Urbanist-SemiBoldItalic" horiz-adv-x="448" >
  <font-face 
    font-family="Urbanist SemiBold"
    font-weight="600"
    font-style="italic"
    font-stretch="normal"
    units-per-em="2000"
    panose-1="2 11 10 4 4 2 0 0 2 3"
    ascent="1600"
    descent="-400"
    x-height="1000"
    cap-height="1400"
    bbox="-365 -500 2776 2056"
    underline-thickness="50"
    underline-position="-125"
    unicode-range="U+000D-FFFD"
  />
<missing-glyph horiz-adv-x="1000" 
d="M100 -500v2400h800v-2400h-800zM200 -400h600v2200h-600v-2200z" />
    <glyph glyph-name=".notdef" horiz-adv-x="1000" 
d="M100 -500v2400h800v-2400h-800zM200 -400h600v2200h-600v-2200z" />
    <glyph glyph-name=".null" horiz-adv-x="1200" 
 />
    <glyph glyph-name=".null" horiz-adv-x="1200" 
 />
    <glyph glyph-name="nonmarkingreturn" unicode="&#xd;" horiz-adv-x="1200" 
 />
    <glyph glyph-name="nonmarkingreturn" unicode="&#xfeff;" horiz-adv-x="1200" 
 />
    <glyph glyph-name="space" unicode=" " horiz-adv-x="480" 
 />
    <glyph glyph-name="exclam" unicode="!" horiz-adv-x="418" 
d="M62 420l137 980h177l-137 -980h-177zM88 -26q-46 0 -73.5 32t-21.5 79q7 45 43 76.5t83 31.5q45 0 72 -31.5t20 -76.5q-6 -47 -42 -79t-81 -32z" />
    <glyph glyph-name="quotedbl" unicode="&#x22;" horiz-adv-x="564" 
d="M92 878l73 522h147l-73 -522h-147zM375 878l73 522h147l-73 -522h-147z" />
    <glyph glyph-name="numbersign" unicode="#" horiz-adv-x="1551" 
d="M1445 895h-179l-160 -389h181l-84 -202h-178l-125 -304h-208l125 304h-406l-123 -304h-208l123 304h-179l83 202h179l160 389h-181l83 201h180l123 304h208l-123 -304h405l122 304h208l-122 -304h179zM898 506l160 389h-404l-160 -389h404z" />
    <glyph glyph-name="dollar" unicode="$" horiz-adv-x="1199" 
d="M671 1214q-79 1 -153 -25.5t-124 -72.5t-59 -107q-10 -75 25.5 -114t102.5 -57.5t150 -33.5q136 -22 246 -73t170 -135.5t42 -207.5q-15 -113 -88 -200.5t-180.5 -141t-231.5 -67.5l-28 -203h-147l29 203q-99 10 -184.5 48t-143.5 101t-77 146l206 73q10 -48 53 -85.5
t107.5 -58.5t139.5 -21q80 0 154 26t124 72t59 108q9 64 -30.5 105t-106.5 65t-142 36q-143 24 -253 70t-166.5 129t-37.5 216q16 113 88.5 201t181 141.5t230.5 66.5l29 206h147l-29 -206q97 -10 182 -48t144 -100.5t78 -148.5l-206 -71q-10 49 -53.5 85.5t-108 57.5
t-139.5 21z" />
    <glyph glyph-name="percent" unicode="%" horiz-adv-x="1430" 
d="M92 0l1004 1400h240l-1004 -1400h-240zM375 813q-76 0 -134.5 37.5t-87.5 101t-18 140.5q12 80 59 143t116 99.5t144 36.5q77 0 134.5 -37.5t86.5 -100.5t18 -141q-11 -79 -58.5 -142t-116 -100t-143.5 -37zM396 960q56 0 99.5 38.5t50.5 93.5q8 56 -24.5 94.5
t-88.5 38.5q-55 0 -99 -38.5t-52 -94.5q-7 -55 26 -93.5t88 -38.5zM976 27q-77 0 -135 39.5t-86.5 103t-18.5 137.5q11 78 58.5 141.5t116.5 101t143 37.5q80 0 138 -39t85.5 -103t17.5 -138q-11 -77 -57.5 -140.5t-115.5 -101.5t-146 -38zM997 174q54 0 99 39t52 94
q8 55 -26 94t-88 39q-55 0 -99.5 -39t-52.5 -94q-7 -55 26.5 -94t88.5 -39z" />
    <glyph glyph-name="ampersand" unicode="&#x26;" horiz-adv-x="1426" 
d="M400 -26q-122 0 -209 59t-128 155.5t-26 208.5q9 64 28.5 112t56.5 94t98.5 103t154.5 139q-39 47 -65 82t-39.5 65.5t-16.5 63.5t3 75q12 88 64 157.5t127.5 110t156.5 40.5q85 0 149 -41.5t96 -111t20 -155.5q-6 -43 -19 -76.5t-36 -64.5t-58.5 -65.5t-86.5 -79.5
l258 -302l276 241l-41 -294l-109 -95l214 -248l-167 -147l-213 247q-96 -83 -161 -136t-115 -83t-99 -42t-113 -12zM429 182q40 0 70 9.5t63 33t80 65t119 106.5l-260 302q-75 -66 -122.5 -107.5t-74.5 -70.5t-40 -57.5t-18 -67.5q-9 -61 13.5 -109t67.5 -76t102 -28z
M539 963q58 51 88 76.5t42.5 45t16.5 50.5q7 55 -26 88.5t-80 33.5q-50 0 -91 -36t-48 -86q-4 -31 3.5 -51.5t30.5 -46.5t64 -74z" />
    <glyph glyph-name="quotesingle" unicode="'" horiz-adv-x="281" 
d="M92 878l73 522h147l-73 -522h-147z" />
    <glyph glyph-name="parenleft" unicode="(" horiz-adv-x="718" 
d="M296 -112q-89 99 -136.5 216.5t-58 252.5t10.5 287q11 75 36.5 164t63.5 180t85 173t100.5 145t110.5 94h208q-49 -36 -100 -98.5t-98.5 -142.5t-87.5 -169t-68.5 -177.5t-41.5 -168.5q-20 -157 1 -297.5t70 -257t113 -201.5h-208z" />
    <glyph glyph-name="parenright" unicode=")" horiz-adv-x="718" 
d="M-14 -112q89 85 170 201.5t141.5 257t84.5 297.5q10 80 6.5 168.5t-18.5 177.5t-40 169t-58.5 142.5t-73.5 98.5h208q49 -31 85 -94t60 -145t36.5 -173t13 -180t-10.5 -164q-21 -152 -70 -287t-129 -252.5t-197 -216.5h-208z" />
    <glyph glyph-name="asterisk" unicode="*" horiz-adv-x="717" 
d="M254 842l-106 86l129 149l-166 56l63 140l169 -56l25 183h147l-26 -183l183 56l26 -140l-184 -56l88 -149l-131 -86l-86 149z" />
    <glyph glyph-name="plus" unicode="+" horiz-adv-x="1160" 
d="M392 100l55 396h-396l30 208h396l55 396h208l-55 -396h396l-30 -208h-396l-55 -396h-208z" />
    <glyph glyph-name="comma" unicode="," horiz-adv-x="470" 
d="M-34 -112l109 338h208l-179 -338h-138z" />
    <glyph glyph-name="hyphen" unicode="-" horiz-adv-x="880" 
d="M121 704h640l-30 -208h-640z" />
    <glyph glyph-name="period" unicode="." horiz-adv-x="419" 
d="M87 -26q-46 0 -73 32t-21 78q7 45 43 77t82 32t73.5 -32t21.5 -77q-6 -46 -43 -78t-83 -32z" />
    <glyph glyph-name="slash" unicode="/" horiz-adv-x="773" 
d="M791 1400l-617 -1512h-208l617 1512h208z" />
    <glyph glyph-name="zero" unicode="0" horiz-adv-x="1202" 
d="M501 -26q-124 0 -216 56.5t-149.5 156.5t-77 231.5t1.5 281.5t77.5 282t142.5 231.5t193.5 156t231.5 56.5q122 0 214 -56.5t148.5 -156t76 -231.5t-1.5 -282t-77.5 -281.5t-141.5 -231.5t-192.5 -156.5t-229.5 -56.5zM529 182q116 0 203 72.5t141.5 190.5t73.5 255
q21 144 -2 261.5t-90.5 187t-179.5 69.5q-88 0 -159 -42t-124.5 -115t-87.5 -166t-49 -195q-19 -137 3.5 -255t89 -190.5t181.5 -72.5z" />
    <glyph glyph-name="one" unicode="1" horiz-adv-x="615" 
d="M149 0l167 1192h-167l86 208h318l-196 -1400h-208z" />
    <glyph glyph-name="two" unicode="2" horiz-adv-x="1124" 
d="M-18 0l25 185q80 59 183.5 137.5t210.5 167t199.5 177t153.5 168t69 138.5q9 67 -16 122.5t-75 89t-117 33.5t-127.5 -33.5t-101.5 -89t-50 -122.5h-208q18 127 94.5 229.5t187.5 163t234 60.5q124 0 218 -61t140.5 -163.5t28.5 -228.5q-10 -70 -49.5 -144t-102 -151
t-141.5 -156t-168 -158t-181 -156h547l-30 -208h-924z" />
    <glyph glyph-name="three" unicode="3" horiz-adv-x="1009" 
d="M402 -26q-127 0 -219 59t-136 158t-27 220h208q-9 -63 13.5 -115t71 -83t119.5 -31q62 0 120.5 31t99 83t48.5 115q12 80 -23 134t-105.5 80.5t-167.5 26.5l23 164q132 0 218.5 52t100.5 155q7 54 -15 98.5t-64 71t-96 26.5q-55 0 -109.5 -26.5t-92.5 -71t-46 -98.5h-208
q12 83 56.5 156.5t112.5 129t148.5 87t164.5 31.5q110 0 196.5 -54.5t131.5 -146t29 -203.5q-13 -89 -67 -168.5t-137 -112.5q65 -24 103 -75.5t52 -118t3 -137.5q-16 -120 -91.5 -219.5t-185 -158.5t-229.5 -59z" />
    <glyph glyph-name="four" unicode="4" horiz-adv-x="1135" 
d="M581 0l50 358h-599l29 209l666 833h258l-117 -834h128l-29 -208h-128l-50 -358h-208zM304 567l356 -1l76 547z" />
    <glyph glyph-name="five" unicode="5" horiz-adv-x="1135" 
d="M441 -26q-133 0 -231 64.5t-145.5 172t-30.5 235.5h208q-10 -73 17 -133t82.5 -95.5t128.5 -35.5q72 0 137 35.5t109.5 95.5t54.5 133q11 73 -13.5 133.5t-85.5 97t-163 36.5h-353l238 687h677l-29 -208h-508l-92 -271l120 -2q143 -3 242.5 -65.5t146.5 -168t28 -239.5
q-14 -97 -62.5 -182.5t-122.5 -150.5t-164.5 -102t-188.5 -37z" />
    <glyph glyph-name="six" unicode="6" horiz-adv-x="1091" 
d="M437 -26q-134 0 -236 66.5t-152.5 178t-31.5 246.5q10 72 35 130t69 122l490 683h242l-340 -472q86 16 163.5 1.5t142 -55t109 -102t64 -139.5t6.5 -168q-14 -101 -65 -190t-128.5 -156.5t-172 -106t-195.5 -38.5zM466 182q82 0 152 40t115.5 105t56.5 138
q11 77 -17.5 141t-87.5 102.5t-138 38.5q-82 0 -151.5 -40t-114.5 -104t-56 -138q-11 -81 19 -145t89 -101t133 -37z" />
    <glyph glyph-name="seven" unicode="7" horiz-adv-x="1089" 
d="M23 0l854 1192h-768l29 208h1009l-29 -208l-856 -1192h-239z" />
    <glyph glyph-name="eight" unicode="8" horiz-adv-x="1077" 
d="M436 -26q-127 0 -223 58t-143.5 155.5t-31.5 217.5q15 101 77 188t153 144q-61 50 -91.5 126t-19.5 164q16 110 86 200.5t175 144.5t222 54t206 -54t134 -144.5t29 -200.5q-12 -88 -64.5 -164t-126.5 -126q77 -57 114.5 -144t22.5 -188q-16 -119 -91.5 -217t-188 -156
t-239.5 -58zM465 182q66 0 125 30t98 80.5t47 112.5q9 61 -16 111.5t-75 80.5t-116 30q-65 0 -124 -30t-98.5 -80.5t-48.5 -111.5q-8 -62 17 -112.5t75 -80.5t116 -30zM557 835q57 0 107.5 26t84 69.5t40.5 96.5q8 53 -13.5 96t-64.5 69t-100 26t-107.5 -26t-84.5 -69
t-42 -96q-6 -53 15.5 -96.5t64.5 -69.5t100 -26z" />
    <glyph glyph-name="nine" unicode="9" horiz-adv-x="1081" 
d="M213 0l352 490q-104 -19 -196 8.5t-159 91t-98.5 154.5t-16.5 200q13 99 62.5 186.5t125.5 154t168.5 104t192.5 37.5q131 0 231 -65t150 -174.5t31 -242.5q-9 -69 -34 -126t-68 -120l-500 -698h-241zM536 671q80 0 147.5 38.5t111.5 101t54 134.5q11 78 -18.5 140
t-86.5 98t-129 36q-80 0 -147.5 -39t-112 -101.5t-54.5 -133.5q-10 -75 17.5 -137.5t84 -99.5t133.5 -37z" />
    <glyph glyph-name="colon" unicode=":" horiz-adv-x="419" 
d="M201 781q-46 0 -73.5 32t-20.5 78q6 45 42 77t82 32t74 -32t21 -77q-6 -46 -42.5 -78t-82.5 -32zM87 -26q-46 0 -73 32t-21 78q7 45 43 77t82 32t73.5 -32t21.5 -77q-6 -46 -43 -78t-83 -32z" />
    <glyph glyph-name="semicolon" unicode=";" horiz-adv-x="475" 
d="M-34 -112l109 338h208l-179 -338h-138zM257 781q-46 0 -74 31.5t-21 77.5t43 78t82 32q45 0 73 -32t21 -78q-6 -46 -42.5 -77.5t-81.5 -31.5z" />
    <glyph glyph-name="less" unicode="&#x3c;" horiz-adv-x="1160" 
d="M1002 142l-960 284l48 346l1040 286l-30 -217l-882 -241l814 -242z" />
    <glyph glyph-name="equal" unicode="=" horiz-adv-x="1160" 
d="M22 286l29 207h1000l-29 -207h-1000zM81 707l29 207h1000l-29 -207h-1000z" />
    <glyph glyph-name="greater" unicode="&#x3e;" horiz-adv-x="1160" 
d="M2 150l31 216l881 234l-815 233l31 217l960 -278l-48 -346z" />
    <glyph glyph-name="question" unicode="?" horiz-adv-x="1071" 
d="M390 447q15 108 82 199t170 143q57 28 95 82.5t47 120.5q9 63 -14.5 114.5t-71 82t-110.5 30.5t-118.5 -30.5t-93.5 -82t-47 -114.5h-208q18 120 90 218.5t179.5 157.5t226.5 59q121 0 211.5 -59t135.5 -157.5t28 -218.5q-17 -123 -91 -226.5t-187 -160.5
q-47 -23 -78.5 -65t-37.5 -93h-208zM432 -26q-46 0 -73.5 32.5t-21.5 78.5q7 45 43.5 76.5t81.5 31.5q46 0 73.5 -31.5t20.5 -76.5q-6 -46 -42.5 -78.5t-81.5 -32.5z" />
    <glyph glyph-name="at" unicode="@" horiz-adv-x="1799" 
d="M769 -228q-170 0 -310.5 57.5t-238.5 162t-141.5 247t-19.5 312.5q24 169 108.5 318t213 261.5t286 176t327.5 63.5t310 -64t236.5 -177t138.5 -261.5t19 -316.5q-14 -91 -48.5 -179.5t-87.5 -160t-122 -114t-151 -42.5q-59 0 -116 26.5t-93.5 72t-38.5 100.5
q-46 -46 -108 -73.5t-136 -27.5q-109 0 -192 53.5t-123.5 144t-25.5 200.5q16 110 82 200t164 143.5t207 53.5q70 0 133 -25t94 -69l10 74l154 -31l-76 -542q-6 -41 18.5 -66.5t63.5 -25.5q51 0 89 47.5t62.5 115t32.5 125.5q18 127 -14.5 238t-105 195t-176.5 131t-230 47
t-243.5 -47.5t-213 -131.5t-159 -194.5t-81.5 -237.5t15 -232t106 -180.5t178 -117.5t232 -42zM836 311q66 0 121 35t91 91.5t45 119.5t-10.5 115.5t-65.5 85t-115 32.5q-66 0 -125 -32t-98.5 -86.5t-49.5 -120.5q-9 -67 16 -121.5t75.5 -86.5t115.5 -32z" />
    <glyph glyph-name="A" unicode="A" horiz-adv-x="1421" 
d="M687 1400h243l313 -1400h-220l-60 266h-626l-134 -266h-221zM442 474h474l-146 650z" />
    <glyph glyph-name="B" unicode="B" horiz-adv-x="1154" 
d="M22 0l196 1400h497q108 0 189.5 -44t121.5 -126.5t24 -197.5q-8 -56 -33 -110t-64.5 -95t-88.5 -58q62 -16 98.5 -57.5t54 -96.5t19 -114t-5.5 -112q-15 -112 -81.5 -200t-164 -138.5t-206.5 -50.5h-556zM255 180h328q64 0 121 32t96 88.5t49 127.5q9 62 -14.5 117.5
t-71.5 89.5t-112 34h-328zM349 846h266q83 0 149 50t78 137q13 93 -39.5 139.5t-135.5 46.5h-266z" />
    <glyph glyph-name="C" unicode="C" horiz-adv-x="1418" 
d="M666 -26q-142 0 -259 56.5t-197.5 156t-115.5 231.5t-14 282t93 282t180.5 231.5t241.5 156t275 56.5q170 0 301.5 -79t207.5 -210l-199 -99q-53 82 -142 131t-197 49q-100 0 -193 -41t-169 -112t-126 -165t-65 -200q-15 -107 9 -200.5t80 -165t137.5 -112t180.5 -40.5
q111 0 213 49.5t177 131.5l171 -101q-112 -131 -266 -209.5t-324 -78.5z" />
    <glyph glyph-name="D" unicode="D" horiz-adv-x="1343" 
d="M22 0l196 1400h463q145 0 264.5 -54.5t202 -151t119 -223t16.5 -271.5t-92 -271.5t-182 -223t-244.5 -151t-279.5 -54.5h-463zM259 208h255q101 0 195.5 38t172 106t128.5 157t65 191q15 102 -11 191t-84.5 157t-142 106t-185.5 38h-255z" />
    <glyph glyph-name="E" unicode="E" horiz-adv-x="1089" 
d="M22 0l196 1400h869l-29 -208h-661l-47 -338h532l-29 -208h-533l-61 -438h661l-29 -208h-869z" />
    <glyph glyph-name="F" unicode="F" horiz-adv-x="965" 
d="M22 0l196 1400h825l-30 -208h-616l-47 -338h520l-29 -208h-521l-90 -646h-208z" />
    <glyph glyph-name="G" unicode="G" horiz-adv-x="1536" 
d="M667 -26q-146 0 -263.5 56.5t-197 157t-113.5 232.5t-13 281q22 157 96.5 289t185.5 229.5t243 151.5t269 54q155 0 287.5 -72t218.5 -216l-200 -101q-60 90 -148.5 136t-188.5 46q-97 0 -189.5 -39.5t-169.5 -110t-129 -165t-67 -205.5q-15 -107 9 -201t80.5 -164.5
t138.5 -110.5t182 -40q74 0 145.5 24t136 68.5t117.5 106.5t89 138h-297l26 184h542q-20 -150 -91.5 -282t-180.5 -232.5t-242 -157.5t-276 -57z" />
    <glyph glyph-name="H" unicode="H" horiz-adv-x="1289" 
d="M1059 1400h208l-196 -1400h-208l91 646h-634l-90 -646h-208l196 1400h208l-76 -546h633z" />
    <glyph glyph-name="I" unicode="I" horiz-adv-x="508" 
d="M52 0l196 1400h208l-196 -1400h-208z" />
    <glyph glyph-name="J" unicode="J" horiz-adv-x="859" 
d="M210 -26q-74 0 -141 25t-118 74l156 160q22 -21 55.5 -36t76.5 -15q60 0 114.5 31.5t91 83t45.5 110.5l139 993h208l-140 -993q-16 -117 -87.5 -215.5t-176.5 -158t-223 -59.5z" />
    <glyph glyph-name="K" unicode="K" horiz-adv-x="1136" 
d="M1002 0h-270l-336 577l-100 -103l-66 -474h-208l196 1400h208l-85 -603l589 603h272l-647 -661z" />
    <glyph glyph-name="L" unicode="L" horiz-adv-x="1031" 
d="M22 0l196 1400h208l-167 -1192h604l-30 -208h-811z" />
    <glyph glyph-name="M" unicode="M" horiz-adv-x="1835" 
d="M22 0l467 1400h168l226 -943l490 943h168l76 -1400h-212l-50 937l-459 -884h-139l-211 884l-312 -937h-212z" />
    <glyph glyph-name="N" unicode="N" horiz-adv-x="1316" 
d="M22 0l196 1400h225l499 -1024l144 1024h208l-196 -1400h-225l-499 1024l-144 -1024h-208z" />
    <glyph glyph-name="O" unicode="O" horiz-adv-x="1540" 
d="M668 -26q-142 0 -259.5 56.5t-198 156.5t-116 231.5t-14.5 281.5t93 281.5t181.5 231.5t242.5 156.5t275 56.5q143 0 260 -56.5t197.5 -156.5t116 -231.5t14.5 -281.5t-93 -281.5t-181.5 -231.5t-242 -156.5t-275.5 -56.5zM697 182q100 0 193 41t169.5 112.5t127 165
t65.5 199.5t-9.5 200t-80.5 165.5t-137.5 112t-181.5 40.5t-193 -41t-169.5 -112.5t-127 -165t-65.5 -199.5q-15 -107 9.5 -200.5t80.5 -165t137.5 -112t181.5 -40.5z" />
    <glyph glyph-name="P" unicode="P" horiz-adv-x="1087" 
d="M22 0l196 1400h482q113 0 197 -56t125 -151t24 -210q-16 -117 -85 -211.5t-168.5 -150.5t-209.5 -56h-274l-79 -565h-208zM338 773h253q59 0 113 30t91 80t45 113q9 63 -13.5 113.5t-68 80t-104.5 29.5h-253z" />
    <glyph glyph-name="Q" unicode="Q" horiz-adv-x="1566" 
d="M1234 -36l-137 159q-94 -68 -203.5 -106t-225.5 -38q-142 0 -259.5 56.5t-198 156t-116 231.5t-14.5 282t93 281.5t181.5 231.5t242.5 156.5t275 56.5q143 0 260 -56.5t197.5 -156.5t116 -231.5t14.5 -281.5q-17 -122 -69 -231.5t-129 -200.5l140 -162zM698 187
q69 0 139 23t130 65l-133 154l168 148l127 -149q49 60 81 131t42 146q15 107 -9.5 200.5t-80.5 165t-137.5 112t-180.5 40.5q-100 0 -193.5 -41t-169.5 -112.5t-127 -165t-66 -199.5q-14 -107 10 -201t80.5 -165.5t138.5 -111.5t181 -40z" />
    <glyph glyph-name="R" unicode="R" horiz-adv-x="1179" 
d="M22 0l196 1400h515q114 0 197.5 -56t124 -150.5t23.5 -210.5q-13 -98 -61.5 -179t-122 -138t-161.5 -82l257 -584h-241l-249 565h-191l-79 -565h-208zM338 773h285q60 0 113.5 30t90.5 80t45 113q10 63 -12.5 113.5t-68 80t-105.5 29.5h-285z" />
    <glyph glyph-name="S" unicode="S" horiz-adv-x="1239" 
d="M517 -26q-115 0 -216 36t-170 103.5t-91 160.5l206 73q10 -48 53 -85.5t107.5 -58.5t139.5 -21q80 0 154 26t124 72t59 108q9 64 -30.5 105t-106.5 65t-142 36q-143 24 -253 70t-166.5 129t-37.5 216q18 125 103 218t209.5 144.5t261.5 51.5q113 0 213.5 -35.5
t171.5 -103t92 -163.5l-206 -71q-10 49 -53.5 85.5t-108 57.5t-139.5 21q-79 1 -153 -25.5t-124 -72.5t-59 -107q-10 -75 25.5 -114t102.5 -57.5t150 -33.5q136 -22 246 -73t170 -135.5t42 -207.5q-17 -124 -101.5 -217.5t-209.5 -145t-263 -51.5z" />
    <glyph glyph-name="T" unicode="T" horiz-adv-x="1259" 
d="M1277 1400l-29 -208h-446l-167 -1192h-208l167 1192h-445l29 208h1099z" />
    <glyph glyph-name="U" unicode="U" horiz-adv-x="1348" 
d="M572 -26q-168 0 -280.5 82t-162 220.5t-25.5 307.5l114 816h208l-114 -816q-15 -110 12 -201.5t97 -146t181 -54.5q112 0 197 54.5t137.5 146t67.5 201.5l114 816h208l-114 -816q-18 -127 -72.5 -237.5t-139 -194.5t-193.5 -131t-235 -47z" />
    <glyph glyph-name="V" unicode="V" horiz-adv-x="1418" 
d="M480 0l-312 1400h220l257 -1153l581 1153h220l-704 -1400h-262z" />
    <glyph glyph-name="W" unicode="W" horiz-adv-x="1804" 
d="M330 0l-162 1400h214l118 -1027l405 1027h189l118 -1027l406 1027h214l-552 -1400h-239l-107 927l-367 -927h-237z" />
    <glyph glyph-name="X" unicode="X" horiz-adv-x="1403" 
d="M-38 0l612 704l-410 696h257l306 -520l451 520h257l-603 -696l413 -704h-258l-310 526l-456 -526h-259z" />
    <glyph glyph-name="Y" unicode="Y" horiz-adv-x="1283" 
d="M1076 1400h245l-585 -768l-89 -632h-208l89 632l-370 768h245l261 -541z" />
    <glyph glyph-name="Z" unicode="Z" horiz-adv-x="1292" 
d="M-18 0l29 208l990 984h-852l29 208h1132l-29 -208l-990 -984h852l-29 -208h-1132z" />
    <glyph glyph-name="bracketleft" unicode="[" horiz-adv-x="606" 
d="M420 96l-28 -208h-386l212 1512h386l-30 -208h-177l-154 -1096h177z" />
    <glyph glyph-name="backslash" unicode="\" horiz-adv-x="773" 
d="M371 -112l-193 1512h208l193 -1512h-208z" />
    <glyph glyph-name="bracketright" unicode="]" horiz-adv-x="607" 
d="M-14 -112l29 208h179l154 1096h-179l29 208h387l-212 -1512h-387z" />
    <glyph glyph-name="asciicircum" unicode="^" horiz-adv-x="898" 
d="M122 1000l328 650h266l144 -650h-221l-90 407l-206 -407h-221z" />
    <glyph glyph-name="underscore" unicode="_" horiz-adv-x="1240" 
d="M35 96h1000l-29 -208h-1000z" />
    <glyph glyph-name="grave" unicode="`" horiz-adv-x="934" 
d="M372 1398h208l40 -288h-138z" />
    <glyph glyph-name="a" unicode="a" horiz-adv-x="1185" 
d="M940 1000h208l-140 -1000h-209l12 145q-55 -77 -136.5 -124t-183.5 -47q-110 0 -201 41.5t-154 115.5t-91 170.5t-12 207.5q15 107 68.5 201.5t134 165.5t180 111.5t206.5 40.5q109 0 185.5 -49.5t120.5 -126.5zM514 175q88 0 160 43.5t119.5 117.5t59.5 164
q13 91 -13.5 165t-86.5 117.5t-147 43.5t-165 -44t-130.5 -118t-65.5 -164q-12 -91 20 -164.5t98 -117t151 -43.5z" />
    <glyph glyph-name="b" unicode="b" horiz-adv-x="1228" 
d="M687 1028q146 0 255.5 -71t164 -190.5t33.5 -265.5q-15 -109 -69.5 -204.5t-137 -168t-184 -113.5t-210.5 -41q-105 0 -177 48.5t-111 124.5l-20 -147h-208l210 1500h208l-90 -645q60 77 145.5 125t190.5 48zM565 176q88 0 166 44t131 118t65 163q13 91 -20 165
t-98.5 117.5t-151.5 43.5q-87 0 -159.5 -44t-119.5 -118t-60 -164q-12 -90 15 -164t86.5 -117.5t145.5 -43.5z" />
    <glyph glyph-name="c" unicode="c" horiz-adv-x="1019" 
d="M714 284l172 -101q-82 -95 -194 -152t-234 -57q-138 0 -241.5 71t-154 190.5t-30.5 264.5q15 110 67.5 205.5t131.5 168t175.5 113.5t199.5 41q122 0 218.5 -57t151.5 -153l-201 -101q-34 50 -86.5 76.5t-111.5 26.5q-83 0 -155 -44.5t-121 -117t-61 -158.5
q-12 -85 16.5 -157.5t89 -116.5t141.5 -44q63 0 122.5 28t104.5 74z" />
    <glyph glyph-name="d" unicode="d" horiz-adv-x="1227" 
d="M1011 1500h208l-210 -1500h-208l21 147q-61 -78 -146.5 -125.5t-191.5 -47.5q-109 0 -198.5 41t-151.5 113.5t-89.5 167.5t-12.5 204t69.5 204.5t137 168t183.5 113.5t210 41q106 0 178 -47.5t111 -124.5zM514 175q88 0 160 43.5t119.5 117.5t59.5 164q13 91 -13.5 165
t-86.5 117.5t-147 43.5t-165 -44t-130.5 -118t-65.5 -164q-12 -91 20 -164.5t98 -117t151 -43.5z" />
    <glyph glyph-name="e" unicode="e" horiz-adv-x="1118" 
d="M458 -26q-138 0 -241.5 71t-154 190.5t-30.5 264.5q15 110 67.5 205.5t131.5 168t175.5 113.5t199.5 41q115 0 204.5 -47.5t145.5 -131t73 -192t-14 -230.5h-770q2 -69 32.5 -124.5t83.5 -87.5t126 -33q76 0 144 38t117 105l204 -49q-79 -133 -211.5 -217.5t-282.5 -84.5
zM260 586h568q0 72 -32 130.5t-87.5 93t-127.5 34.5t-136.5 -34t-113 -92.5t-71.5 -131.5z" />
    <glyph glyph-name="f" unicode="f" horiz-adv-x="707" 
d="M450 1227l-31 -227h282l-29 -208h-283l-110 -792h-208l110 792h-118l29 208h119l31 227q12 82 62 149.5t123 107.5t156 40q60 0 113.5 -24t91.5 -74l-170 -147q-9 18 -27 27.5t-38 9.5q-37 0 -67 -26t-36 -63z" />
    <glyph glyph-name="g" unicode="g" horiz-adv-x="1209" 
d="M923 1000h208l-144 -1026q-14 -103 -70 -190t-139 -150.5t-183.5 -98.5t-204.5 -35q-105 0 -195.5 44.5t-153 120.5t-85.5 172l203 86q11 -62 49 -110t93.5 -76t118.5 -28q62 0 122 19.5t110.5 54.5t84.5 84t42 107l24 169q-60 -76 -143.5 -122.5t-185.5 -46.5
q-106 0 -194 41t-149 113.5t-87.5 167.5t-11.5 204t68.5 204.5t135 168t181 113.5t205.5 41q102 0 172.5 -46.5t108.5 -123.5zM504 175q86 0 157.5 44.5t119 118.5t58.5 162q13 90 -13.5 163.5t-85.5 118t-144 44.5t-160.5 -44t-126.5 -118t-64 -164q-12 -90 18.5 -164
t94 -117.5t146.5 -43.5z" />
    <glyph glyph-name="h" unicode="h" horiz-adv-x="1101" 
d="M1011 627l-88 -627h-208l81 576q10 67 -15.5 122t-75.5 87.5t-117 32.5t-126.5 -32.5t-99.5 -87.5t-50 -122l-81 -576h-208l210 1500h208l-84 -606q60 62 141 98t169 36q111 0 194 -54t124.5 -145t25.5 -202z" />
    <glyph glyph-name="i" unicode="i" 
d="M162 1000h208l-140 -1000h-208zM288 1145q-47 0 -75 31t-21 78q7 46 43.5 77.5t82.5 31.5t74 -31.5t21 -77.5q-7 -47 -42.5 -78t-82.5 -31z" />
    <glyph glyph-name="j" unicode="j" horiz-adv-x="471" 
d="M-249 -500l30 208q63 0 117.5 28.5t91 78.5t45.5 111l150 1074h208l-150 -1074q-16 -117 -87.5 -214t-177 -154.5t-227.5 -57.5zM311 1145q-47 0 -75 31t-21 78q7 46 43.5 77.5t82.5 31.5t74 -31.5t21 -77.5q-7 -47 -42.5 -78t-82.5 -31z" />
    <glyph glyph-name="k" unicode="k" horiz-adv-x="1041" 
d="M878 0h-240l-187 424l-188 -192l-32 -232h-208l210 1500h208l-133 -945l435 445h272l-398 -407z" />
    <glyph glyph-name="l" unicode="l" 
d="M23 0l210 1500h208l-210 -1500h-208z" />
    <glyph glyph-name="m" unicode="m" horiz-adv-x="1776" 
d="M22 0l140 1000h208l-15 -106q61 62 141.5 98t168.5 36q107 0 189.5 -51.5t123.5 -136.5q65 85 161 136.5t203 51.5q111 0 194.5 -54t125 -145t24.5 -202l-87 -627h-208l81 574q9 66 -15.5 121t-74 89t-115.5 34t-124.5 -32t-98 -87t-49.5 -125l-80 -574h-208l80 574
q10 70 -14.5 125t-74.5 87t-116 32q-65 0 -123.5 -34t-98.5 -89t-49 -121l-81 -574h-208z" />
    <glyph glyph-name="n" unicode="n" horiz-adv-x="1100" 
d="M1010 627l-88 -627h-208l81 576q10 67 -15.5 122t-75.5 87.5t-117 32.5t-126.5 -32.5t-99.5 -87.5t-50 -122l-81 -576h-208l140 1000h208l-14 -106q60 62 141 98t169 36q111 0 194 -54t124.5 -145t25.5 -202z" />
    <glyph glyph-name="o" unicode="o" horiz-adv-x="1120" 
d="M458 -26q-138 0 -241.5 71t-154 190.5t-30.5 264.5q15 110 67.5 205.5t131.5 168t175.5 113.5t199.5 41q138 0 241.5 -71t154.5 -191t30 -266q-15 -109 -67.5 -204t-131.5 -167.5t-175 -113.5t-200 -41zM487 182q83 0 155 44t121.5 116.5t60.5 157.5q12 87 -17 160
t-89 116.5t-141 43.5q-82 0 -154.5 -44t-121.5 -117t-61 -159q-12 -89 17.5 -161t89.5 -114.5t140 -42.5z" />
    <glyph glyph-name="p" unicode="p" horiz-adv-x="1226" 
d="M159 -500h-208l211 1500h208l-20 -147q60 77 145 125t191 48q109 0 198.5 -41t152 -113.5t89.5 -167.5t12 -204t-69.5 -205t-137 -168.5t-183.5 -113.5t-210 -41q-106 0 -177.5 48.5t-110.5 124.5zM655 825q-87 0 -159 -44t-119 -117.5t-60 -163.5q-12 -90 14 -164
t85.5 -118t146.5 -44q86 0 164 43.5t132.5 117.5t66.5 165q13 89 -19.5 163t-98.5 118t-153 44z" />
    <glyph glyph-name="q" unicode="q" horiz-adv-x="1226" 
d="M484 -28q-145 0 -254.5 71t-163.5 191t-34 266q15 109 69.5 204t137 167.5t183.5 113.5t210 41q106 0 177.5 -48t109.5 -125l21 147h208l-211 -1500h-208l91 645q-60 -76 -145 -124.5t-191 -48.5zM606 825q-88 0 -165.5 -44t-130 -118t-65.5 -163q-12 -91 20 -165
t97.5 -117.5t151.5 -43.5q88 0 159.5 44t119 118t59.5 164q13 90 -13.5 163.5t-86 117.5t-146.5 44z" />
    <glyph glyph-name="r" unicode="r" horiz-adv-x="751" 
d="M22 0l140 1000h208l-14 -106q60 62 141 98t169 36q56 0 109 -15l-113 -210q-36 15 -75 15q-67 0 -126.5 -32.5t-99.5 -87.5t-50 -122l-81 -576h-208z" />
    <glyph glyph-name="s" unicode="s" horiz-adv-x="865" 
d="M319 -19q-79 5 -149.5 32t-121 73.5t-69.5 109.5l188 76q9 -27 38 -53t70.5 -42.5t89.5 -16.5q47 0 89.5 13.5t72.5 41.5t36 67q6 44 -20.5 68.5t-68.5 37.5t-84 25q-96 22 -171.5 60.5t-115.5 99t-28 148.5q14 96 76 166.5t152 108.5t186 38q120 0 213 -51t134 -140
l-180 -98q-11 30 -37.5 54t-62 38.5t-76.5 16.5q-51 2 -96.5 -11.5t-75 -42.5t-36.5 -74q-6 -44 21.5 -65.5t73.5 -34.5t93 -29q85 -28 157.5 -68.5t112.5 -99.5t26 -144q-14 -94 -80 -165t-161.5 -108t-195.5 -31z" />
    <glyph glyph-name="t" unicode="t" horiz-adv-x="707" 
d="M661 792h-210l-112 -792h-208l112 792h-159l29 208h159l43 314h208l-43 -314h210z" />
    <glyph glyph-name="u" unicode="u" horiz-adv-x="1060" 
d="M35 375l87 625h208l-81 -574q-9 -67 16 -122t75.5 -87.5t116.5 -32.5q67 0 127 32.5t100 87.5t49 122l80 574h208l-139 -1000h-208l14 108q-60 -62 -141 -98t-168 -36q-111 0 -194.5 54t-124.5 145t-25 202z" />
    <glyph glyph-name="v" unicode="v" horiz-adv-x="1117" 
d="M594 0h-267l-224 1002h221l170 -762l383 762h222z" />
    <glyph glyph-name="w" unicode="w" horiz-adv-x="1677" 
d="M504 0h-207l-195 1000h204l137 -702l333 702h210l135 -702l334 702h204l-474 -1000h-209l-137 707z" />
    <glyph glyph-name="x" unicode="x" horiz-adv-x="1149" 
d="M-18 0l436 502l-293 500h257l189 -322l281 322h256l-433 -500l296 -502h-257l-193 326l-282 -326h-257z" />
    <glyph glyph-name="y" unicode="y" horiz-adv-x="1107" 
d="M847 1000h222l-759 -1500h-221l252 500l-219 1000h227l136 -715z" />
    <glyph glyph-name="z" unicode="z" horiz-adv-x="1014" 
d="M947 792l-638 -584h556l-29 -208h-854l29 208l638 584h-556l29 208h854z" />
    <glyph glyph-name="braceleft" unicode="{" horiz-adv-x="814" 
d="M504 -113q-97 0 -170 47.5t-108.5 127t-22.5 175.5l34 245q3 29 -16.5 46.5t-46.5 31.5t-46.5 33t-15.5 50q5 31 29.5 50.5t55.5 34.5t56.5 32t29.5 44l34 246q14 96 72 175.5t144 127t183 47.5h96l-28 -208h-96q-39 0 -74 -19t-59 -51.5t-30 -71.5l-35 -253
q-7 -36 -27.5 -59t-46.5 -44t-51 -51q17 -31 37.5 -52t34.5 -42.5t10 -58.5l-36 -253q-5 -39 9.5 -71t44 -51.5t69.5 -19.5h96l-30 -208h-96z" />
    <glyph glyph-name="bar" unicode="|" horiz-adv-x="488" 
d="M238 1400h208l-239 -1702h-208z" />
    <glyph glyph-name="braceright" unicode="}" horiz-adv-x="814" 
d="M-14 -113l29 208h96q39 0 74 19.5t59 51.5t29 71l36 253q7 37 27 58.5t46 42.5t53 52q-18 30 -38.5 51t-34 44t-10.5 59l35 253q6 39 -8.5 71.5t-44.5 51.5t-69 19h-96l29 208h96q97 0 170 -47.5t109 -127t22 -175.5l-34 -246q-3 -27 17.5 -44t47 -32t46 -34.5
t14.5 -50.5q-4 -31 -29 -50t-56 -33t-56 -31.5t-30 -46.5l-34 -245q-13 -96 -71.5 -175.5t-144.5 -127t-183 -47.5h-96z" />
    <glyph glyph-name="asciitilde" unicode="~" horiz-adv-x="1277" 
d="M898 406q-65 0 -135.5 29t-141 66.5t-134.5 66.5t-116 29q-36 1 -62 -18.5t-40.5 -51t-13.5 -65.5l-204 -1q-4 85 41.5 161t122.5 124t165 48q64 0 128 -29.5t127 -68.5t123.5 -68.5t113.5 -29.5q37 0 64 19t42 50t14 66l204 2q4 -86 -34.5 -161t-107.5 -121.5
t-156 -46.5z" />
    <glyph glyph-name="uni00A0" unicode="&#xa0;" horiz-adv-x="480" 
 />
    <glyph glyph-name="exclamdown" unicode="&#xa1;" horiz-adv-x="403" 
d="M234 1026q47 0 74 -31.5t20 -79.5q-6 -45 -42 -76.5t-83 -31.5q-44 0 -71.5 31.5t-21.5 76.5q7 48 43 79.5t81 31.5zM261 580l-138 -980h-178l138 980h178z" />
    <glyph glyph-name="cent" unicode="&#xa2;" horiz-adv-x="1092" 
d="M409 0l29 205q-118 18 -205 88t-129 176.5t-24 232.5t89.5 232t178 176t229.5 87l28 203h147l-29 -203q112 -15 197 -78t129 -157l-195 -104q-30 63 -93 100.5t-137 37.5q-81 0 -153.5 -40t-121.5 -106.5t-61 -147.5q-11 -82 20 -149.5t92.5 -107t140.5 -39.5
q74 0 147.5 37.5t121.5 100.5l165 -104q-70 -94 -172.5 -157t-218.5 -78l-28 -205h-147z" />
    <glyph glyph-name="sterling" unicode="&#xa3;" horiz-adv-x="1184" 
d="M6 0l29 208q53 0 108.5 14t100.5 39.5t69.5 62.5t16.5 82q-3 47 -22 85t-47 73.5t-58 71t-54.5 76t-36 91t-2.5 113.5q15 105 68 197t133 162.5t178 110.5t203 40q107 0 194 -40t147.5 -110t87.5 -162.5t13 -197.5h-208q12 83 -19.5 151.5t-95 109.5t-147.5 41
q-83 0 -157.5 -41t-125.5 -109.5t-63 -151.5q-9 -70 5.5 -119t43.5 -87t62.5 -72t62 -73.5t43 -91.5t3.5 -126q-4 -30 -19.5 -58t-36 -49t-39.5 -32h575l-29 -208h-983zM69 447l20 146h763l-21 -146h-762z" />
    <glyph glyph-name="currency" unicode="&#xa4;" horiz-adv-x="1011" 
d="M123 274l-89 103l146 128q-30 59 -33.5 126.5t19 135.5t70.5 126l-110 131l118 102l110 -129q63 39 133.5 52.5t137 1t118.5 -51.5l147 127l87 -102l-144 -127q33 -59 37 -128t-19 -138t-71 -128l106 -126l-117 -103l-107 125q-66 -40 -136.5 -53.5t-137 0t-120.5 55.5z
M478 485q59 1 111 29.5t87.5 76.5t44.5 107q8 62 -14.5 109.5t-66.5 75t-102 27.5q-61 1 -113.5 -28.5t-87 -78t-42.5 -105.5q-8 -59 14 -108t67 -77t102 -28z" />
    <glyph glyph-name="yen" unicode="&#xa5;" horiz-adv-x="1298" 
d="M447 0l23 164h-260l20 146h260l17 120h-260l21 146h260l7 56l-370 768h246l261 -541l411 541h246l-586 -768l-7 -56h260l-21 -146h-260l-17 -120h260l-20 -146h-260l-23 -164h-208z" />
    <glyph glyph-name="brokenbar" unicode="&#xa6;" 
d="M85 448h208l-106 -750h-208zM218 1400h208l-105 -750h-208z" />
    <glyph glyph-name="section" unicode="&#xa7;" horiz-adv-x="1093" 
d="M392 -382q-120 0 -212.5 51t-134.5 140l179 97q11 -29 37.5 -53t63 -39t75.5 -17q52 -1 97 12.5t75.5 42.5t36.5 74q6 44 -21 68.5t-72 37.5t-95 23q-111 18 -191 80.5t-117 157t-21 206.5q11 78 47.5 147.5t92 125t123.5 89.5q-72 30 -103 81.5t-21 127.5q14 96 76 166
t152 108t186 38q120 0 212.5 -50.5t134.5 -140.5l-180 -97q-10 29 -36.5 53t-63 39t-76.5 17q-51 1 -96.5 -12.5t-75 -42.5t-36.5 -74q-6 -43 19.5 -67t70 -37t94.5 -24q116 -23 196.5 -82.5t117 -151.5t19.5 -213q-11 -77 -47.5 -146.5t-92.5 -124.5t-125 -88
q73 -31 104.5 -82.5t20.5 -127.5q-13 -96 -75 -166t-151.5 -108t-186.5 -38zM491 246q64 0 122 35.5t98 92.5t49 123q11 78 -15.5 136t-79.5 89.5t-124 31.5q-60 0 -117.5 -36t-97.5 -94t-50 -125q-10 -71 15.5 -128t78 -91t121.5 -34z" />
    <glyph glyph-name="dieresis" unicode="&#xa8;" horiz-adv-x="1390" 
d="M564 1074q-46 0 -74.5 31t-21.5 78q7 46 43.5 78t83.5 32q46 0 74 -32t21 -78q-7 -47 -43.5 -78t-82.5 -31zM933 1074q-47 0 -75.5 31t-21.5 78q6 46 43 78t84 32q46 0 74 -32t21 -78q-7 -47 -43.5 -78t-81.5 -31z" />
    <glyph glyph-name="copyright" unicode="&#xa9;" horiz-adv-x="1871" 
d="M796 -284q-177 0 -322.5 66.5t-246.5 184t-145.5 272.5t-19.5 332q25 178 113 333t222 272t298 183.5t342 66.5q177 0 322.5 -66t247 -183.5t146.5 -272.5t20 -332q-25 -178 -113.5 -333t-223 -272.5t-299 -184t-341.5 -66.5zM826 -76q137 0 262 51.5t226 141t167 206.5
t84 248q19 134 -15 251.5t-111 206.5t-187 139.5t-244 49.5q-136 -1 -260.5 -51.5t-226 -140.5t-167 -206t-84.5 -249q-19 -136 15.5 -254t112 -206t187.5 -137.5t241 -49.5zM1094 355l172 -101q-82 -95 -194 -152t-235 -57q-138 0 -241.5 71t-154 190.5t-30.5 264.5
q15 110 67.5 205.5t131.5 168t175.5 113.5t199.5 41q123 0 219.5 -57t151.5 -153l-202 -100q-34 49 -86.5 75.5t-111.5 26.5q-82 0 -154.5 -44t-121 -117t-61.5 -158q-12 -86 16.5 -158.5t89 -116.5t141.5 -44q63 0 122.5 28t105.5 74z" />
    <glyph glyph-name="ordfeminine" unicode="&#xaa;" horiz-adv-x="1185" 
d="M940 1000h208l-140 -1000h-209l12 145q-55 -77 -136.5 -124t-183.5 -47q-110 0 -201 41.5t-154 115.5t-91 170.5t-12 207.5q15 107 68.5 201.5t134 165.5t180 111.5t206.5 40.5q109 0 185.5 -49.5t120.5 -126.5zM514 175q88 0 160 43.5t119.5 117.5t59.5 164
q13 91 -13.5 165t-86.5 117.5t-147 43.5t-165 -44t-130.5 -118t-65.5 -164q-12 -91 20 -164.5t98 -117t151 -43.5z" />
    <glyph glyph-name="guillemotleft" unicode="&#xab;" horiz-adv-x="1122" 
d="M358 261l-252 340l348 338h215l-346 -338l250 -340h-215zM745 261l-252 340l348 338h215l-346 -338l250 -340h-215z" />
    <glyph glyph-name="logicalnot" unicode="&#xac;" horiz-adv-x="1006" 
d="M661 298l56 396h-638l30 208h845l-85 -604h-208z" />
    <glyph glyph-name="uni00AD" unicode="&#xad;" horiz-adv-x="896" 
d="M137 704h640l-30 -208h-640z" />
    <glyph glyph-name="registered" unicode="&#xae;" horiz-adv-x="1080" 
d="M500 421q-99 0 -181 37.5t-138.5 104t-81 153.5t-11.5 185q14 99 63.5 185.5t124.5 153t167.5 103.5t191.5 37q102 0 183.5 -38t138 -105t80.5 -153t11 -183q-14 -99 -63.5 -186t-125.5 -153.5t-168 -103.5t-191 -37zM521 573q91 0 171.5 44.5t135.5 119t67 164.5
q13 90 -21 164.5t-102 118.5t-159 44q-90 0 -170.5 -44t-135 -118.5t-67.5 -164.5q-12 -90 21.5 -164.5t101.5 -119t158 -44.5zM408 704l59 417h160q52 0 82.5 -38t22.5 -92q-6 -39 -30.5 -70t-58.5 -45l77 -172h-105l-71 159h-23l-23 -159h-90zM533 953h70q13 0 24.5 11.5
t13.5 26.5q2 17 -5.5 28t-21.5 11h-70z" />
    <glyph glyph-name="macron" unicode="&#xaf;" horiz-adv-x="1200" 
d="M348 1311h676l-23 -158h-676z" />
    <glyph glyph-name="degree" unicode="&#xb0;" horiz-adv-x="841" 
d="M427 740q-96 0 -167 47.5t-105.5 125t-21.5 167.5q14 93 70 170t140.5 123.5t178.5 46.5q97 0 167 -47.5t104 -124.5t21 -168q-13 -96 -70.5 -173.5t-141 -122t-175.5 -44.5zM456 948q55 0 99 38.5t51 93.5q8 56 -25 94t-88 38t-99.5 -38t-52.5 -94q-7 -55 26.5 -93.5
t88.5 -38.5z" />
    <glyph glyph-name="plusminus" unicode="&#xb1;" horiz-adv-x="1160" 
d="M429 361l55 396h-396l29 208h396l56 396h208l-56 -396h396l-29 -208h-396l-55 -396h-208zM-18 0l29 208h1000l-29 -208h-1000z" />
    <glyph glyph-name="uni00B2" unicode="&#xb2;" horiz-adv-x="705" 
d="M113 818l16 118q45 28 100 62t110 73t100 83t68 92q6 42 -19 70t-67 28q-43 0 -77 -28t-40 -70h-131q9 64 47.5 114.5t96 79t121.5 28.5q96 0 154.5 -63t45.5 -159q-6 -41 -32.5 -81.5t-66 -78.5t-85 -72.5t-87.5 -64.5h222l-18 -131h-458z" />
    <glyph glyph-name="uni00B3" unicode="&#xb3;" horiz-adv-x="570" 
d="M300 798q-88 0 -143 57t-43 146h131q-5 -35 16.5 -57t55.5 -22t60.5 22t31.5 57q5 40 -24 70t-93 30l13 93q62 0 91 26t34 60q4 28 -13.5 46t-45.5 18q-27 0 -49.5 -18t-26.5 -46h-131q12 83 77.5 135t147.5 52q83 0 133.5 -52t38.5 -135q-5 -38 -23.5 -72.5t-44.5 -56.5
q30 -30 42 -67t5 -83q-13 -89 -83.5 -146t-156.5 -57z" />
    <glyph glyph-name="acute" unicode="&#xb4;" horiz-adv-x="934" 
d="M430 1110l120 288h208l-188 -288h-140z" />
    <glyph glyph-name="uni00B5" unicode="&#xb5;" horiz-adv-x="1108" 
d="M-79 -432l201 1432h208l-73 -518q-11 -85 14 -154.5t80.5 -111t134.5 -41.5q78 0 142 41.5t106.5 111t54.5 154.5l73 518h208l-140 -1000h-208l19 136q-63 -75 -143 -119t-173 -44q-73 0 -130 29.5t-94 77.5l-72 -512h-208z" />
    <glyph glyph-name="paragraph" unicode="&#xb6;" horiz-adv-x="988" 
d="M279 -302l144 1020q-94 0 -165 46t-106 123.5t-22 171.5q14 94 70.5 171.5t140 123.5t177.5 46h208l-239 -1702h-208zM559 -302l239 1702h208l-239 -1702h-208z" />
    <glyph glyph-name="periodcentered" unicode="&#xb7;" horiz-adv-x="379" 
d="M160 490q-46 0 -73.5 32t-20.5 79q6 44 42.5 76.5t81.5 32.5q46 0 74 -32.5t21 -76.5q-6 -47 -42.5 -79t-82.5 -32z" />
    <glyph glyph-name="cedilla" unicode="&#xb8;" horiz-adv-x="1258" 
d="M461 -373q-71 -18 -128 17.5t-66 103.5l116 30q3 -22 21.5 -33.5t41.5 -5.5q24 6 38.5 26t11.5 43t-21 33.5t-42 6.5l-118 -7l167 235l93 -58l-49 -68q35 -13 58.5 -42.5t28.5 -70.5q8 -68 -36 -130t-116 -80z" />
    <glyph glyph-name="uni00B9" unicode="&#xb9;" horiz-adv-x="441" 
d="M183 818l70 500h-70l37 131h182l-88 -631h-131z" />
    <glyph glyph-name="ordmasculine" unicode="&#xba;" horiz-adv-x="1120" 
d="M458 -26q-138 0 -241.5 71t-154 190.5t-30.5 264.5q15 110 67.5 205.5t131.5 168t175.5 113.5t199.5 41q138 0 241.5 -71t154.5 -191t30 -266q-15 -109 -67.5 -204t-131.5 -167.5t-175 -113.5t-200 -41zM487 182q83 0 155 44t121.5 116.5t60.5 157.5q12 87 -17 160
t-89 116.5t-141 43.5q-82 0 -154.5 -44t-121.5 -117t-61 -159q-12 -89 17.5 -161t89.5 -114.5t140 -42.5z" />
    <glyph glyph-name="guillemotright" unicode="&#xbb;" horiz-adv-x="1142" 
d="M425 261l347 340l-251 338h215l252 -338l-348 -340h-215zM38 261l347 340l-251 338h215l252 -338l-348 -340h-215z" />
    <glyph glyph-name="onequarter" unicode="&#xbc;" horiz-adv-x="1579" 
d="M183 818l70 500h-70l37 131h182l-88 -631h-131zM76 0l1004 1400h176l-1004 -1400h-176zM1142 0l15 106h-253l22 158l284 367h152l-56 -394h63l-18 -131h-63l-14 -106h-132zM1052 237h134l30 212z" />
    <glyph glyph-name="onehalf" unicode="&#xbd;" horiz-adv-x="1596" 
d="M183 818l70 500h-70l37 131h182l-88 -631h-131zM76 0l1004 1400h176l-1004 -1400h-176zM889 0l16 118q45 28 100 62t110 73.5t100 83.5t68 92q6 42 -19 69.5t-67 27.5q-43 0 -76.5 -27.5t-40.5 -69.5h-131q9 64 48 116t96 82t122 30q64 0 112 -30t72 -82t15 -116
q-6 -41 -32.5 -81.5t-66 -78.5t-85 -73t-87.5 -65h222l-18 -131h-458z" />
    <glyph glyph-name="threequarters" unicode="&#xbe;" horiz-adv-x="1707" 
d="M300 798q-88 0 -143 57t-43 146h131q-5 -35 16.5 -57t55.5 -22t60.5 22t31.5 57q5 40 -24 70t-93 30l13 93q62 0 91 26t34 60q4 28 -13.5 46t-45.5 18q-27 0 -49.5 -18t-26.5 -46h-131q12 83 77.5 135t147.5 52q83 0 133.5 -52t38.5 -135q-5 -38 -23.5 -72.5t-44.5 -56.5
q30 -30 42 -67t5 -83q-13 -89 -83.5 -146t-156.5 -57zM205 0l1004 1400h176l-1004 -1400h-176zM1271 0l15 106h-253l22 158l284 367h152l-56 -394h63l-18 -131h-63l-14 -106h-132zM1181 237h134l30 212z" />
    <glyph glyph-name="questiondown" unicode="&#xbf;" horiz-adv-x="1056" 
d="M357 -427q-120 0 -210.5 59t-135.5 158t-28 218q17 123 91.5 227.5t185.5 159.5q48 23 79.5 65.5t38.5 93.5h208q-16 -107 -83 -198.5t-170 -143.5q-57 -29 -95 -83.5t-47 -120.5q-9 -63 14.5 -114t71 -82t110.5 -31q62 0 118 31t94.5 82t47.5 114h208q-17 -119 -90 -218
t-180 -158t-228 -59zM512 807q-44 0 -71.5 31.5t-22.5 76.5q7 48 43.5 79.5t81.5 31.5q46 0 73.5 -31.5t19.5 -79.5q-5 -45 -41.5 -76.5t-82.5 -31.5z" />
    <glyph glyph-name="Agrave" unicode="&#xc0;" horiz-adv-x="1421" 
d="M687 1400h243l313 -1400h-220l-60 266h-626l-134 -266h-221zM442 474h474l-146 650zM627 1798h208l40 -288h-138z" />
    <glyph glyph-name="Aacute" unicode="&#xc1;" horiz-adv-x="1421" 
d="M687 1400h243l313 -1400h-220l-60 266h-626l-134 -266h-221zM442 474h474l-146 650zM770 1510l120 288h208l-188 -288h-140z" />
    <glyph glyph-name="Acircumflex" unicode="&#xc2;" horiz-adv-x="1421" 
d="M687 1400h243l313 -1400h-220l-60 266h-626l-134 -266h-221zM442 474h474l-146 650zM981 1798l153 -288h-139l-143 197l-196 -197h-138l230 288h233z" />
    <glyph glyph-name="Atilde" unicode="&#xc3;" horiz-adv-x="1421" 
d="M687 1400h243l313 -1400h-220l-60 266h-626l-134 -266h-221zM442 474h474l-146 650zM980 1514q-37 0 -82.5 25t-89.5 56.5t-79 51.5t-54 9t-29 -33.5t-6 -57.5l-130 -34q-15 70 7 130t72 96.5t119 36.5q37 0 80.5 -22t87 -50t78 -50t53.5 -22q21 0 31 15.5t12.5 36.5
t-2.5 39l133 41q15 -75 -9 -135.5t-74.5 -96.5t-117.5 -36z" />
    <glyph glyph-name="Adieresis" unicode="&#xc4;" horiz-adv-x="1421" 
d="M687 1400h243l313 -1400h-220l-60 266h-626l-134 -266h-221zM442 474h474l-146 650zM635 1474q-46 0 -74.5 31t-21.5 78q7 46 43.5 78t83.5 32q46 0 74 -32t21 -78q-7 -47 -43.5 -78t-82.5 -31zM1004 1474q-47 0 -75.5 31t-21.5 78q6 46 43 78t84 32q46 0 74 -32t21 -78
q-7 -47 -43.5 -78t-81.5 -31z" />
    <glyph glyph-name="Aring" unicode="&#xc5;" horiz-adv-x="1421" 
d="M687 1400h243l313 -1400h-220l-60 266h-626l-134 -266h-221zM442 474h474l-146 650zM819 1478q-72 0 -116.5 52.5t-34.5 124.5q7 48 36 88t72.5 63.5t92.5 23.5q73 0 117 -51.5t34 -123.5q-10 -74 -69 -125.5t-132 -51.5zM834 1582q29 0 53 21.5t29 51.5q4 29 -14 49.5
t-48 20.5t-53.5 -20.5t-27.5 -49.5q-5 -30 13 -51.5t48 -21.5z" />
    <glyph glyph-name="AE" unicode="&#xc6;" horiz-adv-x="1658" 
d="M-18 0l705 1400h969l-29 -208h-521l-55 -388h425l-28 -208h-425l-55 -388h521l-29 -208h-729l37 266h-431l-134 -266h-221zM442 474h355l101 718h-94z" />
    <glyph glyph-name="Ccedilla" unicode="&#xc7;" horiz-adv-x="1418" 
d="M666 -26q-142 0 -259 56.5t-197.5 156t-115.5 231.5t-14 282t93 282t180.5 231.5t241.5 156t275 56.5q170 0 301.5 -79t207.5 -210l-199 -99q-53 82 -142 131t-197 49q-100 0 -193 -41t-169 -112t-126 -165t-65 -200q-15 -107 9 -200.5t80 -165t137.5 -112t180.5 -40.5
q111 0 213 49.5t177 131.5l171 -101q-112 -131 -266 -209.5t-324 -78.5zM623 -373q-71 -18 -128 17.5t-66 103.5l116 30q3 -22 21.5 -33.5t41.5 -5.5q24 6 38.5 26t11.5 43t-21 33.5t-42 6.5l-118 -7l167 235l93 -58l-49 -68q35 -13 58.5 -42.5t28.5 -70.5q8 -68 -36 -130
t-116 -80z" />
    <glyph glyph-name="Egrave" unicode="&#xc8;" horiz-adv-x="1089" 
d="M22 0l196 1400h869l-29 -208h-661l-47 -338h532l-29 -208h-533l-61 -438h661l-29 -208h-869zM461 1798h208l40 -288h-138z" />
    <glyph glyph-name="Eacute" unicode="&#xc9;" horiz-adv-x="1089" 
d="M22 0l196 1400h869l-29 -208h-661l-47 -338h532l-29 -208h-533l-61 -438h661l-29 -208h-869zM604 1510l120 288h208l-188 -288h-140z" />
    <glyph glyph-name="Ecircumflex" unicode="&#xca;" horiz-adv-x="1089" 
d="M22 0l196 1400h869l-29 -208h-661l-47 -338h532l-29 -208h-533l-61 -438h661l-29 -208h-869zM815 1798l153 -288h-139l-143 197l-196 -197h-138l230 288h233z" />
    <glyph glyph-name="Edieresis" unicode="&#xcb;" horiz-adv-x="1089" 
d="M22 0l196 1400h869l-29 -208h-661l-47 -338h532l-29 -208h-533l-61 -438h661l-29 -208h-869zM469 1474q-46 0 -74.5 31t-21.5 78q7 46 43.5 78t83.5 32q46 0 74 -32t21 -78q-7 -47 -43.5 -78t-82.5 -31zM838 1474q-47 0 -75.5 31t-21.5 78q6 46 43 78t84 32q46 0 74 -32
t21 -78q-7 -47 -43.5 -78t-81.5 -31z" />
    <glyph glyph-name="Igrave" unicode="&#xcc;" horiz-adv-x="508" 
d="M52 0l196 1400h208l-196 -1400h-208zM170 1798h208l40 -288h-138z" />
    <glyph glyph-name="Iacute" unicode="&#xcd;" horiz-adv-x="508" 
d="M52 0l196 1400h208l-196 -1400h-208zM314 1510l120 288h208l-188 -288h-140z" />
    <glyph glyph-name="Icircumflex" unicode="&#xce;" horiz-adv-x="508" 
d="M52 0l196 1400h208l-196 -1400h-208zM524 1798l153 -288h-139l-143 197l-196 -197h-138l230 288h233z" />
    <glyph glyph-name="Idieresis" unicode="&#xcf;" horiz-adv-x="508" 
d="M52 0l196 1400h208l-196 -1400h-208zM179 1474q-46 0 -74.5 31t-21.5 78q7 46 43.5 78t83.5 32q46 0 74 -32t21 -78q-7 -47 -43.5 -78t-82.5 -31zM548 1474q-47 0 -75.5 31t-21.5 78q6 46 43 78t84 32q46 0 74 -32t21 -78q-7 -47 -43.5 -78t-81.5 -31z" />
    <glyph glyph-name="Eth" unicode="&#xd0;" horiz-adv-x="1458" 
d="M137 0l91 646h-136l30 208h135l76 546h463q145 0 264 -54.5t202 -151t119.5 -223t16.5 -271.5t-92.5 -271.5t-182 -223t-244 -151t-279.5 -54.5h-463zM374 208h255q103 0 197.5 38.5t171.5 107t127.5 157.5t64.5 189q15 103 -11 192t-85 156.5t-142.5 105.5t-184.5 38
h-254l-48 -338h299l-29 -208h-299z" />
    <glyph glyph-name="Ntilde" unicode="&#xd1;" horiz-adv-x="1316" 
d="M22 0l196 1400h225l499 -1024l144 1024h208l-196 -1400h-225l-499 1024l-144 -1024h-208zM927 1514q-37 0 -82.5 25t-89.5 56.5t-79 51.5t-54 9t-29 -33.5t-6 -57.5l-130 -34q-15 70 7 130t72 96.5t119 36.5q37 0 80.5 -22t87 -50t78 -50t53.5 -22q21 0 31 15.5
t12.5 36.5t-2.5 39l133 41q15 -75 -9 -135.5t-74.5 -96.5t-117.5 -36z" />
    <glyph glyph-name="Ograve" unicode="&#xd2;" horiz-adv-x="1540" 
d="M668 -26q-142 0 -259.5 56.5t-198 156.5t-116 231.5t-14.5 281.5t93 281.5t181.5 231.5t242.5 156.5t275 56.5q143 0 260 -56.5t197.5 -156.5t116 -231.5t14.5 -281.5t-93 -281.5t-181.5 -231.5t-242 -156.5t-275.5 -56.5zM697 182q100 0 193 41t169.5 112.5t127 165
t65.5 199.5t-9.5 200t-80.5 165.5t-137.5 112t-181.5 40.5t-193 -41t-169.5 -112.5t-127 -165t-65.5 -199.5q-15 -107 9.5 -200.5t80.5 -165t137.5 -112t181.5 -40.5zM686 1798h208l40 -288h-138z" />
    <glyph glyph-name="Oacute" unicode="&#xd3;" horiz-adv-x="1540" 
d="M668 -26q-142 0 -259.5 56.5t-198 156.5t-116 231.5t-14.5 281.5t93 281.5t181.5 231.5t242.5 156.5t275 56.5q143 0 260 -56.5t197.5 -156.5t116 -231.5t14.5 -281.5t-93 -281.5t-181.5 -231.5t-242 -156.5t-275.5 -56.5zM697 182q100 0 193 41t169.5 112.5t127 165
t65.5 199.5t-9.5 200t-80.5 165.5t-137.5 112t-181.5 40.5t-193 -41t-169.5 -112.5t-127 -165t-65.5 -199.5q-15 -107 9.5 -200.5t80.5 -165t137.5 -112t181.5 -40.5zM830 1510l120 288h208l-188 -288h-140z" />
    <glyph glyph-name="Ocircumflex" unicode="&#xd4;" horiz-adv-x="1540" 
d="M668 -26q-142 0 -259.5 56.5t-198 156.5t-116 231.5t-14.5 281.5t93 281.5t181.5 231.5t242.5 156.5t275 56.5q143 0 260 -56.5t197.5 -156.5t116 -231.5t14.5 -281.5t-93 -281.5t-181.5 -231.5t-242 -156.5t-275.5 -56.5zM697 182q100 0 193 41t169.5 112.5t127 165
t65.5 199.5t-9.5 200t-80.5 165.5t-137.5 112t-181.5 40.5t-193 -41t-169.5 -112.5t-127 -165t-65.5 -199.5q-15 -107 9.5 -200.5t80.5 -165t137.5 -112t181.5 -40.5zM1040 1798l153 -288h-139l-143 197l-196 -197h-138l230 288h233z" />
    <glyph glyph-name="Otilde" unicode="&#xd5;" horiz-adv-x="1540" 
d="M668 -26q-142 0 -259.5 56.5t-198 156.5t-116 231.5t-14.5 281.5t93 281.5t181.5 231.5t242.5 156.5t275 56.5q143 0 260 -56.5t197.5 -156.5t116 -231.5t14.5 -281.5t-93 -281.5t-181.5 -231.5t-242 -156.5t-275.5 -56.5zM697 182q100 0 193 41t169.5 112.5t127 165
t65.5 199.5t-9.5 200t-80.5 165.5t-137.5 112t-181.5 40.5t-193 -41t-169.5 -112.5t-127 -165t-65.5 -199.5q-15 -107 9.5 -200.5t80.5 -165t137.5 -112t181.5 -40.5zM1039 1514q-37 0 -82.5 25t-89.5 56.5t-79 51.5t-54 9t-29 -33.5t-6 -57.5l-130 -34q-15 70 7 130
t72 96.5t119 36.5q37 0 80.5 -22t87 -50t78 -50t53.5 -22q21 0 31 15.5t12.5 36.5t-2.5 39l133 41q15 -75 -9 -135.5t-74.5 -96.5t-117.5 -36z" />
    <glyph glyph-name="Odieresis" unicode="&#xd6;" horiz-adv-x="1540" 
d="M668 -26q-142 0 -259.5 56.5t-198 156.5t-116 231.5t-14.5 281.5t93 281.5t181.5 231.5t242.5 156.5t275 56.5q143 0 260 -56.5t197.5 -156.5t116 -231.5t14.5 -281.5t-93 -281.5t-181.5 -231.5t-242 -156.5t-275.5 -56.5zM697 182q100 0 193 41t169.5 112.5t127 165
t65.5 199.5t-9.5 200t-80.5 165.5t-137.5 112t-181.5 40.5t-193 -41t-169.5 -112.5t-127 -165t-65.5 -199.5q-15 -107 9.5 -200.5t80.5 -165t137.5 -112t181.5 -40.5zM695 1474q-46 0 -74.5 31t-21.5 78q7 46 43.5 78t83.5 32q46 0 74 -32t21 -78q-7 -47 -43.5 -78
t-82.5 -31zM1064 1474q-47 0 -75.5 31t-21.5 78q6 46 43 78t84 32q46 0 74 -32t21 -78q-7 -47 -43.5 -78t-81.5 -31z" />
    <glyph glyph-name="multiply" unicode="&#xd7;" horiz-adv-x="1014" 
d="M153 173l-127 147l319 280l-239 280l167 147l240 -280l319 280l127 -147l-320 -280l241 -280l-168 -147l-241 280z" />
    <glyph glyph-name="Oslash" unicode="&#xd8;" horiz-adv-x="1540" 
d="M318 -99l-166 104l100 141q-99 99 -147.5 243t-24.5 311q21 150 93 281.5t181.5 231.5t242.5 156.5t275 56.5q72 0 136.5 -15t121.5 -43l94 131l166 -104l-101 -139q100 -99 147.5 -243.5t23.5 -312.5q-21 -150 -93 -281.5t-181.5 -231.5t-242 -156.5t-275.5 -56.5
q-70 0 -134 15.5t-122 43.5zM389 336l608 847q-33 16 -72 25.5t-82 9.5q-100 0 -193 -41t-169.5 -112.5t-127 -165t-65.5 -199.5q-15 -108 13 -202.5t88 -161.5zM697 182q100 0 193 41t169.5 112.5t127 165t65.5 199.5q16 108 -11.5 202.5t-87.5 162.5l-608 -847
q33 -17 72 -26.5t80 -9.5z" />
    <glyph glyph-name="Ugrave" unicode="&#xd9;" horiz-adv-x="1348" 
d="M572 -26q-168 0 -280.5 82t-162 220.5t-25.5 307.5l114 816h208l-114 -816q-15 -110 12 -201.5t97 -146t181 -54.5q112 0 197 54.5t137.5 146t67.5 201.5l114 816h208l-114 -816q-18 -127 -72.5 -237.5t-139 -194.5t-193.5 -131t-235 -47zM590 1798h208l40 -288h-138z
" />
    <glyph glyph-name="Uacute" unicode="&#xda;" horiz-adv-x="1348" 
d="M572 -26q-168 0 -280.5 82t-162 220.5t-25.5 307.5l114 816h208l-114 -816q-15 -110 12 -201.5t97 -146t181 -54.5q112 0 197 54.5t137.5 146t67.5 201.5l114 816h208l-114 -816q-18 -127 -72.5 -237.5t-139 -194.5t-193.5 -131t-235 -47zM734 1510l120 288h208
l-188 -288h-140z" />
    <glyph glyph-name="Ucircumflex" unicode="&#xdb;" horiz-adv-x="1348" 
d="M572 -26q-168 0 -280.5 82t-162 220.5t-25.5 307.5l114 816h208l-114 -816q-15 -110 12 -201.5t97 -146t181 -54.5q112 0 197 54.5t137.5 146t67.5 201.5l114 816h208l-114 -816q-18 -127 -72.5 -237.5t-139 -194.5t-193.5 -131t-235 -47zM944 1798l153 -288h-139
l-143 197l-196 -197h-138l230 288h233z" />
    <glyph glyph-name="Udieresis" unicode="&#xdc;" horiz-adv-x="1348" 
d="M572 -26q-168 0 -280.5 82t-162 220.5t-25.5 307.5l114 816h208l-114 -816q-15 -110 12 -201.5t97 -146t181 -54.5q112 0 197 54.5t137.5 146t67.5 201.5l114 816h208l-114 -816q-18 -127 -72.5 -237.5t-139 -194.5t-193.5 -131t-235 -47zM599 1474q-46 0 -74.5 31
t-21.5 78q7 46 43.5 78t83.5 32q46 0 74 -32t21 -78q-7 -47 -43.5 -78t-82.5 -31zM968 1474q-47 0 -75.5 31t-21.5 78q6 46 43 78t84 32q46 0 74 -32t21 -78q-7 -47 -43.5 -78t-81.5 -31z" />
    <glyph glyph-name="Yacute" unicode="&#xdd;" horiz-adv-x="1283" 
d="M1076 1400h245l-585 -768l-89 -632h-208l89 632l-370 768h245l261 -541zM701 1510l120 288h208l-188 -288h-140z" />
    <glyph glyph-name="Thorn" unicode="&#xde;" horiz-adv-x="1067" 
d="M22 0l196 1400h208l-40 -283h274q114 0 198 -56t124.5 -151t24.5 -210q-16 -117 -85.5 -211.5t-169 -150t-208.5 -55.5h-274l-40 -283h-208zM298 491h254q59 0 112.5 29.5t90.5 80t45 112.5q9 63 -13.5 113.5t-67.5 80t-105 29.5h-253z" />
    <glyph glyph-name="germandbls" unicode="&#xdf;" horiz-adv-x="1119" 
d="M22 0l128 918q14 99 63.5 186.5t125 153.5t168 104t193.5 38q108 0 188 -51.5t119.5 -140.5t23.5 -200q-7 -53 -30.5 -108.5t-62.5 -102t-96 -73.5q61 -12 99 -46.5t56 -82.5t21.5 -102t-4.5 -107q-15 -109 -81.5 -196.5t-163.5 -138.5t-207 -51h-74l-8 180h87
q64 0 120.5 30t95 80t46.5 110q9 61 -15.5 110t-72.5 79t-112 31l-86 3l24 172l26 2q56 5 105.5 32.5t83 74t41.5 104.5t-12.5 106t-62 76.5t-96.5 28.5q-69 0 -131 -34t-103.5 -91t-52.5 -127l-135 -967h-208z" />
    <glyph glyph-name="agrave" unicode="&#xe0;" horiz-adv-x="1185" 
d="M940 1000h208l-140 -1000h-209l12 145q-55 -77 -136.5 -124t-183.5 -47q-110 0 -201 41.5t-154 115.5t-91 170.5t-12 207.5q15 107 68.5 201.5t134 165.5t180 111.5t206.5 40.5q109 0 185.5 -49.5t120.5 -126.5zM514 175q88 0 160 43.5t119.5 117.5t59.5 164
q13 91 -13.5 165t-86.5 117.5t-147 43.5t-165 -44t-130.5 -118t-65.5 -164q-12 -91 20 -164.5t98 -117t151 -43.5zM468 1398h208l40 -288h-138z" />
    <glyph glyph-name="aacute" unicode="&#xe1;" horiz-adv-x="1185" 
d="M940 1000h208l-140 -1000h-209l12 145q-55 -77 -136.5 -124t-183.5 -47q-110 0 -201 41.5t-154 115.5t-91 170.5t-12 207.5q15 107 68.5 201.5t134 165.5t180 111.5t206.5 40.5q109 0 185.5 -49.5t120.5 -126.5zM514 175q88 0 160 43.5t119.5 117.5t59.5 164
q13 91 -13.5 165t-86.5 117.5t-147 43.5t-165 -44t-130.5 -118t-65.5 -164q-12 -91 20 -164.5t98 -117t151 -43.5zM611 1110l120 288h208l-188 -288h-140z" />
    <glyph glyph-name="acircumflex" unicode="&#xe2;" horiz-adv-x="1185" 
d="M940 1000h208l-140 -1000h-209l12 145q-55 -77 -136.5 -124t-183.5 -47q-110 0 -201 41.5t-154 115.5t-91 170.5t-12 207.5q15 107 68.5 201.5t134 165.5t180 111.5t206.5 40.5q109 0 185.5 -49.5t120.5 -126.5zM514 175q88 0 160 43.5t119.5 117.5t59.5 164
q13 91 -13.5 165t-86.5 117.5t-147 43.5t-165 -44t-130.5 -118t-65.5 -164q-12 -91 20 -164.5t98 -117t151 -43.5zM822 1398l153 -288h-139l-143 197l-196 -197h-138l230 288h233z" />
    <glyph glyph-name="atilde" unicode="&#xe3;" horiz-adv-x="1185" 
d="M940 1000h208l-140 -1000h-209l12 145q-55 -77 -136.5 -124t-183.5 -47q-110 0 -201 41.5t-154 115.5t-91 170.5t-12 207.5q15 107 68.5 201.5t134 165.5t180 111.5t206.5 40.5q109 0 185.5 -49.5t120.5 -126.5zM514 175q88 0 160 43.5t119.5 117.5t59.5 164
q13 91 -13.5 165t-86.5 117.5t-147 43.5t-165 -44t-130.5 -118t-65.5 -164q-12 -91 20 -164.5t98 -117t151 -43.5zM821 1114q-37 0 -82.5 25t-89.5 56.5t-79 51.5t-54 9t-29 -33.5t-6 -57.5l-130 -34q-15 70 7 130t72 96.5t119 36.5q37 0 80.5 -22t87 -50t78 -50t53.5 -22
q21 0 31 15.5t12.5 36.5t-2.5 39l133 41q15 -75 -9 -135.5t-74.5 -96.5t-117.5 -36z" />
    <glyph glyph-name="adieresis" unicode="&#xe4;" horiz-adv-x="1185" 
d="M940 1000h208l-140 -1000h-209l12 145q-55 -77 -136.5 -124t-183.5 -47q-110 0 -201 41.5t-154 115.5t-91 170.5t-12 207.5q15 107 68.5 201.5t134 165.5t180 111.5t206.5 40.5q109 0 185.5 -49.5t120.5 -126.5zM514 175q88 0 160 43.5t119.5 117.5t59.5 164
q13 91 -13.5 165t-86.5 117.5t-147 43.5t-165 -44t-130.5 -118t-65.5 -164q-12 -91 20 -164.5t98 -117t151 -43.5zM476 1074q-46 0 -74.5 31t-21.5 78q7 46 43.5 78t83.5 32q46 0 74 -32t21 -78q-7 -47 -43.5 -78t-82.5 -31zM845 1074q-47 0 -75.5 31t-21.5 78q6 46 43 78
t84 32q46 0 74 -32t21 -78q-7 -47 -43.5 -78t-81.5 -31z" />
    <glyph glyph-name="aring" unicode="&#xe5;" horiz-adv-x="1185" 
d="M940 1000h208l-140 -1000h-209l12 145q-55 -77 -136.5 -124t-183.5 -47q-110 0 -201 41.5t-154 115.5t-91 170.5t-12 207.5q15 107 68.5 201.5t134 165.5t180 111.5t206.5 40.5q109 0 185.5 -49.5t120.5 -126.5zM514 175q88 0 160 43.5t119.5 117.5t59.5 164
q13 91 -13.5 165t-86.5 117.5t-147 43.5t-165 -44t-130.5 -118t-65.5 -164q-12 -91 20 -164.5t98 -117t151 -43.5zM660 1078q-72 0 -116.5 52.5t-34.5 124.5q7 48 36 88t72.5 63.5t92.5 23.5q73 0 117 -51.5t34 -123.5q-10 -74 -69 -125.5t-132 -51.5zM675 1182
q29 0 53 21.5t29 51.5q4 29 -14 49.5t-48 20.5t-53.5 -20.5t-27.5 -49.5q-5 -30 13 -51.5t48 -21.5z" />
    <glyph glyph-name="ae" unicode="&#xe6;" horiz-adv-x="1745" 
d="M247 -25q-92 0 -158 40.5t-98 110t-20 154.5q12 82 61.5 151.5t127 112t170.5 42.5h334q4 65 -20.5 118t-74 84.5t-121.5 31.5q-77 0 -149 -36l-90 173q64 36 131.5 53.5t133.5 17.5q117 0 208.5 -55t139.5 -149q51 61 117 107t141 71.5t153 25.5q116 0 205 -47.5
t145 -131.5t72.5 -192t-12.5 -230h-771q2 -69 32 -125t84.5 -88t127.5 -32q75 0 143 38.5t116 104.5l205 -49q-79 -133 -212 -217.5t-283 -84.5q-86 0 -159.5 30t-128.5 83.5t-86 124.5q-47 -65 -120.5 -119t-161.5 -86t-182 -32zM273 158q89 0 165 42t127 108q46 52 75 120
h-332q-59 0 -101.5 -38.5t-50.5 -95.5q-7 -53 23.5 -94.5t93.5 -41.5zM887 586h568q0 72 -32 130.5t-88 93t-127 34.5q-72 0 -137 -34t-113 -92.5t-71 -131.5z" />
    <glyph glyph-name="ccedilla" unicode="&#xe7;" horiz-adv-x="1019" 
d="M714 284l172 -101q-82 -95 -194 -152t-234 -57q-138 0 -241.5 71t-154 190.5t-30.5 264.5q15 110 67.5 205.5t131.5 168t175.5 113.5t199.5 41q122 0 218.5 -57t151.5 -153l-201 -101q-34 50 -86.5 76.5t-111.5 26.5q-83 0 -155 -44.5t-121 -117t-61 -158.5
q-12 -85 16.5 -157.5t89 -116.5t141.5 -44q63 0 122.5 28t104.5 74zM415 -373q-71 -18 -128 17.5t-66 103.5l116 30q3 -22 21.5 -33.5t41.5 -5.5q24 6 38.5 26t11.5 43t-21 33.5t-42 6.5l-118 -7l167 235l93 -58l-49 -68q35 -13 58.5 -42.5t28.5 -70.5q8 -68 -36 -130
t-116 -80z" />
    <glyph glyph-name="egrave" unicode="&#xe8;" horiz-adv-x="1118" 
d="M458 -26q-138 0 -241.5 71t-154 190.5t-30.5 264.5q15 110 67.5 205.5t131.5 168t175.5 113.5t199.5 41q115 0 204.5 -47.5t145.5 -131t73 -192t-14 -230.5h-770q2 -69 32.5 -124.5t83.5 -87.5t126 -33q76 0 144 38t117 105l204 -49q-79 -133 -211.5 -217.5t-282.5 -84.5
zM260 586h568q0 72 -32 130.5t-87.5 93t-127.5 34.5t-136.5 -34t-113 -92.5t-71.5 -131.5zM420 1398h208l40 -288h-138z" />
    <glyph glyph-name="eacute" unicode="&#xe9;" horiz-adv-x="1118" 
d="M458 -26q-138 0 -241.5 71t-154 190.5t-30.5 264.5q15 110 67.5 205.5t131.5 168t175.5 113.5t199.5 41q115 0 204.5 -47.5t145.5 -131t73 -192t-14 -230.5h-770q2 -69 32.5 -124.5t83.5 -87.5t126 -33q76 0 144 38t117 105l204 -49q-79 -133 -211.5 -217.5t-282.5 -84.5
zM260 586h568q0 72 -32 130.5t-87.5 93t-127.5 34.5t-136.5 -34t-113 -92.5t-71.5 -131.5zM563 1110l120 288h208l-188 -288h-140z" />
    <glyph glyph-name="ecircumflex" unicode="&#xea;" horiz-adv-x="1118" 
d="M458 -26q-138 0 -241.5 71t-154 190.5t-30.5 264.5q15 110 67.5 205.5t131.5 168t175.5 113.5t199.5 41q115 0 204.5 -47.5t145.5 -131t73 -192t-14 -230.5h-770q2 -69 32.5 -124.5t83.5 -87.5t126 -33q76 0 144 38t117 105l204 -49q-79 -133 -211.5 -217.5t-282.5 -84.5
zM260 586h568q0 72 -32 130.5t-87.5 93t-127.5 34.5t-136.5 -34t-113 -92.5t-71.5 -131.5zM774 1398l153 -288h-139l-143 197l-196 -197h-138l230 288h233z" />
    <glyph glyph-name="edieresis" unicode="&#xeb;" horiz-adv-x="1118" 
d="M458 -26q-138 0 -241.5 71t-154 190.5t-30.5 264.5q15 110 67.5 205.5t131.5 168t175.5 113.5t199.5 41q115 0 204.5 -47.5t145.5 -131t73 -192t-14 -230.5h-770q2 -69 32.5 -124.5t83.5 -87.5t126 -33q76 0 144 38t117 105l204 -49q-79 -133 -211.5 -217.5t-282.5 -84.5
zM260 586h568q0 72 -32 130.5t-87.5 93t-127.5 34.5t-136.5 -34t-113 -92.5t-71.5 -131.5zM428 1074q-46 0 -74.5 31t-21.5 78q7 46 43.5 78t83.5 32q46 0 74 -32t21 -78q-7 -47 -43.5 -78t-82.5 -31zM797 1074q-47 0 -75.5 31t-21.5 78q6 46 43 78t84 32q46 0 74 -32
t21 -78q-7 -47 -43.5 -78t-81.5 -31z" />
    <glyph glyph-name="igrave" unicode="&#xec;" 
d="M162 1000h208l-140 -1000h-208zM84 1398h208l40 -288h-138z" />
    <glyph glyph-name="iacute" unicode="&#xed;" 
d="M162 1000h208l-140 -1000h-208zM228 1110l120 288h208l-188 -288h-140z" />
    <glyph glyph-name="icircumflex" unicode="&#xee;" 
d="M162 1000h208l-140 -1000h-208zM438 1398l153 -288h-139l-143 197l-196 -197h-138l230 288h233z" />
    <glyph glyph-name="idieresis" unicode="&#xef;" 
d="M162 1000h208l-140 -1000h-208zM93 1074q-46 0 -74.5 31t-21.5 78q7 46 43.5 78t83.5 32q46 0 74 -32t21 -78q-7 -47 -43.5 -78t-82.5 -31zM462 1074q-47 0 -75.5 31t-21.5 78q6 46 43 78t84 32q46 0 74 -32t21 -78q-7 -47 -43.5 -78t-81.5 -31z" />
    <glyph glyph-name="eth" unicode="&#xf0;" horiz-adv-x="1125" 
d="M483 1038l-90 104l499 431l88 -104zM481 -26q-138 0 -243 68t-157 182t-32 252q15 104 66.5 195.5t130.5 160.5t175.5 108t200.5 39q64 0 115 -24.5t83 -67.5q-11 74 -36 148.5t-70 136.5t-114 99t-167 37l28 208q165 0 288.5 -80.5t202.5 -220t107 -320t0 -379.5
q-22 -159 -103.5 -281t-204.5 -191.5t-270 -69.5zM510 182q83 0 155.5 40.5t121.5 107.5t60 146q11 81 -19.5 148t-91.5 107t-143 40t-154.5 -40t-121.5 -107.5t-60 -147.5t19 -147t91.5 -107t142.5 -40z" />
    <glyph glyph-name="ntilde" unicode="&#xf1;" horiz-adv-x="1100" 
d="M1010 627l-88 -627h-208l81 576q10 67 -15.5 122t-75.5 87.5t-117 32.5t-126.5 -32.5t-99.5 -87.5t-50 -122l-81 -576h-208l140 1000h208l-14 -106q60 62 141 98t169 36q111 0 194 -54t124.5 -145t25.5 -202zM796 1114q-37 0 -82.5 25t-89.5 56.5t-79 51.5t-54 9
t-29 -33.5t-6 -57.5l-130 -34q-15 70 7 130t72 96.5t119 36.5q37 0 80.5 -22t87 -50t78 -50t53.5 -22q21 0 31 15.5t12.5 36.5t-2.5 39l133 41q15 -75 -9 -135.5t-74.5 -96.5t-117.5 -36z" />
    <glyph glyph-name="ograve" unicode="&#xf2;" horiz-adv-x="1120" 
d="M458 -26q-138 0 -241.5 71t-154 190.5t-30.5 264.5q15 110 67.5 205.5t131.5 168t175.5 113.5t199.5 41q138 0 241.5 -71t154.5 -191t30 -266q-15 -109 -67.5 -204t-131.5 -167.5t-175 -113.5t-200 -41zM487 182q83 0 155 44t121.5 116.5t60.5 157.5q12 87 -17 160
t-89 116.5t-141 43.5q-82 0 -154.5 -44t-121.5 -117t-61 -159q-12 -89 17.5 -161t89.5 -114.5t140 -42.5zM420 1398h208l40 -288h-138z" />
    <glyph glyph-name="oacute" unicode="&#xf3;" horiz-adv-x="1120" 
d="M458 -26q-138 0 -241.5 71t-154 190.5t-30.5 264.5q15 110 67.5 205.5t131.5 168t175.5 113.5t199.5 41q138 0 241.5 -71t154.5 -191t30 -266q-15 -109 -67.5 -204t-131.5 -167.5t-175 -113.5t-200 -41zM487 182q83 0 155 44t121.5 116.5t60.5 157.5q12 87 -17 160
t-89 116.5t-141 43.5q-82 0 -154.5 -44t-121.5 -117t-61 -159q-12 -89 17.5 -161t89.5 -114.5t140 -42.5zM564 1110l120 288h208l-188 -288h-140z" />
    <glyph glyph-name="ocircumflex" unicode="&#xf4;" horiz-adv-x="1120" 
d="M458 -26q-138 0 -241.5 71t-154 190.5t-30.5 264.5q15 110 67.5 205.5t131.5 168t175.5 113.5t199.5 41q138 0 241.5 -71t154.5 -191t30 -266q-15 -109 -67.5 -204t-131.5 -167.5t-175 -113.5t-200 -41zM487 182q83 0 155 44t121.5 116.5t60.5 157.5q12 87 -17 160
t-89 116.5t-141 43.5q-82 0 -154.5 -44t-121.5 -117t-61 -159q-12 -89 17.5 -161t89.5 -114.5t140 -42.5zM774 1398l153 -288h-139l-143 197l-196 -197h-138l230 288h233z" />
    <glyph glyph-name="otilde" unicode="&#xf5;" horiz-adv-x="1120" 
d="M458 -26q-138 0 -241.5 71t-154 190.5t-30.5 264.5q15 110 67.5 205.5t131.5 168t175.5 113.5t199.5 41q138 0 241.5 -71t154.5 -191t30 -266q-15 -109 -67.5 -204t-131.5 -167.5t-175 -113.5t-200 -41zM487 182q83 0 155 44t121.5 116.5t60.5 157.5q12 87 -17 160
t-89 116.5t-141 43.5q-82 0 -154.5 -44t-121.5 -117t-61 -159q-12 -89 17.5 -161t89.5 -114.5t140 -42.5zM773 1114q-37 0 -82.5 25t-89.5 56.5t-79 51.5t-54 9t-29 -33.5t-6 -57.5l-130 -34q-15 70 7 130t72 96.5t119 36.5q37 0 80.5 -22t87 -50t78 -50t53.5 -22
q21 0 31 15.5t12.5 36.5t-2.5 39l133 41q15 -75 -9 -135.5t-74.5 -96.5t-117.5 -36z" />
    <glyph glyph-name="odieresis" unicode="&#xf6;" horiz-adv-x="1120" 
d="M458 -26q-138 0 -241.5 71t-154 190.5t-30.5 264.5q15 110 67.5 205.5t131.5 168t175.5 113.5t199.5 41q138 0 241.5 -71t154.5 -191t30 -266q-15 -109 -67.5 -204t-131.5 -167.5t-175 -113.5t-200 -41zM487 182q83 0 155 44t121.5 116.5t60.5 157.5q12 87 -17 160
t-89 116.5t-141 43.5q-82 0 -154.5 -44t-121.5 -117t-61 -159q-12 -89 17.5 -161t89.5 -114.5t140 -42.5zM429 1074q-46 0 -74.5 31t-21.5 78q7 46 43.5 78t83.5 32q46 0 74 -32t21 -78q-7 -47 -43.5 -78t-82.5 -31zM798 1074q-47 0 -75.5 31t-21.5 78q6 46 43 78t84 32
q46 0 74 -32t21 -78q-7 -47 -43.5 -78t-81.5 -31z" />
    <glyph glyph-name="divide" unicode="&#xf7;" horiz-adv-x="1160" 
d="M51 496l30 208h1000l-30 -208h-1000zM634 1085q50 0 81 -37.5t24 -86.5q-7 -50 -48 -86.5t-92 -36.5q-53 0 -82.5 36.5t-22.5 86.5q6 49 46.5 86.5t93.5 37.5zM532 362q50 0 82 -37t25 -87q-7 -51 -49 -87t-92 -36q-53 0 -83 36t-23 87q7 50 47 87t93 37z" />
    <glyph glyph-name="oslash" unicode="&#xf8;" horiz-adv-x="1120" 
d="M222 -68l-136 85l64 88q-69 72 -101.5 174.5t-16.5 220.5q15 110 67.5 205.5t131.5 168t175.5 113.5t199.5 41q49 0 94 -9.5t83 -28.5l60 81l136 -85l-63 -88q68 -72 100 -175t16 -223q-15 -109 -67.5 -204t-131.5 -167.5t-175 -113.5t-200 -41q-49 0 -93.5 10.5
t-84.5 27.5zM277 281l388 543q-70 23 -142.5 5.5t-136 -66t-107.5 -119.5t-56 -155q-8 -63 7 -116t47 -92zM399 179q72 -23 145 -6t136 65.5t105.5 119t54.5 153.5q9 63 -5.5 117t-46.5 93z" />
    <glyph glyph-name="ugrave" unicode="&#xf9;" horiz-adv-x="1060" 
d="M35 375l87 625h208l-81 -574q-9 -67 16 -122t75.5 -87.5t116.5 -32.5q67 0 127 32.5t100 87.5t49 122l80 574h208l-139 -1000h-208l14 108q-60 -62 -141 -98t-168 -36q-111 0 -194.5 54t-124.5 145t-25 202zM414 1399h208l40 -288h-138z" />
    <glyph glyph-name="uacute" unicode="&#xfa;" horiz-adv-x="1060" 
d="M35 375l87 625h208l-81 -574q-9 -67 16 -122t75.5 -87.5t116.5 -32.5q67 0 127 32.5t100 87.5t49 122l80 574h208l-139 -1000h-208l14 108q-60 -62 -141 -98t-168 -36q-111 0 -194.5 54t-124.5 145t-25 202zM558 1111l120 288h208l-188 -288h-140z" />
    <glyph glyph-name="ucircumflex" unicode="&#xfb;" horiz-adv-x="1060" 
d="M35 375l87 625h208l-81 -574q-9 -67 16 -122t75.5 -87.5t116.5 -32.5q67 0 127 32.5t100 87.5t49 122l80 574h208l-139 -1000h-208l14 108q-60 -62 -141 -98t-168 -36q-111 0 -194.5 54t-124.5 145t-25 202zM768 1399l153 -288h-139l-143 197l-196 -197h-138l230 288h233
z" />
    <glyph glyph-name="udieresis" unicode="&#xfc;" horiz-adv-x="1060" 
d="M35 375l87 625h208l-81 -574q-9 -67 16 -122t75.5 -87.5t116.5 -32.5q67 0 127 32.5t100 87.5t49 122l80 574h208l-139 -1000h-208l14 108q-60 -62 -141 -98t-168 -36q-111 0 -194.5 54t-124.5 145t-25 202zM423 1075q-46 0 -74.5 31t-21.5 78q7 46 43.5 78t83.5 32
q46 0 74 -32t21 -78q-7 -47 -43.5 -78t-82.5 -31zM792 1075q-47 0 -75.5 31t-21.5 78q6 46 43 78t84 32q46 0 74 -32t21 -78q-7 -47 -43.5 -78t-81.5 -31z" />
    <glyph glyph-name="yacute" unicode="&#xfd;" horiz-adv-x="1107" 
d="M847 1000h222l-759 -1500h-221l252 500l-219 1000h227l136 -715zM557 1110l120 288h208l-188 -288h-140z" />
    <glyph glyph-name="thorn" unicode="&#xfe;" horiz-adv-x="1226" 
d="M-49 -500l267 1900h208l-76 -547q60 77 145 125t191 48q109 0 198.5 -41t152 -113.5t89.5 -167.5t12 -204t-69.5 -205t-137 -168.5t-183.5 -113.5t-210 -41q-106 0 -177.5 48.5t-110.5 124.5l-91 -645h-208zM563 174q86 0 164 43.5t132.5 117.5t66.5 165q13 89 -19.5 163
t-98.5 118t-153 44t-159 -44t-119 -117.5t-60 -163.5q-12 -90 14 -164t85.5 -118t146.5 -44z" />
    <glyph glyph-name="ydieresis" unicode="&#xff;" horiz-adv-x="1107" 
d="M847 1000h222l-759 -1500h-221l252 500l-219 1000h227l136 -715zM422 1074q-46 0 -74.5 31t-21.5 78q7 46 43.5 78t83.5 32q46 0 74 -32t21 -78q-7 -47 -43.5 -78t-82.5 -31zM791 1074q-47 0 -75.5 31t-21.5 78q6 46 43 78t84 32q46 0 74 -32t21 -78q-7 -47 -43.5 -78
t-81.5 -31z" />
    <glyph glyph-name="Amacron" unicode="&#x100;" horiz-adv-x="1421" 
d="M687 1400h243l313 -1400h-220l-60 266h-626l-134 -266h-221zM442 474h474l-146 650zM514 1711h676l-23 -158h-676z" />
    <glyph glyph-name="amacron" unicode="&#x101;" horiz-adv-x="1185" 
d="M940 1000h208l-140 -1000h-209l12 145q-55 -77 -136.5 -124t-183.5 -47q-110 0 -201 41.5t-154 115.5t-91 170.5t-12 207.5q15 107 68.5 201.5t134 165.5t180 111.5t206.5 40.5q109 0 185.5 -49.5t120.5 -126.5zM514 175q88 0 160 43.5t119.5 117.5t59.5 164
q13 91 -13.5 165t-86.5 117.5t-147 43.5t-165 -44t-130.5 -118t-65.5 -164q-12 -91 20 -164.5t98 -117t151 -43.5zM355 1311h676l-23 -158h-676z" />
    <glyph glyph-name="Abreve" unicode="&#x102;" horiz-adv-x="1421" 
d="M687 1400h243l313 -1400h-220l-60 266h-626l-134 -266h-221zM442 474h474l-146 650zM821 1488q-91 0 -160 45t-103.5 120.5t-22.5 166.5h134q-7 -55 14 -100t62.5 -71.5t94.5 -26.5q54 0 102.5 26.5t81.5 71.5t41 100h134q-13 -93 -68.5 -168.5t-137 -119.5t-172.5 -44z
" />
    <glyph glyph-name="abreve" unicode="&#x103;" horiz-adv-x="1185" 
d="M940 1000h208l-140 -1000h-209l12 145q-55 -77 -136.5 -124t-183.5 -47q-110 0 -201 41.5t-154 115.5t-91 170.5t-12 207.5q15 107 68.5 201.5t134 165.5t180 111.5t206.5 40.5q109 0 185.5 -49.5t120.5 -126.5zM514 175q88 0 160 43.5t119.5 117.5t59.5 164
q13 91 -13.5 165t-86.5 117.5t-147 43.5t-165 -44t-130.5 -118t-65.5 -164q-12 -91 20 -164.5t98 -117t151 -43.5zM662 1088q-91 0 -160 45t-103.5 120.5t-22.5 166.5h134q-7 -55 14 -100t62.5 -71.5t94.5 -26.5q54 0 102.5 26.5t81.5 71.5t41 100h134q-13 -93 -68.5 -168.5
t-137 -119.5t-172.5 -44z" />
    <glyph glyph-name="Aogonek" unicode="&#x104;" horiz-adv-x="1421" 
d="M687 1400h243l313 -1400h-220l-60 266h-626l-134 -266h-221zM442 474h474l-146 650zM1062 -436q-65 1 -109 32.5t-63.5 81.5t-12.5 105q6 41 27 80t58 72l192 168l89 -103q-49 -43 -87 -75.5t-64 -57.5t-41 -47t-17 -45q-4 -25 10.5 -45.5t45.5 -22.5q38 0 71.5 28
t40.5 70h136q-8 -65 -48.5 -120t-100 -88t-127.5 -33z" />
    <glyph glyph-name="aogonek" unicode="&#x105;" horiz-adv-x="1185" 
d="M940 1000h208l-140 -1000h-209l12 145q-55 -77 -136.5 -124t-183.5 -47q-110 0 -201 41.5t-154 115.5t-91 170.5t-12 207.5q15 107 68.5 201.5t134 165.5t180 111.5t206.5 40.5q109 0 185.5 -49.5t120.5 -126.5zM514 175q88 0 160 43.5t119.5 117.5t59.5 164
q13 91 -13.5 165t-86.5 117.5t-147 43.5t-165 -44t-130.5 -118t-65.5 -164q-12 -91 20 -164.5t98 -117t151 -43.5zM826 -436q-65 1 -109 32.5t-63.5 81.5t-12.5 105q6 41 27 80t58 72l192 168l89 -103q-49 -43 -87 -75.5t-64 -57.5t-41 -47t-17 -45q-4 -25 10.5 -45.5
t45.5 -22.5q38 0 71.5 28t40.5 70h136q-8 -65 -48.5 -120t-100 -88t-127.5 -33z" />
    <glyph glyph-name="Cacute" unicode="&#x106;" horiz-adv-x="1418" 
d="M666 -26q-142 0 -259 56.5t-197.5 156t-115.5 231.5t-14 282t93 282t180.5 231.5t241.5 156t275 56.5q170 0 301.5 -79t207.5 -210l-199 -99q-53 82 -142 131t-197 49q-100 0 -193 -41t-169 -112t-126 -165t-65 -200q-15 -107 9 -200.5t80 -165t137.5 -112t180.5 -40.5
q111 0 213 49.5t177 131.5l171 -101q-112 -131 -266 -209.5t-324 -78.5zM828 1510l120 288h208l-188 -288h-140z" />
    <glyph glyph-name="cacute" unicode="&#x107;" horiz-adv-x="1019" 
d="M714 284l172 -101q-82 -95 -194 -152t-234 -57q-138 0 -241.5 71t-154 190.5t-30.5 264.5q15 110 67.5 205.5t131.5 168t175.5 113.5t199.5 41q122 0 218.5 -57t151.5 -153l-201 -101q-34 50 -86.5 76.5t-111.5 26.5q-83 0 -155 -44.5t-121 -117t-61 -158.5
q-12 -85 16.5 -157.5t89 -116.5t141.5 -44q63 0 122.5 28t104.5 74zM564 1110l120 288h208l-188 -288h-140z" />
    <glyph glyph-name="Ccircumflex" unicode="&#x108;" horiz-adv-x="1418" 
d="M666 -26q-142 0 -259 56.5t-197.5 156t-115.5 231.5t-14 282t93 282t180.5 231.5t241.5 156t275 56.5q170 0 301.5 -79t207.5 -210l-199 -99q-53 82 -142 131t-197 49q-100 0 -193 -41t-169 -112t-126 -165t-65 -200q-15 -107 9 -200.5t80 -165t137.5 -112t180.5 -40.5
q111 0 213 49.5t177 131.5l171 -101q-112 -131 -266 -209.5t-324 -78.5zM1038 1798l153 -288h-139l-143 197l-196 -197h-138l230 288h233z" />
    <glyph glyph-name="ccircumflex" unicode="&#x109;" horiz-adv-x="1019" 
d="M714 284l172 -101q-82 -95 -194 -152t-234 -57q-138 0 -241.5 71t-154 190.5t-30.5 264.5q15 110 67.5 205.5t131.5 168t175.5 113.5t199.5 41q122 0 218.5 -57t151.5 -153l-201 -101q-34 50 -86.5 76.5t-111.5 26.5q-83 0 -155 -44.5t-121 -117t-61 -158.5
q-12 -85 16.5 -157.5t89 -116.5t141.5 -44q63 0 122.5 28t104.5 74zM774 1398l153 -288h-139l-143 197l-196 -197h-138l230 288h233z" />
    <glyph glyph-name="Cdotaccent" unicode="&#x10a;" horiz-adv-x="1418" 
d="M666 -26q-142 0 -259 56.5t-197.5 156t-115.5 231.5t-14 282t93 282t180.5 231.5t241.5 156t275 56.5q170 0 301.5 -79t207.5 -210l-199 -99q-53 82 -142 131t-197 49q-100 0 -193 -41t-169 -112t-126 -165t-65 -200q-15 -107 9 -200.5t80 -165t137.5 -112t180.5 -40.5
q111 0 213 49.5t177 131.5l171 -101q-112 -131 -266 -209.5t-324 -78.5zM888 1545q-47 0 -75 31t-21 78q7 46 43.5 77.5t82.5 31.5t74 -31.5t21 -77.5q-7 -47 -42.5 -78t-82.5 -31z" />
    <glyph glyph-name="cdotaccent" unicode="&#x10b;" horiz-adv-x="1019" 
d="M714 284l172 -101q-82 -95 -194 -152t-234 -57q-138 0 -241.5 71t-154 190.5t-30.5 264.5q15 110 67.5 205.5t131.5 168t175.5 113.5t199.5 41q122 0 218.5 -57t151.5 -153l-201 -101q-34 50 -86.5 76.5t-111.5 26.5q-83 0 -155 -44.5t-121 -117t-61 -158.5
q-12 -85 16.5 -157.5t89 -116.5t141.5 -44q63 0 122.5 28t104.5 74zM624 1145q-47 0 -75 31t-21 78q7 46 43.5 77.5t82.5 31.5t74 -31.5t21 -77.5q-7 -47 -42.5 -78t-82.5 -31z" />
    <glyph glyph-name="Ccaron" unicode="&#x10c;" horiz-adv-x="1418" 
d="M666 -26q-142 0 -259 56.5t-197.5 156t-115.5 231.5t-14 282t93 282t180.5 231.5t241.5 156t275 56.5q170 0 301.5 -79t207.5 -210l-199 -99q-53 82 -142 131t-197 49q-100 0 -193 -41t-169 -112t-126 -165t-65 -200q-15 -107 9 -200.5t80 -165t137.5 -112t180.5 -40.5
q111 0 213 49.5t177 131.5l171 -101q-112 -131 -266 -209.5t-324 -78.5zM765 1510l-153 288h138l144 -197l195 197h139l-230 -288h-233z" />
    <glyph glyph-name="ccaron" unicode="&#x10d;" horiz-adv-x="1019" 
d="M714 284l172 -101q-82 -95 -194 -152t-234 -57q-138 0 -241.5 71t-154 190.5t-30.5 264.5q15 110 67.5 205.5t131.5 168t175.5 113.5t199.5 41q122 0 218.5 -57t151.5 -153l-201 -101q-34 50 -86.5 76.5t-111.5 26.5q-83 0 -155 -44.5t-121 -117t-61 -158.5
q-12 -85 16.5 -157.5t89 -116.5t141.5 -44q63 0 122.5 28t104.5 74zM501 1110l-153 288h138l144 -197l195 197h139l-230 -288h-233z" />
    <glyph glyph-name="Dcaron" unicode="&#x10e;" horiz-adv-x="1343" 
d="M22 0l196 1400h463q145 0 264.5 -54.5t202 -151t119 -223t16.5 -271.5t-92 -271.5t-182 -223t-244.5 -151t-279.5 -54.5h-463zM259 208h255q101 0 195.5 38t172 106t128.5 157t65 191q15 102 -11 191t-84.5 157t-142 106t-185.5 38h-255zM649 1510l-153 288h138l144 -197
l195 197h139l-230 -288h-233z" />
    <glyph glyph-name="dcaron" unicode="&#x10f;" horiz-adv-x="1227" 
d="M1011 1500h208l-210 -1500h-208l21 147q-61 -78 -146.5 -125.5t-191.5 -47.5q-109 0 -198.5 41t-151.5 113.5t-89.5 167.5t-12.5 204t69.5 204.5t137 168t183.5 113.5t210 41q106 0 178 -47.5t111 -124.5zM514 175q88 0 160 43.5t119.5 117.5t59.5 164q13 91 -13.5 165
t-86.5 117.5t-147 43.5t-165 -44t-130.5 -118t-65.5 -164q-12 -91 20 -164.5t98 -117t151 -43.5zM1245 1212l120 288h208l-188 -288h-140z" />
    <glyph glyph-name="Emacron" unicode="&#x112;" horiz-adv-x="1089" 
d="M22 0l196 1400h869l-29 -208h-661l-47 -338h532l-29 -208h-533l-61 -438h661l-29 -208h-869zM348 1711h676l-23 -158h-676z" />
    <glyph glyph-name="emacron" unicode="&#x113;" horiz-adv-x="1118" 
d="M458 -26q-138 0 -241.5 71t-154 190.5t-30.5 264.5q15 110 67.5 205.5t131.5 168t175.5 113.5t199.5 41q115 0 204.5 -47.5t145.5 -131t73 -192t-14 -230.5h-770q2 -69 32.5 -124.5t83.5 -87.5t126 -33q76 0 144 38t117 105l204 -49q-79 -133 -211.5 -217.5t-282.5 -84.5
zM260 586h568q0 72 -32 130.5t-87.5 93t-127.5 34.5t-136.5 -34t-113 -92.5t-71.5 -131.5zM307 1311h676l-23 -158h-676z" />
    <glyph glyph-name="Edotaccent" unicode="&#x116;" horiz-adv-x="1089" 
d="M22 0l196 1400h869l-29 -208h-661l-47 -338h532l-29 -208h-533l-61 -438h661l-29 -208h-869zM664 1545q-47 0 -75 31t-21 78q7 46 43.5 77.5t82.5 31.5t74 -31.5t21 -77.5q-7 -47 -42.5 -78t-82.5 -31z" />
    <glyph glyph-name="edotaccent" unicode="&#x117;" horiz-adv-x="1118" 
d="M458 -26q-138 0 -241.5 71t-154 190.5t-30.5 264.5q15 110 67.5 205.5t131.5 168t175.5 113.5t199.5 41q115 0 204.5 -47.5t145.5 -131t73 -192t-14 -230.5h-770q2 -69 32.5 -124.5t83.5 -87.5t126 -33q76 0 144 38t117 105l204 -49q-79 -133 -211.5 -217.5t-282.5 -84.5
zM260 586h568q0 72 -32 130.5t-87.5 93t-127.5 34.5t-136.5 -34t-113 -92.5t-71.5 -131.5zM623 1145q-47 0 -75 31t-21 78q7 46 43.5 77.5t82.5 31.5t74 -31.5t21 -77.5q-7 -47 -42.5 -78t-82.5 -31z" />
    <glyph glyph-name="Eogonek" unicode="&#x118;" horiz-adv-x="1089" 
d="M22 0l196 1400h869l-29 -208h-661l-47 -338h532l-29 -208h-533l-61 -438h661l-29 -208h-869zM597 -436q-65 1 -109 32.5t-63.5 81.5t-12.5 105q6 41 27 80t58 72l192 168l89 -103q-49 -43 -87 -75.5t-64 -57.5t-41 -47t-17 -45q-4 -25 10.5 -45.5t45.5 -22.5
q38 0 71.5 28t40.5 70h136q-8 -65 -48.5 -120t-100 -88t-127.5 -33z" />
    <glyph glyph-name="eogonek" unicode="&#x119;" horiz-adv-x="1118" 
d="M458 -26q-138 0 -241.5 71t-154 190.5t-30.5 264.5q15 110 67.5 205.5t131.5 168t175.5 113.5t199.5 41q115 0 204.5 -47.5t145.5 -131t73 -192t-14 -230.5h-770q2 -69 32.5 -124.5t83.5 -87.5t126 -33q76 0 144 38t117 105l204 -49q-79 -133 -211.5 -217.5t-282.5 -84.5
zM260 586h568q0 72 -32 130.5t-87.5 93t-127.5 34.5t-136.5 -34t-113 -92.5t-71.5 -131.5zM436 -436q-65 1 -109 32.5t-63.5 81.5t-12.5 105q6 41 27 80t58 72l192 168l89 -103q-49 -43 -87 -75.5t-64 -57.5t-41 -47t-17 -45q-4 -25 10.5 -45.5t45.5 -22.5q38 0 71.5 28
t40.5 70h136q-8 -65 -48.5 -120t-100 -88t-127.5 -33z" />
    <glyph glyph-name="Ecaron" unicode="&#x11a;" horiz-adv-x="1089" 
d="M22 0l196 1400h869l-29 -208h-661l-47 -338h532l-29 -208h-533l-61 -438h661l-29 -208h-869zM542 1510l-153 288h138l144 -197l195 197h139l-230 -288h-233z" />
    <glyph glyph-name="ecaron" unicode="&#x11b;" horiz-adv-x="1118" 
d="M458 -26q-138 0 -241.5 71t-154 190.5t-30.5 264.5q15 110 67.5 205.5t131.5 168t175.5 113.5t199.5 41q115 0 204.5 -47.5t145.5 -131t73 -192t-14 -230.5h-770q2 -69 32.5 -124.5t83.5 -87.5t126 -33q76 0 144 38t117 105l204 -49q-79 -133 -211.5 -217.5t-282.5 -84.5
zM260 586h568q0 72 -32 130.5t-87.5 93t-127.5 34.5t-136.5 -34t-113 -92.5t-71.5 -131.5zM501 1110l-153 288h138l144 -197l195 197h139l-230 -288h-233z" />
    <glyph glyph-name="Gcircumflex" unicode="&#x11c;" horiz-adv-x="1536" 
d="M667 -26q-146 0 -263.5 56.5t-197 157t-113.5 232.5t-13 281q22 157 96.5 289t185.5 229.5t243 151.5t269 54q155 0 287.5 -72t218.5 -216l-200 -101q-60 90 -148.5 136t-188.5 46q-97 0 -189.5 -39.5t-169.5 -110t-129 -165t-67 -205.5q-15 -107 9 -201t80.5 -164.5
t138.5 -110.5t182 -40q74 0 145.5 24t136 68.5t117.5 106.5t89 138h-297l26 184h542q-20 -150 -91.5 -282t-180.5 -232.5t-242 -157.5t-276 -57zM1040 1798l153 -288h-139l-143 197l-196 -197h-138l230 288h233z" />
    <glyph glyph-name="gcircumflex" unicode="&#x11d;" horiz-adv-x="1209" 
d="M923 1000h208l-144 -1026q-14 -103 -70 -190t-139 -150.5t-183.5 -98.5t-204.5 -35q-105 0 -195.5 44.5t-153 120.5t-85.5 172l203 86q11 -62 49 -110t93.5 -76t118.5 -28q62 0 122 19.5t110.5 54.5t84.5 84t42 107l24 169q-60 -76 -143.5 -122.5t-185.5 -46.5
q-106 0 -194 41t-149 113.5t-87.5 167.5t-11.5 204t68.5 204.5t135 168t181 113.5t205.5 41q102 0 172.5 -46.5t108.5 -123.5zM504 175q86 0 157.5 44.5t119 118.5t58.5 162q13 90 -13.5 163.5t-85.5 118t-144 44.5t-160.5 -44t-126.5 -118t-64 -164q-12 -90 18.5 -164
t94 -117.5t146.5 -43.5zM819 1398l153 -288h-139l-143 197l-196 -197h-138l230 288h233z" />
    <glyph glyph-name="Gbreve" unicode="&#x11e;" horiz-adv-x="1536" 
d="M667 -26q-146 0 -263.5 56.5t-197 157t-113.5 232.5t-13 281q22 157 96.5 289t185.5 229.5t243 151.5t269 54q155 0 287.5 -72t218.5 -216l-200 -101q-60 90 -148.5 136t-188.5 46q-97 0 -189.5 -39.5t-169.5 -110t-129 -165t-67 -205.5q-15 -107 9 -201t80.5 -164.5
t138.5 -110.5t182 -40q74 0 145.5 24t136 68.5t117.5 106.5t89 138h-297l26 184h542q-20 -150 -91.5 -282t-180.5 -232.5t-242 -157.5t-276 -57zM881 1488q-91 0 -160 45t-103.5 120.5t-22.5 166.5h134q-7 -55 14 -100t62.5 -71.5t94.5 -26.5q54 0 102.5 26.5t81.5 71.5
t41 100h134q-13 -93 -68.5 -168.5t-137 -119.5t-172.5 -44z" />
    <glyph glyph-name="gbreve" unicode="&#x11f;" horiz-adv-x="1209" 
d="M923 1000h208l-144 -1026q-14 -103 -70 -190t-139 -150.5t-183.5 -98.5t-204.5 -35q-105 0 -195.5 44.5t-153 120.5t-85.5 172l203 86q11 -62 49 -110t93.5 -76t118.5 -28q62 0 122 19.5t110.5 54.5t84.5 84t42 107l24 169q-60 -76 -143.5 -122.5t-185.5 -46.5
q-106 0 -194 41t-149 113.5t-87.5 167.5t-11.5 204t68.5 204.5t135 168t181 113.5t205.5 41q102 0 172.5 -46.5t108.5 -123.5zM504 175q86 0 157.5 44.5t119 118.5t58.5 162q13 90 -13.5 163.5t-85.5 118t-144 44.5t-160.5 -44t-126.5 -118t-64 -164q-12 -90 18.5 -164
t94 -117.5t146.5 -43.5zM660 1088q-91 0 -160 45t-103.5 120.5t-22.5 166.5h134q-7 -55 14 -100t62.5 -71.5t94.5 -26.5q54 0 102.5 26.5t81.5 71.5t41 100h134q-13 -93 -68.5 -168.5t-137 -119.5t-172.5 -44z" />
    <glyph glyph-name="Gdotaccent" unicode="&#x120;" horiz-adv-x="1536" 
d="M667 -26q-146 0 -263.5 56.5t-197 157t-113.5 232.5t-13 281q22 157 96.5 289t185.5 229.5t243 151.5t269 54q155 0 287.5 -72t218.5 -216l-200 -101q-60 90 -148.5 136t-188.5 46q-97 0 -189.5 -39.5t-169.5 -110t-129 -165t-67 -205.5q-15 -107 9 -201t80.5 -164.5
t138.5 -110.5t182 -40q74 0 145.5 24t136 68.5t117.5 106.5t89 138h-297l26 184h542q-20 -150 -91.5 -282t-180.5 -232.5t-242 -157.5t-276 -57zM889 1545q-47 0 -75 31t-21 78q7 46 43.5 77.5t82.5 31.5t74 -31.5t21 -77.5q-7 -47 -42.5 -78t-82.5 -31z" />
    <glyph glyph-name="gdotaccent" unicode="&#x121;" horiz-adv-x="1209" 
d="M923 1000h208l-144 -1026q-14 -103 -70 -190t-139 -150.5t-183.5 -98.5t-204.5 -35q-105 0 -195.5 44.5t-153 120.5t-85.5 172l203 86q11 -62 49 -110t93.5 -76t118.5 -28q62 0 122 19.5t110.5 54.5t84.5 84t42 107l24 169q-60 -76 -143.5 -122.5t-185.5 -46.5
q-106 0 -194 41t-149 113.5t-87.5 167.5t-11.5 204t68.5 204.5t135 168t181 113.5t205.5 41q102 0 172.5 -46.5t108.5 -123.5zM504 175q86 0 157.5 44.5t119 118.5t58.5 162q13 90 -13.5 163.5t-85.5 118t-144 44.5t-160.5 -44t-126.5 -118t-64 -164q-12 -90 18.5 -164
t94 -117.5t146.5 -43.5zM668 1145q-47 0 -75 31t-21 78q7 46 43.5 77.5t82.5 31.5t74 -31.5t21 -77.5q-7 -47 -42.5 -78t-82.5 -31z" />
    <glyph glyph-name="uni0122" unicode="&#x122;" horiz-adv-x="1536" 
d="M667 -26q-146 0 -263.5 56.5t-197 157t-113.5 232.5t-13 281q22 157 96.5 289t185.5 229.5t243 151.5t269 54q155 0 287.5 -72t218.5 -216l-200 -101q-60 90 -148.5 136t-188.5 46q-97 0 -189.5 -39.5t-169.5 -110t-129 -165t-67 -205.5q-15 -107 9 -201t80.5 -164.5
t138.5 -110.5t182 -40q74 0 145.5 24t136 68.5t117.5 106.5t89 138h-297l26 184h542q-20 -150 -91.5 -282t-180.5 -232.5t-242 -157.5t-276 -57zM442 -441l109 338h208l-179 -338h-138z" />
    <glyph glyph-name="Hcircumflex" unicode="&#x124;" horiz-adv-x="1289" 
d="M1059 1400h208l-196 -1400h-208l91 646h-634l-90 -646h-208l196 1400h208l-76 -546h633zM915 1798l153 -288h-139l-143 197l-196 -197h-138l230 288h233z" />
    <glyph glyph-name="hcircumflex" unicode="&#x125;" horiz-adv-x="1101" 
d="M1011 627l-88 -627h-208l81 576q10 67 -15.5 122t-75.5 87.5t-117 32.5t-126.5 -32.5t-99.5 -87.5t-50 -122l-81 -576h-208l210 1500h208l-84 -606q60 62 141 98t169 36q111 0 194 -54t124.5 -145t25.5 -202zM870 1823l153 -288h-139l-143 197l-196 -197h-138l230 288
h233z" />
    <glyph glyph-name="Itilde" unicode="&#x128;" horiz-adv-x="508" 
d="M52 0l196 1400h208l-196 -1400h-208zM523 1514q-37 0 -82.5 25t-89.5 56.5t-79 51.5t-54 9t-29 -33.5t-6 -57.5l-130 -34q-15 70 7 130t72 96.5t119 36.5q37 0 80.5 -22t87 -50t78 -50t53.5 -22q21 0 31 15.5t12.5 36.5t-2.5 39l133 41q15 -75 -9 -135.5t-74.5 -96.5
t-117.5 -36z" />
    <glyph glyph-name="itilde" unicode="&#x129;" 
d="M396 1091q-29 0 -63.5 20.5t-67.5 45.5t-60 41t-41 7q-15 -9 -22 -27t-4 -46l-101 -28q-11 57 5.5 105t55 77.5t91.5 29.5q28 0 61.5 -17.5t66.5 -40.5t59.5 -40.5t40.5 -17.5q23 0 29 25.5t1 46.5l103 33q16 -89 -31 -151.5t-123 -62.5zM162 1000h208l-140 -1000h-208z
" />
    <glyph glyph-name="Imacron" unicode="&#x12a;" horiz-adv-x="508" 
d="M52 0l196 1400h208l-196 -1400h-208zM58 1711h676l-23 -158h-676z" />
    <glyph glyph-name="imacron" unicode="&#x12b;" 
d="M71 1311h449l-16 -158h-449zM162 1000h208l-140 -1000h-208z" />
    <glyph glyph-name="Iogonek" unicode="&#x12e;" horiz-adv-x="508" 
d="M52 0l196 1400h208l-196 -1400h-208zM78 -436q-65 1 -109 32.5t-63.5 81.5t-12.5 105q6 41 27 80t58 72l192 168l89 -103q-49 -43 -87 -75.5t-64 -57.5t-41 -47t-17 -45q-4 -25 10.5 -45.5t45.5 -22.5q38 0 71.5 28t40.5 70h136q-8 -65 -48.5 -120t-100 -88t-127.5 -33z
" />
    <glyph glyph-name="iogonek" unicode="&#x12f;" 
d="M162 1000h208l-140 -1000h-208zM288 1145q-47 0 -75 31t-21 78q7 46 43.5 77.5t82.5 31.5t74 -31.5t21 -77.5q-7 -47 -42.5 -78t-82.5 -31zM48 -436q-65 1 -109 32.5t-63.5 81.5t-12.5 105q6 41 27 80t58 72l192 168l89 -103q-49 -43 -87 -75.5t-64 -57.5t-41 -47
t-17 -45q-4 -25 10.5 -45.5t45.5 -22.5q38 0 71.5 28t40.5 70h136q-8 -65 -48.5 -120t-100 -88t-127.5 -33z" />
    <glyph glyph-name="Idotaccent" unicode="&#x130;" horiz-adv-x="508" 
d="M52 0l196 1400h208l-196 -1400h-208zM374 1545q-47 0 -75 31t-21 78q7 46 43.5 77.5t82.5 31.5t74 -31.5t21 -77.5q-7 -47 -42.5 -78t-82.5 -31z" />
    <glyph glyph-name="dotlessi" unicode="&#x131;" 
d="M162 1000h208l-140 -1000h-208z" />
    <glyph glyph-name="IJ" unicode="&#x132;" horiz-adv-x="1367" 
d="M52 0l196 1400h208l-196 -1400h-208zM718 -26q-74 0 -141 25t-118 74l156 160q22 -21 55.5 -36t76.5 -15q60 0 114.5 31.5t91 83t45.5 110.5l139 993h208l-140 -993q-16 -117 -87.5 -215.5t-176.5 -158t-223 -59.5z" />
    <glyph glyph-name="ij" unicode="&#x133;" horiz-adv-x="901" 
d="M162 1000h208l-140 -1000h-208zM288 1145q-47 0 -75 31t-21 78q7 46 43.5 77.5t82.5 31.5t74 -31.5t21 -77.5q-7 -47 -42.5 -78t-82.5 -31zM180 -500l30 208q63 0 117.5 28.5t91 78.5t45.5 111l150 1074h208l-150 -1074q-16 -117 -87.5 -214t-177 -154.5t-227.5 -57.5z
M740 1145q-47 0 -75 31t-21 78q7 46 43.5 77.5t82.5 31.5t74 -31.5t21 -77.5q-7 -47 -42.5 -78t-82.5 -31z" />
    <glyph glyph-name="Jcircumflex" unicode="&#x134;" horiz-adv-x="859" 
d="M210 -26q-74 0 -141 25t-118 74l156 160q22 -21 55.5 -36t76.5 -15q60 0 114.5 31.5t91 83t45.5 110.5l139 993h208l-140 -993q-16 -117 -87.5 -215.5t-176.5 -158t-223 -59.5zM905 1798l153 -288h-139l-143 197l-196 -197h-138l230 288h233z" />
    <glyph glyph-name="jcircumflex" unicode="&#x135;" horiz-adv-x="471" 
d="M-249 -500l30 208q63 0 117.5 28.5t91 78.5t45.5 111l150 1074h208l-150 -1074q-16 -117 -87.5 -214t-177 -154.5t-227.5 -57.5zM461 1398l153 -288h-139l-143 197l-196 -197h-138l230 288h233z" />
    <glyph glyph-name="uni0136" unicode="&#x136;" horiz-adv-x="1136" 
d="M1002 0h-270l-336 577l-100 -103l-66 -474h-208l196 1400h208l-85 -603l589 603h272l-647 -661zM242 -441l109 338h208l-179 -338h-138z" />
    <glyph glyph-name="uni0137" unicode="&#x137;" horiz-adv-x="1041" 
d="M878 0h-240l-187 424l-188 -192l-32 -232h-208l210 1500h208l-133 -945l435 445h272l-398 -407zM189 -441l109 338h208l-179 -338h-138z" />
    <glyph glyph-name="Lacute" unicode="&#x139;" horiz-adv-x="1031" 
d="M22 0l196 1400h208l-167 -1192h604l-30 -208h-811zM284 1510l120 288h208l-188 -288h-140z" />
    <glyph glyph-name="lacute" unicode="&#x13a;" 
d="M23 0l210 1500h208l-210 -1500h-208zM299 1610l120 288h208l-188 -288h-140z" />
    <glyph glyph-name="uni013B" unicode="&#x13b;" horiz-adv-x="1031" 
d="M22 0l196 1400h208l-167 -1192h604l-30 -208h-811zM200 -441l109 338h208l-179 -338h-138z" />
    <glyph glyph-name="uni013C" unicode="&#x13c;" 
d="M23 0l210 1500h208l-210 -1500h-208zM-101 -441l109 338h208l-179 -338h-138z" />
    <glyph glyph-name="Lcaron" unicode="&#x13d;" horiz-adv-x="1031" 
d="M22 0l196 1400h208l-167 -1192h604l-30 -208h-811zM646 1212l120 288h208l-188 -288h-140z" />
    <glyph glyph-name="lcaron" unicode="&#x13e;" 
d="M23 0l210 1500h208l-210 -1500h-208zM464 1212l120 288h208l-188 -288h-140z" />
    <glyph glyph-name="Nacute" unicode="&#x143;" horiz-adv-x="1316" 
d="M22 0l196 1400h225l499 -1024l144 1024h208l-196 -1400h-225l-499 1024l-144 -1024h-208zM718 1510l120 288h208l-188 -288h-140z" />
    <glyph glyph-name="nacute" unicode="&#x144;" horiz-adv-x="1100" 
d="M1010 627l-88 -627h-208l81 576q10 67 -15.5 122t-75.5 87.5t-117 32.5t-126.5 -32.5t-99.5 -87.5t-50 -122l-81 -576h-208l140 1000h208l-14 -106q60 62 141 98t169 36q111 0 194 -54t124.5 -145t25.5 -202zM587 1110l120 288h208l-188 -288h-140z" />
    <glyph glyph-name="uni0145" unicode="&#x145;" horiz-adv-x="1316" 
d="M22 0l196 1400h225l499 -1024l144 1024h208l-196 -1400h-225l-499 1024l-144 -1024h-208zM332 -441l109 338h208l-179 -338h-138z" />
    <glyph glyph-name="uni0146" unicode="&#x146;" horiz-adv-x="1100" 
d="M1010 627l-88 -627h-208l81 576q10 67 -15.5 122t-75.5 87.5t-117 32.5t-126.5 -32.5t-99.5 -87.5t-50 -122l-81 -576h-208l140 1000h208l-14 -106q60 62 141 98t169 36q111 0 194 -54t124.5 -145t25.5 -202zM244 -441l109 338h208l-179 -338h-138z" />
    <glyph glyph-name="Ncaron" unicode="&#x147;" horiz-adv-x="1316" 
d="M22 0l196 1400h225l499 -1024l144 1024h208l-196 -1400h-225l-499 1024l-144 -1024h-208zM655 1510l-153 288h138l144 -197l195 197h139l-230 -288h-233z" />
    <glyph glyph-name="ncaron" unicode="&#x148;" horiz-adv-x="1100" 
d="M1010 627l-88 -627h-208l81 576q10 67 -15.5 122t-75.5 87.5t-117 32.5t-126.5 -32.5t-99.5 -87.5t-50 -122l-81 -576h-208l140 1000h208l-14 -106q60 62 141 98t169 36q111 0 194 -54t124.5 -145t25.5 -202zM524 1110l-153 288h138l144 -197l195 197h139l-230 -288h-233
z" />
    <glyph glyph-name="Omacron" unicode="&#x14c;" horiz-adv-x="1540" 
d="M668 -26q-142 0 -259.5 56.5t-198 156.5t-116 231.5t-14.5 281.5t93 281.5t181.5 231.5t242.5 156.5t275 56.5q143 0 260 -56.5t197.5 -156.5t116 -231.5t14.5 -281.5t-93 -281.5t-181.5 -231.5t-242 -156.5t-275.5 -56.5zM697 182q100 0 193 41t169.5 112.5t127 165
t65.5 199.5t-9.5 200t-80.5 165.5t-137.5 112t-181.5 40.5t-193 -41t-169.5 -112.5t-127 -165t-65.5 -199.5q-15 -107 9.5 -200.5t80.5 -165t137.5 -112t181.5 -40.5zM574 1711h676l-23 -158h-676z" />
    <glyph glyph-name="omacron" unicode="&#x14d;" horiz-adv-x="1120" 
d="M458 -26q-138 0 -241.5 71t-154 190.5t-30.5 264.5q15 110 67.5 205.5t131.5 168t175.5 113.5t199.5 41q138 0 241.5 -71t154.5 -191t30 -266q-15 -109 -67.5 -204t-131.5 -167.5t-175 -113.5t-200 -41zM487 182q83 0 155 44t121.5 116.5t60.5 157.5q12 87 -17 160
t-89 116.5t-141 43.5q-82 0 -154.5 -44t-121.5 -117t-61 -159q-12 -89 17.5 -161t89.5 -114.5t140 -42.5zM308 1311h676l-23 -158h-676z" />
    <glyph glyph-name="Ohungarumlaut" unicode="&#x150;" horiz-adv-x="1540" 
d="M668 -26q-142 0 -259.5 56.5t-198 156.5t-116 231.5t-14.5 281.5t93 281.5t181.5 231.5t242.5 156.5t275 56.5q143 0 260 -56.5t197.5 -156.5t116 -231.5t14.5 -281.5t-93 -281.5t-181.5 -231.5t-242 -156.5t-275.5 -56.5zM697 182q100 0 193 41t169.5 112.5t127 165
t65.5 199.5t-9.5 200t-80.5 165.5t-137.5 112t-181.5 40.5t-193 -41t-169.5 -112.5t-127 -165t-65.5 -199.5q-15 -107 9.5 -200.5t80.5 -165t137.5 -112t181.5 -40.5zM997 1510l120 288h208l-188 -288h-140zM683 1510l120 288h208l-188 -288h-140z" />
    <glyph glyph-name="ohungarumlaut" unicode="&#x151;" horiz-adv-x="1120" 
d="M458 -26q-138 0 -241.5 71t-154 190.5t-30.5 264.5q15 110 67.5 205.5t131.5 168t175.5 113.5t199.5 41q138 0 241.5 -71t154.5 -191t30 -266q-15 -109 -67.5 -204t-131.5 -167.5t-175 -113.5t-200 -41zM487 182q83 0 155 44t121.5 116.5t60.5 157.5q12 87 -17 160
t-89 116.5t-141 43.5q-82 0 -154.5 -44t-121.5 -117t-61 -159q-12 -89 17.5 -161t89.5 -114.5t140 -42.5zM731 1110l120 288h208l-188 -288h-140zM417 1110l120 288h208l-188 -288h-140z" />
    <glyph glyph-name="OE" unicode="&#x152;" horiz-adv-x="2138" 
d="M668 -26q-142 0 -259.5 56.5t-198 156.5t-116 231.5t-14.5 281.5t93 281.5t181.5 231.5t242.5 156.5t275 56.5q99 0 184.5 -30.5t153 -85.5t112.5 -129l30 219h784l-29 -208h-575l-55 -388h480l-29 -208h-480l-54 -388h575l-29 -208h-784l30 219q-65 -73 -148 -128.5
t-177 -86t-193 -30.5zM697 182q100 0 193 41t169.5 112.5t127 165t65.5 199.5t-9.5 200t-80.5 165.5t-137.5 112t-181.5 40.5t-193 -41t-169.5 -112.5t-127 -165t-65.5 -199.5q-15 -107 9.5 -200.5t80.5 -165t137.5 -112t181.5 -40.5z" />
    <glyph glyph-name="oe" unicode="&#x153;" horiz-adv-x="1909" 
d="M458 -26q-138 0 -241.5 71t-154 190.5t-30.5 264.5q15 110 67.5 205.5t131.5 168t175.5 113.5t199.5 41q84 0 154.5 -28.5t124.5 -79t85 -118.5q52 68 119.5 118.5t146.5 79t162 28.5q114 0 203.5 -47.5t146 -130.5t73 -191.5t-13.5 -230.5h-770q2 -70 32 -125.5
t83.5 -87.5t126.5 -33q76 0 144 38.5t117 105.5l204 -50q-79 -133 -211.5 -217.5t-282.5 -84.5q-83 0 -154 28.5t-124.5 79t-85.5 117.5q-50 -67 -118.5 -117.5t-147 -79t-162.5 -28.5zM487 182q83 0 155 44t121.5 116.5t60.5 157.5q12 87 -17 160t-89 116.5t-141 43.5
q-82 0 -154.5 -44t-121.5 -117t-61 -159q-12 -89 17.5 -161t89.5 -114.5t140 -42.5zM1051 587h567q0 71 -31 129.5t-86.5 93t-127.5 34.5t-137.5 -34t-113.5 -92t-71 -131z" />
    <glyph glyph-name="Racute" unicode="&#x154;" horiz-adv-x="1179" 
d="M22 0l196 1400h515q114 0 197.5 -56t124 -150.5t23.5 -210.5q-13 -98 -61.5 -179t-122 -138t-161.5 -82l257 -584h-241l-249 565h-191l-79 -565h-208zM338 773h285q60 0 113.5 30t90.5 80t45 113q10 63 -12.5 113.5t-68 80t-105.5 29.5h-285zM534 1510l120 288h208
l-188 -288h-140z" />
    <glyph glyph-name="racute" unicode="&#x155;" horiz-adv-x="751" 
d="M22 0l140 1000h208l-14 -106q60 62 141 98t169 36q56 0 109 -15l-113 -210q-36 15 -75 15q-67 0 -126.5 -32.5t-99.5 -87.5t-50 -122l-81 -576h-208zM429 1110l120 288h208l-188 -288h-140z" />
    <glyph glyph-name="uni0156" unicode="&#x156;" horiz-adv-x="1179" 
d="M22 0l196 1400h515q114 0 197.5 -56t124 -150.5t23.5 -210.5q-13 -98 -61.5 -179t-122 -138t-161.5 -82l257 -584h-241l-249 565h-191l-79 -565h-208zM338 773h285q60 0 113.5 30t90.5 80t45 113q10 63 -12.5 113.5t-68 80t-105.5 29.5h-285zM258 -441l109 338h208
l-179 -338h-138z" />
    <glyph glyph-name="uni0157" unicode="&#x157;" horiz-adv-x="751" 
d="M22 0l140 1000h208l-14 -106q60 62 141 98t169 36q56 0 109 -15l-113 -210q-36 15 -75 15q-67 0 -126.5 -32.5t-99.5 -87.5t-50 -122l-81 -576h-208zM-102 -441l109 338h208l-179 -338h-138z" />
    <glyph glyph-name="Rcaron" unicode="&#x158;" horiz-adv-x="1179" 
d="M22 0l196 1400h515q114 0 197.5 -56t124 -150.5t23.5 -210.5q-13 -98 -61.5 -179t-122 -138t-161.5 -82l257 -584h-241l-249 565h-191l-79 -565h-208zM338 773h285q60 0 113.5 30t90.5 80t45 113q10 63 -12.5 113.5t-68 80t-105.5 29.5h-285zM471 1510l-153 288h138
l144 -197l195 197h139l-230 -288h-233z" />
    <glyph glyph-name="rcaron" unicode="&#x159;" horiz-adv-x="751" 
d="M22 0l140 1000h208l-14 -106q60 62 141 98t169 36q56 0 109 -15l-113 -210q-36 15 -75 15q-67 0 -126.5 -32.5t-99.5 -87.5t-50 -122l-81 -576h-208zM366 1110l-153 288h138l144 -197l195 197h139l-230 -288h-233z" />
    <glyph glyph-name="Sacute" unicode="&#x15a;" horiz-adv-x="1239" 
d="M517 -26q-115 0 -216 36t-170 103.5t-91 160.5l206 73q10 -48 53 -85.5t107.5 -58.5t139.5 -21q80 0 154 26t124 72t59 108q9 64 -30.5 105t-106.5 65t-142 36q-143 24 -253 70t-166.5 129t-37.5 216q18 125 103 218t209.5 144.5t261.5 51.5q113 0 213.5 -35.5
t171.5 -103t92 -163.5l-206 -71q-10 49 -53.5 85.5t-108 57.5t-139.5 21q-79 1 -153 -25.5t-124 -72.5t-59 -107q-10 -75 25.5 -114t102.5 -57.5t150 -33.5q136 -22 246 -73t170 -135.5t42 -207.5q-17 -124 -101.5 -217.5t-209.5 -145t-263 -51.5zM679 1510l120 288h208
l-188 -288h-140z" />
    <glyph glyph-name="sacute" unicode="&#x15b;" horiz-adv-x="865" 
d="M319 -19q-79 5 -149.5 32t-121 73.5t-69.5 109.5l188 76q9 -27 38 -53t70.5 -42.5t89.5 -16.5q47 0 89.5 13.5t72.5 41.5t36 67q6 44 -20.5 68.5t-68.5 37.5t-84 25q-96 22 -171.5 60.5t-115.5 99t-28 148.5q14 96 76 166.5t152 108.5t186 38q120 0 213 -51t134 -140
l-180 -98q-11 30 -37.5 54t-62 38.5t-76.5 16.5q-51 2 -96.5 -11.5t-75 -42.5t-36.5 -74q-6 -44 21.5 -65.5t73.5 -34.5t93 -29q85 -28 157.5 -68.5t112.5 -99.5t26 -144q-14 -94 -80 -165t-161.5 -108t-195.5 -31zM437 1110l120 288h208l-188 -288h-140z" />
    <glyph glyph-name="Scircumflex" unicode="&#x15c;" horiz-adv-x="1239" 
d="M517 -26q-115 0 -216 36t-170 103.5t-91 160.5l206 73q10 -48 53 -85.5t107.5 -58.5t139.5 -21q80 0 154 26t124 72t59 108q9 64 -30.5 105t-106.5 65t-142 36q-143 24 -253 70t-166.5 129t-37.5 216q18 125 103 218t209.5 144.5t261.5 51.5q113 0 213.5 -35.5
t171.5 -103t92 -163.5l-206 -71q-10 49 -53.5 85.5t-108 57.5t-139.5 21q-79 1 -153 -25.5t-124 -72.5t-59 -107q-10 -75 25.5 -114t102.5 -57.5t150 -33.5q136 -22 246 -73t170 -135.5t42 -207.5q-17 -124 -101.5 -217.5t-209.5 -145t-263 -51.5zM890 1798l153 -288h-139
l-143 197l-196 -197h-138l230 288h233z" />
    <glyph glyph-name="scircumflex" unicode="&#x15d;" horiz-adv-x="865" 
d="M319 -19q-79 5 -149.5 32t-121 73.5t-69.5 109.5l188 76q9 -27 38 -53t70.5 -42.5t89.5 -16.5q47 0 89.5 13.5t72.5 41.5t36 67q6 44 -20.5 68.5t-68.5 37.5t-84 25q-96 22 -171.5 60.5t-115.5 99t-28 148.5q14 96 76 166.5t152 108.5t186 38q120 0 213 -51t134 -140
l-180 -98q-11 30 -37.5 54t-62 38.5t-76.5 16.5q-51 2 -96.5 -11.5t-75 -42.5t-36.5 -74q-6 -44 21.5 -65.5t73.5 -34.5t93 -29q85 -28 157.5 -68.5t112.5 -99.5t26 -144q-14 -94 -80 -165t-161.5 -108t-195.5 -31zM647 1398l153 -288h-139l-143 197l-196 -197h-138l230 288
h233z" />
    <glyph glyph-name="Scedilla" unicode="&#x15e;" horiz-adv-x="1239" 
d="M517 -26q-115 0 -216 36t-170 103.5t-91 160.5l206 73q10 -48 53 -85.5t107.5 -58.5t139.5 -21q80 0 154 26t124 72t59 108q9 64 -30.5 105t-106.5 65t-142 36q-143 24 -253 70t-166.5 129t-37.5 216q18 125 103 218t209.5 144.5t261.5 51.5q113 0 213.5 -35.5
t171.5 -103t92 -163.5l-206 -71q-10 49 -53.5 85.5t-108 57.5t-139.5 21q-79 1 -153 -25.5t-124 -72.5t-59 -107q-10 -75 25.5 -114t102.5 -57.5t150 -33.5q136 -22 246 -73t170 -135.5t42 -207.5q-17 -124 -101.5 -217.5t-209.5 -145t-263 -51.5zM550 -373
q-71 -18 -128 17.5t-66 103.5l116 30q3 -22 21.5 -33.5t41.5 -5.5q24 6 38.5 26t11.5 43t-21 33.5t-42 6.5l-118 -7l167 235l93 -58l-49 -68q35 -13 58.5 -42.5t28.5 -70.5q8 -68 -36 -130t-116 -80z" />
    <glyph glyph-name="scedilla" unicode="&#x15f;" horiz-adv-x="865" 
d="M319 -19q-79 5 -149.5 32t-121 73.5t-69.5 109.5l188 76q9 -27 38 -53t70.5 -42.5t89.5 -16.5q47 0 89.5 13.5t72.5 41.5t36 67q6 44 -20.5 68.5t-68.5 37.5t-84 25q-96 22 -171.5 60.5t-115.5 99t-28 148.5q14 96 76 166.5t152 108.5t186 38q120 0 213 -51t134 -140
l-180 -98q-11 30 -37.5 54t-62 38.5t-76.5 16.5q-51 2 -96.5 -11.5t-75 -42.5t-36.5 -74q-6 -44 21.5 -65.5t73.5 -34.5t93 -29q85 -28 157.5 -68.5t112.5 -99.5t26 -144q-14 -94 -80 -165t-161.5 -108t-195.5 -31zM347 -373q-71 -18 -128 17.5t-66 103.5l116 30
q3 -22 21.5 -33.5t41.5 -5.5q24 6 38.5 26t11.5 43t-21 33.5t-42 6.5l-118 -7l167 235l93 -58l-49 -68q35 -13 58.5 -42.5t28.5 -70.5q8 -68 -36 -130t-116 -80z" />
    <glyph glyph-name="Scaron" unicode="&#x160;" horiz-adv-x="1239" 
d="M517 -26q-115 0 -216 36t-170 103.5t-91 160.5l206 73q10 -48 53 -85.5t107.5 -58.5t139.5 -21q80 0 154 26t124 72t59 108q9 64 -30.5 105t-106.5 65t-142 36q-143 24 -253 70t-166.5 129t-37.5 216q18 125 103 218t209.5 144.5t261.5 51.5q113 0 213.5 -35.5
t171.5 -103t92 -163.5l-206 -71q-10 49 -53.5 85.5t-108 57.5t-139.5 21q-79 1 -153 -25.5t-124 -72.5t-59 -107q-10 -75 25.5 -114t102.5 -57.5t150 -33.5q136 -22 246 -73t170 -135.5t42 -207.5q-17 -124 -101.5 -217.5t-209.5 -145t-263 -51.5zM617 1510l-153 288h138
l144 -197l195 197h139l-230 -288h-233z" />
    <glyph glyph-name="scaron" unicode="&#x161;" horiz-adv-x="865" 
d="M319 -19q-79 5 -149.5 32t-121 73.5t-69.5 109.5l188 76q9 -27 38 -53t70.5 -42.5t89.5 -16.5q47 0 89.5 13.5t72.5 41.5t36 67q6 44 -20.5 68.5t-68.5 37.5t-84 25q-96 22 -171.5 60.5t-115.5 99t-28 148.5q14 96 76 166.5t152 108.5t186 38q120 0 213 -51t134 -140
l-180 -98q-11 30 -37.5 54t-62 38.5t-76.5 16.5q-51 2 -96.5 -11.5t-75 -42.5t-36.5 -74q-6 -44 21.5 -65.5t73.5 -34.5t93 -29q85 -28 157.5 -68.5t112.5 -99.5t26 -144q-14 -94 -80 -165t-161.5 -108t-195.5 -31zM374 1110l-153 288h138l144 -197l195 197h139l-230 -288
h-233z" />
    <glyph glyph-name="uni0162" unicode="&#x162;" horiz-adv-x="1259" 
d="M1277 1400l-29 -208h-446l-167 -1192h-208l167 1192h-445l29 208h1099zM485 -373q-71 -18 -128 17.5t-66 103.5l116 30q3 -22 21.5 -33.5t41.5 -5.5q24 6 38.5 26t11.5 43t-21 33.5t-42 6.5l-118 -7l167 235l93 -58l-49 -68q35 -13 58.5 -42.5t28.5 -70.5q8 -68 -36 -130
t-116 -80z" />
    <glyph glyph-name="uni0163" unicode="&#x163;" horiz-adv-x="707" 
d="M661 792h-210l-112 -792h-208l112 792h-159l29 208h159l43 314h208l-43 -314h210zM189 -373q-71 -18 -128 17.5t-66 103.5l116 30q3 -22 21.5 -33.5t41.5 -5.5q24 6 38.5 26t11.5 43t-21 33.5t-42 6.5l-118 -7l167 235l93 -58l-49 -68q35 -13 58.5 -42.5t28.5 -70.5
q8 -68 -36 -130t-116 -80z" />
    <glyph glyph-name="Tcaron" unicode="&#x164;" horiz-adv-x="1259" 
d="M1277 1400l-29 -208h-446l-167 -1192h-208l167 1192h-445l29 208h1099zM627 1510l-153 288h138l144 -197l195 197h139l-230 -288h-233z" />
    <glyph glyph-name="tcaron" unicode="&#x165;" horiz-adv-x="707" 
d="M661 792h-210l-112 -792h-208l112 792h-159l29 208h159l43 314h208l-43 -314h210zM597 1212l120 288h208l-188 -288h-140z" />
    <glyph glyph-name="Utilde" unicode="&#x168;" horiz-adv-x="1348" 
d="M572 -26q-168 0 -280.5 82t-162 220.5t-25.5 307.5l114 816h208l-114 -816q-15 -110 12 -201.5t97 -146t181 -54.5q112 0 197 54.5t137.5 146t67.5 201.5l114 816h208l-114 -816q-18 -127 -72.5 -237.5t-139 -194.5t-193.5 -131t-235 -47zM943 1514q-37 0 -82.5 25
t-89.5 56.5t-79 51.5t-54 9t-29 -33.5t-6 -57.5l-130 -34q-15 70 7 130t72 96.5t119 36.5q37 0 80.5 -22t87 -50t78 -50t53.5 -22q21 0 31 15.5t12.5 36.5t-2.5 39l133 41q15 -75 -9 -135.5t-74.5 -96.5t-117.5 -36z" />
    <glyph glyph-name="utilde" unicode="&#x169;" horiz-adv-x="1060" 
d="M35 375l87 625h208l-81 -574q-9 -67 16 -122t75.5 -87.5t116.5 -32.5q67 0 127 32.5t100 87.5t49 122l80 574h208l-139 -1000h-208l14 108q-60 -62 -141 -98t-168 -36q-111 0 -194.5 54t-124.5 145t-25 202zM767 1115q-37 0 -82.5 25t-89.5 56.5t-79 51.5t-54 9
t-29 -33.5t-6 -57.5l-130 -34q-15 70 7 130t72 96.5t119 36.5q37 0 80.5 -22t87 -50t78 -50t53.5 -22q21 0 31 15.5t12.5 36.5t-2.5 39l133 41q15 -75 -9 -135.5t-74.5 -96.5t-117.5 -36z" />
    <glyph glyph-name="Umacron" unicode="&#x16a;" horiz-adv-x="1348" 
d="M572 -26q-168 0 -280.5 82t-162 220.5t-25.5 307.5l114 816h208l-114 -816q-15 -110 12 -201.5t97 -146t181 -54.5q112 0 197 54.5t137.5 146t67.5 201.5l114 816h208l-114 -816q-18 -127 -72.5 -237.5t-139 -194.5t-193.5 -131t-235 -47zM478 1711h676l-23 -158h-676z
" />
    <glyph glyph-name="umacron" unicode="&#x16b;" horiz-adv-x="1060" 
d="M35 375l87 625h208l-81 -574q-9 -67 16 -122t75.5 -87.5t116.5 -32.5q67 0 127 32.5t100 87.5t49 122l80 574h208l-139 -1000h-208l14 108q-60 -62 -141 -98t-168 -36q-111 0 -194.5 54t-124.5 145t-25 202zM302 1312h676l-23 -158h-676z" />
    <glyph glyph-name="Ubreve" unicode="&#x16c;" horiz-adv-x="1348" 
d="M572 -26q-168 0 -280.5 82t-162 220.5t-25.5 307.5l114 816h208l-114 -816q-15 -110 12 -201.5t97 -146t181 -54.5q112 0 197 54.5t137.5 146t67.5 201.5l114 816h208l-114 -816q-18 -127 -72.5 -237.5t-139 -194.5t-193.5 -131t-235 -47zM785 1488q-91 0 -160 45
t-103.5 120.5t-22.5 166.5h134q-7 -55 14 -100t62.5 -71.5t94.5 -26.5q54 0 102.5 26.5t81.5 71.5t41 100h134q-13 -93 -68.5 -168.5t-137 -119.5t-172.5 -44z" />
    <glyph glyph-name="ubreve" unicode="&#x16d;" horiz-adv-x="1060" 
d="M35 375l87 625h208l-81 -574q-9 -67 16 -122t75.5 -87.5t116.5 -32.5q67 0 127 32.5t100 87.5t49 122l80 574h208l-139 -1000h-208l14 108q-60 -62 -141 -98t-168 -36q-111 0 -194.5 54t-124.5 145t-25 202zM609 1089q-91 0 -160 45t-103.5 120.5t-22.5 166.5h134
q-7 -55 14 -100t62.5 -71.5t94.5 -26.5q54 0 102.5 26.5t81.5 71.5t41 100h134q-13 -93 -68.5 -168.5t-137 -119.5t-172.5 -44z" />
    <glyph glyph-name="Uring" unicode="&#x16e;" horiz-adv-x="1348" 
d="M572 -26q-168 0 -280.5 82t-162 220.5t-25.5 307.5l114 816h208l-114 -816q-15 -110 12 -201.5t97 -146t181 -54.5q112 0 197 54.5t137.5 146t67.5 201.5l114 816h208l-114 -816q-18 -127 -72.5 -237.5t-139 -194.5t-193.5 -131t-235 -47zM783 1478q-72 0 -116.5 52.5
t-34.5 124.5q7 48 36 88t72.5 63.5t92.5 23.5q73 0 117 -51.5t34 -123.5q-10 -74 -69 -125.5t-132 -51.5zM798 1582q29 0 53 21.5t29 51.5q4 29 -14 49.5t-48 20.5t-53.5 -20.5t-27.5 -49.5q-5 -30 13 -51.5t48 -21.5z" />
    <glyph glyph-name="uring" unicode="&#x16f;" horiz-adv-x="1060" 
d="M35 375l87 625h208l-81 -574q-9 -67 16 -122t75.5 -87.5t116.5 -32.5q67 0 127 32.5t100 87.5t49 122l80 574h208l-139 -1000h-208l14 108q-60 -62 -141 -98t-168 -36q-111 0 -194.5 54t-124.5 145t-25 202zM607 1079q-72 0 -116.5 52.5t-34.5 124.5q7 48 36 88
t72.5 63.5t92.5 23.5q73 0 117 -51.5t34 -123.5q-10 -74 -69 -125.5t-132 -51.5zM622 1183q29 0 53 21.5t29 51.5q4 29 -14 49.5t-48 20.5t-53.5 -20.5t-27.5 -49.5q-5 -30 13 -51.5t48 -21.5z" />
    <glyph glyph-name="Uhungarumlaut" unicode="&#x170;" horiz-adv-x="1348" 
d="M572 -26q-168 0 -280.5 82t-162 220.5t-25.5 307.5l114 816h208l-114 -816q-15 -110 12 -201.5t97 -146t181 -54.5q112 0 197 54.5t137.5 146t67.5 201.5l114 816h208l-114 -816q-18 -127 -72.5 -237.5t-139 -194.5t-193.5 -131t-235 -47zM901 1510l120 288h208
l-188 -288h-140zM587 1510l120 288h208l-188 -288h-140z" />
    <glyph glyph-name="uhungarumlaut" unicode="&#x171;" horiz-adv-x="1060" 
d="M35 375l87 625h208l-81 -574q-9 -67 16 -122t75.5 -87.5t116.5 -32.5q67 0 127 32.5t100 87.5t49 122l80 574h208l-139 -1000h-208l14 108q-60 -62 -141 -98t-168 -36q-111 0 -194.5 54t-124.5 145t-25 202zM725 1111l120 288h208l-188 -288h-140zM411 1111l120 288h208
l-188 -288h-140z" />
    <glyph glyph-name="Uogonek" unicode="&#x172;" horiz-adv-x="1348" 
d="M572 -26q-168 0 -280.5 82t-162 220.5t-25.5 307.5l114 816h208l-114 -816q-15 -110 12 -201.5t97 -146t181 -54.5q112 0 197 54.5t137.5 146t67.5 201.5l114 816h208l-114 -816q-18 -127 -72.5 -237.5t-139 -194.5t-193.5 -131t-235 -47zM534 -442q-65 1 -109 32.5
t-63.5 81.5t-12.5 105q6 41 27 80t58 72l192 168l89 -103q-49 -43 -87 -75.5t-64 -57.5t-41 -47t-17 -45q-4 -25 10.5 -45.5t45.5 -22.5q38 0 71.5 28t40.5 70h136q-8 -65 -48.5 -120t-100 -88t-127.5 -33z" />
    <glyph glyph-name="uogonek" unicode="&#x173;" horiz-adv-x="1060" 
d="M35 375l87 625h208l-81 -574q-9 -67 16 -122t75.5 -87.5t116.5 -32.5q67 0 127 32.5t100 87.5t49 122l80 574h208l-139 -1000h-208l14 108q-60 -62 -141 -98t-168 -36q-111 0 -194.5 54t-124.5 145t-25 202zM701 -435q-65 1 -109 32.5t-63.5 81.5t-12.5 105q6 41 27 80
t58 72l192 168l89 -103q-49 -43 -87 -75.5t-64 -57.5t-41 -47t-17 -45q-4 -25 10.5 -45.5t45.5 -22.5q38 0 71.5 28t40.5 70h136q-8 -65 -48.5 -120t-100 -88t-127.5 -33z" />
    <glyph glyph-name="Wcircumflex" unicode="&#x174;" horiz-adv-x="1804" 
d="M330 0l-162 1400h214l118 -1027l405 1027h189l118 -1027l406 1027h214l-552 -1400h-239l-107 927l-367 -927h-237zM1172 1798l153 -288h-139l-143 197l-196 -197h-138l230 288h233z" />
    <glyph glyph-name="wcircumflex" unicode="&#x175;" horiz-adv-x="1677" 
d="M504 0h-207l-195 1000h204l137 -702l333 702h210l135 -702l334 702h204l-474 -1000h-209l-137 707zM1053 1398l153 -288h-139l-143 197l-196 -197h-138l230 288h233z" />
    <glyph glyph-name="Ycircumflex" unicode="&#x176;" horiz-adv-x="1283" 
d="M1076 1400h245l-585 -768l-89 -632h-208l89 632l-370 768h245l261 -541zM912 1798l153 -288h-139l-143 197l-196 -197h-138l230 288h233z" />
    <glyph glyph-name="ycircumflex" unicode="&#x177;" horiz-adv-x="1107" 
d="M847 1000h222l-759 -1500h-221l252 500l-219 1000h227l136 -715zM767 1398l153 -288h-139l-143 197l-196 -197h-138l230 288h233z" />
    <glyph glyph-name="Ydieresis" unicode="&#x178;" horiz-adv-x="1283" 
d="M1076 1400h245l-585 -768l-89 -632h-208l89 632l-370 768h245l261 -541zM566 1474q-46 0 -74.5 31t-21.5 78q7 46 43.5 78t83.5 32q46 0 74 -32t21 -78q-7 -47 -43.5 -78t-82.5 -31zM935 1474q-47 0 -75.5 31t-21.5 78q6 46 43 78t84 32q46 0 74 -32t21 -78
q-7 -47 -43.5 -78t-81.5 -31z" />
    <glyph glyph-name="Zacute" unicode="&#x179;" horiz-adv-x="1292" 
d="M-18 0l29 208l990 984h-852l29 208h1132l-29 -208l-990 -984h852l-29 -208h-1132zM706 1510l120 288h208l-188 -288h-140z" />
    <glyph glyph-name="zacute" unicode="&#x17a;" horiz-adv-x="1014" 
d="M947 792l-638 -584h556l-29 -208h-854l29 208l638 584h-556l29 208h854zM511 1110l120 288h208l-188 -288h-140z" />
    <glyph glyph-name="Zdotaccent" unicode="&#x17b;" horiz-adv-x="1292" 
d="M-18 0l29 208l990 984h-852l29 208h1132l-29 -208l-990 -984h852l-29 -208h-1132zM766 1545q-47 0 -75 31t-21 78q7 46 43.5 77.5t82.5 31.5t74 -31.5t21 -77.5q-7 -47 -42.5 -78t-82.5 -31z" />
    <glyph glyph-name="zdotaccent" unicode="&#x17c;" horiz-adv-x="1014" 
d="M947 792l-638 -584h556l-29 -208h-854l29 208l638 584h-556l29 208h854zM571 1145q-47 0 -75 31t-21 78q7 46 43.5 77.5t82.5 31.5t74 -31.5t21 -77.5q-7 -47 -42.5 -78t-82.5 -31z" />
    <glyph glyph-name="Zcaron" unicode="&#x17d;" horiz-adv-x="1292" 
d="M-18 0l29 208l990 984h-852l29 208h1132l-29 -208l-990 -984h852l-29 -208h-1132zM643 1510l-153 288h138l144 -197l195 197h139l-230 -288h-233z" />
    <glyph glyph-name="zcaron" unicode="&#x17e;" horiz-adv-x="1014" 
d="M947 792l-638 -584h556l-29 -208h-854l29 208l638 584h-556l29 208h854zM448 1110l-153 288h138l144 -197l195 197h139l-230 -288h-233z" />
    <glyph glyph-name="uni01CD" unicode="&#x1cd;" horiz-adv-x="1421" 
d="M687 1400h243l313 -1400h-220l-60 266h-626l-134 -266h-221zM442 474h474l-146 650zM708 1510l-153 288h138l144 -197l195 197h139l-230 -288h-233z" />
    <glyph glyph-name="uni01CE" unicode="&#x1ce;" horiz-adv-x="1185" 
d="M940 1000h208l-140 -1000h-209l12 145q-55 -77 -136.5 -124t-183.5 -47q-110 0 -201 41.5t-154 115.5t-91 170.5t-12 207.5q15 107 68.5 201.5t134 165.5t180 111.5t206.5 40.5q109 0 185.5 -49.5t120.5 -126.5zM514 175q88 0 160 43.5t119.5 117.5t59.5 164
q13 91 -13.5 165t-86.5 117.5t-147 43.5t-165 -44t-130.5 -118t-65.5 -164q-12 -91 20 -164.5t98 -117t151 -43.5zM549 1110l-153 288h138l144 -197l195 197h139l-230 -288h-233z" />
    <glyph glyph-name="uni01CF" unicode="&#x1cf;" horiz-adv-x="508" 
d="M52 0l196 1400h208l-196 -1400h-208zM251 1510l-153 288h138l144 -197l195 197h139l-230 -288h-233z" />
    <glyph glyph-name="uni01D0" unicode="&#x1d0;" 
d="M162 1000h208l-140 -1000h-208zM165 1110l-153 288h138l144 -197l195 197h139l-230 -288h-233z" />
    <glyph glyph-name="uni01D1" unicode="&#x1d1;" horiz-adv-x="1540" 
d="M668 -26q-142 0 -259.5 56.5t-198 156.5t-116 231.5t-14.5 281.5t93 281.5t181.5 231.5t242.5 156.5t275 56.5q143 0 260 -56.5t197.5 -156.5t116 -231.5t14.5 -281.5t-93 -281.5t-181.5 -231.5t-242 -156.5t-275.5 -56.5zM697 182q100 0 193 41t169.5 112.5t127 165
t65.5 199.5t-9.5 200t-80.5 165.5t-137.5 112t-181.5 40.5t-193 -41t-169.5 -112.5t-127 -165t-65.5 -199.5q-15 -107 9.5 -200.5t80.5 -165t137.5 -112t181.5 -40.5zM767 1510l-153 288h138l144 -197l195 197h139l-230 -288h-233z" />
    <glyph glyph-name="uni01D2" unicode="&#x1d2;" horiz-adv-x="1120" 
d="M458 -26q-138 0 -241.5 71t-154 190.5t-30.5 264.5q15 110 67.5 205.5t131.5 168t175.5 113.5t199.5 41q138 0 241.5 -71t154.5 -191t30 -266q-15 -109 -67.5 -204t-131.5 -167.5t-175 -113.5t-200 -41zM487 182q83 0 155 44t121.5 116.5t60.5 157.5q12 87 -17 160
t-89 116.5t-141 43.5q-82 0 -154.5 -44t-121.5 -117t-61 -159q-12 -89 17.5 -161t89.5 -114.5t140 -42.5zM501 1110l-153 288h138l144 -197l195 197h139l-230 -288h-233z" />
    <glyph glyph-name="uni01D3" unicode="&#x1d3;" horiz-adv-x="1348" 
d="M572 -26q-168 0 -280.5 82t-162 220.5t-25.5 307.5l114 816h208l-114 -816q-15 -110 12 -201.5t97 -146t181 -54.5q112 0 197 54.5t137.5 146t67.5 201.5l114 816h208l-114 -816q-18 -127 -72.5 -237.5t-139 -194.5t-193.5 -131t-235 -47zM672 1510l-153 288h138
l144 -197l195 197h139l-230 -288h-233z" />
    <glyph glyph-name="uni01D4" unicode="&#x1d4;" horiz-adv-x="1060" 
d="M35 375l87 625h208l-81 -574q-9 -67 16 -122t75.5 -87.5t116.5 -32.5q67 0 127 32.5t100 87.5t49 122l80 574h208l-139 -1000h-208l14 108q-60 -62 -141 -98t-168 -36q-111 0 -194.5 54t-124.5 145t-25 202zM496 1111l-153 288h138l144 -197l195 197h139l-230 -288h-233z
" />
    <glyph glyph-name="uni01D5" unicode="&#x1d5;" horiz-adv-x="1348" 
d="M572 -26q-168 0 -280.5 82t-162 220.5t-25.5 307.5l114 816h208l-114 -816q-15 -110 12 -201.5t97 -146t181 -54.5q112 0 197 54.5t137.5 146t67.5 201.5l114 816h208l-114 -816q-18 -127 -72.5 -237.5t-139 -194.5t-193.5 -131t-235 -47zM599 1474q-46 0 -74.5 31
t-21.5 78q7 46 43.5 78t83.5 32q46 0 74 -32t21 -78q-7 -47 -43.5 -78t-82.5 -31zM968 1474q-47 0 -75.5 31t-21.5 78q6 46 43 78t84 32q46 0 74 -32t21 -78q-7 -47 -43.5 -78t-81.5 -31zM514 1969h676l-23 -158h-676z" />
    <glyph glyph-name="uni01D6" unicode="&#x1d6;" horiz-adv-x="1060" 
d="M35 375l87 625h208l-81 -574q-9 -67 16 -122t75.5 -87.5t116.5 -32.5q67 0 127 32.5t100 87.5t49 122l80 574h208l-139 -1000h-208l14 108q-60 -62 -141 -98t-168 -36q-111 0 -194.5 54t-124.5 145t-25 202zM423 1075q-46 0 -74.5 31t-21.5 78q7 46 43.5 78t83.5 32
q46 0 74 -32t21 -78q-7 -47 -43.5 -78t-82.5 -31zM792 1075q-47 0 -75.5 31t-21.5 78q6 46 43 78t84 32q46 0 74 -32t21 -78q-7 -47 -43.5 -78t-81.5 -31zM338 1571h676l-23 -158h-676z" />
    <glyph glyph-name="uni01D7" unicode="&#x1d7;" horiz-adv-x="1348" 
d="M572 -26q-168 0 -280.5 82t-162 220.5t-25.5 307.5l114 816h208l-114 -816q-15 -110 12 -201.5t97 -146t181 -54.5q112 0 197 54.5t137.5 146t67.5 201.5l114 816h208l-114 -816q-18 -127 -72.5 -237.5t-139 -194.5t-193.5 -131t-235 -47zM599 1474q-46 0 -74.5 31
t-21.5 78q7 46 43.5 78t83.5 32q46 0 74 -32t21 -78q-7 -47 -43.5 -78t-82.5 -31zM968 1474q-47 0 -75.5 31t-21.5 78q6 46 43 78t84 32q46 0 74 -32t21 -78q-7 -47 -43.5 -78t-81.5 -31zM770 1768l120 288h208l-188 -288h-140z" />
    <glyph glyph-name="uni01D8" unicode="&#x1d8;" horiz-adv-x="1060" 
d="M35 375l87 625h208l-81 -574q-9 -67 16 -122t75.5 -87.5t116.5 -32.5q67 0 127 32.5t100 87.5t49 122l80 574h208l-139 -1000h-208l14 108q-60 -62 -141 -98t-168 -36q-111 0 -194.5 54t-124.5 145t-25 202zM423 1075q-46 0 -74.5 31t-21.5 78q7 46 43.5 78t83.5 32
q46 0 74 -32t21 -78q-7 -47 -43.5 -78t-82.5 -31zM792 1075q-47 0 -75.5 31t-21.5 78q6 46 43 78t84 32q46 0 74 -32t21 -78q-7 -47 -43.5 -78t-81.5 -31zM594 1370l120 288h208l-188 -288h-140z" />
    <glyph glyph-name="uni01D9" unicode="&#x1d9;" horiz-adv-x="1348" 
d="M572 -26q-168 0 -280.5 82t-162 220.5t-25.5 307.5l114 816h208l-114 -816q-15 -110 12 -201.5t97 -146t181 -54.5q112 0 197 54.5t137.5 146t67.5 201.5l114 816h208l-114 -816q-18 -127 -72.5 -237.5t-139 -194.5t-193.5 -131t-235 -47zM599 1474q-46 0 -74.5 31
t-21.5 78q7 46 43.5 78t83.5 32q46 0 74 -32t21 -78q-7 -47 -43.5 -78t-82.5 -31zM968 1474q-47 0 -75.5 31t-21.5 78q6 46 43 78t84 32q46 0 74 -32t21 -78q-7 -47 -43.5 -78t-81.5 -31zM708 1768l-153 288h138l144 -197l195 197h139l-230 -288h-233z" />
    <glyph glyph-name="uni01DA" unicode="&#x1da;" horiz-adv-x="1060" 
d="M35 375l87 625h208l-81 -574q-9 -67 16 -122t75.5 -87.5t116.5 -32.5q67 0 127 32.5t100 87.5t49 122l80 574h208l-139 -1000h-208l14 108q-60 -62 -141 -98t-168 -36q-111 0 -194.5 54t-124.5 145t-25 202zM423 1075q-46 0 -74.5 31t-21.5 78q7 46 43.5 78t83.5 32
q46 0 74 -32t21 -78q-7 -47 -43.5 -78t-82.5 -31zM792 1075q-47 0 -75.5 31t-21.5 78q6 46 43 78t84 32q46 0 74 -32t21 -78q-7 -47 -43.5 -78t-81.5 -31zM532 1370l-153 288h138l144 -197l195 197h139l-230 -288h-233z" />
    <glyph glyph-name="uni01DB" unicode="&#x1db;" horiz-adv-x="1348" 
d="M572 -26q-168 0 -280.5 82t-162 220.5t-25.5 307.5l114 816h208l-114 -816q-15 -110 12 -201.5t97 -146t181 -54.5q112 0 197 54.5t137.5 146t67.5 201.5l114 816h208l-114 -816q-18 -127 -72.5 -237.5t-139 -194.5t-193.5 -131t-235 -47zM599 1474q-46 0 -74.5 31
t-21.5 78q7 46 43.5 78t83.5 32q46 0 74 -32t21 -78q-7 -47 -43.5 -78t-82.5 -31zM968 1474q-47 0 -75.5 31t-21.5 78q6 46 43 78t84 32q46 0 74 -32t21 -78q-7 -47 -43.5 -78t-81.5 -31zM627 2056h208l40 -288h-138z" />
    <glyph glyph-name="uni01DC" unicode="&#x1dc;" horiz-adv-x="1060" 
d="M35 375l87 625h208l-81 -574q-9 -67 16 -122t75.5 -87.5t116.5 -32.5q67 0 127 32.5t100 87.5t49 122l80 574h208l-139 -1000h-208l14 108q-60 -62 -141 -98t-168 -36q-111 0 -194.5 54t-124.5 145t-25 202zM423 1075q-46 0 -74.5 31t-21.5 78q7 46 43.5 78t83.5 32
q46 0 74 -32t21 -78q-7 -47 -43.5 -78t-82.5 -31zM792 1075q-47 0 -75.5 31t-21.5 78q6 46 43 78t84 32q46 0 74 -32t21 -78q-7 -47 -43.5 -78t-81.5 -31zM451 1658h208l40 -288h-138z" />
    <glyph glyph-name="uni01DE" unicode="&#x1de;" horiz-adv-x="1421" 
d="M687 1400h243l313 -1400h-220l-60 266h-626l-134 -266h-221zM442 474h474l-146 650zM635 1474q-46 0 -74.5 31t-21.5 78q7 46 43.5 78t83.5 32q46 0 74 -32t21 -78q-7 -47 -43.5 -78t-82.5 -31zM1004 1474q-47 0 -75.5 31t-21.5 78q6 46 43 78t84 32q46 0 74 -32t21 -78
q-7 -47 -43.5 -78t-81.5 -31zM551 1969h676l-23 -158h-676z" />
    <glyph glyph-name="uni01DF" unicode="&#x1df;" horiz-adv-x="1185" 
d="M940 1000h208l-140 -1000h-209l12 145q-55 -77 -136.5 -124t-183.5 -47q-110 0 -201 41.5t-154 115.5t-91 170.5t-12 207.5q15 107 68.5 201.5t134 165.5t180 111.5t206.5 40.5q109 0 185.5 -49.5t120.5 -126.5zM514 175q88 0 160 43.5t119.5 117.5t59.5 164
q13 91 -13.5 165t-86.5 117.5t-147 43.5t-165 -44t-130.5 -118t-65.5 -164q-12 -91 20 -164.5t98 -117t151 -43.5zM476 1074q-46 0 -74.5 31t-21.5 78q7 46 43.5 78t83.5 32q46 0 74 -32t21 -78q-7 -47 -43.5 -78t-82.5 -31zM845 1074q-47 0 -75.5 31t-21.5 78q6 46 43 78
t84 32q46 0 74 -32t21 -78q-7 -47 -43.5 -78t-81.5 -31zM392 1569h676l-23 -158h-676z" />
    <glyph glyph-name="uni01E2" unicode="&#x1e2;" horiz-adv-x="1658" 
d="M-18 0l705 1400h969l-29 -208h-521l-55 -388h425l-28 -208h-425l-55 -388h521l-29 -208h-729l37 266h-431l-134 -266h-221zM442 474h355l101 718h-94zM877 1711h676l-23 -158h-676z" />
    <glyph glyph-name="uni01E3" unicode="&#x1e3;" horiz-adv-x="1745" 
d="M247 -25q-92 0 -158 40.5t-98 110t-20 154.5q12 82 61.5 151.5t127 112t170.5 42.5h334q4 65 -20.5 118t-74 84.5t-121.5 31.5q-77 0 -149 -36l-90 173q64 36 131.5 53.5t133.5 17.5q117 0 208.5 -55t139.5 -149q51 61 117 107t141 71.5t153 25.5q116 0 205 -47.5
t145 -131.5t72.5 -192t-12.5 -230h-771q2 -69 32 -125t84.5 -88t127.5 -32q75 0 143 38.5t116 104.5l205 -49q-79 -133 -212 -217.5t-283 -84.5q-86 0 -159.5 30t-128.5 83.5t-86 124.5q-47 -65 -120.5 -119t-161.5 -86t-182 -32zM273 158q89 0 165 42t127 108q46 52 75 120
h-332q-59 0 -101.5 -38.5t-50.5 -95.5q-7 -53 23.5 -94.5t93.5 -41.5zM887 586h568q0 72 -32 130.5t-88 93t-127 34.5q-72 0 -137 -34t-113 -92.5t-71 -131.5zM553 1312h676l-23 -158h-676z" />
    <glyph glyph-name="Gcaron" unicode="&#x1e6;" horiz-adv-x="1536" 
d="M667 -26q-146 0 -263.5 56.5t-197 157t-113.5 232.5t-13 281q22 157 96.5 289t185.5 229.5t243 151.5t269 54q155 0 287.5 -72t218.5 -216l-200 -101q-60 90 -148.5 136t-188.5 46q-97 0 -189.5 -39.5t-169.5 -110t-129 -165t-67 -205.5q-15 -107 9 -201t80.5 -164.5
t138.5 -110.5t182 -40q74 0 145.5 24t136 68.5t117.5 106.5t89 138h-297l26 184h542q-20 -150 -91.5 -282t-180.5 -232.5t-242 -157.5t-276 -57zM767 1510l-153 288h138l144 -197l195 197h139l-230 -288h-233z" />
    <glyph glyph-name="gcaron" unicode="&#x1e7;" horiz-adv-x="1209" 
d="M923 1000h208l-144 -1026q-14 -103 -70 -190t-139 -150.5t-183.5 -98.5t-204.5 -35q-105 0 -195.5 44.5t-153 120.5t-85.5 172l203 86q11 -62 49 -110t93.5 -76t118.5 -28q62 0 122 19.5t110.5 54.5t84.5 84t42 107l24 169q-60 -76 -143.5 -122.5t-185.5 -46.5
q-106 0 -194 41t-149 113.5t-87.5 167.5t-11.5 204t68.5 204.5t135 168t181 113.5t205.5 41q102 0 172.5 -46.5t108.5 -123.5zM504 175q86 0 157.5 44.5t119 118.5t58.5 162q13 90 -13.5 163.5t-85.5 118t-144 44.5t-160.5 -44t-126.5 -118t-64 -164q-12 -90 18.5 -164
t94 -117.5t146.5 -43.5zM546 1110l-153 288h138l144 -197l195 197h139l-230 -288h-233z" />
    <glyph glyph-name="uni01E8" unicode="&#x1e8;" horiz-adv-x="1136" 
d="M1002 0h-270l-336 577l-100 -103l-66 -474h-208l196 1400h208l-85 -603l589 603h272l-647 -661zM565 1510l-153 288h138l144 -197l195 197h139l-230 -288h-233z" />
    <glyph glyph-name="uni01E9" unicode="&#x1e9;" horiz-adv-x="1041" 
d="M878 0h-240l-187 424l-188 -192l-32 -232h-208l210 1500h208l-133 -945l435 445h272l-398 -407zM603 1510l-153 288h138l144 -197l195 197h139l-230 -288h-233z" />
    <glyph glyph-name="uni0218" unicode="&#x218;" horiz-adv-x="1239" 
d="M517 -26q-115 0 -216 36t-170 103.5t-91 160.5l206 73q10 -48 53 -85.5t107.5 -58.5t139.5 -21q80 0 154 26t124 72t59 108q9 64 -30.5 105t-106.5 65t-142 36q-143 24 -253 70t-166.5 129t-37.5 216q18 125 103 218t209.5 144.5t261.5 51.5q113 0 213.5 -35.5
t171.5 -103t92 -163.5l-206 -71q-10 49 -53.5 85.5t-108 57.5t-139.5 21q-79 1 -153 -25.5t-124 -72.5t-59 -107q-10 -75 25.5 -114t102.5 -57.5t150 -33.5q136 -22 246 -73t170 -135.5t42 -207.5q-17 -124 -101.5 -217.5t-209.5 -145t-263 -51.5zM369 -441l109 338h208
l-179 -338h-138z" />
    <glyph glyph-name="uni0219" unicode="&#x219;" horiz-adv-x="865" 
d="M319 -19q-79 5 -149.5 32t-121 73.5t-69.5 109.5l188 76q9 -27 38 -53t70.5 -42.5t89.5 -16.5q47 0 89.5 13.5t72.5 41.5t36 67q6 44 -20.5 68.5t-68.5 37.5t-84 25q-96 22 -171.5 60.5t-115.5 99t-28 148.5q14 96 76 166.5t152 108.5t186 38q120 0 213 -51t134 -140
l-180 -98q-11 30 -37.5 54t-62 38.5t-76.5 16.5q-51 2 -96.5 -11.5t-75 -42.5t-36.5 -74q-6 -44 21.5 -65.5t73.5 -34.5t93 -29q85 -28 157.5 -68.5t112.5 -99.5t26 -144q-14 -94 -80 -165t-161.5 -108t-195.5 -31zM166 -441l109 338h208l-179 -338h-138z" />
    <glyph glyph-name="uni021A" unicode="&#x21a;" horiz-adv-x="1259" 
d="M1277 1400l-29 -208h-446l-167 -1192h-208l167 1192h-445l29 208h1099zM303 -441l109 338h208l-179 -338h-138z" />
    <glyph glyph-name="uni021B" unicode="&#x21b;" horiz-adv-x="707" 
d="M661 792h-210l-112 -792h-208l112 792h-159l29 208h159l43 314h208l-43 -314h210zM7 -441l109 338h208l-179 -338h-138z" />
    <glyph glyph-name="uni022A" unicode="&#x22a;" horiz-adv-x="1540" 
d="M668 -26q-142 0 -259.5 56.5t-198 156.5t-116 231.5t-14.5 281.5t93 281.5t181.5 231.5t242.5 156.5t275 56.5q143 0 260 -56.5t197.5 -156.5t116 -231.5t14.5 -281.5t-93 -281.5t-181.5 -231.5t-242 -156.5t-275.5 -56.5zM697 182q100 0 193 41t169.5 112.5t127 165
t65.5 199.5t-9.5 200t-80.5 165.5t-137.5 112t-181.5 40.5t-193 -41t-169.5 -112.5t-127 -165t-65.5 -199.5q-15 -107 9.5 -200.5t80.5 -165t137.5 -112t181.5 -40.5zM695 1474q-46 0 -74.5 31t-21.5 78q7 46 43.5 78t83.5 32q46 0 74 -32t21 -78q-7 -47 -43.5 -78
t-82.5 -31zM1064 1474q-47 0 -75.5 31t-21.5 78q6 46 43 78t84 32q46 0 74 -32t21 -78q-7 -47 -43.5 -78t-81.5 -31zM610 1969h676l-23 -158h-676z" />
    <glyph glyph-name="uni022B" unicode="&#x22b;" horiz-adv-x="1120" 
d="M458 -26q-138 0 -241.5 71t-154 190.5t-30.5 264.5q15 110 67.5 205.5t131.5 168t175.5 113.5t199.5 41q138 0 241.5 -71t154.5 -191t30 -266q-15 -109 -67.5 -204t-131.5 -167.5t-175 -113.5t-200 -41zM487 182q83 0 155 44t121.5 116.5t60.5 157.5q12 87 -17 160
t-89 116.5t-141 43.5q-82 0 -154.5 -44t-121.5 -117t-61 -159q-12 -89 17.5 -161t89.5 -114.5t140 -42.5zM429 1074q-46 0 -74.5 31t-21.5 78q7 46 43.5 78t83.5 32q46 0 74 -32t21 -78q-7 -47 -43.5 -78t-82.5 -31zM798 1074q-47 0 -75.5 31t-21.5 78q6 46 43 78t84 32
q46 0 74 -32t21 -78q-7 -47 -43.5 -78t-81.5 -31zM344 1569h676l-23 -158h-676z" />
    <glyph glyph-name="uni0232" unicode="&#x232;" horiz-adv-x="1283" 
d="M1076 1400h245l-585 -768l-89 -632h-208l89 632l-370 768h245l261 -541zM445 1711h676l-23 -158h-676z" />
    <glyph glyph-name="uni0233" unicode="&#x233;" horiz-adv-x="1107" 
d="M847 1000h222l-759 -1500h-221l252 500l-219 1000h227l136 -715zM301 1311h676l-23 -158h-676z" />
    <glyph glyph-name="uni0237" unicode="&#x237;" horiz-adv-x="471" 
d="M-249 -500l30 208q63 0 117.5 28.5t91 78.5t45.5 111l150 1074h208l-150 -1074q-16 -117 -87.5 -214t-177 -154.5t-227.5 -57.5z" />
    <glyph glyph-name="quoteleft" unicode="&#x2bb;" horiz-adv-x="370" 
d="M85 878l205 522h138l-135 -522h-208z" />
    <glyph glyph-name="quoteleft" unicode="&#x2018;" horiz-adv-x="370" 
d="M85 878l205 522h138l-135 -522h-208z" />
    <glyph glyph-name="uni02BC" unicode="&#x2bc;" horiz-adv-x="487" 
d="M65 878l135 522h208l-205 -522h-138z" />
    <glyph glyph-name="circumflex" unicode="&#x2c6;" horiz-adv-x="646" 
d="M536 1398l153 -288h-139l-143 197l-196 -197h-138l230 288h233z" />
    <glyph glyph-name="caron" unicode="&#x2c7;" horiz-adv-x="608" 
d="M247 1110l-153 288h138l144 -197l195 197h139l-230 -288h-233z" />
    <glyph glyph-name="breve" unicode="&#x2d8;" horiz-adv-x="1144" 
d="M627 1088q-91 0 -160 45t-103.5 120.5t-22.5 166.5h134q-7 -55 14 -100t62.5 -71.5t94.5 -26.5q54 0 102.5 26.5t81.5 71.5t41 100h134q-13 -93 -68.5 -168.5t-137 -119.5t-172.5 -44z" />
    <glyph glyph-name="dotaccent" unicode="&#x2d9;" horiz-adv-x="1021" 
d="M574 1145q-47 0 -75 31t-21 78q7 46 43.5 77.5t82.5 31.5t74 -31.5t21 -77.5q-7 -47 -42.5 -78t-82.5 -31z" />
    <glyph glyph-name="ring" unicode="&#x2da;" horiz-adv-x="1152" 
d="M629 1078q-72 0 -116.5 52.5t-34.5 124.5q7 48 36 88t72.5 63.5t92.5 23.5q73 0 117 -51.5t34 -123.5q-10 -74 -69 -125.5t-132 -51.5zM644 1182q29 0 53 21.5t29 51.5q4 29 -14 49.5t-48 20.5t-53.5 -20.5t-27.5 -49.5q-5 -30 13 -51.5t48 -21.5z" />
    <glyph glyph-name="ogonek" unicode="&#x2db;" horiz-adv-x="1058" 
d="M356 -436q-65 1 -109 32.5t-63.5 81.5t-12.5 105q6 41 27 80t58 72l192 168l89 -103q-49 -43 -87 -75.5t-64 -57.5t-41 -47t-17 -45q-4 -25 10.5 -45.5t45.5 -22.5q38 0 71.5 28t40.5 70h136q-8 -65 -48.5 -120t-100 -88t-127.5 -33z" />
    <glyph glyph-name="tilde" unicode="&#x2dc;" horiz-adv-x="1232" 
d="M840 1121q-37 0 -82.5 25t-89.5 56.5t-79 51.5t-54 9t-29 -33.5t-6 -57.5l-130 -34q-15 70 7 130t72 96.5t119 36.5q37 0 80.5 -22t87 -50t78 -50t53.5 -22q21 0 31 15.5t12.5 36.5t-2.5 39l133 41q15 -75 -9 -135.5t-74.5 -96.5t-117.5 -36z" />
    <glyph glyph-name="hungarumlaut" unicode="&#x2dd;" horiz-adv-x="1002" 
d="M571 1110l120 288h208l-188 -288h-140zM258 1110l120 288h208l-188 -288h-140z" />
    <glyph glyph-name="gravecomb" unicode="&#x300;" horiz-adv-x="0" 
d="M372 1398h208l40 -288h-138z" />
    <glyph glyph-name="acutecomb" unicode="&#x301;" horiz-adv-x="0" 
d="M430 1110l120 288h208l-188 -288h-140z" />
    <glyph glyph-name="uni0302" unicode="&#x302;" horiz-adv-x="0" 
d="M536 1398l153 -288h-139l-143 197l-196 -197h-138l230 288h233z" />
    <glyph glyph-name="tildecomb" unicode="&#x303;" horiz-adv-x="0" 
d="M847 1114q-37 0 -82.5 25t-89.5 56.5t-79 51.5t-54 9t-29 -33.5t-6 -57.5l-130 -34q-15 70 7 130t72 96.5t119 36.5q37 0 80.5 -22t87 -50t78 -50t53.5 -22q21 0 31 15.5t12.5 36.5t-2.5 39l133 41q15 -75 -9 -135.5t-74.5 -96.5t-117.5 -36z" />
    <glyph glyph-name="uni0304" unicode="&#x304;" horiz-adv-x="0" 
d="M348 1311h676l-23 -158h-676z" />
    <glyph glyph-name="uni0306" unicode="&#x306;" horiz-adv-x="0" 
d="M627 1088q-91 0 -160 45t-103.5 120.5t-22.5 166.5h134q-7 -55 14 -100t62.5 -71.5t94.5 -26.5q54 0 102.5 26.5t81.5 71.5t41 100h134q-13 -93 -68.5 -168.5t-137 -119.5t-172.5 -44z" />
    <glyph glyph-name="uni0307" unicode="&#x307;" horiz-adv-x="0" 
d="M574 1145q-47 0 -75 31t-21 78q7 46 43.5 77.5t82.5 31.5t74 -31.5t21 -77.5q-7 -47 -42.5 -78t-82.5 -31z" />
    <glyph glyph-name="uni0308" unicode="&#x308;" horiz-adv-x="0" 
d="M564 1074q-46 0 -74.5 31t-21.5 78q7 46 43.5 78t83.5 32q46 0 74 -32t21 -78q-7 -47 -43.5 -78t-82.5 -31zM933 1074q-47 0 -75.5 31t-21.5 78q6 46 43 78t84 32q46 0 74 -32t21 -78q-7 -47 -43.5 -78t-81.5 -31z" />
    <glyph glyph-name="uni030A" unicode="&#x30a;" horiz-adv-x="0" 
d="M629 1078q-72 0 -116.5 52.5t-34.5 124.5q7 48 36 88t72.5 63.5t92.5 23.5q73 0 117 -51.5t34 -123.5q-10 -74 -69 -125.5t-132 -51.5zM644 1182q29 0 53 21.5t29 51.5q4 29 -14 49.5t-48 20.5t-53.5 -20.5t-27.5 -49.5q-5 -30 13 -51.5t48 -21.5z" />
    <glyph glyph-name="uni030B" unicode="&#x30b;" horiz-adv-x="0" 
d="M571 1110l120 288h208l-188 -288h-140zM258 1110l120 288h208l-188 -288h-140z" />
    <glyph glyph-name="uni030C" unicode="&#x30c;" horiz-adv-x="0" 
d="M247 1110l-153 288h138l144 -197l195 197h139l-230 -288h-233z" />
    <glyph glyph-name="dotbelowcomb" unicode="&#x323;" horiz-adv-x="0" 
d="M574 -424q-47 0 -75 31t-21 78q7 46 43.5 77.5t82.5 31.5t74 -31.5t21 -77.5q-7 -47 -42.5 -78t-82.5 -31z" />
    <glyph glyph-name="uni0326" unicode="&#x326;" horiz-adv-x="0" 
d="M240 -441l109 338h208l-179 -338h-138z" />
    <glyph glyph-name="uni0327" unicode="&#x327;" horiz-adv-x="0" 
d="M461 -373q-71 -18 -128 17.5t-66 103.5l116 30q3 -22 21.5 -33.5t41.5 -5.5q24 6 38.5 26t11.5 43t-21 33.5t-42 6.5l-118 -7l167 235l93 -58l-49 -68q35 -13 58.5 -42.5t28.5 -70.5q8 -68 -36 -130t-116 -80z" />
    <glyph glyph-name="uni0328" unicode="&#x328;" horiz-adv-x="0" 
d="M356 -436q-65 1 -109 32.5t-63.5 81.5t-12.5 105q6 41 27 80t58 72l192 168l89 -103q-49 -43 -87 -75.5t-64 -57.5t-41 -47t-17 -45q-4 -25 10.5 -45.5t45.5 -22.5q38 0 71.5 28t40.5 70h136q-8 -65 -48.5 -120t-100 -88t-127.5 -33z" />
    <glyph glyph-name="uni03BC" unicode="&#x3bc;" horiz-adv-x="1108" 
d="M-79 -432l201 1432h208l-73 -518q-11 -85 14 -154.5t80.5 -111t134.5 -41.5q78 0 142 41.5t106.5 111t54.5 154.5l73 518h208l-140 -1000h-208l19 136q-63 -75 -143 -119t-173 -44q-73 0 -130 29.5t-94 77.5l-72 -512h-208z" />
    <glyph glyph-name="uni1E04" unicode="&#x1e04;" horiz-adv-x="1154" 
d="M22 0l196 1400h497q108 0 189.5 -44t121.5 -126.5t24 -197.5q-8 -56 -33 -110t-64.5 -95t-88.5 -58q62 -16 98.5 -57.5t54 -96.5t19 -114t-5.5 -112q-15 -112 -81.5 -200t-164 -138.5t-206.5 -50.5h-556zM255 180h328q64 0 121 32t96 88.5t49 127.5q9 62 -14.5 117.5
t-71.5 89.5t-112 34h-328zM349 846h266q83 0 149 50t78 137q13 93 -39.5 139.5t-135.5 46.5h-266zM424 -424q-47 0 -75 31t-21 78q7 46 43.5 77.5t82.5 31.5t74 -31.5t21 -77.5q-7 -47 -42.5 -78t-82.5 -31z" />
    <glyph glyph-name="uni1E05" unicode="&#x1e05;" horiz-adv-x="1228" 
d="M687 1028q146 0 255.5 -71t164 -190.5t33.5 -265.5q-15 -109 -69.5 -204.5t-137 -168t-184 -113.5t-210.5 -41q-105 0 -177 48.5t-111 124.5l-20 -147h-208l210 1500h208l-90 -645q60 77 145.5 125t190.5 48zM565 176q88 0 166 44t131 118t65 163q13 91 -20 165
t-98.5 117.5t-151.5 43.5q-87 0 -159.5 -44t-119.5 -118t-60 -164q-12 -90 15 -164t86.5 -117.5t145.5 -43.5zM461 -424q-47 0 -75 31t-21 78q7 46 43.5 77.5t82.5 31.5t74 -31.5t21 -77.5q-7 -47 -42.5 -78t-82.5 -31z" />
    <glyph glyph-name="uni1E0C" unicode="&#x1e0c;" horiz-adv-x="1343" 
d="M22 0l196 1400h463q145 0 264.5 -54.5t202 -151t119 -223t16.5 -271.5t-92 -271.5t-182 -223t-244.5 -151t-279.5 -54.5h-463zM259 208h255q101 0 195.5 38t172 106t128.5 157t65 191q15 102 -11 191t-84.5 157t-142 106t-185.5 38h-255zM506 -424q-47 0 -75 31t-21 78
q7 46 43.5 77.5t82.5 31.5t74 -31.5t21 -77.5q-7 -47 -42.5 -78t-82.5 -31z" />
    <glyph glyph-name="uni1E0D" unicode="&#x1e0d;" horiz-adv-x="1227" 
d="M1011 1500h208l-210 -1500h-208l21 147q-61 -78 -146.5 -125.5t-191.5 -47.5q-109 0 -198.5 41t-151.5 113.5t-89.5 167.5t-12.5 204t69.5 204.5t137 168t183.5 113.5t210 41q106 0 178 -47.5t111 -124.5zM514 175q88 0 160 43.5t119.5 117.5t59.5 164q13 91 -13.5 165
t-86.5 117.5t-147 43.5t-165 -44t-130.5 -118t-65.5 -164q-12 -91 20 -164.5t98 -117t151 -43.5zM460 -424q-47 0 -75 31t-21 78q7 46 43.5 77.5t82.5 31.5t74 -31.5t21 -77.5q-7 -47 -42.5 -78t-82.5 -31z" />
    <glyph glyph-name="uni1E20" unicode="&#x1e20;" horiz-adv-x="1536" 
d="M667 -26q-146 0 -263.5 56.5t-197 157t-113.5 232.5t-13 281q22 157 96.5 289t185.5 229.5t243 151.5t269 54q155 0 287.5 -72t218.5 -216l-200 -101q-60 90 -148.5 136t-188.5 46q-97 0 -189.5 -39.5t-169.5 -110t-129 -165t-67 -205.5q-15 -107 9 -201t80.5 -164.5
t138.5 -110.5t182 -40q74 0 145.5 24t136 68.5t117.5 106.5t89 138h-297l26 184h542q-20 -150 -91.5 -282t-180.5 -232.5t-242 -157.5t-276 -57zM574 1711h676l-23 -158h-676z" />
    <glyph glyph-name="uni1E21" unicode="&#x1e21;" horiz-adv-x="1209" 
d="M923 1000h208l-144 -1026q-14 -103 -70 -190t-139 -150.5t-183.5 -98.5t-204.5 -35q-105 0 -195.5 44.5t-153 120.5t-85.5 172l203 86q11 -62 49 -110t93.5 -76t118.5 -28q62 0 122 19.5t110.5 54.5t84.5 84t42 107l24 169q-60 -76 -143.5 -122.5t-185.5 -46.5
q-106 0 -194 41t-149 113.5t-87.5 167.5t-11.5 204t68.5 204.5t135 168t181 113.5t205.5 41q102 0 172.5 -46.5t108.5 -123.5zM504 175q86 0 157.5 44.5t119 118.5t58.5 162q13 90 -13.5 163.5t-85.5 118t-144 44.5t-160.5 -44t-126.5 -118t-64 -164q-12 -90 18.5 -164
t94 -117.5t146.5 -43.5zM353 1311h676l-23 -158h-676z" />
    <glyph glyph-name="uni1E24" unicode="&#x1e24;" horiz-adv-x="1289" 
d="M1059 1400h208l-196 -1400h-208l91 646h-634l-90 -646h-208l196 1400h208l-76 -546h633zM491 -424q-47 0 -75 31t-21 78q7 46 43.5 77.5t82.5 31.5t74 -31.5t21 -77.5q-7 -47 -42.5 -78t-82.5 -31z" />
    <glyph glyph-name="uni1E25" unicode="&#x1e25;" horiz-adv-x="1101" 
d="M1011 627l-88 -627h-208l81 576q10 67 -15.5 122t-75.5 87.5t-117 32.5t-126.5 -32.5t-99.5 -87.5t-50 -122l-81 -576h-208l210 1500h208l-84 -606q60 62 141 98t169 36q111 0 194 -54t124.5 -145t25.5 -202zM443 -424q-47 0 -75 31t-21 78q7 46 43.5 77.5t82.5 31.5
t74 -31.5t21 -77.5q-7 -47 -42.5 -78t-82.5 -31z" />
    <glyph glyph-name="uni1E2E" unicode="&#x1e2e;" horiz-adv-x="508" 
d="M52 0l196 1400h208l-196 -1400h-208zM179 1474q-46 0 -74.5 31t-21.5 78q7 46 43.5 78t83.5 32q46 0 74 -32t21 -78q-7 -47 -43.5 -78t-82.5 -31zM548 1474q-47 0 -75.5 31t-21.5 78q6 46 43 78t84 32q46 0 74 -32t21 -78q-7 -47 -43.5 -78t-81.5 -31zM350 1768l120 288
h208l-188 -288h-140z" />
    <glyph glyph-name="uni1E2F" unicode="&#x1e2f;" 
d="M162 1000h208l-140 -1000h-208zM93 1074q-46 0 -74.5 31t-21.5 78q7 46 43.5 78t83.5 32q46 0 74 -32t21 -78q-7 -47 -43.5 -78t-82.5 -31zM462 1074q-47 0 -75.5 31t-21.5 78q6 46 43 78t84 32q46 0 74 -32t21 -78q-7 -47 -43.5 -78t-81.5 -31zM264 1368l120 288h208
l-188 -288h-140z" />
    <glyph glyph-name="uni1E36" unicode="&#x1e36;" horiz-adv-x="1031" 
d="M22 0l196 1400h208l-167 -1192h604l-30 -208h-811zM373 -424q-47 0 -75 31t-21 78q7 46 43.5 77.5t82.5 31.5t74 -31.5t21 -77.5q-7 -47 -42.5 -78t-82.5 -31z" />
    <glyph glyph-name="uni1E37" unicode="&#x1e37;" 
d="M23 0l210 1500h208l-210 -1500h-208zM72 -424q-47 0 -75 31t-21 78q7 46 43.5 77.5t82.5 31.5t74 -31.5t21 -77.5q-7 -47 -42.5 -78t-82.5 -31z" />
    <glyph glyph-name="uni1E3E" unicode="&#x1e3e;" horiz-adv-x="1835" 
d="M22 0l467 1400h168l226 -943l490 943h168l76 -1400h-212l-50 937l-459 -884h-139l-211 884l-312 -937h-212zM978 1510l120 288h208l-188 -288h-140z" />
    <glyph glyph-name="uni1E3F" unicode="&#x1e3f;" horiz-adv-x="1776" 
d="M22 0l140 1000h208l-15 -106q61 62 141.5 98t168.5 36q107 0 189.5 -51.5t123.5 -136.5q65 85 161 136.5t203 51.5q111 0 194.5 -54t125 -145t24.5 -202l-87 -627h-208l81 574q9 66 -15.5 121t-74 89t-115.5 34t-124.5 -32t-98 -87t-49.5 -125l-80 -574h-208l80 574
q10 70 -14.5 125t-74.5 87t-116 32q-65 0 -123.5 -34t-98.5 -89t-49 -121l-81 -574h-208zM963 1110l120 288h208l-188 -288h-140z" />
    <glyph glyph-name="uni1E40" unicode="&#x1e40;" horiz-adv-x="1835" 
d="M22 0l467 1400h168l226 -943l490 943h168l76 -1400h-212l-50 937l-459 -884h-139l-211 884l-312 -937h-212zM1038 1545q-47 0 -75 31t-21 78q7 46 43.5 77.5t82.5 31.5t74 -31.5t21 -77.5q-7 -47 -42.5 -78t-82.5 -31z" />
    <glyph glyph-name="uni1E41" unicode="&#x1e41;" horiz-adv-x="1776" 
d="M22 0l140 1000h208l-15 -106q61 62 141.5 98t168.5 36q107 0 189.5 -51.5t123.5 -136.5q65 85 161 136.5t203 51.5q111 0 194.5 -54t125 -145t24.5 -202l-87 -627h-208l81 574q9 66 -15.5 121t-74 89t-115.5 34t-124.5 -32t-98 -87t-49.5 -125l-80 -574h-208l80 574
q10 70 -14.5 125t-74.5 87t-116 32q-65 0 -123.5 -34t-98.5 -89t-49 -121l-81 -574h-208zM1022 1145q-47 0 -75 31t-21 78q7 46 43.5 77.5t82.5 31.5t74 -31.5t21 -77.5q-7 -47 -42.5 -78t-82.5 -31z" />
    <glyph glyph-name="uni1E42" unicode="&#x1e42;" horiz-adv-x="1835" 
d="M22 0l467 1400h168l226 -943l490 943h168l76 -1400h-212l-50 937l-459 -884h-139l-211 884l-312 -937h-212zM765 -424q-47 0 -75 31t-21 78q7 46 43.5 77.5t82.5 31.5t74 -31.5t21 -77.5q-7 -47 -42.5 -78t-82.5 -31z" />
    <glyph glyph-name="uni1E43" unicode="&#x1e43;" horiz-adv-x="1776" 
d="M22 0l140 1000h208l-15 -106q61 62 141.5 98t168.5 36q107 0 189.5 -51.5t123.5 -136.5q65 85 161 136.5t203 51.5q111 0 194.5 -54t125 -145t24.5 -202l-87 -627h-208l81 574q9 66 -15.5 121t-74 89t-115.5 34t-124.5 -32t-98 -87t-49.5 -125l-80 -574h-208l80 574
q10 70 -14.5 125t-74.5 87t-116 32q-65 0 -123.5 -34t-98.5 -89t-49 -121l-81 -574h-208zM756 -424q-47 0 -75 31t-21 78q7 46 43.5 77.5t82.5 31.5t74 -31.5t21 -77.5q-7 -47 -42.5 -78t-82.5 -31z" />
    <glyph glyph-name="uni1E44" unicode="&#x1e44;" horiz-adv-x="1316" 
d="M22 0l196 1400h225l499 -1024l144 1024h208l-196 -1400h-225l-499 1024l-144 -1024h-208zM777 1545q-47 0 -75 31t-21 78q7 46 43.5 77.5t82.5 31.5t74 -31.5t21 -77.5q-7 -47 -42.5 -78t-82.5 -31z" />
    <glyph glyph-name="uni1E45" unicode="&#x1e45;" horiz-adv-x="1100" 
d="M1010 627l-88 -627h-208l81 576q10 67 -15.5 122t-75.5 87.5t-117 32.5t-126.5 -32.5t-99.5 -87.5t-50 -122l-81 -576h-208l140 1000h208l-14 -106q60 62 141 98t169 36q111 0 194 -54t124.5 -145t25.5 -202zM647 1145q-47 0 -75 31t-21 78q7 46 43.5 77.5t82.5 31.5
t74 -31.5t21 -77.5q-7 -47 -42.5 -78t-82.5 -31z" />
    <glyph glyph-name="uni1E46" unicode="&#x1e46;" horiz-adv-x="1316" 
d="M22 0l196 1400h225l499 -1024l144 1024h208l-196 -1400h-225l-499 1024l-144 -1024h-208zM505 -424q-47 0 -75 31t-21 78q7 46 43.5 77.5t82.5 31.5t74 -31.5t21 -77.5q-7 -47 -42.5 -78t-82.5 -31z" />
    <glyph glyph-name="uni1E47" unicode="&#x1e47;" horiz-adv-x="1100" 
d="M1010 627l-88 -627h-208l81 576q10 67 -15.5 122t-75.5 87.5t-117 32.5t-126.5 -32.5t-99.5 -87.5t-50 -122l-81 -576h-208l140 1000h208l-14 -106q60 62 141 98t169 36q111 0 194 -54t124.5 -145t25.5 -202zM417 -424q-47 0 -75 31t-21 78q7 46 43.5 77.5t82.5 31.5
t74 -31.5t21 -77.5q-7 -47 -42.5 -78t-82.5 -31z" />
    <glyph glyph-name="uni1E62" unicode="&#x1e62;" horiz-adv-x="1239" 
d="M517 -26q-115 0 -216 36t-170 103.5t-91 160.5l206 73q10 -48 53 -85.5t107.5 -58.5t139.5 -21q80 0 154 26t124 72t59 108q9 64 -30.5 105t-106.5 65t-142 36q-143 24 -253 70t-166.5 129t-37.5 216q18 125 103 218t209.5 144.5t261.5 51.5q113 0 213.5 -35.5
t171.5 -103t92 -163.5l-206 -71q-10 49 -53.5 85.5t-108 57.5t-139.5 21q-79 1 -153 -25.5t-124 -72.5t-59 -107q-10 -75 25.5 -114t102.5 -57.5t150 -33.5q136 -22 246 -73t170 -135.5t42 -207.5q-17 -124 -101.5 -217.5t-209.5 -145t-263 -51.5zM542 -424q-47 0 -75 31
t-21 78q7 46 43.5 77.5t82.5 31.5t74 -31.5t21 -77.5q-7 -47 -42.5 -78t-82.5 -31z" />
    <glyph glyph-name="uni1E63" unicode="&#x1e63;" horiz-adv-x="865" 
d="M319 -19q-79 5 -149.5 32t-121 73.5t-69.5 109.5l188 76q9 -27 38 -53t70.5 -42.5t89.5 -16.5q47 0 89.5 13.5t72.5 41.5t36 67q6 44 -20.5 68.5t-68.5 37.5t-84 25q-96 22 -171.5 60.5t-115.5 99t-28 148.5q14 96 76 166.5t152 108.5t186 38q120 0 213 -51t134 -140
l-180 -98q-11 30 -37.5 54t-62 38.5t-76.5 16.5q-51 2 -96.5 -11.5t-75 -42.5t-36.5 -74q-6 -44 21.5 -65.5t73.5 -34.5t93 -29q85 -28 157.5 -68.5t112.5 -99.5t26 -144q-14 -94 -80 -165t-161.5 -108t-195.5 -31zM339 -424q-47 0 -75 31t-21 78q7 46 43.5 77.5t82.5 31.5
t74 -31.5t21 -77.5q-7 -47 -42.5 -78t-82.5 -31z" />
    <glyph glyph-name="uni1E6C" unicode="&#x1e6c;" horiz-adv-x="1259" 
d="M1277 1400l-29 -208h-446l-167 -1192h-208l167 1192h-445l29 208h1099zM476 -424q-47 0 -75 31t-21 78q7 46 43.5 77.5t82.5 31.5t74 -31.5t21 -77.5q-7 -47 -42.5 -78t-82.5 -31z" />
    <glyph glyph-name="uni1E6D" unicode="&#x1e6d;" horiz-adv-x="707" 
d="M661 792h-210l-112 -792h-208l112 792h-159l29 208h159l43 314h208l-43 -314h210zM180 -424q-47 0 -75 31t-21 78q7 46 43.5 77.5t82.5 31.5t74 -31.5t21 -77.5q-7 -47 -42.5 -78t-82.5 -31z" />
    <glyph glyph-name="Wgrave" unicode="&#x1e80;" horiz-adv-x="1804" 
d="M330 0l-162 1400h214l118 -1027l405 1027h189l118 -1027l406 1027h214l-552 -1400h-239l-107 927l-367 -927h-237zM818 1798h208l40 -288h-138z" />
    <glyph glyph-name="wgrave" unicode="&#x1e81;" horiz-adv-x="1677" 
d="M504 0h-207l-195 1000h204l137 -702l333 702h210l135 -702l334 702h204l-474 -1000h-209l-137 707zM699 1398h208l40 -288h-138z" />
    <glyph glyph-name="Wacute" unicode="&#x1e82;" horiz-adv-x="1804" 
d="M330 0l-162 1400h214l118 -1027l405 1027h189l118 -1027l406 1027h214l-552 -1400h-239l-107 927l-367 -927h-237zM962 1510l120 288h208l-188 -288h-140z" />
    <glyph glyph-name="wacute" unicode="&#x1e83;" horiz-adv-x="1677" 
d="M504 0h-207l-195 1000h204l137 -702l333 702h210l135 -702l334 702h204l-474 -1000h-209l-137 707zM843 1110l120 288h208l-188 -288h-140z" />
    <glyph glyph-name="Wdieresis" unicode="&#x1e84;" horiz-adv-x="1804" 
d="M330 0l-162 1400h214l118 -1027l405 1027h189l118 -1027l406 1027h214l-552 -1400h-239l-107 927l-367 -927h-237zM827 1474q-46 0 -74.5 31t-21.5 78q7 46 43.5 78t83.5 32q46 0 74 -32t21 -78q-7 -47 -43.5 -78t-82.5 -31zM1196 1474q-47 0 -75.5 31t-21.5 78
q6 46 43 78t84 32q46 0 74 -32t21 -78q-7 -47 -43.5 -78t-81.5 -31z" />
    <glyph glyph-name="wdieresis" unicode="&#x1e85;" horiz-adv-x="1677" 
d="M504 0h-207l-195 1000h204l137 -702l333 702h210l135 -702l334 702h204l-474 -1000h-209l-137 707zM708 1074q-46 0 -74.5 31t-21.5 78q7 46 43.5 78t83.5 32q46 0 74 -32t21 -78q-7 -47 -43.5 -78t-82.5 -31zM1077 1074q-47 0 -75.5 31t-21.5 78q6 46 43 78t84 32
q46 0 74 -32t21 -78q-7 -47 -43.5 -78t-81.5 -31z" />
    <glyph glyph-name="uni1E92" unicode="&#x1e92;" horiz-adv-x="1292" 
d="M-18 0l29 208l990 984h-852l29 208h1132l-29 -208l-990 -984h852l-29 -208h-1132zM493 -424q-47 0 -75 31t-21 78q7 46 43.5 77.5t82.5 31.5t74 -31.5t21 -77.5q-7 -47 -42.5 -78t-82.5 -31z" />
    <glyph glyph-name="uni1E93" unicode="&#x1e93;" horiz-adv-x="1014" 
d="M947 792l-638 -584h556l-29 -208h-854l29 208l638 584h-556l29 208h854zM354 -424q-47 0 -75 31t-21 78q7 46 43.5 77.5t82.5 31.5t74 -31.5t21 -77.5q-7 -47 -42.5 -78t-82.5 -31z" />
    <glyph glyph-name="uni1E97" unicode="&#x1e97;" horiz-adv-x="707" 
d="M661 792h-210l-112 -792h-208l112 792h-159l29 208h159l43 314h208l-43 -314h210zM246 1388q-46 0 -74.5 31t-21.5 78q7 46 43.5 78t83.5 32q46 0 74 -32t21 -78q-7 -47 -43.5 -78t-82.5 -31zM615 1388q-47 0 -75.5 31t-21.5 78q6 46 43 78t84 32q46 0 74 -32t21 -78
q-7 -47 -43.5 -78t-81.5 -31z" />
    <glyph glyph-name="uni1E9E" unicode="&#x1e9e;" horiz-adv-x="1179" 
d="M22 0l128 917q14 100 64 187.5t125.5 153.5t168.5 103.5t192 37.5q101 0 183.5 -38t128 -105.5t33.5 -155.5q-6 -45 -40 -90.5t-97 -110.5t-160 -170q72 11 135 -12t110.5 -71t70 -112t12.5 -135q-13 -97 -64 -171.5t-124.5 -125t-158.5 -76.5t-167 -26h-61l-21 180h87
q64 0 134.5 21.5t123.5 70.5t65 129q11 80 -28.5 128t-104 69.5t-128.5 21.5h-76l10 80q4 36 32 81t66.5 93t77 93t65.5 81t29 56q7 48 -19 72.5t-73 33t-102 8.5q-63 0 -122 -33.5t-100 -90.5t-52 -127l-135 -967h-208z" />
    <glyph glyph-name="uni1EA0" unicode="&#x1ea0;" horiz-adv-x="1421" 
d="M687 1400h243l313 -1400h-220l-60 266h-626l-134 -266h-221zM442 474h474l-146 650zM557 -424q-47 0 -75 31t-21 78q7 46 43.5 77.5t82.5 31.5t74 -31.5t21 -77.5q-7 -47 -42.5 -78t-82.5 -31z" />
    <glyph glyph-name="uni1EA1" unicode="&#x1ea1;" horiz-adv-x="1185" 
d="M940 1000h208l-140 -1000h-209l12 145q-55 -77 -136.5 -124t-183.5 -47q-110 0 -201 41.5t-154 115.5t-91 170.5t-12 207.5q15 107 68.5 201.5t134 165.5t180 111.5t206.5 40.5q109 0 185.5 -49.5t120.5 -126.5zM514 175q88 0 160 43.5t119.5 117.5t59.5 164
q13 91 -13.5 165t-86.5 117.5t-147 43.5t-165 -44t-130.5 -118t-65.5 -164q-12 -91 20 -164.5t98 -117t151 -43.5zM454 -424q-47 0 -75 31t-21 78q7 46 43.5 77.5t82.5 31.5t74 -31.5t21 -77.5q-7 -47 -42.5 -78t-82.5 -31z" />
    <glyph glyph-name="uni1EAC" unicode="&#x1eac;" horiz-adv-x="1421" 
d="M687 1400h243l313 -1400h-220l-60 266h-626l-134 -266h-221zM442 474h474l-146 650zM557 -424q-47 0 -75 31t-21 78q7 46 43.5 77.5t82.5 31.5t74 -31.5t21 -77.5q-7 -47 -42.5 -78t-82.5 -31zM981 1798l153 -288h-139l-143 197l-196 -197h-138l230 288h233z" />
    <glyph glyph-name="uni1EAD" unicode="&#x1ead;" horiz-adv-x="1185" 
d="M940 1000h208l-140 -1000h-209l12 145q-55 -77 -136.5 -124t-183.5 -47q-110 0 -201 41.5t-154 115.5t-91 170.5t-12 207.5q15 107 68.5 201.5t134 165.5t180 111.5t206.5 40.5q109 0 185.5 -49.5t120.5 -126.5zM514 175q88 0 160 43.5t119.5 117.5t59.5 164
q13 91 -13.5 165t-86.5 117.5t-147 43.5t-165 -44t-130.5 -118t-65.5 -164q-12 -91 20 -164.5t98 -117t151 -43.5zM454 -424q-47 0 -75 31t-21 78q7 46 43.5 77.5t82.5 31.5t74 -31.5t21 -77.5q-7 -47 -42.5 -78t-82.5 -31zM822 1398l153 -288h-139l-143 197l-196 -197h-138
l230 288h233z" />
    <glyph glyph-name="uni1EB6" unicode="&#x1eb6;" horiz-adv-x="1421" 
d="M687 1400h243l313 -1400h-220l-60 266h-626l-134 -266h-221zM442 474h474l-146 650zM557 -424q-47 0 -75 31t-21 78q7 46 43.5 77.5t82.5 31.5t74 -31.5t21 -77.5q-7 -47 -42.5 -78t-82.5 -31zM821 1488q-91 0 -160 45t-103.5 120.5t-22.5 166.5h134q-7 -55 14 -100
t62.5 -71.5t94.5 -26.5q54 0 102.5 26.5t81.5 71.5t41 100h134q-13 -93 -68.5 -168.5t-137 -119.5t-172.5 -44z" />
    <glyph glyph-name="uni1EB7" unicode="&#x1eb7;" horiz-adv-x="1185" 
d="M940 1000h208l-140 -1000h-209l12 145q-55 -77 -136.5 -124t-183.5 -47q-110 0 -201 41.5t-154 115.5t-91 170.5t-12 207.5q15 107 68.5 201.5t134 165.5t180 111.5t206.5 40.5q109 0 185.5 -49.5t120.5 -126.5zM514 175q88 0 160 43.5t119.5 117.5t59.5 164
q13 91 -13.5 165t-86.5 117.5t-147 43.5t-165 -44t-130.5 -118t-65.5 -164q-12 -91 20 -164.5t98 -117t151 -43.5zM454 -424q-47 0 -75 31t-21 78q7 46 43.5 77.5t82.5 31.5t74 -31.5t21 -77.5q-7 -47 -42.5 -78t-82.5 -31zM662 1088q-91 0 -160 45t-103.5 120.5
t-22.5 166.5h134q-7 -55 14 -100t62.5 -71.5t94.5 -26.5q54 0 102.5 26.5t81.5 71.5t41 100h134q-13 -93 -68.5 -168.5t-137 -119.5t-172.5 -44z" />
    <glyph glyph-name="uni1EB8" unicode="&#x1eb8;" horiz-adv-x="1089" 
d="M22 0l196 1400h869l-29 -208h-661l-47 -338h532l-29 -208h-533l-61 -438h661l-29 -208h-869zM392 -424q-47 0 -75 31t-21 78q7 46 43.5 77.5t82.5 31.5t74 -31.5t21 -77.5q-7 -47 -42.5 -78t-82.5 -31z" />
    <glyph glyph-name="uni1EB9" unicode="&#x1eb9;" horiz-adv-x="1118" 
d="M458 -26q-138 0 -241.5 71t-154 190.5t-30.5 264.5q15 110 67.5 205.5t131.5 168t175.5 113.5t199.5 41q115 0 204.5 -47.5t145.5 -131t73 -192t-14 -230.5h-770q2 -69 32.5 -124.5t83.5 -87.5t126 -33q76 0 144 38t117 105l204 -49q-79 -133 -211.5 -217.5t-282.5 -84.5
zM260 586h568q0 72 -32 130.5t-87.5 93t-127.5 34.5t-136.5 -34t-113 -92.5t-71.5 -131.5zM406 -424q-47 0 -75 31t-21 78q7 46 43.5 77.5t82.5 31.5t74 -31.5t21 -77.5q-7 -47 -42.5 -78t-82.5 -31z" />
    <glyph glyph-name="uni1EBC" unicode="&#x1ebc;" horiz-adv-x="1089" 
d="M22 0l196 1400h869l-29 -208h-661l-47 -338h532l-29 -208h-533l-61 -438h661l-29 -208h-869zM814 1514q-37 0 -82.5 25t-89.5 56.5t-79 51.5t-54 9t-29 -33.5t-6 -57.5l-130 -34q-15 70 7 130t72 96.5t119 36.5q37 0 80.5 -22t87 -50t78 -50t53.5 -22q21 0 31 15.5
t12.5 36.5t-2.5 39l133 41q15 -75 -9 -135.5t-74.5 -96.5t-117.5 -36z" />
    <glyph glyph-name="uni1EBD" unicode="&#x1ebd;" horiz-adv-x="1118" 
d="M458 -26q-138 0 -241.5 71t-154 190.5t-30.5 264.5q15 110 67.5 205.5t131.5 168t175.5 113.5t199.5 41q115 0 204.5 -47.5t145.5 -131t73 -192t-14 -230.5h-770q2 -69 32.5 -124.5t83.5 -87.5t126 -33q76 0 144 38t117 105l204 -49q-79 -133 -211.5 -217.5t-282.5 -84.5
zM260 586h568q0 72 -32 130.5t-87.5 93t-127.5 34.5t-136.5 -34t-113 -92.5t-71.5 -131.5zM773 1114q-37 0 -82.5 25t-89.5 56.5t-79 51.5t-54 9t-29 -33.5t-6 -57.5l-130 -34q-15 70 7 130t72 96.5t119 36.5q37 0 80.5 -22t87 -50t78 -50t53.5 -22q21 0 31 15.5t12.5 36.5
t-2.5 39l133 41q15 -75 -9 -135.5t-74.5 -96.5t-117.5 -36z" />
    <glyph glyph-name="uni1EC6" unicode="&#x1ec6;" horiz-adv-x="1089" 
d="M22 0l196 1400h869l-29 -208h-661l-47 -338h532l-29 -208h-533l-61 -438h661l-29 -208h-869zM392 -424q-47 0 -75 31t-21 78q7 46 43.5 77.5t82.5 31.5t74 -31.5t21 -77.5q-7 -47 -42.5 -78t-82.5 -31zM815 1798l153 -288h-139l-143 197l-196 -197h-138l230 288h233z" />
    <glyph glyph-name="uni1EC7" unicode="&#x1ec7;" horiz-adv-x="1118" 
d="M458 -26q-138 0 -241.5 71t-154 190.5t-30.5 264.5q15 110 67.5 205.5t131.5 168t175.5 113.5t199.5 41q115 0 204.5 -47.5t145.5 -131t73 -192t-14 -230.5h-770q2 -69 32.5 -124.5t83.5 -87.5t126 -33q76 0 144 38t117 105l204 -49q-79 -133 -211.5 -217.5t-282.5 -84.5
zM260 586h568q0 72 -32 130.5t-87.5 93t-127.5 34.5t-136.5 -34t-113 -92.5t-71.5 -131.5zM406 -424q-47 0 -75 31t-21 78q7 46 43.5 77.5t82.5 31.5t74 -31.5t21 -77.5q-7 -47 -42.5 -78t-82.5 -31zM774 1398l153 -288h-139l-143 197l-196 -197h-138l230 288h233z" />
    <glyph glyph-name="uni1ECA" unicode="&#x1eca;" horiz-adv-x="508" 
d="M52 0l196 1400h208l-196 -1400h-208zM101 -424q-47 0 -75 31t-21 78q7 46 43.5 77.5t82.5 31.5t74 -31.5t21 -77.5q-7 -47 -42.5 -78t-82.5 -31z" />
    <glyph glyph-name="uni1ECB" unicode="&#x1ecb;" 
d="M162 1000h208l-140 -1000h-208zM288 1145q-47 0 -75 31t-21 78q7 46 43.5 77.5t82.5 31.5t74 -31.5t21 -77.5q-7 -47 -42.5 -78t-82.5 -31zM71 -424q-47 0 -75 31t-21 78q7 46 43.5 77.5t82.5 31.5t74 -31.5t21 -77.5q-7 -47 -42.5 -78t-82.5 -31z" />
    <glyph glyph-name="uni1ECC" unicode="&#x1ecc;" horiz-adv-x="1540" 
d="M668 -26q-142 0 -259.5 56.5t-198 156.5t-116 231.5t-14.5 281.5t93 281.5t181.5 231.5t242.5 156.5t275 56.5q143 0 260 -56.5t197.5 -156.5t116 -231.5t14.5 -281.5t-93 -281.5t-181.5 -231.5t-242 -156.5t-275.5 -56.5zM697 182q100 0 193 41t169.5 112.5t127 165
t65.5 199.5t-9.5 200t-80.5 165.5t-137.5 112t-181.5 40.5t-193 -41t-169.5 -112.5t-127 -165t-65.5 -199.5q-15 -107 9.5 -200.5t80.5 -165t137.5 -112t181.5 -40.5zM617 -424q-47 0 -75 31t-21 78q7 46 43.5 77.5t82.5 31.5t74 -31.5t21 -77.5q-7 -47 -42.5 -78t-82.5 -31
z" />
    <glyph glyph-name="uni1ECD" unicode="&#x1ecd;" horiz-adv-x="1120" 
d="M458 -26q-138 0 -241.5 71t-154 190.5t-30.5 264.5q15 110 67.5 205.5t131.5 168t175.5 113.5t199.5 41q138 0 241.5 -71t154.5 -191t30 -266q-15 -109 -67.5 -204t-131.5 -167.5t-175 -113.5t-200 -41zM487 182q83 0 155 44t121.5 116.5t60.5 157.5q12 87 -17 160
t-89 116.5t-141 43.5q-82 0 -154.5 -44t-121.5 -117t-61 -159q-12 -89 17.5 -161t89.5 -114.5t140 -42.5zM407 -424q-47 0 -75 31t-21 78q7 46 43.5 77.5t82.5 31.5t74 -31.5t21 -77.5q-7 -47 -42.5 -78t-82.5 -31z" />
    <glyph glyph-name="uni1ED8" unicode="&#x1ed8;" horiz-adv-x="1540" 
d="M668 -26q-142 0 -259.5 56.5t-198 156.5t-116 231.5t-14.5 281.5t93 281.5t181.5 231.5t242.5 156.5t275 56.5q143 0 260 -56.5t197.5 -156.5t116 -231.5t14.5 -281.5t-93 -281.5t-181.5 -231.5t-242 -156.5t-275.5 -56.5zM697 182q100 0 193 41t169.5 112.5t127 165
t65.5 199.5t-9.5 200t-80.5 165.5t-137.5 112t-181.5 40.5t-193 -41t-169.5 -112.5t-127 -165t-65.5 -199.5q-15 -107 9.5 -200.5t80.5 -165t137.5 -112t181.5 -40.5zM617 -424q-47 0 -75 31t-21 78q7 46 43.5 77.5t82.5 31.5t74 -31.5t21 -77.5q-7 -47 -42.5 -78t-82.5 -31
zM1040 1798l153 -288h-139l-143 197l-196 -197h-138l230 288h233z" />
    <glyph glyph-name="uni1ED9" unicode="&#x1ed9;" horiz-adv-x="1120" 
d="M458 -26q-138 0 -241.5 71t-154 190.5t-30.5 264.5q15 110 67.5 205.5t131.5 168t175.5 113.5t199.5 41q138 0 241.5 -71t154.5 -191t30 -266q-15 -109 -67.5 -204t-131.5 -167.5t-175 -113.5t-200 -41zM487 182q83 0 155 44t121.5 116.5t60.5 157.5q12 87 -17 160
t-89 116.5t-141 43.5q-82 0 -154.5 -44t-121.5 -117t-61 -159q-12 -89 17.5 -161t89.5 -114.5t140 -42.5zM407 -424q-47 0 -75 31t-21 78q7 46 43.5 77.5t82.5 31.5t74 -31.5t21 -77.5q-7 -47 -42.5 -78t-82.5 -31zM774 1398l153 -288h-139l-143 197l-196 -197h-138l230 288
h233z" />
    <glyph glyph-name="uni1EE4" unicode="&#x1ee4;" horiz-adv-x="1348" 
d="M572 -26q-168 0 -280.5 82t-162 220.5t-25.5 307.5l114 816h208l-114 -816q-15 -110 12 -201.5t97 -146t181 -54.5q112 0 197 54.5t137.5 146t67.5 201.5l114 816h208l-114 -816q-18 -127 -72.5 -237.5t-139 -194.5t-193.5 -131t-235 -47zM521 -424q-47 0 -75 31t-21 78
q7 46 43.5 77.5t82.5 31.5t74 -31.5t21 -77.5q-7 -47 -42.5 -78t-82.5 -31z" />
    <glyph glyph-name="uni1EE5" unicode="&#x1ee5;" horiz-adv-x="1060" 
d="M35 375l87 625h208l-81 -574q-9 -67 16 -122t75.5 -87.5t116.5 -32.5q67 0 127 32.5t100 87.5t49 122l80 574h208l-139 -1000h-208l14 108q-60 -62 -141 -98t-168 -36q-111 0 -194.5 54t-124.5 145t-25 202zM401 -423q-47 0 -75 31t-21 78q7 46 43.5 77.5t82.5 31.5
t74 -31.5t21 -77.5q-7 -47 -42.5 -78t-82.5 -31z" />
    <glyph glyph-name="Ygrave" unicode="&#x1ef2;" horiz-adv-x="1283" 
d="M1076 1400h245l-585 -768l-89 -632h-208l89 632l-370 768h245l261 -541zM558 1798h208l40 -288h-138z" />
    <glyph glyph-name="ygrave" unicode="&#x1ef3;" horiz-adv-x="1107" 
d="M847 1000h222l-759 -1500h-221l252 500l-219 1000h227l136 -715zM413 1398h208l40 -288h-138z" />
    <glyph glyph-name="uni1EF4" unicode="&#x1ef4;" horiz-adv-x="1283" 
d="M1076 1400h245l-585 -768l-89 -632h-208l89 632l-370 768h245l261 -541zM488 -424q-47 0 -75 31t-21 78q7 46 43.5 77.5t82.5 31.5t74 -31.5t21 -77.5q-7 -47 -42.5 -78t-82.5 -31z" />
    <glyph glyph-name="uni1EF5" unicode="&#x1ef5;" horiz-adv-x="1107" 
d="M847 1000h222l-759 -1500h-221l252 500l-219 1000h227l136 -715zM622 -424q-47 0 -75 31t-21 78q7 46 43.5 77.5t82.5 31.5t74 -31.5t21 -77.5q-7 -47 -42.5 -78t-82.5 -31z" />
    <glyph glyph-name="uni1EF8" unicode="&#x1ef8;" horiz-adv-x="1283" 
d="M1076 1400h245l-585 -768l-89 -632h-208l89 632l-370 768h245l261 -541zM910 1514q-37 0 -82.5 25t-89.5 56.5t-79 51.5t-54 9t-29 -33.5t-6 -57.5l-130 -34q-15 70 7 130t72 96.5t119 36.5q37 0 80.5 -22t87 -50t78 -50t53.5 -22q21 0 31 15.5t12.5 36.5t-2.5 39l133 41
q15 -75 -9 -135.5t-74.5 -96.5t-117.5 -36z" />
    <glyph glyph-name="uni1EF9" unicode="&#x1ef9;" horiz-adv-x="1107" 
d="M847 1000h222l-759 -1500h-221l252 500l-219 1000h227l136 -715zM766 1114q-37 0 -82.5 25t-89.5 56.5t-79 51.5t-54 9t-29 -33.5t-6 -57.5l-130 -34q-15 70 7 130t72 96.5t119 36.5q37 0 80.5 -22t87 -50t78 -50t53.5 -22q21 0 31 15.5t12.5 36.5t-2.5 39l133 41
q15 -75 -9 -135.5t-74.5 -96.5t-117.5 -36z" />
    <glyph glyph-name="uni2002" unicode="&#x2002;" horiz-adv-x="1000" 
 />
    <glyph glyph-name="uni2009" unicode="&#x2009;" horiz-adv-x="400" 
 />
    <glyph glyph-name="uni200B" unicode="&#x200b;" horiz-adv-x="0" 
 />
    <glyph glyph-name="endash" unicode="&#x2013;" horiz-adv-x="1240" 
d="M121 704h1000l-30 -208h-1000z" />
    <glyph glyph-name="emdash" unicode="&#x2014;" horiz-adv-x="2040" 
d="M121 704h1800l-30 -208h-1800z" />
    <glyph glyph-name="quoteright" unicode="&#x2019;" horiz-adv-x="370" 
d="M65 878l135 522h208l-205 -522h-138z" />
    <glyph glyph-name="quoteright" unicode="&#x2032;" horiz-adv-x="370" 
d="M65 878l135 522h208l-205 -522h-138z" />
    <glyph glyph-name="quotesinglbase" unicode="&#x201a;" horiz-adv-x="414" 
d="M-50 -112l109 338h208l-179 -338h-138z" />
    <glyph glyph-name="quotedblleft" unicode="&#x201c;" horiz-adv-x="750" 
d="M145 878l205 522h138l-135 -522h-208zM465 882l205 522h138l-135 -522h-208z" />
    <glyph glyph-name="quotedblright" unicode="&#x201d;" horiz-adv-x="750" 
d="M65 878l135 522h208l-205 -522h-138zM385 878l135 522h208l-205 -522h-138z" />
    <glyph glyph-name="quotedblright" unicode="&#x2033;" horiz-adv-x="750" 
d="M65 878l135 522h208l-205 -522h-138zM385 878l135 522h208l-205 -522h-138z" />
    <glyph glyph-name="quotedblbase" unicode="&#x201e;" horiz-adv-x="751" 
d="M-50 -112l109 338h208l-179 -338h-138zM287 -112l109 338h208l-179 -338h-138z" />
    <glyph glyph-name="dagger" unicode="&#x2020;" horiz-adv-x="834" 
d="M129 1053l30 208h233l34 239h208l-34 -239h233l-28 -208h-234l-67 -477h-208l67 477h-234z" />
    <glyph glyph-name="daggerdbl" unicode="&#x2021;" horiz-adv-x="834" 
d="M86 748l30 206h233l23 162h-234l29 208h234l25 176h208l-25 -176h233l-29 -208h-233l-23 -162h233l-29 -206h-233l-26 -188h-208l26 188h-234z" />
    <glyph glyph-name="bullet" unicode="&#x2022;" horiz-adv-x="452" 
d="M191 453q-61 0 -97.5 42.5t-27.5 105.5q8 60 56.5 103t109.5 43q62 0 98.5 -43t27.5 -103q-8 -63 -56.5 -105.5t-110.5 -42.5z" />
    <glyph glyph-name="ellipsis" unicode="&#x2026;" horiz-adv-x="1177" 
d="M87 -26q-46 0 -73 32t-21 78q7 45 43 77t82 32t73.5 -32t21.5 -77q-6 -46 -43 -78t-83 -32zM465 -26q-46 0 -73 32t-21 78q7 45 43 77t82 32t73.5 -32t21.5 -77q-6 -46 -43 -78t-83 -32zM845 -26q-46 0 -73 32t-21 78q7 45 43 77t82 32t73.5 -32t21.5 -77q-6 -46 -43 -78
t-83 -32z" />
    <glyph glyph-name="perthousand" unicode="&#x2030;" horiz-adv-x="2031" 
d="M92 0l1004 1400h240l-1004 -1400h-240zM375 813q-76 0 -134.5 37.5t-87.5 101t-18 140.5q12 80 59 143t116 99.5t144 36.5q77 0 134.5 -37.5t86.5 -101t18 -140.5q-11 -79 -58.5 -142t-116 -100t-143.5 -37zM396 960q56 0 99.5 38.5t50.5 93.5q8 56 -24.5 94.5
t-88.5 38.5q-55 0 -99 -38.5t-52 -94.5q-7 -55 26 -93.5t88 -38.5zM953 27q-77 0 -135 39.5t-86.5 103t-18.5 137.5q11 78 58.5 141.5t116.5 101t143 37.5q80 0 138 -39t85.5 -103t17.5 -138q-11 -77 -57.5 -140.5t-115.5 -101.5t-146 -38zM974 174q54 0 99 39t52 94
q8 55 -26 94t-88 39q-55 0 -99.5 -39t-52.5 -94q-7 -55 26.5 -94t88.5 -39zM1577 27q-78 0 -135.5 39.5t-86 103t-18.5 137.5q12 78 59.5 141.5t116 101t143.5 37.5q79 0 137 -39t85.5 -103t17.5 -138q-11 -77 -57.5 -140.5t-115.5 -101.5t-146 -38zM1597 174q56 0 101 39
t52 94q8 55 -26 94t-90 39q-54 0 -98 -39t-52 -94q-7 -55 26 -94t87 -39z" />
    <glyph glyph-name="uni2035" unicode="&#x2035;" horiz-adv-x="510" 
d="M277 878l-59 522h208l-11 -522h-138z" />
    <glyph glyph-name="guilsinglleft" unicode="&#x2039;" horiz-adv-x="735" 
d="M358 261l-252 340l348 338h215l-346 -338l250 -340h-215z" />
    <glyph glyph-name="guilsinglright" unicode="&#x203a;" horiz-adv-x="735" 
d="M38 261l347 340l-251 338h215l252 -338l-348 -340h-215z" />
    <glyph glyph-name="fraction" unicode="&#x2044;" horiz-adv-x="450" 
d="M-365 0l1004 1400h176l-1004 -1400h-176z" />
    <glyph glyph-name="fraction" unicode="&#x2215;" horiz-adv-x="450" 
d="M-365 0l1004 1400h176l-1004 -1400h-176z" />
    <glyph glyph-name="uni2070" unicode="&#x2070;" horiz-adv-x="648" 
d="M338 798q-69 0 -120.5 43.5t-74.5 119.5t-10 172q14 96 58.5 171.5t108 119.5t132.5 44q70 0 121 -44t74.5 -119.5t9.5 -171.5q-13 -96 -58 -172t-108 -119.5t-133 -43.5zM355 922q39 0 71 34.5t53 83.5t27 93q7 50 -1.5 98.5t-31 80.5t-58.5 32q-40 0 -71.5 -33.5
t-52 -82t-27.5 -95.5q-7 -50 1 -98.5t31 -80.5t59 -32z" />
    <glyph glyph-name="uni2074" unicode="&#x2074;" horiz-adv-x="687" 
d="M366 818l15 106h-253l22 158l284 367h152l-56 -394h63l-18 -131h-63l-14 -106h-132zM276 1055h134l30 212z" />
    <glyph glyph-name="uni2075" unicode="&#x2075;" horiz-adv-x="692" 
d="M330 798q-96 0 -155.5 62t-45.5 158h131q-6 -41 19.5 -68.5t67.5 -27.5t75.5 27.5t39.5 68.5t-20 69t-68 30q-23 1 -55.5 -0.5t-69.5 -5.5t-74 -12l82 350h343l-16 -116h-224l-17 -88q127 8 196.5 -54t53.5 -173q-13 -96 -90 -158t-173 -62z" />
    <glyph glyph-name="uni2076" unicode="&#x2076;" horiz-adv-x="706" 
d="M343 798q-99 0 -157 62.5t-45 158.5q4 28 15 54.5t38 67.5t79 113t138 192h153l-145 -201q65 -5 110 -36.5t65.5 -81.5t12.5 -109q-9 -67 -48.5 -116.5t-96 -76.5t-119.5 -27zM360 922q45 0 79 30.5t36 75.5q3 41 -23.5 66t-63.5 25q-49 0 -82 -34.5t-34 -76.5
q-3 -43 24.5 -64.5t63.5 -21.5z" />
    <glyph glyph-name="uni2077" unicode="&#x2077;" horiz-adv-x="658" 
d="M166 818l354 498h-314l19 131h466l-19 -128l-356 -501h-150z" />
    <glyph glyph-name="uni2078" unicode="&#x2078;" horiz-adv-x="619" 
d="M322 798q-88 0 -142.5 55.5t-41.5 144.5q6 45 29.5 84t56.5 68q-20 25 -28.5 59t-4.5 70q12 84 77.5 137t147.5 53q83 0 135 -53t40 -137q-5 -36 -23.5 -70t-46.5 -59q27 -29 39 -68t5 -84q-12 -89 -82.5 -144.5t-160.5 -55.5zM339 920q35 0 62.5 22t32.5 56t-16 58
t-56 24q-33 0 -60.5 -24t-32.5 -58t16 -56t54 -22zM380 1211q30 0 53 20.5t27 47.5q4 29 -14 47t-47 18q-27 0 -50 -18t-26 -47q-4 -27 13 -47.5t44 -20.5z" />
    <glyph glyph-name="uni2079" unicode="&#x2079;" horiz-adv-x="659" 
d="M190 818l146 204q-55 -1 -95.5 22t-64.5 62.5t-27 87.5t18 97q25 81 94.5 129t152.5 48q56 0 99 -22t69 -60t30.5 -85.5t-15.5 -97.5q-6 -36 -32 -75l-223 -310h-152zM368 1145q31 0 57.5 17t43 44t15.5 58q0 37 -27.5 58.5t-60.5 21.5q-32 0 -59 -16t-42 -42t-15 -56
q0 -44 29 -64.5t59 -20.5z" />
    <glyph glyph-name="uni2080" unicode="&#x2080;" horiz-adv-x="648" 
d="M221 -31q-69 0 -120 45.5t-74 123t-10 173.5q14 95 59 172.5t108.5 123t132.5 45.5q70 0 121 -45.5t74 -123t9 -172.5q-13 -96 -58 -173.5t-108.5 -123t-133.5 -45.5zM240 100q38 0 69.5 34t53.5 83.5t27 93.5q7 49 -1 97.5t-30.5 80.5t-59.5 32q-40 0 -71.5 -33.5
t-52 -82t-26.5 -94.5q-7 -50 0.5 -98.5t30.5 -80.5t60 -32z" />
    <glyph glyph-name="uni2081" unicode="&#x2081;" horiz-adv-x="441" 
d="M68 0l70 500h-70l37 131h182l-88 -631h-131z" />
    <glyph glyph-name="uni2082" unicode="&#x2082;" horiz-adv-x="705" 
d="M-2 0l16 118q45 28 100 62t110 73.5t100 83.5t68 92q6 42 -19 69.5t-67 27.5q-43 0 -76.5 -27.5t-40.5 -69.5h-131q9 64 48 116t96 82t122 30q64 0 112 -30t72 -82t15 -116q-6 -41 -32.5 -81.5t-66 -78.5t-85 -73t-87.5 -65h222l-18 -131h-458z" />
    <glyph glyph-name="uni2083" unicode="&#x2083;" horiz-adv-x="570" 
d="M183 -31q-59 0 -103.5 28t-66.5 75t-14 106h131q-5 -34 16 -56t56 -22q33 0 59.5 22t32.5 56q5 41 -24 71t-94 30l14 93q62 0 91 26.5t33 60.5q4 27 -13.5 44.5t-44.5 17.5t-49.5 -17.5t-26.5 -44.5h-131q12 82 77.5 137.5t147.5 55.5q83 0 133 -55.5t39 -137.5
q-6 -39 -24 -73t-44 -57q30 -31 41.5 -67.5t5.5 -83.5q-9 -59 -44.5 -106t-88 -75t-109.5 -28z" />
    <glyph glyph-name="uni2084" unicode="&#x2084;" horiz-adv-x="687" 
d="M251 0l15 106h-253l22 158l284 367h152l-56 -394h63l-18 -131h-63l-14 -106h-132zM161 237h134l30 212z" />
    <glyph glyph-name="uni2085" unicode="&#x2085;" horiz-adv-x="692" 
d="M213 -31q-64 0 -112.5 30t-72.5 81t-15 115h131q-5 -41 20.5 -68t66.5 -27q42 0 76 27t39 68q6 41 -20 70t-68 29l-199 -13l82 345h344l-16 -118h-225l-17 -85l52 3q108 0 160 -67t38 -164q-9 -64 -47.5 -115t-95.5 -81t-121 -30z" />
    <glyph glyph-name="uni2086" unicode="&#x2086;" horiz-adv-x="682" 
d="M226 -31q-99 0 -156.5 66t-44.5 162q4 29 15 55t38.5 67.5t79.5 113.5t138 192h153l-146 -203q64 -4 109.5 -35.5t66.5 -81.5t12 -109q-9 -66 -48.5 -117.5t-96.5 -80.5t-120 -29zM245 100q45 0 79 30.5t35 75.5q3 42 -23.5 66.5t-62.5 24.5q-49 0 -81.5 -35t-34.5 -76
q-3 -43 24 -64.5t64 -21.5z" />
    <glyph glyph-name="uni2087" unicode="&#x2087;" horiz-adv-x="658" 
d="M48 0l358 500h-314l18 131h466l-19 -128l-359 -503h-150z" />
    <glyph glyph-name="uni2088" unicode="&#x2088;" horiz-adv-x="619" 
d="M205 -31q-88 0 -141.5 59t-41.5 147q7 46 30.5 85.5t55.5 67.5q-19 25 -28 58.5t-4 70.5q12 84 78 140t148 56q83 0 134.5 -56t38.5 -140q-4 -37 -22.5 -70.5t-46.5 -58.5q26 -28 38 -67.5t6 -85.5q-13 -88 -84 -147t-161 -59zM224 98q35 0 62.5 21.5t32.5 55.5
q4 34 -16.5 58.5t-55.5 24.5q-34 0 -61.5 -24.5t-32.5 -58.5q-4 -34 16.5 -55.5t54.5 -21.5zM265 389q30 0 53 20.5t26 47.5q4 29 -13.5 47t-47.5 18q-27 0 -49.5 -18t-26.5 -47q-4 -27 13.5 -47.5t44.5 -20.5z" />
    <glyph glyph-name="uni2089" unicode="&#x2089;" horiz-adv-x="659" 
d="M75 0l146 204q-55 -1 -95.5 22t-64.5 63t-27 88t18 97q16 55 53.5 96t88 64t105.5 23q66 0 114 -31t71.5 -81.5t17 -111.5t-48.5 -119l-226 -314h-152zM253 328q31 0 57.5 17t43 43.5t15.5 57.5q0 37 -27.5 58.5t-60.5 21.5t-59.5 -16t-41.5 -42t-15 -55q0 -45 29 -65
t59 -20z" />
    <glyph glyph-name="Euro" unicode="&#x20ac;" horiz-adv-x="1137" 
d="M956 -15q-138 -24 -259 3.5t-215.5 97.5t-155 174t-79.5 234h-196l21 146h170l16 118h-170l21 146h196q54 132 145 236.5t206 174.5t243.5 97t258.5 4l-31 -214q-89 23 -176.5 11t-167 -53.5t-144.5 -107t-109 -148.5h291l-21 -146h-333l-15 -118h332l-21 -146h-290
q22 -85 70 -150t116 -105.5t151.5 -51.5t175.5 12z" />
    <glyph glyph-name="trademark" unicode="&#x2122;" horiz-adv-x="2994" 
d="M1277 1400l-29 -208h-446l-167 -1192h-208l167 1192h-445l29 208h1099zM1181 0l467 1400h168l226 -943l490 943h168l76 -1400h-212l-50 937l-459 -884h-139l-211 884l-312 -937h-212z" />
    <glyph glyph-name="oneeighth" unicode="&#x215b;" horiz-adv-x="1511" 
d="M183 818l70 500h-70l37 131h182l-88 -631h-131zM76 0l1004 1400h176l-1004 -1400h-176zM1096 -31q-88 0 -141.5 59t-41.5 147q7 46 30.5 85.5t55.5 67.5q-19 25 -28 58.5t-4 70.5q12 84 78 140t148 56q83 0 134.5 -56t38.5 -140q-4 -37 -22.5 -70.5t-46.5 -58.5
q26 -28 38 -67.5t6 -85.5q-13 -88 -84 -147t-161 -59zM1115 98q35 0 62.5 21.5t32.5 55.5q4 34 -16.5 58.5t-55.5 24.5q-34 0 -61.5 -24.5t-32.5 -58.5q-4 -34 16.5 -55.5t54.5 -21.5zM1156 389q30 0 53 20.5t26 47.5q4 29 -13.5 47t-47.5 18q-27 0 -49.5 -18t-26.5 -47
q-4 -27 13.5 -47.5t44.5 -20.5z" />
    <glyph glyph-name="threeeighths" unicode="&#x215c;" horiz-adv-x="1639" 
d="M300 798q-88 0 -143 57t-43 146h131q-5 -35 16.5 -57t55.5 -22t60.5 22t31.5 57q5 40 -24 70t-93 30l13 93q62 0 91 26t34 60q4 28 -13.5 46t-45.5 18q-27 0 -49.5 -18t-26.5 -46h-131q12 83 77.5 135t147.5 52q83 0 133.5 -52t38.5 -135q-5 -38 -23.5 -72.5t-44.5 -56.5
q30 -30 42 -67t5 -83q-13 -89 -83.5 -146t-156.5 -57zM205 0l1004 1400h176l-1004 -1400h-176zM1225 -31q-88 0 -141.5 59t-41.5 147q7 46 30.5 85.5t55.5 67.5q-19 25 -28 58.5t-4 70.5q12 84 78 140t148 56q83 0 134.5 -56t38.5 -140q-4 -37 -22.5 -70.5t-46.5 -58.5
q26 -28 38 -67.5t6 -85.5q-13 -88 -84 -147t-161 -59zM1244 98q35 0 62.5 21.5t32.5 55.5q4 34 -16.5 58.5t-55.5 24.5q-34 0 -61.5 -24.5t-32.5 -58.5q-4 -34 16.5 -55.5t54.5 -21.5zM1285 389q30 0 53 20.5t26 47.5q4 29 -13.5 47t-47.5 18q-27 0 -49.5 -18t-26.5 -47
q-4 -27 13.5 -47.5t44.5 -20.5z" />
    <glyph glyph-name="fiveeighths" unicode="&#x215d;" horiz-adv-x="1762" 
d="M330 798q-96 0 -155.5 62t-45.5 158h131q-6 -41 19.5 -68.5t67.5 -27.5t75.5 27.5t39.5 68.5t-20 69t-68 30q-23 1 -55.5 -0.5t-69.5 -5.5t-74 -12l82 350h343l-16 -116h-224l-17 -88q127 8 196.5 -54t53.5 -173q-13 -96 -90 -158t-173 -62zM327 0l1004 1400h176
l-1004 -1400h-176zM1347 -31q-88 0 -141.5 59t-41.5 147q7 46 30.5 85.5t55.5 67.5q-19 25 -28 58.5t-4 70.5q12 84 78 140t148 56q83 0 134.5 -56t38.5 -140q-4 -37 -22.5 -70.5t-46.5 -58.5q26 -28 38 -67.5t6 -85.5q-13 -88 -84 -147t-161 -59zM1366 98q35 0 62.5 21.5
t32.5 55.5q4 34 -16.5 58.5t-55.5 24.5q-34 0 -61.5 -24.5t-32.5 -58.5q-4 -34 16.5 -55.5t54.5 -21.5zM1407 389q30 0 53 20.5t26 47.5q4 29 -13.5 47t-47.5 18q-27 0 -49.5 -18t-26.5 -47q-4 -27 13.5 -47.5t44.5 -20.5z" />
    <glyph glyph-name="seveneighths" unicode="&#x215e;" horiz-adv-x="1727" 
d="M166 818l354 498h-314l19 131h466l-19 -128l-356 -501h-150zM293 0l1004 1400h176l-1004 -1400h-176zM1313 -31q-88 0 -141.5 59t-41.5 147q7 46 30.5 85.5t55.5 67.5q-19 25 -28 58.5t-4 70.5q12 84 78 140t148 56q83 0 134.5 -56t38.5 -140q-4 -37 -22.5 -70.5
t-46.5 -58.5q26 -28 38 -67.5t6 -85.5q-13 -88 -84 -147t-161 -59zM1332 98q35 0 62.5 21.5t32.5 55.5q4 34 -16.5 58.5t-55.5 24.5q-34 0 -61.5 -24.5t-32.5 -58.5q-4 -34 16.5 -55.5t54.5 -21.5zM1373 389q30 0 53 20.5t26 47.5q4 29 -13.5 47t-47.5 18q-27 0 -49.5 -18
t-26.5 -47q-4 -27 13.5 -47.5t44.5 -20.5z" />
    <glyph glyph-name="arrowleft" unicode="&#x2190;" horiz-adv-x="1394" 
d="M533 231l-446 519l593 519l125 -147l-306 -268h836l-29 -208h-836l230 -268z" />
    <glyph glyph-name="arrowup" unicode="&#x2191;" horiz-adv-x="1199" 
d="M416 132l117 837l-305 -268l-127 148l592 519l447 -519l-167 -148l-232 268l-117 -837h-208z" />
    <glyph glyph-name="arrowright" unicode="&#x2192;" horiz-adv-x="1395" 
d="M729 231l-126 147l305 268h-836l30 208h835l-229 268l168 147l446 -519z" />
    <glyph glyph-name="arrowdown" unicode="&#x2193;" horiz-adv-x="1198" 
d="M518 133l-444 519l167 147l229 -267l118 835h207l-117 -835l307 267l126 -147z" />
    <glyph glyph-name="arrowboth" unicode="&#x2194;" horiz-adv-x="1788" 
d="M533 231l-446 519l593 519l125 -147l-306 -268h830l-229 268l168 147l447 -519l-593 -519l-127 147l306 268h-831l230 -268z" />
    <glyph glyph-name="arrowupdn" unicode="&#x2195;" horiz-adv-x="1199" 
d="M491 -64l-446 519l168 148l231 -269l116 832l-306 -268l-125 147l591 519l447 -519l-168 -147l-231 268l-116 -832l305 269l127 -148z" />
    <glyph glyph-name="uni2196" unicode="&#x2196;" horiz-adv-x="1107" 
d="M821 277l-510 591l-53 -379h-208l103 734h734l-29 -208h-378l508 -591z" />
    <glyph glyph-name="uni2197" unicode="&#x2197;" horiz-adv-x="1106" 
d="M167 278l-125 147l673 589h-380l29 208h735l-102 -734h-208l53 379z" />
    <glyph glyph-name="uni2198" unicode="&#x2198;" horiz-adv-x="1106" 
d="M233 278l29 208h379l-508 589l167 147l509 -589l53 379h208l-103 -734h-734z" />
    <glyph glyph-name="uni2199" unicode="&#x2199;" horiz-adv-x="1106" 
d="M21 278l103 734h208l-53 -379l673 589l127 -147l-674 -589h379l-29 -208h-734z" />
    <glyph glyph-name="partialdiff" unicode="&#x2202;" horiz-adv-x="1165" 
d="M481 -26q-138 0 -243 68t-157 182t-32 252q15 104 66.5 195.5t130.5 160.5t175.5 108t200.5 39q64 0 115 -24.5t83 -67.5q-11 74 -36 148.5t-70 136.5t-114 99t-167 37l28 208q165 0 288.5 -80.5t202.5 -220t107 -320t0 -379.5q-22 -159 -103.5 -281t-204.5 -191.5
t-270 -69.5zM510 182q83 0 155.5 40.5t121.5 107.5t60 146q11 81 -19.5 148t-91.5 107t-143 40t-154.5 -40t-121.5 -107.5t-60 -147.5t19 -147t91.5 -107t142.5 -40z" />
    <glyph glyph-name="emptyset" unicode="&#x2205;" horiz-adv-x="1160" 
d="M242 -68l-136 85l64 88q-69 72 -101.5 174.5t-16.5 220.5q15 110 67.5 205.5t131.5 168t175.5 113.5t199.5 41q49 0 94 -9.5t83 -28.5l60 81l136 -85l-63 -88q68 -72 100 -175t16 -223q-15 -109 -67.5 -204t-131.5 -167.5t-175 -113.5t-200 -41q-49 0 -93.5 10.5
t-84.5 27.5zM297 281l388 543q-70 23 -142.5 5.5t-136 -66t-107.5 -119.5t-56 -155q-8 -63 7 -116t47 -92zM419 179q72 -23 145 -6t136 65.5t105.5 119t54.5 153.5q9 63 -5.5 117t-46.5 93z" />
    <glyph glyph-name="product" unicode="&#x220f;" horiz-adv-x="1280" 
d="M178 1400h1120l-29 -208h-1120zM314 1259h208l-176 -1259h-208zM914 1259h208l-176 -1259h-208z" />
    <glyph glyph-name="summation" unicode="&#x2211;" horiz-adv-x="934" 
d="M-18 0l29 208l320 490l-182 490l29 208h794l-29 -208h-560l181 -490l-319 -490h561l-30 -208h-794z" />
    <glyph glyph-name="minus" unicode="&#x2212;" horiz-adv-x="1160" 
d="M51 496l30 208h1000l-30 -208h-1000z" />
    <glyph glyph-name="radical" unicode="&#x221a;" horiz-adv-x="1325" 
d="M988 1400h355l-29 -208h-210l-603 -1192h-261l-159 708h221l104 -459z" />
    <glyph glyph-name="infinity" unicode="&#x221e;" horiz-adv-x="1504" 
d="M360 271q-104 10 -173.5 59t-100 124.5t-17.5 166.5q14 96 68 174.5t137.5 125.5t183.5 50q71 0 123 -21.5t95.5 -63.5t87.5 -106q62 64 117.5 106t112 63.5t119.5 21.5q111 -3 182 -51t101.5 -126.5t16.5 -172.5q-13 -96 -67 -174.5t-136.5 -125t-183.5 -50.5
q-70 0 -121.5 20t-95.5 62t-90 107q-64 -65 -120 -108t-113.5 -63.5t-125.5 -17.5zM386 461q45 0 84 22t76.5 58t78.5 80q-30 47 -58 83t-60 56t-77 19q-69 -5 -116 -52.5t-56 -105.5q-9 -66 27.5 -110.5t100.5 -49.5zM1053 461q69 6 116.5 52.5t55.5 107.5q9 63 -25.5 109
t-102.5 50q-44 0 -81.5 -20t-75 -56t-82.5 -83q25 -37 47 -67t44 -50.5t47.5 -31.5t56.5 -11z" />
    <glyph glyph-name="integral" unicode="&#x222b;" horiz-adv-x="1006" 
d="M222 -26q-72 1 -124 34.5t-75 92t-8 132.5l135 -11q-2 -32 5 -54.5t39 -24.5q31 -1 56 16.5t33 48.5l242 1031q16 54 58 96.5t98 67t111 23.5q70 -1 120 -38t72 -96t6 -126l-122 12q2 43 -19 61.5t-51 15.5q-27 0 -48.5 -19t-29.5 -49l-241 -1026q-34 -99 -104.5 -142.5
t-152.5 -44.5z" />
    <glyph glyph-name="approxequal" unicode="&#x2248;" horiz-adv-x="1277" 
d="M858 694q-65 0 -135.5 29t-141 66.5t-134.5 66.5t-116 29q-36 1 -62 -18.5t-40.5 -51t-13.5 -65.5l-204 -1q-4 85 41.5 161t122.5 124t165 48q64 0 128 -29.5t127 -68.5t123.5 -68.5t113.5 -29.5q37 0 64 19t42 50t14 66l204 2q4 -86 -34.5 -161t-107.5 -121.5
t-156 -46.5zM858 146q-65 0 -135.5 29t-141 66.5t-134.5 66.5t-116 29q-36 1 -62 -18.5t-40.5 -51t-13.5 -65.5l-204 -1q-4 85 41.5 161t122.5 124t165 48q64 0 128 -29.5t127 -68.5t123.5 -68.5t113.5 -29.5q37 0 64 19t42 50t14 66l204 2q4 -86 -34.5 -161t-107.5 -121.5
t-156 -46.5z" />
    <glyph glyph-name="notequal" unicode="&#x2260;" horiz-adv-x="1160" 
d="M926 1182l-116 -268h300l-29 -207h-362l-92 -214h424l-29 -207h-484l-118 -268h-216l117 268h-299l29 207h360l92 214h-422l29 207h484l116 268h216z" />
    <glyph glyph-name="lessequal" unicode="&#x2264;" horiz-adv-x="1160" 
d="M1029 335l-960 284l48 346l1040 286l-29 -216l-882 -242l813 -241zM-18 0l29 208h1000l-29 -208h-1000z" />
    <glyph glyph-name="greaterequal" unicode="&#x2265;" horiz-adv-x="1160" 
d="M31 350l30 217l881 234l-814 234l29 216l962 -279l-49 -345zM-18 0l29 208h1000l-29 -208h-1000z" />
    <glyph glyph-name="lozenge" unicode="&#x25ca;" horiz-adv-x="1007" 
d="M230 0l-170 702l364 698h355l168 -698l-366 -702h-351zM423 134l306 568l-146 568l-304 -568z" />
    <glyph glyph-name="uniFFFD" unicode="&#xfffd;" horiz-adv-x="1630" 
d="M714 -26q-54 0 -103 20t-86 62l-355 414q-36 42 -48.5 94t-5.5 106q8 54 36 106t74 92l472 414q48 42 102.5 62t108.5 20t102.5 -20t84.5 -62l356 -414q36 -42 49 -93t5 -105q-7 -54 -34.5 -106t-75.5 -94l-473 -414q-46 -40 -100.5 -61t-108.5 -21zM762 276
q31 0 55 21.5t29 52.5q4 30 -14 51.5t-49 21.5t-55.5 -21.5t-28.5 -51.5q-4 -31 14.5 -52.5t48.5 -21.5zM718 515h146v2q6 40 46 61q61 32 102.5 88.5t51.5 124.5q9 66 -16 121t-75 87t-116 32q-67 0 -126.5 -32t-99.5 -87t-50 -121h147q6 40 37.5 67t70.5 27t63 -27t18 -67
q-3 -27 -19 -50t-39 -34q-58 -27 -95 -78.5t-46 -111.5v-2z" />
    </font>
</defs>
</svg>
