<?xml version="1.0" standalone="no"?>
<!DOCTYPE svg PUBLIC "-//W3C//DTD SVG 1.1//EN" "http://www.w3.org/Graphics/SVG/1.1/DTD/svg11.dtd" >
<svg xmlns="http://www.w3.org/2000/svg" xmlns:xlink="http://www.w3.org/1999/xlink" version="1.1">
<metadata>
Created by FontForge 20201107 at Wed Oct 27 17:11:08 2021
 By 
Copyright 2021 The Urbanist Project Authors (https://github.com/coreyhu/Urbanist)
</metadata>
<defs>
<font id="Urbanist-SemiBold" horiz-adv-x="448" >
  <font-face 
    font-family="Urbanist SemiBold"
    font-weight="600"
    font-stretch="normal"
    units-per-em="2000"
    panose-1="2 11 10 4 4 2 0 0 2 3"
    ascent="1600"
    descent="-400"
    x-height="1000"
    cap-height="1400"
    bbox="-267 -500 2874 2056"
    underline-thickness="50"
    underline-position="-125"
    unicode-range="U+000D-FFFD"
  />
<missing-glyph horiz-adv-x="1000" 
d="M100 -500v2400h800v-2400h-800zM200 -400h600v2200h-600v-2200z" />
    <glyph glyph-name=".notdef" horiz-adv-x="1000" 
d="M100 -500v2400h800v-2400h-800zM200 -400h600v2200h-600v-2200z" />
    <glyph glyph-name=".null" horiz-adv-x="1200" 
 />
    <glyph glyph-name=".null" horiz-adv-x="1200" 
 />
    <glyph glyph-name="nonmarkingreturn" unicode="&#xd;" horiz-adv-x="1200" 
 />
    <glyph glyph-name="nonmarkingreturn" unicode="&#xfeff;" horiz-adv-x="1200" 
 />
    <glyph glyph-name="space" unicode=" " horiz-adv-x="480" 
 />
    <glyph glyph-name="exclam" unicode="!" horiz-adv-x="418" 
d="M101 420v980h177v-980h-177zM190 -26q-46 0 -78 32t-32 79q0 45 32 76.5t78 31.5q45 0 76.5 -31.5t31.5 -76.5q0 -47 -31.5 -79t-76.5 -32z" />
    <glyph glyph-name="quotedbl" unicode="&#x22;" horiz-adv-x="564" 
d="M67 878v522h147v-522h-147zM350 878v522h147v-522h-147z" />
    <glyph glyph-name="numbersign" unicode="#" horiz-adv-x="1551" 
d="M1418 895h-180l-105 -389h180l-53 -202h-180l-82 -304h-208l82 304h-404l-82 -304h-208l82 304h-180l54 202h179l105 389h-180l54 201h179l82 304h208l-82 -304h406l80 304h208l-80 -304h178zM925 506l105 389h-404l-105 -389h404z" />
    <glyph glyph-name="dollar" unicode="$" horiz-adv-x="1199" 
d="M599 1214q-80 1 -149.5 -25.5t-113.5 -72.5t-44 -107q0 -75 41 -114t110.5 -57.5t155.5 -33.5q138 -22 255.5 -73t189 -135.5t71.5 -207.5q0 -113 -60 -200.5t-160.5 -141t-221.5 -67.5v-203h-147v203q-101 10 -191.5 48t-157.5 101t-97 146l195 73q17 -48 65.5 -85.5
t116 -58.5t142.5 -21q80 0 150.5 26t114 72t43.5 108q0 64 -45.5 105t-116 65t-146.5 36q-147 24 -263.5 70t-184 129t-67.5 216q0 113 60 201t160.5 141.5t221.5 66.5v206h147v-206q98 -10 188.5 -48t158.5 -100.5t99 -148.5l-197 -71q-17 49 -65 85.5t-115.5 57.5
t-142.5 21z" />
    <glyph glyph-name="percent" unicode="%" horiz-adv-x="1430" 
d="M190 0l808 1400h240l-808 -1400h-240zM359 813q-76 0 -139.5 37.5t-101.5 101t-38 140.5q0 80 38.5 143t102 99.5t138.5 36.5q77 0 140 -37.5t101 -100.5t38 -141q0 -79 -38.5 -142t-102 -100t-138.5 -37zM359 960q56 0 94 38.5t38 93.5q0 56 -38 94.5t-94 38.5
q-55 0 -93.5 -38.5t-38.5 -94.5q0 -55 38.5 -93.5t93.5 -38.5zM1071 27q-78 0 -141.5 39.5t-101 103t-37.5 137.5q0 78 39 141.5t102.5 101t138.5 37.5q79 0 142 -39t100 -103t37 -138q0 -77 -37.5 -140.5t-101 -101.5t-140.5 -38zM1071 174q54 0 93 39t39 94t-39 94t-93 39
q-55 0 -94.5 -39t-39.5 -94t39.5 -94t94.5 -39z" />
    <glyph glyph-name="ampersand" unicode="&#x26;" horiz-adv-x="1426" 
d="M502 -26q-122 0 -217.5 59t-150 155.5t-54.5 208.5q0 64 12.5 112t43 94t84 103t135.5 139q-46 47 -77 82t-49 65.5t-25.5 63.5t-7.5 75q0 88 42 157.5t112 110t152 40.5q84 0 154 -41.5t111.5 -111t41.5 -155.5q0 -43 -8 -76.5t-26.5 -64.5t-49.5 -65.5t-76 -79.5
l302 -302l241 241v-294l-95 -95l249 -248l-147 -147l-248 247q-83 -83 -140.5 -136t-103.5 -83t-93.5 -42t-111.5 -12zM502 182q40 0 68.5 9.5t58.5 33t70.5 65t104.5 106.5l-302 302q-66 -66 -108 -107.5t-64.5 -70.5t-31.5 -57.5t-9 -67.5q0 -61 29.5 -109t78 -76
t105.5 -28zM502 963q51 51 77.5 76.5t36 45t9.5 50.5q0 55 -38.5 88.5t-84.5 33.5q-50 0 -86 -36t-36 -86q0 -31 10.5 -51.5t37 -46.5t74.5 -74z" />
    <glyph glyph-name="quotesingle" unicode="'" horiz-adv-x="281" 
d="M67 878v522h147v-522h-147z" />
    <glyph glyph-name="parenleft" unicode="(" horiz-adv-x="718" 
d="M410 -112q-102 99 -166 216.5t-94 252.5t-30 287q0 75 13 164t38 180t60.5 173t80.5 145t98 94h208q-45 -36 -87 -98.5t-78 -142.5t-64 -169t-44 -177.5t-17 -168.5q2 -157 42.5 -297.5t106 -257t141.5 -201.5h-208z" />
    <glyph glyph-name="parenright" unicode=")" horiz-adv-x="718" 
d="M100 -112q76 85 141.5 201.5t106 257t42.5 297.5q-1 80 -17 168.5t-44 177.5t-64 169t-78 142.5t-87 98.5h208q53 -31 97.5 -94t80.5 -145t61 -173t38 -180t13 -164q0 -152 -29.5 -287t-93.5 -252.5t-167 -216.5h-208z" />
    <glyph glyph-name="asterisk" unicode="*" horiz-adv-x="717" 
d="M234 842l-118 86l109 149l-175 56l44 140l176 -56v183h147v-183l175 56l45 -140l-176 -56l109 -149l-119 -86l-108 149z" />
    <glyph glyph-name="plus" unicode="+" horiz-adv-x="1160" 
d="M476 100v396h-396v208h396v396h208v-396h396v-208h-396v-396h-208z" />
    <glyph glyph-name="comma" unicode="," horiz-adv-x="470" 
d="M80 -112l62 338h208l-132 -338h-138z" />
    <glyph glyph-name="hyphen" unicode="-" horiz-adv-x="880" 
d="M120 704h640v-208h-640v208z" />
    <glyph glyph-name="period" unicode="." horiz-adv-x="419" 
d="M189 -26q-46 0 -77.5 32t-31.5 78q0 45 31.5 77t77.5 32t78 -32t32 -77q0 -46 -32 -78t-78 -32z" />
    <glyph glyph-name="slash" unicode="/" horiz-adv-x="773" 
d="M693 1400l-405 -1512h-208l405 1512h208z" />
    <glyph glyph-name="zero" unicode="0" horiz-adv-x="1202" 
d="M603 -26q-124 0 -223.5 56.5t-171.5 156.5t-110 231.5t-38 281.5t38 282t110 231.5t171.5 156t223.5 56.5q122 0 222 -56.5t170.5 -156t108.5 -231.5t38 -282t-38 -281.5t-108.5 -231.5t-170.5 -156.5t-222 -56.5zM603 182q115 0 191.5 72.5t114.5 190.5t38 255
q0 144 -39.5 261.5t-116 187t-188.5 69.5q-89 0 -154.5 -42t-108 -115t-64 -166t-21.5 -195q0 -137 39 -255t116.5 -190.5t192.5 -72.5z" />
    <glyph glyph-name="one" unicode="1" horiz-adv-x="615" 
d="M247 0v1192h-167l57 208h318v-1400h-208z" />
    <glyph glyph-name="two" unicode="2" horiz-adv-x="1124" 
d="M80 0v185q71 59 163 137.5t187 167t175 177t129.5 168t49.5 138.5q0 67 -32.5 122.5t-87.5 89t-122 33.5t-122.5 -33.5t-89 -89t-33.5 -122.5h-208q0 127 62.5 229.5t165 163t225.5 60.5q124 0 226 -61t163 -163.5t61 -228.5q0 -70 -29 -144t-80.5 -151t-119.5 -156
t-146 -158t-159 -156h546v-208h-924z" />
    <glyph glyph-name="three" unicode="3" horiz-adv-x="1009" 
d="M504 -26q-127 0 -227.5 59t-158.5 158t-58 220h208q0 -63 30 -115t83 -83t123 -31q63 0 117 31t87 83t33 115q0 80 -42 134t-116.5 80.5t-171.5 26.5v164q132 0 211 52t79 155q0 54 -28.5 98.5t-75 71t-99.5 26.5q-55 0 -105.5 -26.5t-82.5 -71t-32 -98.5h-208
q0 83 34.5 156.5t94 129t136 87t160.5 31.5q110 0 204.5 -54.5t152 -146t57.5 -203.5q0 -89 -43.5 -168.5t-120.5 -112.5q67 -24 112.5 -75.5t68.5 -118t23 -137.5q0 -120 -61 -219.5t-162.5 -158.5t-221.5 -59z" />
    <glyph glyph-name="four" unicode="4" horiz-adv-x="1135" 
d="M679 0v358h-599v209l549 833h258v-834h128v-208h-128v-358h-208zM322 567l357 -1l-2 547z" />
    <glyph glyph-name="five" unicode="5" horiz-adv-x="1135" 
d="M543 -26q-133 0 -240.5 64.5t-170 172t-62.5 235.5h208q0 -73 36 -133t96 -95.5t133 -35.5q72 0 132 35.5t96 95.5t36 133t-33 133.5t-99 97t-168 36.5h-353l142 687h677v-208h-508l-55 -271l121 -2q143 -3 251.5 -65.5t170.5 -168t62 -239.5q0 -97 -37 -182.5
t-101.5 -150.5t-150 -102t-183.5 -37z" />
    <glyph glyph-name="six" unicode="6" horiz-adv-x="1091" 
d="M539 -26q-134 0 -245 66.5t-177.5 178t-66.5 246.5q0 72 17 130t52 122l394 683h242l-273 -472q83 16 162.5 1.5t149.5 -55t123.5 -102t83.5 -139.5t30 -168q0 -101 -38.5 -190t-106 -156.5t-157 -106t-190.5 -38.5zM539 182q82 0 146 40t101 105t37 138q0 77 -37.5 141
t-101.5 102.5t-143 38.5q-82 0 -146 -40t-100.5 -104t-36.5 -138q0 -81 39.5 -145t103.5 -101t138 -37z" />
    <glyph glyph-name="seven" unicode="7" horiz-adv-x="1089" 
d="M121 0l687 1192h-768v208h1009v-208l-689 -1192h-239z" />
    <glyph glyph-name="eight" unicode="8" horiz-adv-x="1077" 
d="M538 -26q-127 0 -231 58t-165.5 155.5t-61.5 217.5q0 101 50 188t133 144q-67 50 -109 126t-42 164q0 110 57.5 200.5t154.5 144.5t214 54t214 -54t154.5 -144.5t57.5 -200.5q0 -88 -41.5 -164t-109.5 -126q85 -57 134.5 -144t49.5 -188q0 -119 -62 -217t-166 -156
t-231 -58zM538 182q66 0 120 30t86.5 80.5t32.5 112.5q0 61 -32.5 111.5t-86.5 80.5t-120 30q-65 0 -119.5 -30t-87 -80.5t-32.5 -111.5q0 -62 32.5 -112.5t87 -80.5t119.5 -30zM538 835q57 0 103.5 26t74.5 69.5t28 96.5t-28 96t-74.5 69t-103.5 26t-103.5 -26t-74.5 -69
t-28 -96t28 -96.5t74.5 -69.5t103.5 -26z" />
    <glyph glyph-name="nine" unicode="9" horiz-adv-x="1081" 
d="M311 0l283 490q-101 -19 -196.5 8.5t-171.5 91t-121 154.5t-45 200q0 99 37.5 186.5t103.5 154t153.5 104t187.5 37.5q131 0 240 -65t174 -174.5t65 -242.5q0 -69 -16.5 -126t-51.5 -120l-401 -698h-241zM540 671q80 0 142 38.5t97.5 101t35.5 134.5q0 78 -38 140
t-100.5 98t-134.5 36q-80 0 -142 -39t-98 -101.5t-36 -133.5q0 -75 36.5 -137.5t98.5 -99.5t139 -37z" />
    <glyph glyph-name="colon" unicode=":" horiz-adv-x="419" 
d="M189 781q-46 0 -77.5 32t-31.5 78q0 45 31.5 77t77.5 32t78 -32t32 -77q0 -46 -32 -78t-78 -32zM189 -26q-46 0 -77.5 32t-31.5 78q0 45 31.5 77t77.5 32t78 -32t32 -77q0 -46 -32 -78t-78 -32z" />
    <glyph glyph-name="semicolon" unicode=";" horiz-adv-x="475" 
d="M80 -112l62 338h208l-132 -338h-138zM245 781q-46 0 -78 31.5t-32 77.5t32 78t78 32q45 0 77.5 -32t32.5 -78t-32.5 -77.5t-77.5 -31.5z" />
    <glyph glyph-name="less" unicode="&#x3c;" horiz-adv-x="1160" 
d="M1080 142l-1000 284v346l1000 286v-217l-848 -241l848 -242v-216z" />
    <glyph glyph-name="equal" unicode="=" horiz-adv-x="1160" 
d="M80 286v207h1000v-207h-1000zM80 707v207h1000v-207h-1000z" />
    <glyph glyph-name="greater" unicode="&#x3e;" horiz-adv-x="1160" 
d="M80 150v216l848 234l-848 233v217l1000 -278v-346z" />
    <glyph glyph-name="question" unicode="?" horiz-adv-x="1071" 
d="M425 447q0 108 54.5 199t149.5 143q54 28 84 82.5t30 120.5q0 63 -30.5 114.5t-82.5 82t-115 30.5q-62 0 -114 -30.5t-82.5 -82t-30.5 -114.5h-208q0 120 58.5 218.5t158 157.5t218.5 59q121 0 220 -59t157.5 -157.5t58.5 -218.5q0 -123 -59.5 -226.5t-163.5 -160.5
q-44 -23 -69.5 -65t-25.5 -93h-208zM534 -26q-46 0 -78 32.5t-32 78.5q0 45 32 76.5t78 31.5q45 0 77 -31.5t32 -76.5q0 -46 -32 -78.5t-77 -32.5z" />
    <glyph glyph-name="at" unicode="@" horiz-adv-x="1799" 
d="M900 -228q-171 0 -319.5 57.5t-261 162t-176 247t-63.5 312.5q0 169 63.5 318t176 261.5t261.5 176t319 63.5t319 -64t261 -177t175.5 -261.5t63.5 -316.5q0 -91 -22.5 -179.5t-66 -160t-106.5 -114t-144 -42.5q-60 0 -120.5 26.5t-103.5 72t-52 100.5
q-39 -46 -97.5 -73.5t-132.5 -27.5q-109 0 -199.5 53.5t-144 144t-53.5 200.5t53.5 200t144 143.5t199.5 53.5q70 0 136.5 -25t103.5 -69v74l159 -31v-542q0 -41 27.5 -66.5t66.5 -25.5q51 0 82.5 47.5t46.5 115t15 125.5q0 127 -48 238t-132.5 195t-195 131t-235.5 47
q-126 0 -237 -47.5t-195.5 -131.5t-132 -194.5t-47.5 -237.5t47 -232t131.5 -180.5t195 -117.5t238.5 -42v-207zM890 311q67 0 117 35t78 91.5t28 119.5t-27 115.5t-77 85t-119 32.5q-66 0 -120.5 -32t-87 -86.5t-32.5 -120.5q0 -67 33 -121.5t87.5 -86.5t119.5 -32z" />
    <glyph glyph-name="A" unicode="A" horiz-adv-x="1421" 
d="M589 1400h243l509 -1400h-220l-97 266h-627l-96 -266h-221zM474 474h473l-237 650z" />
    <glyph glyph-name="B" unicode="B" horiz-adv-x="1154" 
d="M120 0v1400h497q108 0 195.5 -44t139 -126.5t51.5 -197.5q0 -56 -18 -110t-51 -95t-80 -58q64 -16 106.5 -57.5t67.5 -96.5t35.5 -114t10.5 -112q0 -112 -54 -200t-144.5 -138.5t-199.5 -50.5h-556zM328 180h328q64 0 116.5 32t83.5 88.5t31 127.5q0 62 -31 117.5
t-83.5 89.5t-116.5 34h-328v-489zM328 846h267q82 0 141 50t59 137q0 93 -59 139.5t-141 46.5h-267v-373z" />
    <glyph glyph-name="C" unicode="C" horiz-adv-x="1418" 
d="M768 -26q-142 0 -267 56.5t-219.5 156t-148 231.5t-53.5 282t53.5 282t148 231.5t219.5 156t267 56.5q170 0 313 -79t237 -210l-185 -99q-65 82 -161 131t-204 49q-100 0 -187 -41t-153 -112t-103 -165t-37 -200q0 -107 37 -200.5t103.5 -165t153.5 -112t186 -40.5
q110 0 205.5 49.5t159.5 131.5l185 -101q-94 -131 -237 -209.5t-313 -78.5z" />
    <glyph glyph-name="D" unicode="D" horiz-adv-x="1343" 
d="M120 0v1400h463q145 0 272 -54.5t223 -151t150.5 -223t54.5 -271.5t-54.5 -271.5t-150.5 -223t-223 -151t-272 -54.5h-463zM328 208h255q102 0 190.5 38t157 106t106.5 157t38 191t-38 191t-106.5 157t-157 106t-190.5 38h-255v-984z" />
    <glyph glyph-name="E" unicode="E" horiz-adv-x="1089" 
d="M120 0v1400h869v-208h-661v-338h532v-208h-532v-438h661v-208h-869z" />
    <glyph glyph-name="F" unicode="F" horiz-adv-x="965" 
d="M120 0v1400h825v-208h-617v-338h521v-208h-521v-646h-208z" />
    <glyph glyph-name="G" unicode="G" horiz-adv-x="1536" 
d="M769 -26q-146 0 -271.5 56.5t-219 157t-146 232.5t-52.5 281q0 157 56 289t153 229.5t221.5 151.5t261.5 54q155 0 298 -72t249 -216l-186 -101q-72 90 -167.5 136t-195.5 46q-97 0 -184 -39.5t-154 -110t-105.5 -165t-38.5 -205.5q0 -107 37.5 -201t104 -164.5
t154 -110.5t187.5 -40q74 0 142 24t126.5 68.5t102.5 106.5t70 138h-297v184h541q2 -150 -51.5 -282t-148 -232.5t-219.5 -157.5t-268 -57z" />
    <glyph glyph-name="H" unicode="H" horiz-adv-x="1289" 
d="M961 1400h208v-1400h-208v646h-633v-646h-208v1400h208v-546h633v546z" />
    <glyph glyph-name="I" unicode="I" horiz-adv-x="508" 
d="M150 0v1400h208v-1400h-208z" />
    <glyph glyph-name="J" unicode="J" horiz-adv-x="859" 
d="M312 -26q-74 0 -144.5 25t-127.5 74l133 160q25 -21 60 -36t79 -15q60 0 109.5 31.5t79.5 83t30 110.5v993h208v-993q0 -117 -58 -215.5t-154.5 -158t-214.5 -59.5z" />
    <glyph glyph-name="K" unicode="K" horiz-adv-x="1136" 
d="M1100 0h-270l-417 577l-85 -103v-474h-208v1400h208v-603l504 603h272l-554 -661z" />
    <glyph glyph-name="L" unicode="L" horiz-adv-x="1031" 
d="M120 0v1400h208v-1192h603v-208h-811z" />
    <glyph glyph-name="M" unicode="M" horiz-adv-x="1835" 
d="M120 0l271 1400h168l359 -943l357 943h168l272 -1400h-212l-181 937l-335 -884h-140l-334 884l-181 -937h-212z" />
    <glyph glyph-name="N" unicode="N" horiz-adv-x="1316" 
d="M120 0v1400h225l643 -1024v1024h208v-1400h-225l-643 1024v-1024h-208z" />
    <glyph glyph-name="O" unicode="O" horiz-adv-x="1540" 
d="M770 -26q-142 0 -267 56.5t-220 156.5t-149 231.5t-54 281.5t54 281.5t149 231.5t220 156.5t267 56.5q143 0 268 -56.5t220 -156.5t148.5 -231.5t53.5 -281.5t-53.5 -281.5t-148.5 -231.5t-220 -156.5t-268 -56.5zM770 182q100 0 187 41t153.5 112.5t104 165t37.5 199.5
t-37.5 200t-104 165.5t-153.5 112t-187 40.5t-187 -41t-153.5 -112.5t-104 -165t-37.5 -199.5q0 -107 37.5 -200.5t104 -165t153.5 -112t187 -40.5z" />
    <glyph glyph-name="P" unicode="P" horiz-adv-x="1087" 
d="M120 0v1400h482q113 0 204.5 -56t146 -151t54.5 -210q0 -117 -55.5 -211.5t-147.5 -150.5t-202 -56h-274v-565h-208zM328 773h253q60 0 109.5 30t79 80t29.5 113t-29.5 113.5t-79 80t-109.5 29.5h-253v-446z" />
    <glyph glyph-name="Q" unicode="Q" horiz-adv-x="1566" 
d="M1338 -36l-160 159q-84 -68 -188 -106t-220 -38q-143 0 -268 56.5t-220 156t-148.5 231.5t-53.5 282t53.5 281.5t148.5 231.5t220 156.5t268 56.5t267.5 -56.5t219.5 -156.5t148.5 -231.5t53.5 -281.5q0 -122 -36.5 -231.5t-100.5 -200.5l163 -162zM770 187
q70 0 136.5 23t120.5 65l-155 154l147 148l148 -149q42 60 63 131t21 146q0 107 -37.5 200.5t-104 165t-153.5 112t-186 40.5q-100 0 -187 -41t-153.5 -112.5t-104 -165t-37.5 -199.5q0 -107 37.5 -201t104.5 -165.5t154 -111.5t186 -40z" />
    <glyph glyph-name="R" unicode="R" horiz-adv-x="1179" 
d="M120 0v1400h515q114 0 205 -56t144.5 -150.5t53.5 -210.5q0 -98 -36.5 -179t-102 -138t-149.5 -82l338 -584h-241l-328 565h-191v-565h-208zM328 773h285q60 0 109.5 30t78.5 80t29 113t-29 113.5t-78.5 80t-109.5 29.5h-285v-446z" />
    <glyph glyph-name="S" unicode="S" horiz-adv-x="1239" 
d="M619 -26q-115 0 -221 36t-185 103.5t-113 160.5l195 73q17 -48 65.5 -85.5t116 -58.5t142.5 -21q80 0 150.5 26t114 72t43.5 108q0 64 -45.5 105t-116 65t-146.5 36q-147 24 -263.5 70t-184 129t-67.5 216q0 125 71.5 218t189 144.5t254.5 51.5q113 0 218.5 -35.5
t186 -103t115.5 -163.5l-197 -71q-17 49 -65 85.5t-115.5 57.5t-142.5 21q-80 1 -149.5 -25.5t-113.5 -72.5t-44 -107q0 -75 41 -114t110.5 -57.5t155.5 -33.5q138 -22 255.5 -73t189 -135.5t71.5 -207.5q0 -124 -71.5 -217.5t-189 -145t-255.5 -51.5z" />
    <glyph glyph-name="T" unicode="T" horiz-adv-x="1259" 
d="M1179 1400v-208h-446v-1192h-208v1192h-445v208h1099z" />
    <glyph glyph-name="U" unicode="U" horiz-adv-x="1348" 
d="M674 -26q-168 0 -292.5 82t-193 220.5t-68.5 307.5v816h208v-816q0 -110 40.5 -201.5t118 -146t187.5 -54.5q113 0 190 54.5t116.5 146t39.5 201.5v816h208v-816q0 -127 -39 -237.5t-112 -194.5t-175 -131t-228 -47z" />
    <glyph glyph-name="V" unicode="V" horiz-adv-x="1418" 
d="M578 0l-508 1400h220l418 -1153l420 1153h220l-508 -1400h-262z" />
    <glyph glyph-name="W" unicode="W" horiz-adv-x="1804" 
d="M428 0l-358 1400h214l262 -1027l261 1027h189l262 -1027l262 1027h214l-356 -1400h-239l-237 927l-237 -927h-237z" />
    <glyph glyph-name="X" unicode="X" horiz-adv-x="1403" 
d="M60 0l513 704l-507 696h257l378 -520l379 520h257l-506 -696l512 -704h-258l-384 526l-382 -526h-259z" />
    <glyph glyph-name="Y" unicode="Y" horiz-adv-x="1283" 
d="M978 1400h245l-478 -768v-632h-208v632l-477 768h245l336 -541z" />
    <glyph glyph-name="Z" unicode="Z" horiz-adv-x="1292" 
d="M80 0v208l852 984h-852v208h1132v-208l-852 -984h852v-208h-1132z" />
    <glyph glyph-name="bracketleft" unicode="[" horiz-adv-x="606" 
d="M506 96v-208h-386v1512h386v-208h-178v-1096h178z" />
    <glyph glyph-name="backslash" unicode="\" horiz-adv-x="773" 
d="M485 -112l-405 1512h208l405 -1512h-208z" />
    <glyph glyph-name="bracketright" unicode="]" horiz-adv-x="607" 
d="M100 -112v208h179v1096h-179v208h387v-1512h-387z" />
    <glyph glyph-name="asciicircum" unicode="^" horiz-adv-x="898" 
d="M80 1000l236 650h266l236 -650h-221l-147 407l-149 -407h-221z" />
    <glyph glyph-name="underscore" unicode="_" horiz-adv-x="1240" 
d="M120 96h1000v-208h-1000v208z" />
    <glyph glyph-name="grave" unicode="`" horiz-adv-x="934" 
d="M274 1398h208l80 -288h-138z" />
    <glyph glyph-name="a" unicode="a" horiz-adv-x="1186" 
d="M898 1000h208v-1000h-209l-8 145q-44 -77 -119 -124t-177 -47q-110 0 -207 41.5t-170.5 115.5t-114.5 170.5t-41 207.5q0 107 40 201.5t111 165.5t164.5 111.5t200.5 40.5q109 0 192.5 -49.5t138.5 -126.5zM588 175q88 0 154 43.5t102.5 117.5t36.5 164q0 91 -37 165
t-102.5 117.5t-153.5 43.5q-87 0 -159 -44t-114 -118t-42 -164q0 -91 43.5 -164.5t115 -117t156.5 -43.5z" />
    <glyph glyph-name="b" unicode="b" horiz-adv-x="1227" 
d="M640 1028q146 0 265.5 -71t190.5 -190.5t71 -265.5q0 -109 -41 -204.5t-113.5 -168t-168 -113.5t-204.5 -41q-105 0 -183.5 48.5t-128.5 124.5v-147h-208v1500h208v-645q50 77 128.5 125t183.5 48zM638 176q87 0 159 44t114.5 118t42.5 163q0 91 -43 165t-115 117.5
t-158 43.5q-87 0 -153 -44t-103 -118t-37 -164t37 -164t103 -117.5t153 -43.5z" />
    <glyph glyph-name="c" unicode="c" horiz-adv-x="1019" 
d="M773 284l186 -101q-68 -95 -172.5 -152t-226.5 -57q-138 0 -251.5 71t-181 190.5t-67.5 264.5q0 110 39 205.5t107.5 168t159.5 113.5t194 41q122 0 226.5 -57t172.5 -153l-186 -101q-42 50 -98 76.5t-115 26.5q-82 0 -148.5 -44.5t-105 -117t-38.5 -158.5
q0 -85 39 -157.5t105.5 -116.5t147.5 -44q62 0 118 28t95 74z" />
    <glyph glyph-name="d" unicode="d" horiz-adv-x="1227" 
d="M899 1500h208v-1500h-208v147q-49 -78 -128 -125.5t-185 -47.5q-109 0 -204 41t-167.5 113.5t-113.5 167.5t-41 204t41 204.5t113.5 168t167.5 113.5t204 41q106 0 185 -47.5t128 -124.5v645zM588 175q88 0 154 43.5t102.5 117.5t36.5 164q0 91 -37 165t-102.5 117.5
t-153.5 43.5q-87 0 -158.5 -44t-114 -118t-42.5 -164q0 -91 43.5 -164.5t115 -117t156.5 -43.5z" />
    <glyph glyph-name="e" unicode="e" horiz-adv-x="1118" 
d="M560 -26q-138 0 -251.5 71t-181 190.5t-67.5 264.5q0 110 39 205.5t107.5 168t159.5 113.5t194 41q115 0 211 -47.5t164 -131t100 -192t19 -230.5h-771q13 -69 50.5 -124.5t96 -87.5t130.5 -33q76 0 138.5 38t102.5 105l211 -49q-60 -133 -181 -217.5t-271 -84.5z
M276 586h568q-10 72 -50.5 130.5t-101 93t-132.5 34.5q-71 0 -131.5 -34t-100 -92.5t-52.5 -131.5z" />
    <glyph glyph-name="f" unicode="f" horiz-adv-x="707" 
d="M377 1227v-227h282v-208h-282v-792h-208v792h-119v208h119v227q0 82 40 149.5t107.5 107.5t150.5 40q60 0 117 -24t102 -74l-149 -147q-11 18 -30.5 27.5t-39.5 9.5q-37 0 -63.5 -26t-26.5 -63z" />
    <glyph glyph-name="g" unicode="g" horiz-adv-x="1209" 
d="M881 1000h208v-1026q0 -103 -43.5 -190t-117.5 -150.5t-169.5 -98.5t-199.5 -35q-105 0 -202 44.5t-170.5 120.5t-109.5 172l191 86q20 -62 64.5 -110t104 -76t122.5 -28q62 0 119.5 19.5t103 54.5t72.5 84t27 107v169q-49 -76 -126 -122.5t-179 -46.5q-106 0 -200 41
t-165 113.5t-111 167.5t-40 204t40 204.5t111 168t165 113.5t200 41q102 0 179 -46.5t126 -123.5v143zM578 175q87 0 152 44.5t101 118.5t36 162q0 90 -36.5 163.5t-101.5 118t-151 44.5q-84 0 -153.5 -44t-110.5 -118t-41 -164t41.5 -164t111 -117.5t152.5 -43.5z" />
    <glyph glyph-name="h" unicode="h" horiz-adv-x="1100" 
d="M1020 627v-627h-208v576q0 67 -32.5 122t-87 87.5t-122.5 32.5q-66 0 -121 -32.5t-88 -87.5t-33 -122v-576h-208v1500h208v-606q52 62 128 98t164 36q111 0 202 -54t144.5 -145t53.5 -202z" />
    <glyph glyph-name="i" unicode="i" 
d="M120 1000h208v-1000h-208v1000zM226 1145q-48 0 -80 31t-32 78q0 46 32 77.5t79 31.5q46 0 78 -31.5t32 -77.5q0 -47 -31.5 -78t-77.5 -31z" />
    <glyph glyph-name="j" unicode="j" horiz-adv-x="471" 
d="M-80 -500v208q63 0 113.5 28.5t80 78.5t29.5 111v1074h208v-1074q0 -117 -57 -214t-154.5 -154.5t-219.5 -57.5zM249 1145q-48 0 -80 31t-32 78q0 46 32 77.5t79 31.5q46 0 78 -31.5t32 -77.5q0 -47 -31.5 -78t-77.5 -31z" />
    <glyph glyph-name="k" unicode="k" horiz-adv-x="1040" 
d="M975 0h-240l-246 424l-161 -192v-232h-208v1500h208v-945l372 445h272l-341 -407z" />
    <glyph glyph-name="l" unicode="l" 
d="M120 0v1500h208v-1500h-208z" />
    <glyph glyph-name="m" unicode="m" horiz-adv-x="1777" 
d="M120 0v1000h208v-106q52 62 127.5 98t163.5 36q107 0 197 -51.5t143 -136.5q53 85 141.5 136.5t195.5 51.5q111 0 202 -54t145 -145t54 -202v-627h-208v574q0 66 -32 121t-86 89t-120 34t-120 -32t-86 -87t-32 -125v-574h-208v574q0 70 -32 125t-86.5 87t-120.5 32
q-65 0 -119.5 -34t-86.5 -89t-32 -121v-574h-208z" />
    <glyph glyph-name="n" unicode="n" horiz-adv-x="1100" 
d="M1020 627v-627h-208v576q0 67 -32.5 122t-87 87.5t-122.5 32.5q-66 0 -121 -32.5t-88 -87.5t-33 -122v-576h-208v1000h208v-106q52 62 128 98t164 36q111 0 202 -54t144.5 -145t53.5 -202z" />
    <glyph glyph-name="o" unicode="o" horiz-adv-x="1120" 
d="M560 -26q-138 0 -251.5 71t-181 190.5t-67.5 264.5q0 110 39 205.5t107.5 168t159.5 113.5t194 41q138 0 251.5 -71t181 -191t67.5 -266q0 -109 -39 -204t-107.5 -167.5t-159 -113.5t-194.5 -41zM560 182q83 0 149 44t104.5 116.5t38.5 157.5q0 87 -39.5 160
t-105.5 116.5t-147 43.5q-82 0 -148.5 -44t-105 -117t-38.5 -159q0 -89 40 -161t106.5 -114.5t145.5 -42.5z" />
    <glyph glyph-name="p" unicode="p" horiz-adv-x="1226" 
d="M328 -500h-208v1500h208v-147q50 77 128 125t184 48q109 0 204.5 -41t167.5 -113.5t113 -167.5t41 -204t-41 -205t-113 -168.5t-167.5 -113.5t-204.5 -41q-106 0 -184 48.5t-128 124.5v-645zM638 825q-87 0 -153 -44t-103 -117.5t-37 -163.5t37 -164t103 -118t153 -44
q86 0 158 43.5t115 117.5t43 165q0 89 -42.5 163t-114.5 118t-159 44z" />
    <glyph glyph-name="q" unicode="q" horiz-adv-x="1226" 
d="M586 -28q-145 0 -264.5 71t-190.5 191t-71 266q0 109 41 204t113.5 167.5t167.5 113.5t204 41q106 0 184 -48t128 -125v147h208v-1500h-208v645q-50 -76 -128 -124.5t-184 -48.5zM588 825q-87 0 -159 -44t-114 -118t-42 -163q0 -91 43 -165t114.5 -117.5t157.5 -43.5
q88 0 154 44t102 118t36 164t-36.5 163.5t-102 117.5t-153.5 44z" />
    <glyph glyph-name="r" unicode="r" horiz-adv-x="751" 
d="M120 0v1000h208v-106q52 62 128 98t164 36q56 0 111 -15l-83 -210q-39 15 -78 15q-66 0 -121 -32.5t-88 -87.5t-33 -122v-576h-208z" />
    <glyph glyph-name="s" unicode="s" horiz-adv-x="865" 
d="M420 -19q-79 5 -154 32t-131.5 73.5t-84.5 109.5l177 76q13 -27 45.5 -53t76.5 -42.5t92 -16.5q47 0 87.5 13.5t66.5 41.5t26 67q0 44 -29.5 68.5t-73.5 37.5t-88 25q-98 22 -179.5 60.5t-129.5 99t-48 148.5q0 96 52 166.5t136.5 108.5t180.5 38q120 0 220 -51t153 -140
l-165 -98q-15 30 -45 54t-68 38.5t-79 16.5q-51 2 -94.5 -11.5t-69.5 -42.5t-26 -74q0 -44 31 -65.5t78.5 -34.5t97.5 -29q89 -28 167 -68.5t126 -99.5t46 -144q0 -94 -56.5 -165t-146.5 -108t-191 -31z" />
    <glyph glyph-name="t" unicode="t" horiz-adv-x="707" 
d="M648 792h-210l-1 -792h-208l1 792h-159v208h159l-1 314h208l1 -314h210v-208z" />
    <glyph glyph-name="u" unicode="u" horiz-adv-x="1060" 
d="M80 375v625h208v-574q0 -67 33 -122t88 -87.5t121 -32.5q67 0 121.5 32.5t87 87.5t32.5 122v574h208l1 -1000h-208l-1 108q-51 -62 -127 -98t-163 -36q-111 0 -202 54t-145 145t-54 202z" />
    <glyph glyph-name="v" unicode="v" horiz-adv-x="1116" 
d="M692 0h-267l-365 1002h222l276 -762l277 762h221z" />
    <glyph glyph-name="w" unicode="w" horiz-adv-x="1677" 
d="M602 0h-207l-335 1000h204l236 -702l234 702h210l234 -702l235 702h204l-334 -1000h-209l-236 707z" />
    <glyph glyph-name="x" unicode="x" horiz-adv-x="1149" 
d="M80 0l366 502l-364 500h257l235 -322l236 322h256l-363 -500l366 -502h-257l-238 326l-237 -326h-257z" />
    <glyph glyph-name="y" unicode="y" horiz-adv-x="1107" 
d="M805 1000h222l-548 -1500h-221l181 500l-359 1000h227l236 -715z" />
    <glyph glyph-name="z" unicode="z" horiz-adv-x="1014" 
d="M934 792l-556 -584h556v-208h-854v208l556 584h-556v208h854v-208z" />
    <glyph glyph-name="braceleft" unicode="{" horiz-adv-x="814" 
d="M618 -113q-97 0 -176.5 47.5t-126.5 127t-47 175.5v245q0 29 -22.5 46.5t-52 31.5t-51.5 33t-22 50t22 50.5t51.5 34.5t52 32t22.5 44v246q0 96 47 175.5t126.5 127t176.5 47.5h96v-208h-96q-38 0 -70.5 -19t-52 -51.5t-19.5 -71.5v-253q-2 -36 -19 -59t-40 -44t-44 -51
q22 -31 45 -52t39.5 -42.5t18.5 -58.5v-253q0 -39 19.5 -71t51.5 -51.5t71 -19.5h96v-208h-96z" />
    <glyph glyph-name="bar" unicode="|" horiz-adv-x="488" 
d="M140 1400h208v-1702h-208v1702z" />
    <glyph glyph-name="braceright" unicode="}" horiz-adv-x="814" 
d="M100 -113v208h96q39 0 71.5 19.5t51.5 51.5t19 71v253q2 37 19 58.5t40 42.5t46 52q-22 30 -45.5 51t-40.5 44t-19 59v253q0 39 -19 71.5t-51.5 51.5t-71.5 19h-96v208h96q97 0 176.5 -47.5t126.5 -127t47 -175.5v-246q1 -27 23.5 -44t51.5 -32t51 -34.5t22 -50.5
t-22 -50t-51 -33t-51.5 -31.5t-23.5 -46.5v-245q0 -96 -47 -175.5t-126.5 -127t-176.5 -47.5h-96z" />
    <glyph glyph-name="asciitilde" unicode="~" horiz-adv-x="1277" 
d="M939 406q-65 0 -139.5 29t-150.5 66.5t-143.5 66.5t-119.5 29q-36 1 -60 -18.5t-33.5 -51t-4.5 -65.5l-203 -1q-16 85 19 161t104.5 124t158.5 48q63 0 131.5 -29.5t137 -68.5t133 -68.5t117.5 -29.5q37 0 61.5 19t35 50t5.5 66l203 2q17 -86 -11.5 -161t-91 -121.5
t-149.5 -46.5z" />
    <glyph glyph-name="uni00A0" unicode="&#xa0;" horiz-adv-x="480" 
 />
    <glyph glyph-name="exclamdown" unicode="&#xa1;" horiz-adv-x="403" 
d="M188 1026q47 0 78.5 -31.5t31.5 -79.5q0 -45 -31.5 -76.5t-78.5 -31.5q-45 0 -76.5 31.5t-31.5 76.5q0 48 31.5 79.5t76.5 31.5zM278 580v-980h-178v980h178z" />
    <glyph glyph-name="cent" unicode="&#xa2;" horiz-adv-x="1092" 
d="M507 0v205q-120 18 -217 88t-153.5 176.5t-56.5 232.5t56.5 232t153.5 176t217 87v203h147v-203q113 -15 207 -78t151 -157l-180 -104q-40 63 -107.5 100.5t-142.5 37.5q-80 0 -147 -40t-107 -106.5t-40 -147.5q0 -82 40.5 -149.5t107.5 -107t146 -39.5q75 0 142.5 37.5
t107.5 100.5l180 -104q-57 -94 -151 -157t-207 -78v-205h-147z" />
    <glyph glyph-name="sterling" unicode="&#xa3;" horiz-adv-x="1184" 
d="M104 0v208q53 0 106.5 14t95.5 39.5t61 62.5t4 82q-9 47 -33.5 85t-58 73.5t-68 71t-64.5 76t-48.5 91t-18.5 113.5q0 105 40 197t110.5 162.5t162.5 110.5t197 40q107 0 199.5 -40t163.5 -110t111 -162.5t40 -197.5h-208q0 83 -41.5 151.5t-110.5 109.5t-154 41
q-82 0 -151 -41t-110 -109.5t-41 -151.5q0 -70 21.5 -119t55.5 -87t72.5 -72t72.5 -73.5t55.5 -91.5t21.5 -126q0 -30 -11.5 -58t-28.5 -49t-35 -32h575v-208h-983zM104 447v146h763v-146h-763z" />
    <glyph glyph-name="currency" unicode="&#xa4;" horiz-adv-x="1011" 
d="M183 274l-103 103l127 128q-38 59 -51 126.5t0.5 135.5t52.5 126l-129 131l103 102l130 -129q57 39 125 52.5t136.5 1t126.5 -51.5l128 127l102 -102l-126 -127q42 -59 55.5 -128t0.5 -138t-54 -128l124 -126l-102 -103l-125 125q-60 -40 -129 -53.5t-137 0t-128 55.5z
M508 485q59 1 107 29.5t77 76.5t29 107q0 62 -29.5 109.5t-77.5 75t-106 27.5q-61 1 -109 -28.5t-76 -78t-28 -105.5q0 -59 29 -108t78 -77t106 -28z" />
    <glyph glyph-name="yen" unicode="&#xa5;" horiz-adv-x="1298" 
d="M545 0v164h-260v146h260v120h-260v146h260v56l-478 768h246l336 -541l336 541h246l-478 -768v-56h260v-146h-260v-120h260v-146h-260v-164h-208z" />
    <glyph glyph-name="brokenbar" unicode="&#xa6;" 
d="M120 448h208v-750h-208v750zM120 1400h208v-750h-208v750z" />
    <glyph glyph-name="section" unicode="&#xa7;" horiz-adv-x="1093" 
d="M544 -382q-120 0 -220 51t-153 140l165 97q15 -29 45 -53t68.5 -39t78.5 -17q52 -1 95 12.5t69 42.5t26 74q0 44 -30.5 68.5t-78 37.5t-98.5 23q-113 18 -201.5 80.5t-139 157t-50.5 206.5q0 78 26.5 147.5t74.5 125t112 89.5q-77 30 -115 81.5t-38 127.5q0 96 52 166
t136.5 108t180.5 38q120 0 220 -50.5t153 -140.5l-165 -97q-15 29 -45 53t-68 39t-79 17q-51 1 -94.5 -12.5t-69.5 -42.5t-26 -74q0 -43 29 -67t75.5 -37t98.5 -24q118 -23 207 -82.5t138.5 -151.5t49.5 -213q0 -77 -27 -146.5t-75.5 -124.5t-111.5 -88q77 -31 115.5 -82.5
t38.5 -127.5q0 -96 -51.5 -166t-136 -108t-181.5 -38zM555 246q63 0 116.5 35.5t85.5 92.5t32 123q0 78 -34.5 136t-92.5 89.5t-129 31.5q-60 0 -112.5 -36t-84.5 -94t-32 -125q0 -71 34 -128t90.5 -91t126.5 -34z" />
    <glyph glyph-name="dieresis" unicode="&#xa8;" horiz-adv-x="1390" 
d="M512 1074q-46 0 -79 31t-33 78q0 46 33 78t79 32t78 -32t32 -78q0 -47 -32 -78t-78 -31zM880 1074q-47 0 -79.5 31t-32.5 78q0 46 32.5 78t79.5 32q46 0 78 -32t32 -78q0 -47 -32 -78t-78 -31z" />
    <glyph glyph-name="copyright" unicode="&#xa9;" horiz-adv-x="1871" 
d="M935 -284q-178 0 -333 66.5t-272 184t-183.5 272.5t-66.5 332q0 178 66.5 333t183.5 272t272 183.5t333 66.5q177 0 332 -66t272.5 -183.5t184.5 -272.5t67 -332q0 -178 -67 -333t-184.5 -272.5t-272.5 -184t-332 -66.5zM935 -76q137 0 254.5 51.5t206 141t138 206.5
t49.5 248q0 134 -50.5 251.5t-139.5 206.5t-206.5 139.5t-251.5 49.5q-136 -1 -253.5 -51.5t-206 -140.5t-138 -206t-49.5 -249q0 -136 51 -254t141 -206t207 -137.5t248 -49.5zM1152 355l187 -101q-69 -95 -173 -152t-227 -57q-138 0 -251.5 71t-181 190.5t-67.5 264.5
q0 110 39 205.5t107.5 168t159.5 113.5t194 41q123 0 227 -57t173 -153l-187 -100q-41 49 -97.5 75.5t-115.5 26.5q-82 0 -148.5 -44t-105 -117t-38.5 -158q0 -86 39 -158.5t105.5 -116.5t147.5 -44q63 0 118.5 28t94.5 74z" />
    <glyph glyph-name="ordfeminine" unicode="&#xaa;" horiz-adv-x="1186" 
d="M898 1000h208v-1000h-209l-8 145q-44 -77 -119 -124t-177 -47q-110 0 -207 41.5t-170.5 115.5t-114.5 170.5t-41 207.5q0 107 40 201.5t111 165.5t164.5 111.5t200.5 40.5q109 0 192.5 -49.5t138.5 -126.5zM588 175q88 0 154 43.5t102.5 117.5t36.5 164q0 91 -37 165
t-102.5 117.5t-153.5 43.5q-87 0 -159 -44t-114 -118t-42 -164q0 -91 43.5 -164.5t115 -117t156.5 -43.5z" />
    <glyph glyph-name="guillemotleft" unicode="&#xab;" horiz-adv-x="1122" 
d="M420 261l-300 340l300 338h215l-298 -338l298 -340h-215zM807 261l-300 340l300 338h215l-298 -338l298 -340h-215z" />
    <glyph glyph-name="logicalnot" unicode="&#xac;" horiz-adv-x="1006" 
d="M718 298v396h-638v208h846v-604h-208z" />
    <glyph glyph-name="uni00AD" unicode="&#xad;" horiz-adv-x="896" 
d="M136 704h640v-208h-640v208z" />
    <glyph glyph-name="registered" unicode="&#xae;" horiz-adv-x="1080" 
d="M539 421q-99 0 -186 37.5t-153 104t-103 153.5t-37 185q0 99 37 185.5t103 153t153 103.5t186 37q102 0 189 -38t153 -105t102.5 -153t36.5 -183q0 -99 -38 -186t-104 -153.5t-153 -103.5t-186 -37zM539 573q91 0 165 44.5t118.5 119t44.5 164.5t-44.5 164.5
t-118.5 118.5t-165 44q-90 0 -164 -44t-118.5 -118.5t-44.5 -164.5t44.5 -164.5t118.5 -119t164 -44.5zM407 704v417h160q52 0 88 -38t36 -92q0 -39 -19.5 -70t-52.5 -45l99 -172h-104l-93 159h-23v-159h-91zM498 953h69q14 0 23.5 11.5t9.5 26.5q0 17 -9.5 28t-23.5 11h-69
v-77z" />
    <glyph glyph-name="macron" unicode="&#xaf;" horiz-adv-x="1200" 
d="M262 1311h676v-158h-676v158z" />
    <glyph glyph-name="degree" unicode="&#xb0;" horiz-adv-x="841" 
d="M421 740q-96 0 -173 47.5t-122.5 125t-45.5 167.5q0 93 45.5 170t123 123.5t172.5 46.5q97 0 174 -47.5t121.5 -124.5t44.5 -168q0 -96 -46.5 -173.5t-124 -122t-169.5 -44.5zM421 948q55 0 93.5 38.5t38.5 93.5q0 56 -38.5 94t-93.5 38t-94 -38t-39 -94q0 -55 39 -93.5
t94 -38.5z" />
    <glyph glyph-name="plusminus" unicode="&#xb1;" horiz-adv-x="1160" 
d="M476 361v396h-396v208h396v396h208v-396h396v-208h-396v-396h-208zM80 0v208h1000v-208h-1000z" />
    <glyph glyph-name="uni00B2" unicode="&#xb2;" horiz-adv-x="705" 
d="M96 818v118q41 28 91.5 62t99.5 73t87.5 83t55.5 92q0 42 -29 70t-71 28t-72.5 -28t-30.5 -70h-131q0 64 31.5 114.5t85 79t117.5 28.5q96 0 163.5 -63t67.5 -159q0 -41 -21 -81.5t-55 -78.5t-74.5 -72.5t-78.5 -64.5h222v-131h-458z" />
    <glyph glyph-name="uni00B3" unicode="&#xb3;" horiz-adv-x="570" 
d="M286 798q-88 0 -151 57t-63 146h131q0 -35 24 -57t59 -22q33 0 56.5 22t23.5 57q0 40 -33 70t-97 30v93q62 0 87.5 26t25.5 60q0 28 -20.5 46t-47.5 18t-47 -18t-20 -46h-131q0 83 58 135t140 52q83 0 141 -52t58 -135q0 -38 -14 -72.5t-36 -56.5q34 -30 51 -67t17 -83
q0 -89 -63 -146t-149 -57z" />
    <glyph glyph-name="acute" unicode="&#xb4;" horiz-adv-x="934" 
d="M372 1110l80 288h208l-148 -288h-140z" />
    <glyph glyph-name="uni00B5" unicode="&#xb5;" horiz-adv-x="1108" 
d="M80 -432v1432h208v-518q0 -85 35.5 -154.5t97 -111t140.5 -41.5q77 0 135.5 41.5t91 111t32.5 154.5v518h208v-1000h-208v136q-52 -75 -126 -119t-167 -44q-73 0 -134 29.5t-105 77.5v-512h-208z" />
    <glyph glyph-name="paragraph" unicode="&#xb6;" horiz-adv-x="988" 
d="M420 -302v1020q-94 0 -171 46t-123 123.5t-46 171.5t46 171.5t123 123.5t171 46h208v-1702h-208zM700 -302v1702h208v-1702h-208z" />
    <glyph glyph-name="periodcentered" unicode="&#xb7;" horiz-adv-x="379" 
d="M189 490q-46 0 -77.5 32t-31.5 79q0 44 31.5 76.5t77.5 32.5t78 -32.5t32 -76.5q0 -47 -32 -79t-78 -32z" />
    <glyph glyph-name="cedilla" unicode="&#xb8;" horiz-adv-x="1258" 
d="M612 -373q-69 -18 -130.5 17.5t-80.5 103.5l112 30q6 -22 26 -33.5t43 -5.5t34.5 26t5.5 43t-26 33.5t-43 6.5l-117 -7l134 235l101 -58l-40 -68q37 -13 64.5 -42.5t37.5 -70.5q19 -68 -16.5 -130t-104.5 -80z" />
    <glyph glyph-name="uni00B9" unicode="&#xb9;" horiz-adv-x="441" 
d="M166 818v500h-70l19 131h182v-631h-131z" />
    <glyph glyph-name="ordmasculine" unicode="&#xba;" horiz-adv-x="1120" 
d="M560 -26q-138 0 -251.5 71t-181 190.5t-67.5 264.5q0 110 39 205.5t107.5 168t159.5 113.5t194 41q138 0 251.5 -71t181 -191t67.5 -266q0 -109 -39 -204t-107.5 -167.5t-159 -113.5t-194.5 -41zM560 182q83 0 149 44t104.5 116.5t38.5 157.5q0 87 -39.5 160
t-105.5 116.5t-147 43.5q-82 0 -148.5 -44t-105 -117t-38.5 -159q0 -89 40 -161t106.5 -114.5t145.5 -42.5z" />
    <glyph glyph-name="guillemotright" unicode="&#xbb;" horiz-adv-x="1142" 
d="M487 261l299 340l-299 338h215l300 -338l-300 -340h-215zM100 261l299 340l-299 338h215l300 -338l-300 -340h-215z" />
    <glyph glyph-name="onequarter" unicode="&#xbc;" horiz-adv-x="1579" 
d="M166 818v500h-70l19 131h182v-631h-131zM174 0l808 1400h176l-808 -1400h-176zM1240 0v106h-253v158l233 367h152v-394h62v-131h-62v-106h-132zM1117 237h134v212z" />
    <glyph glyph-name="onehalf" unicode="&#xbd;" horiz-adv-x="1596" 
d="M166 818v500h-70l19 131h182v-631h-131zM174 0l808 1400h176l-808 -1400h-176zM987 0v118q41 28 91.5 62t99.5 73.5t87.5 83.5t55.5 92q0 42 -29 69.5t-71 27.5t-72.5 -27.5t-30.5 -69.5h-131q0 64 31.5 116t85 82t117.5 30t116.5 -30t83.5 -82t31 -116q0 -41 -21 -81.5
t-55 -78.5t-74.5 -73t-78.5 -65h222v-131h-458z" />
    <glyph glyph-name="threequarters" unicode="&#xbe;" horiz-adv-x="1707" 
d="M286 798q-88 0 -151 57t-63 146h131q0 -35 24 -57t59 -22q33 0 56.5 22t23.5 57q0 40 -33 70t-97 30v93q62 0 87.5 26t25.5 60q0 28 -20.5 46t-47.5 18t-47 -18t-20 -46h-131q0 83 58 135t140 52q83 0 141 -52t58 -135q0 -38 -14 -72.5t-36 -56.5q34 -30 51 -67t17 -83
q0 -89 -63 -146t-149 -57zM303 0l808 1400h176l-808 -1400h-176zM1369 0v106h-253v158l233 367h152v-394h62v-131h-62v-106h-132zM1246 237h134v212z" />
    <glyph glyph-name="questiondown" unicode="&#xbf;" horiz-adv-x="1056" 
d="M516 -427q-120 0 -219 59t-158 158t-59 218q0 123 60 227.5t163 159.5q45 23 70 65.5t25 93.5h208q0 -107 -54 -198.5t-150 -143.5q-53 -29 -83.5 -83.5t-30.5 -120.5q0 -63 31 -114t82.5 -82t114.5 -31t114.5 31t82.5 82t31 114h208q0 -119 -58.5 -218t-158 -158
t-219.5 -59zM497 807q-45 0 -76.5 31.5t-31.5 76.5q0 48 31.5 79.5t76.5 31.5q46 0 78 -31.5t32 -79.5q0 -45 -32 -76.5t-78 -31.5z" />
    <glyph glyph-name="Agrave" unicode="&#xc0;" horiz-adv-x="1421" 
d="M589 1400h243l509 -1400h-220l-97 266h-627l-96 -266h-221zM474 474h473l-237 650zM473 1798h208l80 -288h-138z" />
    <glyph glyph-name="Aacute" unicode="&#xc1;" horiz-adv-x="1421" 
d="M589 1400h243l509 -1400h-220l-97 266h-627l-96 -266h-221zM474 474h473l-237 650zM656 1510l80 288h208l-148 -288h-140z" />
    <glyph glyph-name="Acircumflex" unicode="&#xc2;" horiz-adv-x="1421" 
d="M589 1400h243l509 -1400h-220l-97 266h-627l-96 -266h-221zM474 474h473l-237 650zM827 1798l193 -288h-139l-170 197l-169 -197h-138l190 288h233z" />
    <glyph glyph-name="Atilde" unicode="&#xc3;" horiz-adv-x="1421" 
d="M589 1400h243l509 -1400h-220l-97 266h-627l-96 -266h-221zM474 474h473l-237 650zM866 1514q-37 0 -85.5 25t-97.5 56.5t-87 51.5t-55 9q-18 -11 -25 -33.5t3 -57.5l-126 -34q-24 70 -10.5 130t58.5 96.5t113 36.5q37 0 84 -22t94 -50t85 -50t56 -22q22 0 30 15.5
t7 36.5t-8 39l128 41q25 -75 9.5 -135.5t-61 -96.5t-112.5 -36z" />
    <glyph glyph-name="Adieresis" unicode="&#xc4;" horiz-adv-x="1421" 
d="M589 1400h243l509 -1400h-220l-97 266h-627l-96 -266h-221zM474 474h473l-237 650zM527 1474q-46 0 -79 31t-33 78q0 46 33 78t79 32t78 -32t32 -78q0 -47 -32 -78t-78 -31zM895 1474q-47 0 -79.5 31t-32.5 78q0 46 32.5 78t79.5 32q46 0 78 -32t32 -78q0 -47 -32 -78
t-78 -31z" />
    <glyph glyph-name="Aring" unicode="&#xc5;" horiz-adv-x="1421" 
d="M589 1400h243l509 -1400h-220l-97 266h-627l-96 -266h-221zM474 474h473l-237 650zM710 1478q-72 0 -124 52.5t-52 124.5q0 48 24 88t64 63.5t88 23.5q73 0 124.5 -51.5t51.5 -123.5q0 -74 -51.5 -125.5t-124.5 -51.5zM710 1582q30 0 51 21.5t21 51.5q0 29 -21 49.5
t-51 20.5t-50.5 -20.5t-20.5 -49.5q0 -30 20.5 -51.5t50.5 -21.5z" />
    <glyph glyph-name="AE" unicode="&#xc6;" horiz-adv-x="1658" 
d="M80 0l509 1400h969v-208h-521v-388h425v-208h-425v-388h521v-208h-729v266h-432l-96 -266h-221zM474 474h355v718h-94z" />
    <glyph glyph-name="Ccedilla" unicode="&#xc7;" horiz-adv-x="1418" 
d="M768 -26q-142 0 -267 56.5t-219.5 156t-148 231.5t-53.5 282t53.5 282t148 231.5t219.5 156t267 56.5q170 0 313 -79t237 -210l-185 -99q-65 82 -161 131t-204 49q-100 0 -187 -41t-153 -112t-103 -165t-37 -200q0 -107 37 -200.5t103.5 -165t153.5 -112t186 -40.5
q110 0 205.5 49.5t159.5 131.5l185 -101q-94 -131 -237 -209.5t-313 -78.5zM774 -373q-69 -18 -130.5 17.5t-80.5 103.5l112 30q6 -22 26 -33.5t43 -5.5t34.5 26t5.5 43t-26 33.5t-43 6.5l-117 -7l134 235l101 -58l-40 -68q37 -13 64.5 -42.5t37.5 -70.5q19 -68 -16.5 -130
t-104.5 -80z" />
    <glyph glyph-name="Egrave" unicode="&#xc8;" horiz-adv-x="1089" 
d="M120 0v1400h869v-208h-661v-338h532v-208h-532v-438h661v-208h-869zM307 1798h208l80 -288h-138z" />
    <glyph glyph-name="Eacute" unicode="&#xc9;" horiz-adv-x="1089" 
d="M120 0v1400h869v-208h-661v-338h532v-208h-532v-438h661v-208h-869zM490 1510l80 288h208l-148 -288h-140z" />
    <glyph glyph-name="Ecircumflex" unicode="&#xca;" horiz-adv-x="1089" 
d="M120 0v1400h869v-208h-661v-338h532v-208h-532v-438h661v-208h-869zM661 1798l193 -288h-139l-170 197l-169 -197h-138l190 288h233z" />
    <glyph glyph-name="Edieresis" unicode="&#xcb;" horiz-adv-x="1089" 
d="M120 0v1400h869v-208h-661v-338h532v-208h-532v-438h661v-208h-869zM361 1474q-46 0 -79 31t-33 78q0 46 33 78t79 32t78 -32t32 -78q0 -47 -32 -78t-78 -31zM729 1474q-47 0 -79.5 31t-32.5 78q0 46 32.5 78t79.5 32q46 0 78 -32t32 -78q0 -47 -32 -78t-78 -31z" />
    <glyph glyph-name="Igrave" unicode="&#xcc;" horiz-adv-x="508" 
d="M150 0v1400h208v-1400h-208zM16 1798h208l80 -288h-138z" />
    <glyph glyph-name="Iacute" unicode="&#xcd;" horiz-adv-x="508" 
d="M150 0v1400h208v-1400h-208zM200 1510l80 288h208l-148 -288h-140z" />
    <glyph glyph-name="Icircumflex" unicode="&#xce;" horiz-adv-x="508" 
d="M150 0v1400h208v-1400h-208zM370 1798l193 -288h-139l-170 197l-169 -197h-138l190 288h233z" />
    <glyph glyph-name="Idieresis" unicode="&#xcf;" horiz-adv-x="508" 
d="M150 0v1400h208v-1400h-208zM71 1474q-46 0 -79 31t-33 78q0 46 33 78t79 32t78 -32t32 -78q0 -47 -32 -78t-78 -31zM439 1474q-47 0 -79.5 31t-32.5 78q0 46 32.5 78t79.5 32q46 0 78 -32t32 -78q0 -47 -32 -78t-78 -31z" />
    <glyph glyph-name="Eth" unicode="&#xd0;" horiz-adv-x="1458" 
d="M235 0v646h-135v208h135v546h463q145 0 271.5 -54.5t223 -151t151 -223t54.5 -271.5t-54.5 -271.5t-151 -223t-223 -151t-271.5 -54.5h-463zM443 208h255q103 0 192 38.5t156.5 107t105.5 157.5t38 189q0 103 -39 192t-107 156.5t-156.5 105.5t-189.5 38h-255v-338h300
v-208h-300v-438z" />
    <glyph glyph-name="Ntilde" unicode="&#xd1;" horiz-adv-x="1316" 
d="M120 0v1400h225l643 -1024v1024h208v-1400h-225l-643 1024v-1024h-208zM813 1514q-37 0 -85.5 25t-97.5 56.5t-87 51.5t-55 9q-18 -11 -25 -33.5t3 -57.5l-126 -34q-24 70 -10.5 130t58.5 96.5t113 36.5q37 0 84 -22t94 -50t85 -50t56 -22q22 0 30 15.5t7 36.5t-8 39
l128 41q25 -75 9.5 -135.5t-61 -96.5t-112.5 -36z" />
    <glyph glyph-name="Ograve" unicode="&#xd2;" horiz-adv-x="1540" 
d="M770 -26q-142 0 -267 56.5t-220 156.5t-149 231.5t-54 281.5t54 281.5t149 231.5t220 156.5t267 56.5q143 0 268 -56.5t220 -156.5t148.5 -231.5t53.5 -281.5t-53.5 -281.5t-148.5 -231.5t-220 -156.5t-268 -56.5zM770 182q100 0 187 41t153.5 112.5t104 165t37.5 199.5
t-37.5 200t-104 165.5t-153.5 112t-187 40.5t-187 -41t-153.5 -112.5t-104 -165t-37.5 -199.5q0 -107 37.5 -200.5t104 -165t153.5 -112t187 -40.5zM532 1798h208l80 -288h-138z" />
    <glyph glyph-name="Oacute" unicode="&#xd3;" horiz-adv-x="1540" 
d="M770 -26q-142 0 -267 56.5t-220 156.5t-149 231.5t-54 281.5t54 281.5t149 231.5t220 156.5t267 56.5q143 0 268 -56.5t220 -156.5t148.5 -231.5t53.5 -281.5t-53.5 -281.5t-148.5 -231.5t-220 -156.5t-268 -56.5zM770 182q100 0 187 41t153.5 112.5t104 165t37.5 199.5
t-37.5 200t-104 165.5t-153.5 112t-187 40.5t-187 -41t-153.5 -112.5t-104 -165t-37.5 -199.5q0 -107 37.5 -200.5t104 -165t153.5 -112t187 -40.5zM716 1510l80 288h208l-148 -288h-140z" />
    <glyph glyph-name="Ocircumflex" unicode="&#xd4;" horiz-adv-x="1540" 
d="M770 -26q-142 0 -267 56.5t-220 156.5t-149 231.5t-54 281.5t54 281.5t149 231.5t220 156.5t267 56.5q143 0 268 -56.5t220 -156.5t148.5 -231.5t53.5 -281.5t-53.5 -281.5t-148.5 -231.5t-220 -156.5t-268 -56.5zM770 182q100 0 187 41t153.5 112.5t104 165t37.5 199.5
t-37.5 200t-104 165.5t-153.5 112t-187 40.5t-187 -41t-153.5 -112.5t-104 -165t-37.5 -199.5q0 -107 37.5 -200.5t104 -165t153.5 -112t187 -40.5zM886 1798l193 -288h-139l-170 197l-169 -197h-138l190 288h233z" />
    <glyph glyph-name="Otilde" unicode="&#xd5;" horiz-adv-x="1540" 
d="M770 -26q-142 0 -267 56.5t-220 156.5t-149 231.5t-54 281.5t54 281.5t149 231.5t220 156.5t267 56.5q143 0 268 -56.5t220 -156.5t148.5 -231.5t53.5 -281.5t-53.5 -281.5t-148.5 -231.5t-220 -156.5t-268 -56.5zM770 182q100 0 187 41t153.5 112.5t104 165t37.5 199.5
t-37.5 200t-104 165.5t-153.5 112t-187 40.5t-187 -41t-153.5 -112.5t-104 -165t-37.5 -199.5q0 -107 37.5 -200.5t104 -165t153.5 -112t187 -40.5zM925 1514q-37 0 -85.5 25t-97.5 56.5t-87 51.5t-55 9q-18 -11 -25 -33.5t3 -57.5l-126 -34q-24 70 -10.5 130t58.5 96.5
t113 36.5q37 0 84 -22t94 -50t85 -50t56 -22q22 0 30 15.5t7 36.5t-8 39l128 41q25 -75 9.5 -135.5t-61 -96.5t-112.5 -36z" />
    <glyph glyph-name="Odieresis" unicode="&#xd6;" horiz-adv-x="1540" 
d="M770 -26q-142 0 -267 56.5t-220 156.5t-149 231.5t-54 281.5t54 281.5t149 231.5t220 156.5t267 56.5q143 0 268 -56.5t220 -156.5t148.5 -231.5t53.5 -281.5t-53.5 -281.5t-148.5 -231.5t-220 -156.5t-268 -56.5zM770 182q100 0 187 41t153.5 112.5t104 165t37.5 199.5
t-37.5 200t-104 165.5t-153.5 112t-187 40.5t-187 -41t-153.5 -112.5t-104 -165t-37.5 -199.5q0 -107 37.5 -200.5t104 -165t153.5 -112t187 -40.5zM587 1474q-46 0 -79 31t-33 78q0 46 33 78t79 32t78 -32t32 -78q0 -47 -32 -78t-78 -31zM955 1474q-47 0 -79.5 31t-32.5 78
q0 46 32.5 78t79.5 32q46 0 78 -32t32 -78q0 -47 -32 -78t-78 -31z" />
    <glyph glyph-name="multiply" unicode="&#xd7;" horiz-adv-x="1014" 
d="M227 173l-147 147l279 280l-279 280l147 147l279 -280l280 280l148 -147l-281 -280l281 -280l-148 -147l-280 280z" />
    <glyph glyph-name="Oslash" unicode="&#xd8;" horiz-adv-x="1540" 
d="M430 -99l-180 104l80 141q-112 99 -181 243t-69 311q0 150 54 281.5t149 231.5t220 156.5t267 56.5q72 0 138.5 -15t127.5 -43l76 131l180 -104l-81 -139q114 -99 181.5 -243.5t67.5 -312.5q0 -150 -53.5 -281.5t-148.5 -231.5t-220 -156.5t-268 -56.5q-70 0 -136 15.5
t-128 43.5zM440 336l490 847q-36 16 -76.5 25.5t-83.5 9.5q-100 0 -187 -41t-153.5 -112.5t-104 -165t-37.5 -199.5q0 -108 41.5 -202.5t110.5 -161.5zM770 182q100 0 187 41t153.5 112.5t104 165t37.5 199.5q0 108 -40.5 202.5t-109.5 162.5l-490 -847q36 -17 76.5 -26.5
t81.5 -9.5z" />
    <glyph glyph-name="Ugrave" unicode="&#xd9;" horiz-adv-x="1348" 
d="M674 -26q-168 0 -292.5 82t-193 220.5t-68.5 307.5v816h208v-816q0 -110 40.5 -201.5t118 -146t187.5 -54.5q113 0 190 54.5t116.5 146t39.5 201.5v816h208v-816q0 -127 -39 -237.5t-112 -194.5t-175 -131t-228 -47zM436 1798h208l80 -288h-138z" />
    <glyph glyph-name="Uacute" unicode="&#xda;" horiz-adv-x="1348" 
d="M674 -26q-168 0 -292.5 82t-193 220.5t-68.5 307.5v816h208v-816q0 -110 40.5 -201.5t118 -146t187.5 -54.5q113 0 190 54.5t116.5 146t39.5 201.5v816h208v-816q0 -127 -39 -237.5t-112 -194.5t-175 -131t-228 -47zM620 1510l80 288h208l-148 -288h-140z" />
    <glyph glyph-name="Ucircumflex" unicode="&#xdb;" horiz-adv-x="1348" 
d="M674 -26q-168 0 -292.5 82t-193 220.5t-68.5 307.5v816h208v-816q0 -110 40.5 -201.5t118 -146t187.5 -54.5q113 0 190 54.5t116.5 146t39.5 201.5v816h208v-816q0 -127 -39 -237.5t-112 -194.5t-175 -131t-228 -47zM790 1798l193 -288h-139l-170 197l-169 -197h-138
l190 288h233z" />
    <glyph glyph-name="Udieresis" unicode="&#xdc;" horiz-adv-x="1348" 
d="M674 -26q-168 0 -292.5 82t-193 220.5t-68.5 307.5v816h208v-816q0 -110 40.5 -201.5t118 -146t187.5 -54.5q113 0 190 54.5t116.5 146t39.5 201.5v816h208v-816q0 -127 -39 -237.5t-112 -194.5t-175 -131t-228 -47zM491 1474q-46 0 -79 31t-33 78q0 46 33 78t79 32
t78 -32t32 -78q0 -47 -32 -78t-78 -31zM859 1474q-47 0 -79.5 31t-32.5 78q0 46 32.5 78t79.5 32q46 0 78 -32t32 -78q0 -47 -32 -78t-78 -31z" />
    <glyph glyph-name="Yacute" unicode="&#xdd;" horiz-adv-x="1283" 
d="M978 1400h245l-478 -768v-632h-208v632l-477 768h245l336 -541zM587 1510l80 288h208l-148 -288h-140z" />
    <glyph glyph-name="Thorn" unicode="&#xde;" horiz-adv-x="1067" 
d="M120 0v1400h208v-283h274q113 0 204.5 -56t146 -151t54.5 -210q0 -117 -55.5 -211.5t-147.5 -150t-202 -55.5h-274v-283h-208zM328 491h253q60 0 109.5 29.5t79 80t29.5 112.5q0 63 -29.5 113.5t-79 80t-109.5 29.5h-253v-445z" />
    <glyph glyph-name="germandbls" unicode="&#xdf;" horiz-adv-x="1119" 
d="M120 0v918q0 99 37.5 186.5t103.5 153.5t153 104t188 38q108 0 195.5 -51.5t139 -140.5t51.5 -200q0 -53 -15.5 -108.5t-48.5 -102t-85 -73.5q63 -12 105 -46.5t67.5 -82.5t36.5 -102t11 -107q0 -109 -54 -196.5t-144.5 -138.5t-200.5 -51h-74l-32 180h86q64 0 116.5 30
t84 80t31.5 110q0 61 -31.5 110t-84 79t-116.5 31l-86 3v172l25 2q55 5 101 32.5t73 74t27 104.5t-27 106t-73 76.5t-101 28.5q-69 0 -126 -34t-91 -91t-34 -127v-967h-208z" />
    <glyph glyph-name="agrave" unicode="&#xe0;" horiz-adv-x="1186" 
d="M898 1000h208v-1000h-209l-8 145q-44 -77 -119 -124t-177 -47q-110 0 -207 41.5t-170.5 115.5t-114.5 170.5t-41 207.5q0 107 40 201.5t111 165.5t164.5 111.5t200.5 40.5q109 0 192.5 -49.5t138.5 -126.5zM588 175q88 0 154 43.5t102.5 117.5t36.5 164q0 91 -37 165
t-102.5 117.5t-153.5 43.5q-87 0 -159 -44t-114 -118t-42 -164q0 -91 43.5 -164.5t115 -117t156.5 -43.5zM370 1398h208l80 -288h-138z" />
    <glyph glyph-name="aacute" unicode="&#xe1;" horiz-adv-x="1186" 
d="M898 1000h208v-1000h-209l-8 145q-44 -77 -119 -124t-177 -47q-110 0 -207 41.5t-170.5 115.5t-114.5 170.5t-41 207.5q0 107 40 201.5t111 165.5t164.5 111.5t200.5 40.5q109 0 192.5 -49.5t138.5 -126.5zM588 175q88 0 154 43.5t102.5 117.5t36.5 164q0 91 -37 165
t-102.5 117.5t-153.5 43.5q-87 0 -159 -44t-114 -118t-42 -164q0 -91 43.5 -164.5t115 -117t156.5 -43.5zM553 1110l80 288h208l-148 -288h-140z" />
    <glyph glyph-name="acircumflex" unicode="&#xe2;" horiz-adv-x="1186" 
d="M898 1000h208v-1000h-209l-8 145q-44 -77 -119 -124t-177 -47q-110 0 -207 41.5t-170.5 115.5t-114.5 170.5t-41 207.5q0 107 40 201.5t111 165.5t164.5 111.5t200.5 40.5q109 0 192.5 -49.5t138.5 -126.5zM588 175q88 0 154 43.5t102.5 117.5t36.5 164q0 91 -37 165
t-102.5 117.5t-153.5 43.5q-87 0 -159 -44t-114 -118t-42 -164q0 -91 43.5 -164.5t115 -117t156.5 -43.5zM724 1398l193 -288h-139l-170 197l-169 -197h-138l190 288h233z" />
    <glyph glyph-name="atilde" unicode="&#xe3;" horiz-adv-x="1186" 
d="M898 1000h208v-1000h-209l-8 145q-44 -77 -119 -124t-177 -47q-110 0 -207 41.5t-170.5 115.5t-114.5 170.5t-41 207.5q0 107 40 201.5t111 165.5t164.5 111.5t200.5 40.5q109 0 192.5 -49.5t138.5 -126.5zM588 175q88 0 154 43.5t102.5 117.5t36.5 164q0 91 -37 165
t-102.5 117.5t-153.5 43.5q-87 0 -159 -44t-114 -118t-42 -164q0 -91 43.5 -164.5t115 -117t156.5 -43.5zM763 1114q-37 0 -85.5 25t-97.5 56.5t-87 51.5t-55 9q-18 -11 -25 -33.5t3 -57.5l-126 -34q-24 70 -10.5 130t58.5 96.5t113 36.5q37 0 84 -22t94 -50t85 -50t56 -22
q22 0 30 15.5t7 36.5t-8 39l128 41q25 -75 9.5 -135.5t-61 -96.5t-112.5 -36z" />
    <glyph glyph-name="adieresis" unicode="&#xe4;" horiz-adv-x="1186" 
d="M898 1000h208v-1000h-209l-8 145q-44 -77 -119 -124t-177 -47q-110 0 -207 41.5t-170.5 115.5t-114.5 170.5t-41 207.5q0 107 40 201.5t111 165.5t164.5 111.5t200.5 40.5q109 0 192.5 -49.5t138.5 -126.5zM588 175q88 0 154 43.5t102.5 117.5t36.5 164q0 91 -37 165
t-102.5 117.5t-153.5 43.5q-87 0 -159 -44t-114 -118t-42 -164q0 -91 43.5 -164.5t115 -117t156.5 -43.5zM424 1074q-46 0 -79 31t-33 78q0 46 33 78t79 32t78 -32t32 -78q0 -47 -32 -78t-78 -31zM792 1074q-47 0 -79.5 31t-32.5 78q0 46 32.5 78t79.5 32q46 0 78 -32
t32 -78q0 -47 -32 -78t-78 -31z" />
    <glyph glyph-name="aring" unicode="&#xe5;" horiz-adv-x="1186" 
d="M898 1000h208v-1000h-209l-8 145q-44 -77 -119 -124t-177 -47q-110 0 -207 41.5t-170.5 115.5t-114.5 170.5t-41 207.5q0 107 40 201.5t111 165.5t164.5 111.5t200.5 40.5q109 0 192.5 -49.5t138.5 -126.5zM588 175q88 0 154 43.5t102.5 117.5t36.5 164q0 91 -37 165
t-102.5 117.5t-153.5 43.5q-87 0 -159 -44t-114 -118t-42 -164q0 -91 43.5 -164.5t115 -117t156.5 -43.5zM607 1078q-72 0 -124 52.5t-52 124.5q0 48 24 88t64 63.5t88 23.5q73 0 124.5 -51.5t51.5 -123.5q0 -74 -51.5 -125.5t-124.5 -51.5zM607 1182q30 0 51 21.5t21 51.5
q0 29 -21 49.5t-51 20.5t-50.5 -20.5t-20.5 -49.5q0 -30 20.5 -51.5t50.5 -21.5z" />
    <glyph glyph-name="ae" unicode="&#xe6;" horiz-adv-x="1745" 
d="M349 -25q-92 0 -164 40.5t-113.5 110t-41.5 154.5q0 82 40 151.5t111.5 112t164.5 42.5h334q-5 65 -37 118t-85.5 84.5t-126.5 31.5q-77 0 -143 -36l-115 173q59 36 124 53.5t131 17.5q117 0 216 -55t161 -149q42 61 101 107t131 71.5t150 25.5q116 0 212 -47.5
t163 -131.5t99 -192t20 -230h-771q12 -69 50.5 -125t97 -88t131.5 -32q75 0 137 38.5t102 104.5l212 -49q-61 -133 -182 -217.5t-271 -84.5q-86 0 -163.5 30t-140 83.5t-104.5 124.5q-38 -65 -103.5 -119t-149 -86t-177.5 -32zM349 158q89 0 159.5 42t112.5 108
q37 53 58 120h-333q-59 0 -95.5 -38.5t-36.5 -95.5q0 -53 36 -94.5t99 -41.5zM903 586h568q-10 72 -50.5 130.5t-101 93t-132.5 34.5q-71 0 -131.5 -34t-100.5 -92.5t-52 -131.5z" />
    <glyph glyph-name="ccedilla" unicode="&#xe7;" horiz-adv-x="1019" 
d="M773 284l186 -101q-68 -95 -172.5 -152t-226.5 -57q-138 0 -251.5 71t-181 190.5t-67.5 264.5q0 110 39 205.5t107.5 168t159.5 113.5t194 41q122 0 226.5 -57t172.5 -153l-186 -101q-42 50 -98 76.5t-115 26.5q-82 0 -148.5 -44.5t-105 -117t-38.5 -158.5
q0 -85 39 -157.5t105.5 -116.5t147.5 -44q62 0 118 28t95 74zM566 -373q-69 -18 -130.5 17.5t-80.5 103.5l112 30q6 -22 26 -33.5t43 -5.5t34.5 26t5.5 43t-26 33.5t-43 6.5l-117 -7l134 235l101 -58l-40 -68q37 -13 64.5 -42.5t37.5 -70.5q19 -68 -16.5 -130t-104.5 -80z
" />
    <glyph glyph-name="egrave" unicode="&#xe8;" horiz-adv-x="1118" 
d="M560 -26q-138 0 -251.5 71t-181 190.5t-67.5 264.5q0 110 39 205.5t107.5 168t159.5 113.5t194 41q115 0 211 -47.5t164 -131t100 -192t19 -230.5h-771q13 -69 50.5 -124.5t96 -87.5t130.5 -33q76 0 138.5 38t102.5 105l211 -49q-60 -133 -181 -217.5t-271 -84.5z
M276 586h568q-10 72 -50.5 130.5t-101 93t-132.5 34.5q-71 0 -131.5 -34t-100 -92.5t-52.5 -131.5zM322 1398h208l80 -288h-138z" />
    <glyph glyph-name="eacute" unicode="&#xe9;" horiz-adv-x="1118" 
d="M560 -26q-138 0 -251.5 71t-181 190.5t-67.5 264.5q0 110 39 205.5t107.5 168t159.5 113.5t194 41q115 0 211 -47.5t164 -131t100 -192t19 -230.5h-771q13 -69 50.5 -124.5t96 -87.5t130.5 -33q76 0 138.5 38t102.5 105l211 -49q-60 -133 -181 -217.5t-271 -84.5z
M276 586h568q-10 72 -50.5 130.5t-101 93t-132.5 34.5q-71 0 -131.5 -34t-100 -92.5t-52.5 -131.5zM505 1110l80 288h208l-148 -288h-140z" />
    <glyph glyph-name="ecircumflex" unicode="&#xea;" horiz-adv-x="1118" 
d="M560 -26q-138 0 -251.5 71t-181 190.5t-67.5 264.5q0 110 39 205.5t107.5 168t159.5 113.5t194 41q115 0 211 -47.5t164 -131t100 -192t19 -230.5h-771q13 -69 50.5 -124.5t96 -87.5t130.5 -33q76 0 138.5 38t102.5 105l211 -49q-60 -133 -181 -217.5t-271 -84.5z
M276 586h568q-10 72 -50.5 130.5t-101 93t-132.5 34.5q-71 0 -131.5 -34t-100 -92.5t-52.5 -131.5zM676 1398l193 -288h-139l-170 197l-169 -197h-138l190 288h233z" />
    <glyph glyph-name="edieresis" unicode="&#xeb;" horiz-adv-x="1118" 
d="M560 -26q-138 0 -251.5 71t-181 190.5t-67.5 264.5q0 110 39 205.5t107.5 168t159.5 113.5t194 41q115 0 211 -47.5t164 -131t100 -192t19 -230.5h-771q13 -69 50.5 -124.5t96 -87.5t130.5 -33q76 0 138.5 38t102.5 105l211 -49q-60 -133 -181 -217.5t-271 -84.5z
M276 586h568q-10 72 -50.5 130.5t-101 93t-132.5 34.5q-71 0 -131.5 -34t-100 -92.5t-52.5 -131.5zM376 1074q-46 0 -79 31t-33 78q0 46 33 78t79 32t78 -32t32 -78q0 -47 -32 -78t-78 -31zM744 1074q-47 0 -79.5 31t-32.5 78q0 46 32.5 78t79.5 32q46 0 78 -32t32 -78
q0 -47 -32 -78t-78 -31z" />
    <glyph glyph-name="igrave" unicode="&#xec;" 
d="M120 1000h208v-1000h-208v1000zM-14 1398h208l80 -288h-138z" />
    <glyph glyph-name="iacute" unicode="&#xed;" 
d="M120 1000h208v-1000h-208v1000zM170 1110l80 288h208l-148 -288h-140z" />
    <glyph glyph-name="icircumflex" unicode="&#xee;" 
d="M120 1000h208v-1000h-208v1000zM340 1398l193 -288h-139l-170 197l-169 -197h-138l190 288h233z" />
    <glyph glyph-name="idieresis" unicode="&#xef;" 
d="M120 1000h208v-1000h-208v1000zM41 1074q-46 0 -79 31t-33 78q0 46 33 78t79 32t78 -32t32 -78q0 -47 -32 -78t-78 -31zM409 1074q-47 0 -79.5 31t-32.5 78q0 46 32.5 78t79.5 32q46 0 78 -32t32 -78q0 -47 -32 -78t-78 -31z" />
    <glyph glyph-name="eth" unicode="&#xf0;" horiz-adv-x="1125" 
d="M435 1038l-104 104l439 431l102 -104zM583 -26q-138 0 -252.5 68t-182.5 182t-68 252q0 104 39 195.5t108.5 160.5t160.5 108t195 39q64 0 119 -24.5t93 -67.5q-22 74 -58 148.5t-89.5 136.5t-127.5 99t-173 37v208q164 0 299.5 -80.5t233.5 -220t151.5 -320t53.5 -379.5
q0 -159 -64 -281t-177.5 -191.5t-260.5 -69.5zM583 182q82 0 149 40.5t106.5 107.5t39.5 146q0 81 -39.5 148t-106.5 107t-149 40t-149 -40t-106.5 -107.5t-39.5 -147.5t39.5 -147t107 -107t148.5 -40z" />
    <glyph glyph-name="ntilde" unicode="&#xf1;" horiz-adv-x="1100" 
d="M1020 627v-627h-208v576q0 67 -32.5 122t-87 87.5t-122.5 32.5q-66 0 -121 -32.5t-88 -87.5t-33 -122v-576h-208v1000h208v-106q52 62 128 98t164 36q111 0 202 -54t144.5 -145t53.5 -202zM738 1114q-37 0 -85.5 25t-97.5 56.5t-87 51.5t-55 9q-18 -11 -25 -33.5t3 -57.5
l-126 -34q-24 70 -10.5 130t58.5 96.5t113 36.5q37 0 84 -22t94 -50t85 -50t56 -22q22 0 30 15.5t7 36.5t-8 39l128 41q25 -75 9.5 -135.5t-61 -96.5t-112.5 -36z" />
    <glyph glyph-name="ograve" unicode="&#xf2;" horiz-adv-x="1120" 
d="M560 -26q-138 0 -251.5 71t-181 190.5t-67.5 264.5q0 110 39 205.5t107.5 168t159.5 113.5t194 41q138 0 251.5 -71t181 -191t67.5 -266q0 -109 -39 -204t-107.5 -167.5t-159 -113.5t-194.5 -41zM560 182q83 0 149 44t104.5 116.5t38.5 157.5q0 87 -39.5 160
t-105.5 116.5t-147 43.5q-82 0 -148.5 -44t-105 -117t-38.5 -159q0 -89 40 -161t106.5 -114.5t145.5 -42.5zM322 1398h208l80 -288h-138z" />
    <glyph glyph-name="oacute" unicode="&#xf3;" horiz-adv-x="1120" 
d="M560 -26q-138 0 -251.5 71t-181 190.5t-67.5 264.5q0 110 39 205.5t107.5 168t159.5 113.5t194 41q138 0 251.5 -71t181 -191t67.5 -266q0 -109 -39 -204t-107.5 -167.5t-159 -113.5t-194.5 -41zM560 182q83 0 149 44t104.5 116.5t38.5 157.5q0 87 -39.5 160
t-105.5 116.5t-147 43.5q-82 0 -148.5 -44t-105 -117t-38.5 -159q0 -89 40 -161t106.5 -114.5t145.5 -42.5zM506 1110l80 288h208l-148 -288h-140z" />
    <glyph glyph-name="ocircumflex" unicode="&#xf4;" horiz-adv-x="1120" 
d="M560 -26q-138 0 -251.5 71t-181 190.5t-67.5 264.5q0 110 39 205.5t107.5 168t159.5 113.5t194 41q138 0 251.5 -71t181 -191t67.5 -266q0 -109 -39 -204t-107.5 -167.5t-159 -113.5t-194.5 -41zM560 182q83 0 149 44t104.5 116.5t38.5 157.5q0 87 -39.5 160
t-105.5 116.5t-147 43.5q-82 0 -148.5 -44t-105 -117t-38.5 -159q0 -89 40 -161t106.5 -114.5t145.5 -42.5zM676 1398l193 -288h-139l-170 197l-169 -197h-138l190 288h233z" />
    <glyph glyph-name="otilde" unicode="&#xf5;" horiz-adv-x="1120" 
d="M560 -26q-138 0 -251.5 71t-181 190.5t-67.5 264.5q0 110 39 205.5t107.5 168t159.5 113.5t194 41q138 0 251.5 -71t181 -191t67.5 -266q0 -109 -39 -204t-107.5 -167.5t-159 -113.5t-194.5 -41zM560 182q83 0 149 44t104.5 116.5t38.5 157.5q0 87 -39.5 160
t-105.5 116.5t-147 43.5q-82 0 -148.5 -44t-105 -117t-38.5 -159q0 -89 40 -161t106.5 -114.5t145.5 -42.5zM715 1114q-37 0 -85.5 25t-97.5 56.5t-87 51.5t-55 9q-18 -11 -25 -33.5t3 -57.5l-126 -34q-24 70 -10.5 130t58.5 96.5t113 36.5q37 0 84 -22t94 -50t85 -50
t56 -22q22 0 30 15.5t7 36.5t-8 39l128 41q25 -75 9.5 -135.5t-61 -96.5t-112.5 -36z" />
    <glyph glyph-name="odieresis" unicode="&#xf6;" horiz-adv-x="1120" 
d="M560 -26q-138 0 -251.5 71t-181 190.5t-67.5 264.5q0 110 39 205.5t107.5 168t159.5 113.5t194 41q138 0 251.5 -71t181 -191t67.5 -266q0 -109 -39 -204t-107.5 -167.5t-159 -113.5t-194.5 -41zM560 182q83 0 149 44t104.5 116.5t38.5 157.5q0 87 -39.5 160
t-105.5 116.5t-147 43.5q-82 0 -148.5 -44t-105 -117t-38.5 -159q0 -89 40 -161t106.5 -114.5t145.5 -42.5zM377 1074q-46 0 -79 31t-33 78q0 46 33 78t79 32t78 -32t32 -78q0 -47 -32 -78t-78 -31zM745 1074q-47 0 -79.5 31t-32.5 78q0 46 32.5 78t79.5 32q46 0 78 -32
t32 -78q0 -47 -32 -78t-78 -31z" />
    <glyph glyph-name="divide" unicode="&#xf7;" horiz-adv-x="1160" 
d="M80 496v208h1000v-208h-1000zM580 1085q50 0 86 -37.5t36 -86.5q0 -50 -36 -86.5t-86 -36.5q-53 0 -88 36.5t-35 86.5q0 49 35 86.5t88 37.5zM580 362q50 0 87 -37t37 -87q0 -51 -37 -87t-87 -36q-53 0 -88 36t-35 87q0 50 35 87t88 37z" />
    <glyph glyph-name="oslash" unicode="&#xf8;" horiz-adv-x="1120" 
d="M330 -68l-148 85l51 88q-79 72 -126 174.5t-47 220.5q0 110 39 205.5t107.5 168t159.5 113.5t194 41q49 0 95 -9.5t87 -28.5l48 81l149 -85l-51 -88q79 -72 125.5 -175t46.5 -223q0 -109 -39 -204t-107.5 -167.5t-159 -113.5t-194.5 -41q-49 0 -95 10.5t-89 27.5z
M336 281l312 543q-73 23 -143.5 5.5t-127 -66t-90.5 -119.5t-34 -155q0 -63 22.5 -116t60.5 -92zM472 179q76 -23 146.5 -6t126.5 65.5t89 119t33 153.5q0 63 -22.5 117t-59.5 93z" />
    <glyph glyph-name="ugrave" unicode="&#xf9;" horiz-adv-x="1060" 
d="M80 375v625h208v-574q0 -67 33 -122t88 -87.5t121 -32.5q67 0 121.5 32.5t87 87.5t32.5 122v574h208l1 -1000h-208l-1 108q-51 -62 -127 -98t-163 -36q-111 0 -202 54t-145 145t-54 202zM316 1399h208l80 -288h-138z" />
    <glyph glyph-name="uacute" unicode="&#xfa;" horiz-adv-x="1060" 
d="M80 375v625h208v-574q0 -67 33 -122t88 -87.5t121 -32.5q67 0 121.5 32.5t87 87.5t32.5 122v574h208l1 -1000h-208l-1 108q-51 -62 -127 -98t-163 -36q-111 0 -202 54t-145 145t-54 202zM500 1111l80 288h208l-148 -288h-140z" />
    <glyph glyph-name="ucircumflex" unicode="&#xfb;" horiz-adv-x="1060" 
d="M80 375v625h208v-574q0 -67 33 -122t88 -87.5t121 -32.5q67 0 121.5 32.5t87 87.5t32.5 122v574h208l1 -1000h-208l-1 108q-51 -62 -127 -98t-163 -36q-111 0 -202 54t-145 145t-54 202zM670 1399l193 -288h-139l-170 197l-169 -197h-138l190 288h233z" />
    <glyph glyph-name="udieresis" unicode="&#xfc;" horiz-adv-x="1060" 
d="M80 375v625h208v-574q0 -67 33 -122t88 -87.5t121 -32.5q67 0 121.5 32.5t87 87.5t32.5 122v574h208l1 -1000h-208l-1 108q-51 -62 -127 -98t-163 -36q-111 0 -202 54t-145 145t-54 202zM371 1075q-46 0 -79 31t-33 78q0 46 33 78t79 32t78 -32t32 -78q0 -47 -32 -78
t-78 -31zM739 1075q-47 0 -79.5 31t-32.5 78q0 46 32.5 78t79.5 32q46 0 78 -32t32 -78q0 -47 -32 -78t-78 -31z" />
    <glyph glyph-name="yacute" unicode="&#xfd;" horiz-adv-x="1107" 
d="M805 1000h222l-548 -1500h-221l181 500l-359 1000h227l236 -715zM499 1110l80 288h208l-148 -288h-140z" />
    <glyph glyph-name="thorn" unicode="&#xfe;" horiz-adv-x="1226" 
d="M120 -500v1900h208v-547q50 77 128 125t184 48q109 0 204.5 -41t167.5 -113.5t113 -167.5t41 -204t-41 -205t-113 -168.5t-167.5 -113.5t-204.5 -41q-106 0 -184 48.5t-128 124.5v-645h-208zM638 174q86 0 158 43.5t115 117.5t43 165q0 89 -42.5 163t-114.5 118t-159 44
t-153 -44t-103 -117.5t-37 -163.5t37 -164t103 -118t153 -44z" />
    <glyph glyph-name="ydieresis" unicode="&#xff;" horiz-adv-x="1107" 
d="M805 1000h222l-548 -1500h-221l181 500l-359 1000h227l236 -715zM370 1074q-46 0 -79 31t-33 78q0 46 33 78t79 32t78 -32t32 -78q0 -47 -32 -78t-78 -31zM738 1074q-47 0 -79.5 31t-32.5 78q0 46 32.5 78t79.5 32q46 0 78 -32t32 -78q0 -47 -32 -78t-78 -31z" />
    <glyph glyph-name="Amacron" unicode="&#x100;" horiz-adv-x="1421" 
d="M589 1400h243l509 -1400h-220l-97 266h-627l-96 -266h-221zM474 474h473l-237 650zM372 1711h676v-158h-676v158z" />
    <glyph glyph-name="amacron" unicode="&#x101;" horiz-adv-x="1186" 
d="M898 1000h208v-1000h-209l-8 145q-44 -77 -119 -124t-177 -47q-110 0 -207 41.5t-170.5 115.5t-114.5 170.5t-41 207.5q0 107 40 201.5t111 165.5t164.5 111.5t200.5 40.5q109 0 192.5 -49.5t138.5 -126.5zM588 175q88 0 154 43.5t102.5 117.5t36.5 164q0 91 -37 165
t-102.5 117.5t-153.5 43.5q-87 0 -159 -44t-114 -118t-42 -164q0 -91 43.5 -164.5t115 -117t156.5 -43.5zM269 1311h676v-158h-676v158z" />
    <glyph glyph-name="Abreve" unicode="&#x102;" horiz-adv-x="1421" 
d="M589 1400h243l509 -1400h-220l-97 266h-627l-96 -266h-221zM474 474h473l-237 650zM710 1488q-91 0 -166.5 45t-120.5 120.5t-45 166.5h134q0 -55 27.5 -100t72.5 -71.5t98 -26.5q55 0 99.5 26.5t71.5 71.5t27 100h134q0 -93 -45 -168.5t-120.5 -119.5t-166.5 -44z" />
    <glyph glyph-name="abreve" unicode="&#x103;" horiz-adv-x="1186" 
d="M898 1000h208v-1000h-209l-8 145q-44 -77 -119 -124t-177 -47q-110 0 -207 41.5t-170.5 115.5t-114.5 170.5t-41 207.5q0 107 40 201.5t111 165.5t164.5 111.5t200.5 40.5q109 0 192.5 -49.5t138.5 -126.5zM588 175q88 0 154 43.5t102.5 117.5t36.5 164q0 91 -37 165
t-102.5 117.5t-153.5 43.5q-87 0 -159 -44t-114 -118t-42 -164q0 -91 43.5 -164.5t115 -117t156.5 -43.5zM607 1088q-91 0 -166.5 45t-120.5 120.5t-45 166.5h134q0 -55 27.5 -100t72.5 -71.5t98 -26.5q55 0 99.5 26.5t71.5 71.5t27 100h134q0 -93 -45 -168.5t-120.5 -119.5
t-166.5 -44z" />
    <glyph glyph-name="Aogonek" unicode="&#x104;" horiz-adv-x="1421" 
d="M589 1400h243l509 -1400h-220l-97 266h-627l-96 -266h-221zM474 474h473l-237 650zM1222 -436q-65 1 -114 32.5t-75.5 81.5t-26.5 105q0 41 15.5 80t48.5 72l168 168l103 -103q-43 -43 -76 -75.5t-56 -57.5t-34 -47t-11 -45q0 -25 17.5 -45.5t48.5 -22.5q38 0 68 28
t30 70h136q0 -65 -32 -120t-87 -88t-123 -33z" />
    <glyph glyph-name="aogonek" unicode="&#x105;" horiz-adv-x="1186" 
d="M898 1000h208v-1000h-209l-8 145q-44 -77 -119 -124t-177 -47q-110 0 -207 41.5t-170.5 115.5t-114.5 170.5t-41 207.5q0 107 40 201.5t111 165.5t164.5 111.5t200.5 40.5q109 0 192.5 -49.5t138.5 -126.5zM588 175q88 0 154 43.5t102.5 117.5t36.5 164q0 91 -37 165
t-102.5 117.5t-153.5 43.5q-87 0 -159 -44t-114 -118t-42 -164q0 -91 43.5 -164.5t115 -117t156.5 -43.5zM986 -436q-65 1 -114 32.5t-75.5 81.5t-26.5 105q0 41 15.5 80t48.5 72l168 168l103 -103q-43 -43 -76 -75.5t-56 -57.5t-34 -47t-11 -45q0 -25 17.5 -45.5
t48.5 -22.5q38 0 68 28t30 70h136q0 -65 -32 -120t-87 -88t-123 -33z" />
    <glyph glyph-name="Cacute" unicode="&#x106;" horiz-adv-x="1418" 
d="M768 -26q-142 0 -267 56.5t-219.5 156t-148 231.5t-53.5 282t53.5 282t148 231.5t219.5 156t267 56.5q170 0 313 -79t237 -210l-185 -99q-65 82 -161 131t-204 49q-100 0 -187 -41t-153 -112t-103 -165t-37 -200q0 -107 37 -200.5t103.5 -165t153.5 -112t186 -40.5
q110 0 205.5 49.5t159.5 131.5l185 -101q-94 -131 -237 -209.5t-313 -78.5zM714 1510l80 288h208l-148 -288h-140z" />
    <glyph glyph-name="cacute" unicode="&#x107;" horiz-adv-x="1019" 
d="M773 284l186 -101q-68 -95 -172.5 -152t-226.5 -57q-138 0 -251.5 71t-181 190.5t-67.5 264.5q0 110 39 205.5t107.5 168t159.5 113.5t194 41q122 0 226.5 -57t172.5 -153l-186 -101q-42 50 -98 76.5t-115 26.5q-82 0 -148.5 -44.5t-105 -117t-38.5 -158.5
q0 -85 39 -157.5t105.5 -116.5t147.5 -44q62 0 118 28t95 74zM506 1110l80 288h208l-148 -288h-140z" />
    <glyph glyph-name="Ccircumflex" unicode="&#x108;" horiz-adv-x="1418" 
d="M768 -26q-142 0 -267 56.5t-219.5 156t-148 231.5t-53.5 282t53.5 282t148 231.5t219.5 156t267 56.5q170 0 313 -79t237 -210l-185 -99q-65 82 -161 131t-204 49q-100 0 -187 -41t-153 -112t-103 -165t-37 -200q0 -107 37 -200.5t103.5 -165t153.5 -112t186 -40.5
q110 0 205.5 49.5t159.5 131.5l185 -101q-94 -131 -237 -209.5t-313 -78.5zM884 1798l193 -288h-139l-170 197l-169 -197h-138l190 288h233z" />
    <glyph glyph-name="ccircumflex" unicode="&#x109;" horiz-adv-x="1019" 
d="M773 284l186 -101q-68 -95 -172.5 -152t-226.5 -57q-138 0 -251.5 71t-181 190.5t-67.5 264.5q0 110 39 205.5t107.5 168t159.5 113.5t194 41q122 0 226.5 -57t172.5 -153l-186 -101q-42 50 -98 76.5t-115 26.5q-82 0 -148.5 -44.5t-105 -117t-38.5 -158.5
q0 -85 39 -157.5t105.5 -116.5t147.5 -44q62 0 118 28t95 74zM676 1398l193 -288h-139l-170 197l-169 -197h-138l190 288h233z" />
    <glyph glyph-name="Cdotaccent" unicode="&#x10a;" horiz-adv-x="1418" 
d="M768 -26q-142 0 -267 56.5t-219.5 156t-148 231.5t-53.5 282t53.5 282t148 231.5t219.5 156t267 56.5q170 0 313 -79t237 -210l-185 -99q-65 82 -161 131t-204 49q-100 0 -187 -41t-153 -112t-103 -165t-37 -200q0 -107 37 -200.5t103.5 -165t153.5 -112t186 -40.5
q110 0 205.5 49.5t159.5 131.5l185 -101q-94 -131 -237 -209.5t-313 -78.5zM770 1545q-48 0 -80 31t-32 78q0 46 32 77.5t79 31.5q46 0 78 -31.5t32 -77.5q0 -47 -31.5 -78t-77.5 -31z" />
    <glyph glyph-name="cdotaccent" unicode="&#x10b;" horiz-adv-x="1019" 
d="M773 284l186 -101q-68 -95 -172.5 -152t-226.5 -57q-138 0 -251.5 71t-181 190.5t-67.5 264.5q0 110 39 205.5t107.5 168t159.5 113.5t194 41q122 0 226.5 -57t172.5 -153l-186 -101q-42 50 -98 76.5t-115 26.5q-82 0 -148.5 -44.5t-105 -117t-38.5 -158.5
q0 -85 39 -157.5t105.5 -116.5t147.5 -44q62 0 118 28t95 74zM562 1145q-48 0 -80 31t-32 78q0 46 32 77.5t79 31.5q46 0 78 -31.5t32 -77.5q0 -47 -31.5 -78t-77.5 -31z" />
    <glyph glyph-name="Ccaron" unicode="&#x10c;" horiz-adv-x="1418" 
d="M768 -26q-142 0 -267 56.5t-219.5 156t-148 231.5t-53.5 282t53.5 282t148 231.5t219.5 156t267 56.5q170 0 313 -79t237 -210l-185 -99q-65 82 -161 131t-204 49q-100 0 -187 -41t-153 -112t-103 -165t-37 -200q0 -107 37 -200.5t103.5 -165t153.5 -112t186 -40.5
q110 0 205.5 49.5t159.5 131.5l185 -101q-94 -131 -237 -209.5t-313 -78.5zM651 1510l-193 288h138l172 -197l167 197h139l-190 -288h-233z" />
    <glyph glyph-name="ccaron" unicode="&#x10d;" horiz-adv-x="1019" 
d="M773 284l186 -101q-68 -95 -172.5 -152t-226.5 -57q-138 0 -251.5 71t-181 190.5t-67.5 264.5q0 110 39 205.5t107.5 168t159.5 113.5t194 41q122 0 226.5 -57t172.5 -153l-186 -101q-42 50 -98 76.5t-115 26.5q-82 0 -148.5 -44.5t-105 -117t-38.5 -158.5
q0 -85 39 -157.5t105.5 -116.5t147.5 -44q62 0 118 28t95 74zM443 1110l-193 288h138l172 -197l167 197h139l-190 -288h-233z" />
    <glyph glyph-name="Dcaron" unicode="&#x10e;" horiz-adv-x="1343" 
d="M120 0v1400h463q145 0 272 -54.5t223 -151t150.5 -223t54.5 -271.5t-54.5 -271.5t-150.5 -223t-223 -151t-272 -54.5h-463zM328 208h255q102 0 190.5 38t157 106t106.5 157t38 191t-38 191t-106.5 157t-157 106t-190.5 38h-255v-984zM535 1510l-193 288h138l172 -197
l167 197h139l-190 -288h-233z" />
    <glyph glyph-name="dcaron" unicode="&#x10f;" horiz-adv-x="1227" 
d="M899 1500h208v-1500h-208v147q-49 -78 -128 -125.5t-185 -47.5q-109 0 -204 41t-167.5 113.5t-113.5 167.5t-41 204t41 204.5t113.5 168t167.5 113.5t204 41q106 0 185 -47.5t128 -124.5v645zM588 175q88 0 154 43.5t102.5 117.5t36.5 164q0 91 -37 165t-102.5 117.5
t-153.5 43.5q-87 0 -158.5 -44t-114 -118t-42.5 -164q0 -91 43.5 -164.5t115 -117t156.5 -43.5zM1173 1212l80 288h208l-148 -288h-140z" />
    <glyph glyph-name="Emacron" unicode="&#x112;" horiz-adv-x="1089" 
d="M120 0v1400h869v-208h-661v-338h532v-208h-532v-438h661v-208h-869zM206 1711h676v-158h-676v158z" />
    <glyph glyph-name="emacron" unicode="&#x113;" horiz-adv-x="1118" 
d="M560 -26q-138 0 -251.5 71t-181 190.5t-67.5 264.5q0 110 39 205.5t107.5 168t159.5 113.5t194 41q115 0 211 -47.5t164 -131t100 -192t19 -230.5h-771q13 -69 50.5 -124.5t96 -87.5t130.5 -33q76 0 138.5 38t102.5 105l211 -49q-60 -133 -181 -217.5t-271 -84.5z
M276 586h568q-10 72 -50.5 130.5t-101 93t-132.5 34.5q-71 0 -131.5 -34t-100 -92.5t-52.5 -131.5zM221 1311h676v-158h-676v158z" />
    <glyph glyph-name="Edotaccent" unicode="&#x116;" horiz-adv-x="1089" 
d="M120 0v1400h869v-208h-661v-338h532v-208h-532v-438h661v-208h-869zM546 1545q-48 0 -80 31t-32 78q0 46 32 77.5t79 31.5q46 0 78 -31.5t32 -77.5q0 -47 -31.5 -78t-77.5 -31z" />
    <glyph glyph-name="edotaccent" unicode="&#x117;" horiz-adv-x="1118" 
d="M560 -26q-138 0 -251.5 71t-181 190.5t-67.5 264.5q0 110 39 205.5t107.5 168t159.5 113.5t194 41q115 0 211 -47.5t164 -131t100 -192t19 -230.5h-771q13 -69 50.5 -124.5t96 -87.5t130.5 -33q76 0 138.5 38t102.5 105l211 -49q-60 -133 -181 -217.5t-271 -84.5z
M276 586h568q-10 72 -50.5 130.5t-101 93t-132.5 34.5q-71 0 -131.5 -34t-100 -92.5t-52.5 -131.5zM561 1145q-48 0 -80 31t-32 78q0 46 32 77.5t79 31.5q46 0 78 -31.5t32 -77.5q0 -47 -31.5 -78t-77.5 -31z" />
    <glyph glyph-name="Eogonek" unicode="&#x118;" horiz-adv-x="1089" 
d="M120 0v1400h869v-208h-661v-338h532v-208h-532v-438h661v-208h-869zM757 -436q-65 1 -114 32.5t-75.5 81.5t-26.5 105q0 41 15.5 80t48.5 72l168 168l103 -103q-43 -43 -76 -75.5t-56 -57.5t-34 -47t-11 -45q0 -25 17.5 -45.5t48.5 -22.5q38 0 68 28t30 70h136
q0 -65 -32 -120t-87 -88t-123 -33z" />
    <glyph glyph-name="eogonek" unicode="&#x119;" horiz-adv-x="1118" 
d="M560 -26q-138 0 -251.5 71t-181 190.5t-67.5 264.5q0 110 39 205.5t107.5 168t159.5 113.5t194 41q115 0 211 -47.5t164 -131t100 -192t19 -230.5h-771q13 -69 50.5 -124.5t96 -87.5t130.5 -33q76 0 138.5 38t102.5 105l211 -49q-60 -133 -181 -217.5t-271 -84.5z
M276 586h568q-10 72 -50.5 130.5t-101 93t-132.5 34.5q-71 0 -131.5 -34t-100 -92.5t-52.5 -131.5zM596 -436q-65 1 -114 32.5t-75.5 81.5t-26.5 105q0 41 15.5 80t48.5 72l168 168l103 -103q-43 -43 -76 -75.5t-56 -57.5t-34 -47t-11 -45q0 -25 17.5 -45.5t48.5 -22.5
q38 0 68 28t30 70h136q0 -65 -32 -120t-87 -88t-123 -33z" />
    <glyph glyph-name="Ecaron" unicode="&#x11a;" horiz-adv-x="1089" 
d="M120 0v1400h869v-208h-661v-338h532v-208h-532v-438h661v-208h-869zM428 1510l-193 288h138l172 -197l167 197h139l-190 -288h-233z" />
    <glyph glyph-name="ecaron" unicode="&#x11b;" horiz-adv-x="1118" 
d="M560 -26q-138 0 -251.5 71t-181 190.5t-67.5 264.5q0 110 39 205.5t107.5 168t159.5 113.5t194 41q115 0 211 -47.5t164 -131t100 -192t19 -230.5h-771q13 -69 50.5 -124.5t96 -87.5t130.5 -33q76 0 138.5 38t102.5 105l211 -49q-60 -133 -181 -217.5t-271 -84.5z
M276 586h568q-10 72 -50.5 130.5t-101 93t-132.5 34.5q-71 0 -131.5 -34t-100 -92.5t-52.5 -131.5zM443 1110l-193 288h138l172 -197l167 197h139l-190 -288h-233z" />
    <glyph glyph-name="Gcircumflex" unicode="&#x11c;" horiz-adv-x="1536" 
d="M769 -26q-146 0 -271.5 56.5t-219 157t-146 232.5t-52.5 281q0 157 56 289t153 229.5t221.5 151.5t261.5 54q155 0 298 -72t249 -216l-186 -101q-72 90 -167.5 136t-195.5 46q-97 0 -184 -39.5t-154 -110t-105.5 -165t-38.5 -205.5q0 -107 37.5 -201t104 -164.5
t154 -110.5t187.5 -40q74 0 142 24t126.5 68.5t102.5 106.5t70 138h-297v184h541q2 -150 -51.5 -282t-148 -232.5t-219.5 -157.5t-268 -57zM886 1798l193 -288h-139l-170 197l-169 -197h-138l190 288h233z" />
    <glyph glyph-name="gcircumflex" unicode="&#x11d;" horiz-adv-x="1209" 
d="M881 1000h208v-1026q0 -103 -43.5 -190t-117.5 -150.5t-169.5 -98.5t-199.5 -35q-105 0 -202 44.5t-170.5 120.5t-109.5 172l191 86q20 -62 64.5 -110t104 -76t122.5 -28q62 0 119.5 19.5t103 54.5t72.5 84t27 107v169q-49 -76 -126 -122.5t-179 -46.5q-106 0 -200 41
t-165 113.5t-111 167.5t-40 204t40 204.5t111 168t165 113.5t200 41q102 0 179 -46.5t126 -123.5v143zM578 175q87 0 152 44.5t101 118.5t36 162q0 90 -36.5 163.5t-101.5 118t-151 44.5q-84 0 -153.5 -44t-110.5 -118t-41 -164t41.5 -164t111 -117.5t152.5 -43.5zM721 1398
l193 -288h-139l-170 197l-169 -197h-138l190 288h233z" />
    <glyph glyph-name="Gbreve" unicode="&#x11e;" horiz-adv-x="1536" 
d="M769 -26q-146 0 -271.5 56.5t-219 157t-146 232.5t-52.5 281q0 157 56 289t153 229.5t221.5 151.5t261.5 54q155 0 298 -72t249 -216l-186 -101q-72 90 -167.5 136t-195.5 46q-97 0 -184 -39.5t-154 -110t-105.5 -165t-38.5 -205.5q0 -107 37.5 -201t104 -164.5
t154 -110.5t187.5 -40q74 0 142 24t126.5 68.5t102.5 106.5t70 138h-297v184h541q2 -150 -51.5 -282t-148 -232.5t-219.5 -157.5t-268 -57zM770 1488q-91 0 -166.5 45t-120.5 120.5t-45 166.5h134q0 -55 27.5 -100t72.5 -71.5t98 -26.5q55 0 99.5 26.5t71.5 71.5t27 100h134
q0 -93 -45 -168.5t-120.5 -119.5t-166.5 -44z" />
    <glyph glyph-name="gbreve" unicode="&#x11f;" horiz-adv-x="1209" 
d="M881 1000h208v-1026q0 -103 -43.5 -190t-117.5 -150.5t-169.5 -98.5t-199.5 -35q-105 0 -202 44.5t-170.5 120.5t-109.5 172l191 86q20 -62 64.5 -110t104 -76t122.5 -28q62 0 119.5 19.5t103 54.5t72.5 84t27 107v169q-49 -76 -126 -122.5t-179 -46.5q-106 0 -200 41
t-165 113.5t-111 167.5t-40 204t40 204.5t111 168t165 113.5t200 41q102 0 179 -46.5t126 -123.5v143zM578 175q87 0 152 44.5t101 118.5t36 162q0 90 -36.5 163.5t-101.5 118t-151 44.5q-84 0 -153.5 -44t-110.5 -118t-41 -164t41.5 -164t111 -117.5t152.5 -43.5zM605 1088
q-91 0 -166.5 45t-120.5 120.5t-45 166.5h134q0 -55 27.5 -100t72.5 -71.5t98 -26.5q55 0 99.5 26.5t71.5 71.5t27 100h134q0 -93 -45 -168.5t-120.5 -119.5t-166.5 -44z" />
    <glyph glyph-name="Gdotaccent" unicode="&#x120;" horiz-adv-x="1536" 
d="M769 -26q-146 0 -271.5 56.5t-219 157t-146 232.5t-52.5 281q0 157 56 289t153 229.5t221.5 151.5t261.5 54q155 0 298 -72t249 -216l-186 -101q-72 90 -167.5 136t-195.5 46q-97 0 -184 -39.5t-154 -110t-105.5 -165t-38.5 -205.5q0 -107 37.5 -201t104 -164.5
t154 -110.5t187.5 -40q74 0 142 24t126.5 68.5t102.5 106.5t70 138h-297v184h541q2 -150 -51.5 -282t-148 -232.5t-219.5 -157.5t-268 -57zM771 1545q-48 0 -80 31t-32 78q0 46 32 77.5t79 31.5q46 0 78 -31.5t32 -77.5q0 -47 -31.5 -78t-77.5 -31z" />
    <glyph glyph-name="gdotaccent" unicode="&#x121;" horiz-adv-x="1209" 
d="M881 1000h208v-1026q0 -103 -43.5 -190t-117.5 -150.5t-169.5 -98.5t-199.5 -35q-105 0 -202 44.5t-170.5 120.5t-109.5 172l191 86q20 -62 64.5 -110t104 -76t122.5 -28q62 0 119.5 19.5t103 54.5t72.5 84t27 107v169q-49 -76 -126 -122.5t-179 -46.5q-106 0 -200 41
t-165 113.5t-111 167.5t-40 204t40 204.5t111 168t165 113.5t200 41q102 0 179 -46.5t126 -123.5v143zM578 175q87 0 152 44.5t101 118.5t36 162q0 90 -36.5 163.5t-101.5 118t-151 44.5q-84 0 -153.5 -44t-110.5 -118t-41 -164t41.5 -164t111 -117.5t152.5 -43.5zM606 1145
q-48 0 -80 31t-32 78q0 46 32 77.5t79 31.5q46 0 78 -31.5t32 -77.5q0 -47 -31.5 -78t-77.5 -31z" />
    <glyph glyph-name="uni0122" unicode="&#x122;" horiz-adv-x="1536" 
d="M769 -26q-146 0 -271.5 56.5t-219 157t-146 232.5t-52.5 281q0 157 56 289t153 229.5t221.5 151.5t261.5 54q155 0 298 -72t249 -216l-186 -101q-72 90 -167.5 136t-195.5 46q-97 0 -184 -39.5t-154 -110t-105.5 -165t-38.5 -205.5q0 -107 37.5 -201t104 -164.5
t154 -110.5t187.5 -40q74 0 142 24t126.5 68.5t102.5 106.5t70 138h-297v184h541q2 -150 -51.5 -282t-148 -232.5t-219.5 -157.5t-268 -57zM602 -441l62 338h208l-132 -338h-138z" />
    <glyph glyph-name="Hcircumflex" unicode="&#x124;" horiz-adv-x="1289" 
d="M961 1400h208v-1400h-208v646h-633v-646h-208v1400h208v-546h633v546zM761 1798l193 -288h-139l-170 197l-169 -197h-138l190 288h233z" />
    <glyph glyph-name="hcircumflex" unicode="&#x125;" horiz-adv-x="1100" 
d="M1020 627v-627h-208v576q0 67 -32.5 122t-87 87.5t-122.5 32.5q-66 0 -121 -32.5t-88 -87.5t-33 -122v-576h-208v1500h208v-606q52 62 128 98t164 36q111 0 202 -54t144.5 -145t53.5 -202zM711 1823l193 -288h-139l-170 197l-169 -197h-138l190 288h233z" />
    <glyph glyph-name="Itilde" unicode="&#x128;" horiz-adv-x="508" 
d="M150 0v1400h208v-1400h-208zM409 1514q-37 0 -85.5 25t-97.5 56.5t-87 51.5t-55 9q-18 -11 -25 -33.5t3 -57.5l-126 -34q-24 70 -10.5 130t58.5 96.5t113 36.5q37 0 84 -22t94 -50t85 -50t56 -22q22 0 30 15.5t7 36.5t-8 39l128 41q25 -75 9.5 -135.5t-61 -96.5
t-112.5 -36z" />
    <glyph glyph-name="itilde" unicode="&#x129;" 
d="M343 1091q-30 0 -67 20.5t-74 45.5t-66 41t-42 7t-17.5 -27t2.5 -46l-98 -28q-18 57 -8 105t44.5 77.5t87.5 29.5q28 0 64 -17.5t71.5 -40.5t64.5 -40.5t43 -17.5q23 0 25.5 25.5t-4.5 46.5l98 33q29 -89 -9.5 -151.5t-114.5 -62.5zM120 1000h208v-1000h-208v1000z" />
    <glyph glyph-name="Imacron" unicode="&#x12a;" horiz-adv-x="508" 
d="M150 0v1400h208v-1400h-208zM-84 1711h676v-158h-676v158z" />
    <glyph glyph-name="imacron" unicode="&#x12b;" 
d="M0 1311h448v-158h-448v158zM120 1000h208v-1000h-208v1000z" />
    <glyph glyph-name="Iogonek" unicode="&#x12e;" horiz-adv-x="508" 
d="M150 0v1400h208v-1400h-208zM238 -436q-65 1 -114 32.5t-75.5 81.5t-26.5 105q0 41 15.5 80t48.5 72l168 168l103 -103q-43 -43 -76 -75.5t-56 -57.5t-34 -47t-11 -45q0 -25 17.5 -45.5t48.5 -22.5q38 0 68 28t30 70h136q0 -65 -32 -120t-87 -88t-123 -33z" />
    <glyph glyph-name="iogonek" unicode="&#x12f;" 
d="M120 1000h208v-1000h-208v1000zM226 1145q-48 0 -80 31t-32 78q0 46 32 77.5t79 31.5q46 0 78 -31.5t32 -77.5q0 -47 -31.5 -78t-77.5 -31zM208 -436q-65 1 -114 32.5t-75.5 81.5t-26.5 105q0 41 15.5 80t48.5 72l168 168l103 -103q-43 -43 -76 -75.5t-56 -57.5t-34 -47
t-11 -45q0 -25 17.5 -45.5t48.5 -22.5q38 0 68 28t30 70h136q0 -65 -32 -120t-87 -88t-123 -33z" />
    <glyph glyph-name="Idotaccent" unicode="&#x130;" horiz-adv-x="508" 
d="M150 0v1400h208v-1400h-208zM256 1545q-48 0 -80 31t-32 78q0 46 32 77.5t79 31.5q46 0 78 -31.5t32 -77.5q0 -47 -31.5 -78t-77.5 -31z" />
    <glyph glyph-name="dotlessi" unicode="&#x131;" 
d="M120 1000h208v-1000h-208v1000z" />
    <glyph glyph-name="IJ" unicode="&#x132;" horiz-adv-x="1367" 
d="M150 0v1400h208v-1400h-208zM820 -26q-74 0 -144.5 25t-127.5 74l133 160q25 -21 60 -36t79 -15q60 0 109.5 31.5t79.5 83t30 110.5v993h208v-993q0 -117 -58 -215.5t-154.5 -158t-214.5 -59.5z" />
    <glyph glyph-name="ij" unicode="&#x133;" horiz-adv-x="901" 
d="M120 1000h208v-1000h-208v1000zM226 1145q-48 0 -80 31t-32 78q0 46 32 77.5t79 31.5q46 0 78 -31.5t32 -77.5q0 -47 -31.5 -78t-77.5 -31zM349 -500v208q63 0 113.5 28.5t80 78.5t29.5 111v1074h208v-1074q0 -117 -57 -214t-154.5 -154.5t-219.5 -57.5zM678 1145
q-48 0 -80 31t-32 78q0 46 32 77.5t79 31.5q46 0 78 -31.5t32 -77.5q0 -47 -31.5 -78t-77.5 -31z" />
    <glyph glyph-name="Jcircumflex" unicode="&#x134;" horiz-adv-x="859" 
d="M312 -26q-74 0 -144.5 25t-127.5 74l133 160q25 -21 60 -36t79 -15q60 0 109.5 31.5t79.5 83t30 110.5v993h208v-993q0 -117 -58 -215.5t-154.5 -158t-214.5 -59.5zM751 1798l193 -288h-139l-170 197l-169 -197h-138l190 288h233z" />
    <glyph glyph-name="jcircumflex" unicode="&#x135;" horiz-adv-x="471" 
d="M-80 -500v208q63 0 113.5 28.5t80 78.5t29.5 111v1074h208v-1074q0 -117 -57 -214t-154.5 -154.5t-219.5 -57.5zM363 1398l193 -288h-139l-170 197l-169 -197h-138l190 288h233z" />
    <glyph glyph-name="uni0136" unicode="&#x136;" horiz-adv-x="1136" 
d="M1100 0h-270l-417 577l-85 -103v-474h-208v1400h208v-603l504 603h272l-554 -661zM402 -441l62 338h208l-132 -338h-138z" />
    <glyph glyph-name="uni0137" unicode="&#x137;" horiz-adv-x="1040" 
d="M975 0h-240l-246 424l-161 -192v-232h-208v1500h208v-945l372 445h272l-341 -407zM348 -441l62 338h208l-132 -338h-138z" />
    <glyph glyph-name="Lacute" unicode="&#x139;" horiz-adv-x="1031" 
d="M120 0v1400h208v-1192h603v-208h-811zM170 1510l80 288h208l-148 -288h-140z" />
    <glyph glyph-name="lacute" unicode="&#x13a;" 
d="M120 0v1500h208v-1500h-208zM170 1610l80 288h208l-148 -288h-140z" />
    <glyph glyph-name="uni013B" unicode="&#x13b;" horiz-adv-x="1031" 
d="M120 0v1400h208v-1192h603v-208h-811zM360 -441l62 338h208l-132 -338h-138z" />
    <glyph glyph-name="uni013C" unicode="&#x13c;" 
d="M120 0v1500h208v-1500h-208zM58 -441l62 338h208l-132 -338h-138z" />
    <glyph glyph-name="Lcaron" unicode="&#x13d;" horiz-adv-x="1031" 
d="M120 0v1400h208v-1192h603v-208h-811zM574 1212l80 288h208l-148 -288h-140z" />
    <glyph glyph-name="lcaron" unicode="&#x13e;" 
d="M120 0v1500h208v-1500h-208zM391 1212l80 288h208l-148 -288h-140z" />
    <glyph glyph-name="Nacute" unicode="&#x143;" horiz-adv-x="1316" 
d="M120 0v1400h225l643 -1024v1024h208v-1400h-225l-643 1024v-1024h-208zM604 1510l80 288h208l-148 -288h-140z" />
    <glyph glyph-name="nacute" unicode="&#x144;" horiz-adv-x="1100" 
d="M1020 627v-627h-208v576q0 67 -32.5 122t-87 87.5t-122.5 32.5q-66 0 -121 -32.5t-88 -87.5t-33 -122v-576h-208v1000h208v-106q52 62 128 98t164 36q111 0 202 -54t144.5 -145t53.5 -202zM529 1110l80 288h208l-148 -288h-140z" />
    <glyph glyph-name="uni0145" unicode="&#x145;" horiz-adv-x="1316" 
d="M120 0v1400h225l643 -1024v1024h208v-1400h-225l-643 1024v-1024h-208zM492 -441l62 338h208l-132 -338h-138z" />
    <glyph glyph-name="uni0146" unicode="&#x146;" horiz-adv-x="1100" 
d="M1020 627v-627h-208v576q0 67 -32.5 122t-87 87.5t-122.5 32.5q-66 0 -121 -32.5t-88 -87.5t-33 -122v-576h-208v1000h208v-106q52 62 128 98t164 36q111 0 202 -54t144.5 -145t53.5 -202zM404 -441l62 338h208l-132 -338h-138z" />
    <glyph glyph-name="Ncaron" unicode="&#x147;" horiz-adv-x="1316" 
d="M120 0v1400h225l643 -1024v1024h208v-1400h-225l-643 1024v-1024h-208zM541 1510l-193 288h138l172 -197l167 197h139l-190 -288h-233z" />
    <glyph glyph-name="ncaron" unicode="&#x148;" horiz-adv-x="1100" 
d="M1020 627v-627h-208v576q0 67 -32.5 122t-87 87.5t-122.5 32.5q-66 0 -121 -32.5t-88 -87.5t-33 -122v-576h-208v1000h208v-106q52 62 128 98t164 36q111 0 202 -54t144.5 -145t53.5 -202zM466 1110l-193 288h138l172 -197l167 197h139l-190 -288h-233z" />
    <glyph glyph-name="Omacron" unicode="&#x14c;" horiz-adv-x="1540" 
d="M770 -26q-142 0 -267 56.5t-220 156.5t-149 231.5t-54 281.5t54 281.5t149 231.5t220 156.5t267 56.5q143 0 268 -56.5t220 -156.5t148.5 -231.5t53.5 -281.5t-53.5 -281.5t-148.5 -231.5t-220 -156.5t-268 -56.5zM770 182q100 0 187 41t153.5 112.5t104 165t37.5 199.5
t-37.5 200t-104 165.5t-153.5 112t-187 40.5t-187 -41t-153.5 -112.5t-104 -165t-37.5 -199.5q0 -107 37.5 -200.5t104 -165t153.5 -112t187 -40.5zM432 1711h676v-158h-676v158z" />
    <glyph glyph-name="omacron" unicode="&#x14d;" horiz-adv-x="1120" 
d="M560 -26q-138 0 -251.5 71t-181 190.5t-67.5 264.5q0 110 39 205.5t107.5 168t159.5 113.5t194 41q138 0 251.5 -71t181 -191t67.5 -266q0 -109 -39 -204t-107.5 -167.5t-159 -113.5t-194.5 -41zM560 182q83 0 149 44t104.5 116.5t38.5 157.5q0 87 -39.5 160
t-105.5 116.5t-147 43.5q-82 0 -148.5 -44t-105 -117t-38.5 -159q0 -89 40 -161t106.5 -114.5t145.5 -42.5zM222 1311h676v-158h-676v158z" />
    <glyph glyph-name="Ohungarumlaut" unicode="&#x150;" horiz-adv-x="1540" 
d="M770 -26q-142 0 -267 56.5t-220 156.5t-149 231.5t-54 281.5t54 281.5t149 231.5t220 156.5t267 56.5q143 0 268 -56.5t220 -156.5t148.5 -231.5t53.5 -281.5t-53.5 -281.5t-148.5 -231.5t-220 -156.5t-268 -56.5zM770 182q100 0 187 41t153.5 112.5t104 165t37.5 199.5
t-37.5 200t-104 165.5t-153.5 112t-187 40.5t-187 -41t-153.5 -112.5t-104 -165t-37.5 -199.5q0 -107 37.5 -200.5t104 -165t153.5 -112t187 -40.5zM883 1510l80 288h208l-148 -288h-140zM569 1510l80 288h208l-148 -288h-140z" />
    <glyph glyph-name="ohungarumlaut" unicode="&#x151;" horiz-adv-x="1120" 
d="M560 -26q-138 0 -251.5 71t-181 190.5t-67.5 264.5q0 110 39 205.5t107.5 168t159.5 113.5t194 41q138 0 251.5 -71t181 -191t67.5 -266q0 -109 -39 -204t-107.5 -167.5t-159 -113.5t-194.5 -41zM560 182q83 0 149 44t104.5 116.5t38.5 157.5q0 87 -39.5 160
t-105.5 116.5t-147 43.5q-82 0 -148.5 -44t-105 -117t-38.5 -159q0 -89 40 -161t106.5 -114.5t145.5 -42.5zM673 1110l80 288h208l-148 -288h-140zM359 1110l80 288h208l-148 -288h-140z" />
    <glyph glyph-name="OE" unicode="&#x152;" horiz-adv-x="2138" 
d="M770 -26q-142 0 -267 56.5t-220 156.5t-149 231.5t-54 281.5t54 281.5t149 231.5t220 156.5t267 56.5q99 0 188.5 -30.5t165 -85.5t130.5 -129v219h784v-208h-576v-388h480v-208h-480v-388h576v-208h-784v219q-55 -73 -130.5 -128.5t-165 -86t-188.5 -30.5zM770 182
q100 0 187 41t153.5 112.5t104 165t37.5 199.5t-37.5 200t-104 165.5t-153.5 112t-187 40.5t-187 -41t-153.5 -112.5t-104 -165t-37.5 -199.5q0 -107 37.5 -200.5t104 -165t153.5 -112t187 -40.5z" />
    <glyph glyph-name="oe" unicode="&#x153;" horiz-adv-x="1909" 
d="M560 -26q-138 0 -251.5 71t-181 190.5t-67.5 264.5q0 110 39 205.5t107.5 168t159.5 113.5t194 41q84 0 158.5 -28.5t135.5 -79t102 -118.5q42 68 102.5 118.5t135.5 79t158 28.5q114 0 210.5 -47.5t164 -130.5t99.5 -191.5t19 -230.5h-770q13 -70 50.5 -125.5
t95.5 -87.5t131 -33q76 0 138.5 38.5t101.5 105.5l212 -50q-60 -133 -181 -217.5t-271 -84.5q-83 0 -158 28.5t-135.5 79t-102.5 117.5q-41 -67 -102 -117.5t-135.5 -79t-158.5 -28.5zM560 182q83 0 149 44t104.5 116.5t38.5 157.5q0 87 -39.5 160t-105.5 116.5t-147 43.5
q-82 0 -148.5 -44t-105 -117t-38.5 -159q0 -89 40 -161t106.5 -114.5t145.5 -42.5zM1067 587h568q-10 71 -50.5 129.5t-100.5 93t-132 34.5t-132.5 -34t-100.5 -92t-52 -131z" />
    <glyph glyph-name="Racute" unicode="&#x154;" horiz-adv-x="1179" 
d="M120 0v1400h515q114 0 205 -56t144.5 -150.5t53.5 -210.5q0 -98 -36.5 -179t-102 -138t-149.5 -82l338 -584h-241l-328 565h-191v-565h-208zM328 773h285q60 0 109.5 30t78.5 80t29 113t-29 113.5t-78.5 80t-109.5 29.5h-285v-446zM420 1510l80 288h208l-148 -288h-140z
" />
    <glyph glyph-name="racute" unicode="&#x155;" horiz-adv-x="751" 
d="M120 0v1000h208v-106q52 62 128 98t164 36q56 0 111 -15l-83 -210q-39 15 -78 15q-66 0 -121 -32.5t-88 -87.5t-33 -122v-576h-208zM371 1110l80 288h208l-148 -288h-140z" />
    <glyph glyph-name="uni0156" unicode="&#x156;" horiz-adv-x="1179" 
d="M120 0v1400h515q114 0 205 -56t144.5 -150.5t53.5 -210.5q0 -98 -36.5 -179t-102 -138t-149.5 -82l338 -584h-241l-328 565h-191v-565h-208zM328 773h285q60 0 109.5 30t78.5 80t29 113t-29 113.5t-78.5 80t-109.5 29.5h-285v-446zM418 -441l62 338h208l-132 -338h-138z
" />
    <glyph glyph-name="uni0157" unicode="&#x157;" horiz-adv-x="751" 
d="M120 0v1000h208v-106q52 62 128 98t164 36q56 0 111 -15l-83 -210q-39 15 -78 15q-66 0 -121 -32.5t-88 -87.5t-33 -122v-576h-208zM58 -441l62 338h208l-132 -338h-138z" />
    <glyph glyph-name="Rcaron" unicode="&#x158;" horiz-adv-x="1179" 
d="M120 0v1400h515q114 0 205 -56t144.5 -150.5t53.5 -210.5q0 -98 -36.5 -179t-102 -138t-149.5 -82l338 -584h-241l-328 565h-191v-565h-208zM328 773h285q60 0 109.5 30t78.5 80t29 113t-29 113.5t-78.5 80t-109.5 29.5h-285v-446zM357 1510l-193 288h138l172 -197
l167 197h139l-190 -288h-233z" />
    <glyph glyph-name="rcaron" unicode="&#x159;" horiz-adv-x="751" 
d="M120 0v1000h208v-106q52 62 128 98t164 36q56 0 111 -15l-83 -210q-39 15 -78 15q-66 0 -121 -32.5t-88 -87.5t-33 -122v-576h-208zM308 1110l-193 288h138l172 -197l167 197h139l-190 -288h-233z" />
    <glyph glyph-name="Sacute" unicode="&#x15a;" horiz-adv-x="1239" 
d="M619 -26q-115 0 -221 36t-185 103.5t-113 160.5l195 73q17 -48 65.5 -85.5t116 -58.5t142.5 -21q80 0 150.5 26t114 72t43.5 108q0 64 -45.5 105t-116 65t-146.5 36q-147 24 -263.5 70t-184 129t-67.5 216q0 125 71.5 218t189 144.5t254.5 51.5q113 0 218.5 -35.5
t186 -103t115.5 -163.5l-197 -71q-17 49 -65 85.5t-115.5 57.5t-142.5 21q-80 1 -149.5 -25.5t-113.5 -72.5t-44 -107q0 -75 41 -114t110.5 -57.5t155.5 -33.5q138 -22 255.5 -73t189 -135.5t71.5 -207.5q0 -124 -71.5 -217.5t-189 -145t-255.5 -51.5zM565 1510l80 288h208
l-148 -288h-140z" />
    <glyph glyph-name="sacute" unicode="&#x15b;" horiz-adv-x="865" 
d="M420 -19q-79 5 -154 32t-131.5 73.5t-84.5 109.5l177 76q13 -27 45.5 -53t76.5 -42.5t92 -16.5q47 0 87.5 13.5t66.5 41.5t26 67q0 44 -29.5 68.5t-73.5 37.5t-88 25q-98 22 -179.5 60.5t-129.5 99t-48 148.5q0 96 52 166.5t136.5 108.5t180.5 38q120 0 220 -51t153 -140
l-165 -98q-15 30 -45 54t-68 38.5t-79 16.5q-51 2 -94.5 -11.5t-69.5 -42.5t-26 -74q0 -44 31 -65.5t78.5 -34.5t97.5 -29q89 -28 167 -68.5t126 -99.5t46 -144q0 -94 -56.5 -165t-146.5 -108t-191 -31zM379 1110l80 288h208l-148 -288h-140z" />
    <glyph glyph-name="Scircumflex" unicode="&#x15c;" horiz-adv-x="1239" 
d="M619 -26q-115 0 -221 36t-185 103.5t-113 160.5l195 73q17 -48 65.5 -85.5t116 -58.5t142.5 -21q80 0 150.5 26t114 72t43.5 108q0 64 -45.5 105t-116 65t-146.5 36q-147 24 -263.5 70t-184 129t-67.5 216q0 125 71.5 218t189 144.5t254.5 51.5q113 0 218.5 -35.5
t186 -103t115.5 -163.5l-197 -71q-17 49 -65 85.5t-115.5 57.5t-142.5 21q-80 1 -149.5 -25.5t-113.5 -72.5t-44 -107q0 -75 41 -114t110.5 -57.5t155.5 -33.5q138 -22 255.5 -73t189 -135.5t71.5 -207.5q0 -124 -71.5 -217.5t-189 -145t-255.5 -51.5zM736 1798l193 -288
h-139l-170 197l-169 -197h-138l190 288h233z" />
    <glyph glyph-name="scircumflex" unicode="&#x15d;" horiz-adv-x="865" 
d="M420 -19q-79 5 -154 32t-131.5 73.5t-84.5 109.5l177 76q13 -27 45.5 -53t76.5 -42.5t92 -16.5q47 0 87.5 13.5t66.5 41.5t26 67q0 44 -29.5 68.5t-73.5 37.5t-88 25q-98 22 -179.5 60.5t-129.5 99t-48 148.5q0 96 52 166.5t136.5 108.5t180.5 38q120 0 220 -51t153 -140
l-165 -98q-15 30 -45 54t-68 38.5t-79 16.5q-51 2 -94.5 -11.5t-69.5 -42.5t-26 -74q0 -44 31 -65.5t78.5 -34.5t97.5 -29q89 -28 167 -68.5t126 -99.5t46 -144q0 -94 -56.5 -165t-146.5 -108t-191 -31zM549 1398l193 -288h-139l-170 197l-169 -197h-138l190 288h233z" />
    <glyph glyph-name="Scedilla" unicode="&#x15e;" horiz-adv-x="1239" 
d="M619 -26q-115 0 -221 36t-185 103.5t-113 160.5l195 73q17 -48 65.5 -85.5t116 -58.5t142.5 -21q80 0 150.5 26t114 72t43.5 108q0 64 -45.5 105t-116 65t-146.5 36q-147 24 -263.5 70t-184 129t-67.5 216q0 125 71.5 218t189 144.5t254.5 51.5q113 0 218.5 -35.5
t186 -103t115.5 -163.5l-197 -71q-17 49 -65 85.5t-115.5 57.5t-142.5 21q-80 1 -149.5 -25.5t-113.5 -72.5t-44 -107q0 -75 41 -114t110.5 -57.5t155.5 -33.5q138 -22 255.5 -73t189 -135.5t71.5 -207.5q0 -124 -71.5 -217.5t-189 -145t-255.5 -51.5zM701 -373
q-69 -18 -130.5 17.5t-80.5 103.5l112 30q6 -22 26 -33.5t43 -5.5t34.5 26t5.5 43t-26 33.5t-43 6.5l-117 -7l134 235l101 -58l-40 -68q37 -13 64.5 -42.5t37.5 -70.5q19 -68 -16.5 -130t-104.5 -80z" />
    <glyph glyph-name="scedilla" unicode="&#x15f;" horiz-adv-x="865" 
d="M420 -19q-79 5 -154 32t-131.5 73.5t-84.5 109.5l177 76q13 -27 45.5 -53t76.5 -42.5t92 -16.5q47 0 87.5 13.5t66.5 41.5t26 67q0 44 -29.5 68.5t-73.5 37.5t-88 25q-98 22 -179.5 60.5t-129.5 99t-48 148.5q0 96 52 166.5t136.5 108.5t180.5 38q120 0 220 -51t153 -140
l-165 -98q-15 30 -45 54t-68 38.5t-79 16.5q-51 2 -94.5 -11.5t-69.5 -42.5t-26 -74q0 -44 31 -65.5t78.5 -34.5t97.5 -29q89 -28 167 -68.5t126 -99.5t46 -144q0 -94 -56.5 -165t-146.5 -108t-191 -31zM498 -373q-69 -18 -130.5 17.5t-80.5 103.5l112 30q6 -22 26 -33.5
t43 -5.5t34.5 26t5.5 43t-26 33.5t-43 6.5l-117 -7l134 235l101 -58l-40 -68q37 -13 64.5 -42.5t37.5 -70.5q19 -68 -16.5 -130t-104.5 -80z" />
    <glyph glyph-name="Scaron" unicode="&#x160;" horiz-adv-x="1239" 
d="M619 -26q-115 0 -221 36t-185 103.5t-113 160.5l195 73q17 -48 65.5 -85.5t116 -58.5t142.5 -21q80 0 150.5 26t114 72t43.5 108q0 64 -45.5 105t-116 65t-146.5 36q-147 24 -263.5 70t-184 129t-67.5 216q0 125 71.5 218t189 144.5t254.5 51.5q113 0 218.5 -35.5
t186 -103t115.5 -163.5l-197 -71q-17 49 -65 85.5t-115.5 57.5t-142.5 21q-80 1 -149.5 -25.5t-113.5 -72.5t-44 -107q0 -75 41 -114t110.5 -57.5t155.5 -33.5q138 -22 255.5 -73t189 -135.5t71.5 -207.5q0 -124 -71.5 -217.5t-189 -145t-255.5 -51.5zM503 1510l-193 288
h138l172 -197l167 197h139l-190 -288h-233z" />
    <glyph glyph-name="scaron" unicode="&#x161;" horiz-adv-x="865" 
d="M420 -19q-79 5 -154 32t-131.5 73.5t-84.5 109.5l177 76q13 -27 45.5 -53t76.5 -42.5t92 -16.5q47 0 87.5 13.5t66.5 41.5t26 67q0 44 -29.5 68.5t-73.5 37.5t-88 25q-98 22 -179.5 60.5t-129.5 99t-48 148.5q0 96 52 166.5t136.5 108.5t180.5 38q120 0 220 -51t153 -140
l-165 -98q-15 30 -45 54t-68 38.5t-79 16.5q-51 2 -94.5 -11.5t-69.5 -42.5t-26 -74q0 -44 31 -65.5t78.5 -34.5t97.5 -29q89 -28 167 -68.5t126 -99.5t46 -144q0 -94 -56.5 -165t-146.5 -108t-191 -31zM316 1110l-193 288h138l172 -197l167 197h139l-190 -288h-233z" />
    <glyph glyph-name="uni0162" unicode="&#x162;" horiz-adv-x="1259" 
d="M1179 1400v-208h-446v-1192h-208v1192h-445v208h1099zM636 -373q-69 -18 -130.5 17.5t-80.5 103.5l112 30q6 -22 26 -33.5t43 -5.5t34.5 26t5.5 43t-26 33.5t-43 6.5l-117 -7l134 235l101 -58l-40 -68q37 -13 64.5 -42.5t37.5 -70.5q19 -68 -16.5 -130t-104.5 -80z" />
    <glyph glyph-name="uni0163" unicode="&#x163;" horiz-adv-x="707" 
d="M648 792h-210l-1 -792h-208l1 792h-159v208h159l-1 314h208l1 -314h210v-208zM340 -373q-69 -18 -130.5 17.5t-80.5 103.5l112 30q6 -22 26 -33.5t43 -5.5t34.5 26t5.5 43t-26 33.5t-43 6.5l-117 -7l134 235l101 -58l-40 -68q37 -13 64.5 -42.5t37.5 -70.5
q19 -68 -16.5 -130t-104.5 -80z" />
    <glyph glyph-name="Tcaron" unicode="&#x164;" horiz-adv-x="1259" 
d="M1179 1400v-208h-446v-1192h-208v1192h-445v208h1099zM513 1510l-193 288h138l172 -197l167 197h139l-190 -288h-233z" />
    <glyph glyph-name="tcaron" unicode="&#x165;" horiz-adv-x="707" 
d="M648 792h-210l-1 -792h-208l1 792h-159v208h159l-1 314h208l1 -314h210v-208zM525 1212l80 288h208l-148 -288h-140z" />
    <glyph glyph-name="Utilde" unicode="&#x168;" horiz-adv-x="1348" 
d="M674 -26q-168 0 -292.5 82t-193 220.5t-68.5 307.5v816h208v-816q0 -110 40.5 -201.5t118 -146t187.5 -54.5q113 0 190 54.5t116.5 146t39.5 201.5v816h208v-816q0 -127 -39 -237.5t-112 -194.5t-175 -131t-228 -47zM829 1514q-37 0 -85.5 25t-97.5 56.5t-87 51.5t-55 9
q-18 -11 -25 -33.5t3 -57.5l-126 -34q-24 70 -10.5 130t58.5 96.5t113 36.5q37 0 84 -22t94 -50t85 -50t56 -22q22 0 30 15.5t7 36.5t-8 39l128 41q25 -75 9.5 -135.5t-61 -96.5t-112.5 -36z" />
    <glyph glyph-name="utilde" unicode="&#x169;" horiz-adv-x="1060" 
d="M80 375v625h208v-574q0 -67 33 -122t88 -87.5t121 -32.5q67 0 121.5 32.5t87 87.5t32.5 122v574h208l1 -1000h-208l-1 108q-51 -62 -127 -98t-163 -36q-111 0 -202 54t-145 145t-54 202zM709 1115q-37 0 -85.5 25t-97.5 56.5t-87 51.5t-55 9q-18 -11 -25 -33.5t3 -57.5
l-126 -34q-24 70 -10.5 130t58.5 96.5t113 36.5q37 0 84 -22t94 -50t85 -50t56 -22q22 0 30 15.5t7 36.5t-8 39l128 41q25 -75 9.5 -135.5t-61 -96.5t-112.5 -36z" />
    <glyph glyph-name="Umacron" unicode="&#x16a;" horiz-adv-x="1348" 
d="M674 -26q-168 0 -292.5 82t-193 220.5t-68.5 307.5v816h208v-816q0 -110 40.5 -201.5t118 -146t187.5 -54.5q113 0 190 54.5t116.5 146t39.5 201.5v816h208v-816q0 -127 -39 -237.5t-112 -194.5t-175 -131t-228 -47zM336 1711h676v-158h-676v158z" />
    <glyph glyph-name="umacron" unicode="&#x16b;" horiz-adv-x="1060" 
d="M80 375v625h208v-574q0 -67 33 -122t88 -87.5t121 -32.5q67 0 121.5 32.5t87 87.5t32.5 122v574h208l1 -1000h-208l-1 108q-51 -62 -127 -98t-163 -36q-111 0 -202 54t-145 145t-54 202zM216 1312h676v-158h-676v158z" />
    <glyph glyph-name="Ubreve" unicode="&#x16c;" horiz-adv-x="1348" 
d="M674 -26q-168 0 -292.5 82t-193 220.5t-68.5 307.5v816h208v-816q0 -110 40.5 -201.5t118 -146t187.5 -54.5q113 0 190 54.5t116.5 146t39.5 201.5v816h208v-816q0 -127 -39 -237.5t-112 -194.5t-175 -131t-228 -47zM674 1488q-91 0 -166.5 45t-120.5 120.5t-45 166.5
h134q0 -55 27.5 -100t72.5 -71.5t98 -26.5q55 0 99.5 26.5t71.5 71.5t27 100h134q0 -93 -45 -168.5t-120.5 -119.5t-166.5 -44z" />
    <glyph glyph-name="ubreve" unicode="&#x16d;" horiz-adv-x="1060" 
d="M80 375v625h208v-574q0 -67 33 -122t88 -87.5t121 -32.5q67 0 121.5 32.5t87 87.5t32.5 122v574h208l1 -1000h-208l-1 108q-51 -62 -127 -98t-163 -36q-111 0 -202 54t-145 145t-54 202zM554 1089q-91 0 -166.5 45t-120.5 120.5t-45 166.5h134q0 -55 27.5 -100
t72.5 -71.5t98 -26.5q55 0 99.5 26.5t71.5 71.5t27 100h134q0 -93 -45 -168.5t-120.5 -119.5t-166.5 -44z" />
    <glyph glyph-name="Uring" unicode="&#x16e;" horiz-adv-x="1348" 
d="M674 -26q-168 0 -292.5 82t-193 220.5t-68.5 307.5v816h208v-816q0 -110 40.5 -201.5t118 -146t187.5 -54.5q113 0 190 54.5t116.5 146t39.5 201.5v816h208v-816q0 -127 -39 -237.5t-112 -194.5t-175 -131t-228 -47zM674 1478q-72 0 -124 52.5t-52 124.5q0 48 24 88
t64 63.5t88 23.5q73 0 124.5 -51.5t51.5 -123.5q0 -74 -51.5 -125.5t-124.5 -51.5zM674 1582q30 0 51 21.5t21 51.5q0 29 -21 49.5t-51 20.5t-50.5 -20.5t-20.5 -49.5q0 -30 20.5 -51.5t50.5 -21.5z" />
    <glyph glyph-name="uring" unicode="&#x16f;" horiz-adv-x="1060" 
d="M80 375v625h208v-574q0 -67 33 -122t88 -87.5t121 -32.5q67 0 121.5 32.5t87 87.5t32.5 122v574h208l1 -1000h-208l-1 108q-51 -62 -127 -98t-163 -36q-111 0 -202 54t-145 145t-54 202zM554 1079q-72 0 -124 52.5t-52 124.5q0 48 24 88t64 63.5t88 23.5
q73 0 124.5 -51.5t51.5 -123.5q0 -74 -51.5 -125.5t-124.5 -51.5zM554 1183q30 0 51 21.5t21 51.5q0 29 -21 49.5t-51 20.5t-50.5 -20.5t-20.5 -49.5q0 -30 20.5 -51.5t50.5 -21.5z" />
    <glyph glyph-name="Uhungarumlaut" unicode="&#x170;" horiz-adv-x="1348" 
d="M674 -26q-168 0 -292.5 82t-193 220.5t-68.5 307.5v816h208v-816q0 -110 40.5 -201.5t118 -146t187.5 -54.5q113 0 190 54.5t116.5 146t39.5 201.5v816h208v-816q0 -127 -39 -237.5t-112 -194.5t-175 -131t-228 -47zM787 1510l80 288h208l-148 -288h-140zM473 1510
l80 288h208l-148 -288h-140z" />
    <glyph glyph-name="uhungarumlaut" unicode="&#x171;" horiz-adv-x="1060" 
d="M80 375v625h208v-574q0 -67 33 -122t88 -87.5t121 -32.5q67 0 121.5 32.5t87 87.5t32.5 122v574h208l1 -1000h-208l-1 108q-51 -62 -127 -98t-163 -36q-111 0 -202 54t-145 145t-54 202zM667 1111l80 288h208l-148 -288h-140zM353 1111l80 288h208l-148 -288h-140z" />
    <glyph glyph-name="Uogonek" unicode="&#x172;" horiz-adv-x="1348" 
d="M674 -26q-168 0 -292.5 82t-193 220.5t-68.5 307.5v816h208v-816q0 -110 40.5 -201.5t118 -146t187.5 -54.5q113 0 190 54.5t116.5 146t39.5 201.5v816h208v-816q0 -127 -39 -237.5t-112 -194.5t-175 -131t-228 -47zM695 -442q-65 1 -114 32.5t-75.5 81.5t-26.5 105
q0 41 15.5 80t48.5 72l168 168l103 -103q-43 -43 -76 -75.5t-56 -57.5t-34 -47t-11 -45q0 -25 17.5 -45.5t48.5 -22.5q38 0 68 28t30 70h136q0 -65 -32 -120t-87 -88t-123 -33z" />
    <glyph glyph-name="uogonek" unicode="&#x173;" horiz-adv-x="1060" 
d="M80 375v625h208v-574q0 -67 33 -122t88 -87.5t121 -32.5q67 0 121.5 32.5t87 87.5t32.5 122v574h208l1 -1000h-208l-1 108q-51 -62 -127 -98t-163 -36q-111 0 -202 54t-145 145t-54 202zM861 -435q-65 1 -114 32.5t-75.5 81.5t-26.5 105q0 41 15.5 80t48.5 72l168 168
l103 -103q-43 -43 -76 -75.5t-56 -57.5t-34 -47t-11 -45q0 -25 17.5 -45.5t48.5 -22.5q38 0 68 28t30 70h136q0 -65 -32 -120t-87 -88t-123 -33z" />
    <glyph glyph-name="Wcircumflex" unicode="&#x174;" horiz-adv-x="1804" 
d="M428 0l-358 1400h214l262 -1027l261 1027h189l262 -1027l262 1027h214l-356 -1400h-239l-237 927l-237 -927h-237zM1018 1798l193 -288h-139l-170 197l-169 -197h-138l190 288h233z" />
    <glyph glyph-name="wcircumflex" unicode="&#x175;" horiz-adv-x="1677" 
d="M602 0h-207l-335 1000h204l236 -702l234 702h210l234 -702l235 702h204l-334 -1000h-209l-236 707zM955 1398l193 -288h-139l-170 197l-169 -197h-138l190 288h233z" />
    <glyph glyph-name="Ycircumflex" unicode="&#x176;" horiz-adv-x="1283" 
d="M978 1400h245l-478 -768v-632h-208v632l-477 768h245l336 -541zM758 1798l193 -288h-139l-170 197l-169 -197h-138l190 288h233z" />
    <glyph glyph-name="ycircumflex" unicode="&#x177;" horiz-adv-x="1107" 
d="M805 1000h222l-548 -1500h-221l181 500l-359 1000h227l236 -715zM669 1398l193 -288h-139l-170 197l-169 -197h-138l190 288h233z" />
    <glyph glyph-name="Ydieresis" unicode="&#x178;" horiz-adv-x="1283" 
d="M978 1400h245l-478 -768v-632h-208v632l-477 768h245l336 -541zM458 1474q-46 0 -79 31t-33 78q0 46 33 78t79 32t78 -32t32 -78q0 -47 -32 -78t-78 -31zM826 1474q-47 0 -79.5 31t-32.5 78q0 46 32.5 78t79.5 32q46 0 78 -32t32 -78q0 -47 -32 -78t-78 -31z" />
    <glyph glyph-name="Zacute" unicode="&#x179;" horiz-adv-x="1292" 
d="M80 0v208l852 984h-852v208h1132v-208l-852 -984h852v-208h-1132zM592 1510l80 288h208l-148 -288h-140z" />
    <glyph glyph-name="zacute" unicode="&#x17a;" horiz-adv-x="1014" 
d="M934 792l-556 -584h556v-208h-854v208l556 584h-556v208h854v-208zM453 1110l80 288h208l-148 -288h-140z" />
    <glyph glyph-name="Zdotaccent" unicode="&#x17b;" horiz-adv-x="1292" 
d="M80 0v208l852 984h-852v208h1132v-208l-852 -984h852v-208h-1132zM648 1545q-48 0 -80 31t-32 78q0 46 32 77.5t79 31.5q46 0 78 -31.5t32 -77.5q0 -47 -31.5 -78t-77.5 -31z" />
    <glyph glyph-name="zdotaccent" unicode="&#x17c;" horiz-adv-x="1014" 
d="M934 792l-556 -584h556v-208h-854v208l556 584h-556v208h854v-208zM509 1145q-48 0 -80 31t-32 78q0 46 32 77.5t79 31.5q46 0 78 -31.5t32 -77.5q0 -47 -31.5 -78t-77.5 -31z" />
    <glyph glyph-name="Zcaron" unicode="&#x17d;" horiz-adv-x="1292" 
d="M80 0v208l852 984h-852v208h1132v-208l-852 -984h852v-208h-1132zM529 1510l-193 288h138l172 -197l167 197h139l-190 -288h-233z" />
    <glyph glyph-name="zcaron" unicode="&#x17e;" horiz-adv-x="1014" 
d="M934 792l-556 -584h556v-208h-854v208l556 584h-556v208h854v-208zM390 1110l-193 288h138l172 -197l167 197h139l-190 -288h-233z" />
    <glyph glyph-name="uni01CD" unicode="&#x1cd;" horiz-adv-x="1421" 
d="M589 1400h243l509 -1400h-220l-97 266h-627l-96 -266h-221zM474 474h473l-237 650zM594 1510l-193 288h138l172 -197l167 197h139l-190 -288h-233z" />
    <glyph glyph-name="uni01CE" unicode="&#x1ce;" horiz-adv-x="1186" 
d="M898 1000h208v-1000h-209l-8 145q-44 -77 -119 -124t-177 -47q-110 0 -207 41.5t-170.5 115.5t-114.5 170.5t-41 207.5q0 107 40 201.5t111 165.5t164.5 111.5t200.5 40.5q109 0 192.5 -49.5t138.5 -126.5zM588 175q88 0 154 43.5t102.5 117.5t36.5 164q0 91 -37 165
t-102.5 117.5t-153.5 43.5q-87 0 -159 -44t-114 -118t-42 -164q0 -91 43.5 -164.5t115 -117t156.5 -43.5zM491 1110l-193 288h138l172 -197l167 197h139l-190 -288h-233z" />
    <glyph glyph-name="uni01CF" unicode="&#x1cf;" horiz-adv-x="508" 
d="M150 0v1400h208v-1400h-208zM137 1510l-193 288h138l172 -197l167 197h139l-190 -288h-233z" />
    <glyph glyph-name="uni01D0" unicode="&#x1d0;" 
d="M120 1000h208v-1000h-208v1000zM107 1110l-193 288h138l172 -197l167 197h139l-190 -288h-233z" />
    <glyph glyph-name="uni01D1" unicode="&#x1d1;" horiz-adv-x="1540" 
d="M770 -26q-142 0 -267 56.5t-220 156.5t-149 231.5t-54 281.5t54 281.5t149 231.5t220 156.5t267 56.5q143 0 268 -56.5t220 -156.5t148.5 -231.5t53.5 -281.5t-53.5 -281.5t-148.5 -231.5t-220 -156.5t-268 -56.5zM770 182q100 0 187 41t153.5 112.5t104 165t37.5 199.5
t-37.5 200t-104 165.5t-153.5 112t-187 40.5t-187 -41t-153.5 -112.5t-104 -165t-37.5 -199.5q0 -107 37.5 -200.5t104 -165t153.5 -112t187 -40.5zM653 1510l-193 288h138l172 -197l167 197h139l-190 -288h-233z" />
    <glyph glyph-name="uni01D2" unicode="&#x1d2;" horiz-adv-x="1120" 
d="M560 -26q-138 0 -251.5 71t-181 190.5t-67.5 264.5q0 110 39 205.5t107.5 168t159.5 113.5t194 41q138 0 251.5 -71t181 -191t67.5 -266q0 -109 -39 -204t-107.5 -167.5t-159 -113.5t-194.5 -41zM560 182q83 0 149 44t104.5 116.5t38.5 157.5q0 87 -39.5 160
t-105.5 116.5t-147 43.5q-82 0 -148.5 -44t-105 -117t-38.5 -159q0 -89 40 -161t106.5 -114.5t145.5 -42.5zM443 1110l-193 288h138l172 -197l167 197h139l-190 -288h-233z" />
    <glyph glyph-name="uni01D3" unicode="&#x1d3;" horiz-adv-x="1348" 
d="M674 -26q-168 0 -292.5 82t-193 220.5t-68.5 307.5v816h208v-816q0 -110 40.5 -201.5t118 -146t187.5 -54.5q113 0 190 54.5t116.5 146t39.5 201.5v816h208v-816q0 -127 -39 -237.5t-112 -194.5t-175 -131t-228 -47zM558 1510l-193 288h138l172 -197l167 197h139
l-190 -288h-233z" />
    <glyph glyph-name="uni01D4" unicode="&#x1d4;" horiz-adv-x="1060" 
d="M80 375v625h208v-574q0 -67 33 -122t88 -87.5t121 -32.5q67 0 121.5 32.5t87 87.5t32.5 122v574h208l1 -1000h-208l-1 108q-51 -62 -127 -98t-163 -36q-111 0 -202 54t-145 145t-54 202zM438 1111l-193 288h138l172 -197l167 197h139l-190 -288h-233z" />
    <glyph glyph-name="uni01D5" unicode="&#x1d5;" horiz-adv-x="1348" 
d="M674 -26q-168 0 -292.5 82t-193 220.5t-68.5 307.5v816h208v-816q0 -110 40.5 -201.5t118 -146t187.5 -54.5q113 0 190 54.5t116.5 146t39.5 201.5v816h208v-816q0 -127 -39 -237.5t-112 -194.5t-175 -131t-228 -47zM491 1474q-46 0 -79 31t-33 78q0 46 33 78t79 32
t78 -32t32 -78q0 -47 -32 -78t-78 -31zM859 1474q-47 0 -79.5 31t-32.5 78q0 46 32.5 78t79.5 32q46 0 78 -32t32 -78q0 -47 -32 -78t-78 -31zM336 1969h676v-158h-676v158z" />
    <glyph glyph-name="uni01D6" unicode="&#x1d6;" horiz-adv-x="1060" 
d="M80 375v625h208v-574q0 -67 33 -122t88 -87.5t121 -32.5q67 0 121.5 32.5t87 87.5t32.5 122v574h208l1 -1000h-208l-1 108q-51 -62 -127 -98t-163 -36q-111 0 -202 54t-145 145t-54 202zM371 1075q-46 0 -79 31t-33 78q0 46 33 78t79 32t78 -32t32 -78q0 -47 -32 -78
t-78 -31zM739 1075q-47 0 -79.5 31t-32.5 78q0 46 32.5 78t79.5 32q46 0 78 -32t32 -78q0 -47 -32 -78t-78 -31zM216 1571h676v-158h-676v158z" />
    <glyph glyph-name="uni01D7" unicode="&#x1d7;" horiz-adv-x="1348" 
d="M674 -26q-168 0 -292.5 82t-193 220.5t-68.5 307.5v816h208v-816q0 -110 40.5 -201.5t118 -146t187.5 -54.5q113 0 190 54.5t116.5 146t39.5 201.5v816h208v-816q0 -127 -39 -237.5t-112 -194.5t-175 -131t-228 -47zM491 1474q-46 0 -79 31t-33 78q0 46 33 78t79 32
t78 -32t32 -78q0 -47 -32 -78t-78 -31zM859 1474q-47 0 -79.5 31t-32.5 78q0 46 32.5 78t79.5 32q46 0 78 -32t32 -78q0 -47 -32 -78t-78 -31zM620 1768l80 288h208l-148 -288h-140z" />
    <glyph glyph-name="uni01D8" unicode="&#x1d8;" horiz-adv-x="1060" 
d="M80 375v625h208v-574q0 -67 33 -122t88 -87.5t121 -32.5q67 0 121.5 32.5t87 87.5t32.5 122v574h208l1 -1000h-208l-1 108q-51 -62 -127 -98t-163 -36q-111 0 -202 54t-145 145t-54 202zM371 1075q-46 0 -79 31t-33 78q0 46 33 78t79 32t78 -32t32 -78q0 -47 -32 -78
t-78 -31zM739 1075q-47 0 -79.5 31t-32.5 78q0 46 32.5 78t79.5 32q46 0 78 -32t32 -78q0 -47 -32 -78t-78 -31zM500 1370l80 288h208l-148 -288h-140z" />
    <glyph glyph-name="uni01D9" unicode="&#x1d9;" horiz-adv-x="1348" 
d="M674 -26q-168 0 -292.5 82t-193 220.5t-68.5 307.5v816h208v-816q0 -110 40.5 -201.5t118 -146t187.5 -54.5q113 0 190 54.5t116.5 146t39.5 201.5v816h208v-816q0 -127 -39 -237.5t-112 -194.5t-175 -131t-228 -47zM491 1474q-46 0 -79 31t-33 78q0 46 33 78t79 32
t78 -32t32 -78q0 -47 -32 -78t-78 -31zM859 1474q-47 0 -79.5 31t-32.5 78q0 46 32.5 78t79.5 32q46 0 78 -32t32 -78q0 -47 -32 -78t-78 -31zM558 1768l-193 288h138l172 -197l167 197h139l-190 -288h-233z" />
    <glyph glyph-name="uni01DA" unicode="&#x1da;" horiz-adv-x="1060" 
d="M80 375v625h208v-574q0 -67 33 -122t88 -87.5t121 -32.5q67 0 121.5 32.5t87 87.5t32.5 122v574h208l1 -1000h-208l-1 108q-51 -62 -127 -98t-163 -36q-111 0 -202 54t-145 145t-54 202zM371 1075q-46 0 -79 31t-33 78q0 46 33 78t79 32t78 -32t32 -78q0 -47 -32 -78
t-78 -31zM739 1075q-47 0 -79.5 31t-32.5 78q0 46 32.5 78t79.5 32q46 0 78 -32t32 -78q0 -47 -32 -78t-78 -31zM438 1370l-193 288h138l172 -197l167 197h139l-190 -288h-233z" />
    <glyph glyph-name="uni01DB" unicode="&#x1db;" horiz-adv-x="1348" 
d="M674 -26q-168 0 -292.5 82t-193 220.5t-68.5 307.5v816h208v-816q0 -110 40.5 -201.5t118 -146t187.5 -54.5q113 0 190 54.5t116.5 146t39.5 201.5v816h208v-816q0 -127 -39 -237.5t-112 -194.5t-175 -131t-228 -47zM491 1474q-46 0 -79 31t-33 78q0 46 33 78t79 32
t78 -32t32 -78q0 -47 -32 -78t-78 -31zM859 1474q-47 0 -79.5 31t-32.5 78q0 46 32.5 78t79.5 32q46 0 78 -32t32 -78q0 -47 -32 -78t-78 -31zM436 2056h208l80 -288h-138z" />
    <glyph glyph-name="uni01DC" unicode="&#x1dc;" horiz-adv-x="1060" 
d="M80 375v625h208v-574q0 -67 33 -122t88 -87.5t121 -32.5q67 0 121.5 32.5t87 87.5t32.5 122v574h208l1 -1000h-208l-1 108q-51 -62 -127 -98t-163 -36q-111 0 -202 54t-145 145t-54 202zM371 1075q-46 0 -79 31t-33 78q0 46 33 78t79 32t78 -32t32 -78q0 -47 -32 -78
t-78 -31zM739 1075q-47 0 -79.5 31t-32.5 78q0 46 32.5 78t79.5 32q46 0 78 -32t32 -78q0 -47 -32 -78t-78 -31zM316 1658h208l80 -288h-138z" />
    <glyph glyph-name="uni01DE" unicode="&#x1de;" horiz-adv-x="1421" 
d="M589 1400h243l509 -1400h-220l-97 266h-627l-96 -266h-221zM474 474h473l-237 650zM527 1474q-46 0 -79 31t-33 78q0 46 33 78t79 32t78 -32t32 -78q0 -47 -32 -78t-78 -31zM895 1474q-47 0 -79.5 31t-32.5 78q0 46 32.5 78t79.5 32q46 0 78 -32t32 -78q0 -47 -32 -78
t-78 -31zM372 1969h676v-158h-676v158z" />
    <glyph glyph-name="uni01DF" unicode="&#x1df;" horiz-adv-x="1186" 
d="M898 1000h208v-1000h-209l-8 145q-44 -77 -119 -124t-177 -47q-110 0 -207 41.5t-170.5 115.5t-114.5 170.5t-41 207.5q0 107 40 201.5t111 165.5t164.5 111.5t200.5 40.5q109 0 192.5 -49.5t138.5 -126.5zM588 175q88 0 154 43.5t102.5 117.5t36.5 164q0 91 -37 165
t-102.5 117.5t-153.5 43.5q-87 0 -159 -44t-114 -118t-42 -164q0 -91 43.5 -164.5t115 -117t156.5 -43.5zM424 1074q-46 0 -79 31t-33 78q0 46 33 78t79 32t78 -32t32 -78q0 -47 -32 -78t-78 -31zM792 1074q-47 0 -79.5 31t-32.5 78q0 46 32.5 78t79.5 32q46 0 78 -32
t32 -78q0 -47 -32 -78t-78 -31zM269 1569h676v-158h-676v158z" />
    <glyph glyph-name="uni01E2" unicode="&#x1e2;" horiz-adv-x="1658" 
d="M80 0l509 1400h969v-208h-521v-388h425v-208h-425v-388h521v-208h-729v266h-432l-96 -266h-221zM474 474h355v718h-94zM735 1711h676v-158h-676v158z" />
    <glyph glyph-name="uni01E3" unicode="&#x1e3;" horiz-adv-x="1745" 
d="M349 -25q-92 0 -164 40.5t-113.5 110t-41.5 154.5q0 82 40 151.5t111.5 112t164.5 42.5h334q-5 65 -37 118t-85.5 84.5t-126.5 31.5q-77 0 -143 -36l-115 173q59 36 124 53.5t131 17.5q117 0 216 -55t161 -149q42 61 101 107t131 71.5t150 25.5q116 0 212 -47.5
t163 -131.5t99 -192t20 -230h-771q12 -69 50.5 -125t97 -88t131.5 -32q75 0 137 38.5t102 104.5l212 -49q-61 -133 -182 -217.5t-271 -84.5q-86 0 -163.5 30t-140 83.5t-104.5 124.5q-38 -65 -103.5 -119t-149 -86t-177.5 -32zM349 158q89 0 159.5 42t112.5 108
q37 53 58 120h-333q-59 0 -95.5 -38.5t-36.5 -95.5q0 -53 36 -94.5t99 -41.5zM903 586h568q-10 72 -50.5 130.5t-101 93t-132.5 34.5q-71 0 -131.5 -34t-100.5 -92.5t-52 -131.5zM467 1312h676v-158h-676v158z" />
    <glyph glyph-name="Gcaron" unicode="&#x1e6;" horiz-adv-x="1536" 
d="M769 -26q-146 0 -271.5 56.5t-219 157t-146 232.5t-52.5 281q0 157 56 289t153 229.5t221.5 151.5t261.5 54q155 0 298 -72t249 -216l-186 -101q-72 90 -167.5 136t-195.5 46q-97 0 -184 -39.5t-154 -110t-105.5 -165t-38.5 -205.5q0 -107 37.5 -201t104 -164.5
t154 -110.5t187.5 -40q74 0 142 24t126.5 68.5t102.5 106.5t70 138h-297v184h541q2 -150 -51.5 -282t-148 -232.5t-219.5 -157.5t-268 -57zM653 1510l-193 288h138l172 -197l167 197h139l-190 -288h-233z" />
    <glyph glyph-name="gcaron" unicode="&#x1e7;" horiz-adv-x="1209" 
d="M881 1000h208v-1026q0 -103 -43.5 -190t-117.5 -150.5t-169.5 -98.5t-199.5 -35q-105 0 -202 44.5t-170.5 120.5t-109.5 172l191 86q20 -62 64.5 -110t104 -76t122.5 -28q62 0 119.5 19.5t103 54.5t72.5 84t27 107v169q-49 -76 -126 -122.5t-179 -46.5q-106 0 -200 41
t-165 113.5t-111 167.5t-40 204t40 204.5t111 168t165 113.5t200 41q102 0 179 -46.5t126 -123.5v143zM578 175q87 0 152 44.5t101 118.5t36 162q0 90 -36.5 163.5t-101.5 118t-151 44.5q-84 0 -153.5 -44t-110.5 -118t-41 -164t41.5 -164t111 -117.5t152.5 -43.5zM488 1110
l-193 288h138l172 -197l167 197h139l-190 -288h-233z" />
    <glyph glyph-name="uni01E8" unicode="&#x1e8;" horiz-adv-x="1136" 
d="M1100 0h-270l-417 577l-85 -103v-474h-208v1400h208v-603l504 603h272l-554 -661zM451 1510l-193 288h138l172 -197l167 197h139l-190 -288h-233z" />
    <glyph glyph-name="uni01E9" unicode="&#x1e9;" horiz-adv-x="1040" 
d="M975 0h-240l-246 424l-161 -192v-232h-208v1500h208v-945l372 445h272l-341 -407zM488 1510l-193 288h138l172 -197l167 197h139l-190 -288h-233z" />
    <glyph glyph-name="uni0218" unicode="&#x218;" horiz-adv-x="1239" 
d="M619 -26q-115 0 -221 36t-185 103.5t-113 160.5l195 73q17 -48 65.5 -85.5t116 -58.5t142.5 -21q80 0 150.5 26t114 72t43.5 108q0 64 -45.5 105t-116 65t-146.5 36q-147 24 -263.5 70t-184 129t-67.5 216q0 125 71.5 218t189 144.5t254.5 51.5q113 0 218.5 -35.5
t186 -103t115.5 -163.5l-197 -71q-17 49 -65 85.5t-115.5 57.5t-142.5 21q-80 1 -149.5 -25.5t-113.5 -72.5t-44 -107q0 -75 41 -114t110.5 -57.5t155.5 -33.5q138 -22 255.5 -73t189 -135.5t71.5 -207.5q0 -124 -71.5 -217.5t-189 -145t-255.5 -51.5zM529 -441l62 338h208
l-132 -338h-138z" />
    <glyph glyph-name="uni0219" unicode="&#x219;" horiz-adv-x="865" 
d="M420 -19q-79 5 -154 32t-131.5 73.5t-84.5 109.5l177 76q13 -27 45.5 -53t76.5 -42.5t92 -16.5q47 0 87.5 13.5t66.5 41.5t26 67q0 44 -29.5 68.5t-73.5 37.5t-88 25q-98 22 -179.5 60.5t-129.5 99t-48 148.5q0 96 52 166.5t136.5 108.5t180.5 38q120 0 220 -51t153 -140
l-165 -98q-15 30 -45 54t-68 38.5t-79 16.5q-51 2 -94.5 -11.5t-69.5 -42.5t-26 -74q0 -44 31 -65.5t78.5 -34.5t97.5 -29q89 -28 167 -68.5t126 -99.5t46 -144q0 -94 -56.5 -165t-146.5 -108t-191 -31zM326 -441l62 338h208l-132 -338h-138z" />
    <glyph glyph-name="uni021A" unicode="&#x21a;" horiz-adv-x="1259" 
d="M1179 1400v-208h-446v-1192h-208v1192h-445v208h1099zM463 -441l62 338h208l-132 -338h-138z" />
    <glyph glyph-name="uni021B" unicode="&#x21b;" horiz-adv-x="707" 
d="M648 792h-210l-1 -792h-208l1 792h-159v208h159l-1 314h208l1 -314h210v-208zM167 -441l62 338h208l-132 -338h-138z" />
    <glyph glyph-name="uni022A" unicode="&#x22a;" horiz-adv-x="1540" 
d="M770 -26q-142 0 -267 56.5t-220 156.5t-149 231.5t-54 281.5t54 281.5t149 231.5t220 156.5t267 56.5q143 0 268 -56.5t220 -156.5t148.5 -231.5t53.5 -281.5t-53.5 -281.5t-148.5 -231.5t-220 -156.5t-268 -56.5zM770 182q100 0 187 41t153.5 112.5t104 165t37.5 199.5
t-37.5 200t-104 165.5t-153.5 112t-187 40.5t-187 -41t-153.5 -112.5t-104 -165t-37.5 -199.5q0 -107 37.5 -200.5t104 -165t153.5 -112t187 -40.5zM587 1474q-46 0 -79 31t-33 78q0 46 33 78t79 32t78 -32t32 -78q0 -47 -32 -78t-78 -31zM955 1474q-47 0 -79.5 31t-32.5 78
q0 46 32.5 78t79.5 32q46 0 78 -32t32 -78q0 -47 -32 -78t-78 -31zM432 1969h676v-158h-676v158z" />
    <glyph glyph-name="uni022B" unicode="&#x22b;" horiz-adv-x="1120" 
d="M560 -26q-138 0 -251.5 71t-181 190.5t-67.5 264.5q0 110 39 205.5t107.5 168t159.5 113.5t194 41q138 0 251.5 -71t181 -191t67.5 -266q0 -109 -39 -204t-107.5 -167.5t-159 -113.5t-194.5 -41zM560 182q83 0 149 44t104.5 116.5t38.5 157.5q0 87 -39.5 160
t-105.5 116.5t-147 43.5q-82 0 -148.5 -44t-105 -117t-38.5 -159q0 -89 40 -161t106.5 -114.5t145.5 -42.5zM377 1074q-46 0 -79 31t-33 78q0 46 33 78t79 32t78 -32t32 -78q0 -47 -32 -78t-78 -31zM745 1074q-47 0 -79.5 31t-32.5 78q0 46 32.5 78t79.5 32q46 0 78 -32
t32 -78q0 -47 -32 -78t-78 -31zM222 1569h676v-158h-676v158z" />
    <glyph glyph-name="uni0232" unicode="&#x232;" horiz-adv-x="1283" 
d="M978 1400h245l-478 -768v-632h-208v632l-477 768h245l336 -541zM303 1711h676v-158h-676v158z" />
    <glyph glyph-name="uni0233" unicode="&#x233;" horiz-adv-x="1107" 
d="M805 1000h222l-548 -1500h-221l181 500l-359 1000h227l236 -715zM215 1311h676v-158h-676v158z" />
    <glyph glyph-name="uni0237" unicode="&#x237;" horiz-adv-x="471" 
d="M-80 -500v208q63 0 113.5 28.5t80 78.5t29.5 111v1074h208v-1074q0 -117 -57 -214t-154.5 -154.5t-219.5 -57.5z" />
    <glyph glyph-name="quoteleft" unicode="&#x2bb;" horiz-adv-x="370" 
d="M60 878l132 522h138l-62 -522h-208z" />
    <glyph glyph-name="quoteleft" unicode="&#x2018;" horiz-adv-x="370" 
d="M60 878l132 522h138l-62 -522h-208z" />
    <glyph glyph-name="uni02BC" unicode="&#x2bc;" horiz-adv-x="487" 
d="M40 878l62 522h208l-132 -522h-138z" />
    <glyph glyph-name="circumflex" unicode="&#x2c6;" horiz-adv-x="646" 
d="M438 1398l193 -288h-139l-170 197l-169 -197h-138l190 288h233z" />
    <glyph glyph-name="caron" unicode="&#x2c7;" horiz-adv-x="608" 
d="M189 1110l-193 288h138l172 -197l167 197h139l-190 -288h-233z" />
    <glyph glyph-name="breve" unicode="&#x2d8;" horiz-adv-x="1144" 
d="M572 1088q-91 0 -166.5 45t-120.5 120.5t-45 166.5h134q0 -55 27.5 -100t72.5 -71.5t98 -26.5q55 0 99.5 26.5t71.5 71.5t27 100h134q0 -93 -45 -168.5t-120.5 -119.5t-166.5 -44z" />
    <glyph glyph-name="dotaccent" unicode="&#x2d9;" horiz-adv-x="1021" 
d="M512 1145q-48 0 -80 31t-32 78q0 46 32 77.5t79 31.5q46 0 78 -31.5t32 -77.5q0 -47 -31.5 -78t-77.5 -31z" />
    <glyph glyph-name="ring" unicode="&#x2da;" horiz-adv-x="1152" 
d="M576 1078q-72 0 -124 52.5t-52 124.5q0 48 24 88t64 63.5t88 23.5q73 0 124.5 -51.5t51.5 -123.5q0 -74 -51.5 -125.5t-124.5 -51.5zM576 1182q30 0 51 21.5t21 51.5q0 29 -21 49.5t-51 20.5t-50.5 -20.5t-20.5 -49.5q0 -30 20.5 -51.5t50.5 -21.5z" />
    <glyph glyph-name="ogonek" unicode="&#x2db;" horiz-adv-x="1058" 
d="M516 -436q-65 1 -114 32.5t-75.5 81.5t-26.5 105q0 41 15.5 80t48.5 72l168 168l103 -103q-43 -43 -76 -75.5t-56 -57.5t-34 -47t-11 -45q0 -25 17.5 -45.5t48.5 -22.5q38 0 68 28t30 70h136q0 -65 -32 -120t-87 -88t-123 -33z" />
    <glyph glyph-name="tilde" unicode="&#x2dc;" horiz-adv-x="1232" 
d="M782 1121q-37 0 -85.5 25t-97.5 56.5t-87 51.5t-55 9q-18 -11 -25 -33.5t3 -57.5l-126 -34q-24 70 -10.5 130t58.5 96.5t113 36.5q37 0 84 -22t94 -50t85 -50t56 -22q22 0 30 15.5t7 36.5t-8 39l128 41q25 -75 9.5 -135.5t-61 -96.5t-112.5 -36z" />
    <glyph glyph-name="hungarumlaut" unicode="&#x2dd;" horiz-adv-x="1002" 
d="M513 1110l80 288h208l-148 -288h-140zM200 1110l80 288h208l-148 -288h-140z" />
    <glyph glyph-name="gravecomb" unicode="&#x300;" horiz-adv-x="0" 
d="M274 1398h208l80 -288h-138z" />
    <glyph glyph-name="acutecomb" unicode="&#x301;" horiz-adv-x="0" 
d="M372 1110l80 288h208l-148 -288h-140z" />
    <glyph glyph-name="uni0302" unicode="&#x302;" horiz-adv-x="0" 
d="M438 1398l193 -288h-139l-170 197l-169 -197h-138l190 288h233z" />
    <glyph glyph-name="tildecomb" unicode="&#x303;" horiz-adv-x="0" 
d="M789 1114q-37 0 -85.5 25t-97.5 56.5t-87 51.5t-55 9q-18 -11 -25 -33.5t3 -57.5l-126 -34q-24 70 -10.5 130t58.5 96.5t113 36.5q37 0 84 -22t94 -50t85 -50t56 -22q22 0 30 15.5t7 36.5t-8 39l128 41q25 -75 9.5 -135.5t-61 -96.5t-112.5 -36z" />
    <glyph glyph-name="uni0304" unicode="&#x304;" horiz-adv-x="0" 
d="M262 1311h676v-158h-676v158z" />
    <glyph glyph-name="uni0306" unicode="&#x306;" horiz-adv-x="0" 
d="M572 1088q-91 0 -166.5 45t-120.5 120.5t-45 166.5h134q0 -55 27.5 -100t72.5 -71.5t98 -26.5q55 0 99.5 26.5t71.5 71.5t27 100h134q0 -93 -45 -168.5t-120.5 -119.5t-166.5 -44z" />
    <glyph glyph-name="uni0307" unicode="&#x307;" horiz-adv-x="0" 
d="M512 1145q-48 0 -80 31t-32 78q0 46 32 77.5t79 31.5q46 0 78 -31.5t32 -77.5q0 -47 -31.5 -78t-77.5 -31z" />
    <glyph glyph-name="uni0308" unicode="&#x308;" horiz-adv-x="0" 
d="M512 1074q-46 0 -79 31t-33 78q0 46 33 78t79 32t78 -32t32 -78q0 -47 -32 -78t-78 -31zM880 1074q-47 0 -79.5 31t-32.5 78q0 46 32.5 78t79.5 32q46 0 78 -32t32 -78q0 -47 -32 -78t-78 -31z" />
    <glyph glyph-name="uni030A" unicode="&#x30a;" horiz-adv-x="0" 
d="M576 1078q-72 0 -124 52.5t-52 124.5q0 48 24 88t64 63.5t88 23.5q73 0 124.5 -51.5t51.5 -123.5q0 -74 -51.5 -125.5t-124.5 -51.5zM576 1182q30 0 51 21.5t21 51.5q0 29 -21 49.5t-51 20.5t-50.5 -20.5t-20.5 -49.5q0 -30 20.5 -51.5t50.5 -21.5z" />
    <glyph glyph-name="uni030B" unicode="&#x30b;" horiz-adv-x="0" 
d="M513 1110l80 288h208l-148 -288h-140zM200 1110l80 288h208l-148 -288h-140z" />
    <glyph glyph-name="uni030C" unicode="&#x30c;" horiz-adv-x="0" 
d="M189 1110l-193 288h138l172 -197l167 197h139l-190 -288h-233z" />
    <glyph glyph-name="dotbelowcomb" unicode="&#x323;" horiz-adv-x="0" 
d="M512 -424q-48 0 -80 31t-32 78q0 46 32 77.5t79 31.5q46 0 78 -31.5t32 -77.5q0 -47 -31.5 -78t-77.5 -31z" />
    <glyph glyph-name="uni0326" unicode="&#x326;" horiz-adv-x="0" 
d="M400 -441l62 338h208l-132 -338h-138z" />
    <glyph glyph-name="uni0327" unicode="&#x327;" horiz-adv-x="0" 
d="M612 -373q-69 -18 -130.5 17.5t-80.5 103.5l112 30q6 -22 26 -33.5t43 -5.5t34.5 26t5.5 43t-26 33.5t-43 6.5l-117 -7l134 235l101 -58l-40 -68q37 -13 64.5 -42.5t37.5 -70.5q19 -68 -16.5 -130t-104.5 -80z" />
    <glyph glyph-name="uni0328" unicode="&#x328;" horiz-adv-x="0" 
d="M516 -436q-65 1 -114 32.5t-75.5 81.5t-26.5 105q0 41 15.5 80t48.5 72l168 168l103 -103q-43 -43 -76 -75.5t-56 -57.5t-34 -47t-11 -45q0 -25 17.5 -45.5t48.5 -22.5q38 0 68 28t30 70h136q0 -65 -32 -120t-87 -88t-123 -33z" />
    <glyph glyph-name="uni03BC" unicode="&#x3bc;" horiz-adv-x="1108" 
d="M80 -432v1432h208v-518q0 -85 35.5 -154.5t97 -111t140.5 -41.5q77 0 135.5 41.5t91 111t32.5 154.5v518h208v-1000h-208v136q-52 -75 -126 -119t-167 -44q-73 0 -134 29.5t-105 77.5v-512h-208z" />
    <glyph glyph-name="uni1E04" unicode="&#x1e04;" horiz-adv-x="1154" 
d="M120 0v1400h497q108 0 195.5 -44t139 -126.5t51.5 -197.5q0 -56 -18 -110t-51 -95t-80 -58q64 -16 106.5 -57.5t67.5 -96.5t35.5 -114t10.5 -112q0 -112 -54 -200t-144.5 -138.5t-199.5 -50.5h-556zM328 180h328q64 0 116.5 32t83.5 88.5t31 127.5q0 62 -31 117.5
t-83.5 89.5t-116.5 34h-328v-489zM328 846h267q82 0 141 50t59 137q0 93 -59 139.5t-141 46.5h-267v-373zM579 -424q-48 0 -80 31t-32 78q0 46 32 77.5t79 31.5q46 0 78 -31.5t32 -77.5q0 -47 -31.5 -78t-77.5 -31z" />
    <glyph glyph-name="uni1E05" unicode="&#x1e05;" horiz-adv-x="1227" 
d="M640 1028q146 0 265.5 -71t190.5 -190.5t71 -265.5q0 -109 -41 -204.5t-113.5 -168t-168 -113.5t-204.5 -41q-105 0 -183.5 48.5t-128.5 124.5v-147h-208v1500h208v-645q50 77 128.5 125t183.5 48zM638 176q87 0 159 44t114.5 118t42.5 163q0 91 -43 165t-115 117.5
t-158 43.5q-87 0 -153 -44t-103 -118t-37 -164t37 -164t103 -117.5t153 -43.5zM615 -424q-48 0 -80 31t-32 78q0 46 32 77.5t79 31.5q46 0 78 -31.5t32 -77.5q0 -47 -31.5 -78t-77.5 -31z" />
    <glyph glyph-name="uni1E0C" unicode="&#x1e0c;" horiz-adv-x="1343" 
d="M120 0v1400h463q145 0 272 -54.5t223 -151t150.5 -223t54.5 -271.5t-54.5 -271.5t-150.5 -223t-223 -151t-272 -54.5h-463zM328 208h255q102 0 190.5 38t157 106t106.5 157t38 191t-38 191t-106.5 157t-157 106t-190.5 38h-255v-984zM661 -424q-48 0 -80 31t-32 78
q0 46 32 77.5t79 31.5q46 0 78 -31.5t32 -77.5q0 -47 -31.5 -78t-77.5 -31z" />
    <glyph glyph-name="uni1E0D" unicode="&#x1e0d;" horiz-adv-x="1227" 
d="M899 1500h208v-1500h-208v147q-49 -78 -128 -125.5t-185 -47.5q-109 0 -204 41t-167.5 113.5t-113.5 167.5t-41 204t41 204.5t113.5 168t167.5 113.5t204 41q106 0 185 -47.5t128 -124.5v645zM588 175q88 0 154 43.5t102.5 117.5t36.5 164q0 91 -37 165t-102.5 117.5
t-153.5 43.5q-87 0 -158.5 -44t-114 -118t-42.5 -164q0 -91 43.5 -164.5t115 -117t156.5 -43.5zM615 -424q-48 0 -80 31t-32 78q0 46 32 77.5t79 31.5q46 0 78 -31.5t32 -77.5q0 -47 -31.5 -78t-77.5 -31z" />
    <glyph glyph-name="uni1E20" unicode="&#x1e20;" horiz-adv-x="1536" 
d="M769 -26q-146 0 -271.5 56.5t-219 157t-146 232.5t-52.5 281q0 157 56 289t153 229.5t221.5 151.5t261.5 54q155 0 298 -72t249 -216l-186 -101q-72 90 -167.5 136t-195.5 46q-97 0 -184 -39.5t-154 -110t-105.5 -165t-38.5 -205.5q0 -107 37.5 -201t104 -164.5
t154 -110.5t187.5 -40q74 0 142 24t126.5 68.5t102.5 106.5t70 138h-297v184h541q2 -150 -51.5 -282t-148 -232.5t-219.5 -157.5t-268 -57zM432 1711h676v-158h-676v158z" />
    <glyph glyph-name="uni1E21" unicode="&#x1e21;" horiz-adv-x="1209" 
d="M881 1000h208v-1026q0 -103 -43.5 -190t-117.5 -150.5t-169.5 -98.5t-199.5 -35q-105 0 -202 44.5t-170.5 120.5t-109.5 172l191 86q20 -62 64.5 -110t104 -76t122.5 -28q62 0 119.5 19.5t103 54.5t72.5 84t27 107v169q-49 -76 -126 -122.5t-179 -46.5q-106 0 -200 41
t-165 113.5t-111 167.5t-40 204t40 204.5t111 168t165 113.5t200 41q102 0 179 -46.5t126 -123.5v143zM578 175q87 0 152 44.5t101 118.5t36 162q0 90 -36.5 163.5t-101.5 118t-151 44.5q-84 0 -153.5 -44t-110.5 -118t-41 -164t41.5 -164t111 -117.5t152.5 -43.5zM267 1311
h676v-158h-676v158z" />
    <glyph glyph-name="uni1E24" unicode="&#x1e24;" horiz-adv-x="1289" 
d="M961 1400h208v-1400h-208v646h-633v-646h-208v1400h208v-546h633v546zM646 -424q-48 0 -80 31t-32 78q0 46 32 77.5t79 31.5q46 0 78 -31.5t32 -77.5q0 -47 -31.5 -78t-77.5 -31z" />
    <glyph glyph-name="uni1E25" unicode="&#x1e25;" horiz-adv-x="1100" 
d="M1020 627v-627h-208v576q0 67 -32.5 122t-87 87.5t-122.5 32.5q-66 0 -121 -32.5t-88 -87.5t-33 -122v-576h-208v1500h208v-606q52 62 128 98t164 36q111 0 202 -54t144.5 -145t53.5 -202zM597 -424q-48 0 -80 31t-32 78q0 46 32 77.5t79 31.5q46 0 78 -31.5t32 -77.5
q0 -47 -31.5 -78t-77.5 -31z" />
    <glyph glyph-name="uni1E2E" unicode="&#x1e2e;" horiz-adv-x="508" 
d="M150 0v1400h208v-1400h-208zM71 1474q-46 0 -79 31t-33 78q0 46 33 78t79 32t78 -32t32 -78q0 -47 -32 -78t-78 -31zM439 1474q-47 0 -79.5 31t-32.5 78q0 46 32.5 78t79.5 32q46 0 78 -32t32 -78q0 -47 -32 -78t-78 -31zM200 1768l80 288h208l-148 -288h-140z" />
    <glyph glyph-name="uni1E2F" unicode="&#x1e2f;" 
d="M120 1000h208v-1000h-208v1000zM41 1074q-46 0 -79 31t-33 78q0 46 33 78t79 32t78 -32t32 -78q0 -47 -32 -78t-78 -31zM409 1074q-47 0 -79.5 31t-32.5 78q0 46 32.5 78t79.5 32q46 0 78 -32t32 -78q0 -47 -32 -78t-78 -31zM170 1368l80 288h208l-148 -288h-140z" />
    <glyph glyph-name="uni1E36" unicode="&#x1e36;" horiz-adv-x="1031" 
d="M120 0v1400h208v-1192h603v-208h-811zM528 -424q-48 0 -80 31t-32 78q0 46 32 77.5t79 31.5q46 0 78 -31.5t32 -77.5q0 -47 -31.5 -78t-77.5 -31z" />
    <glyph glyph-name="uni1E37" unicode="&#x1e37;" 
d="M120 0v1500h208v-1500h-208zM226 -424q-48 0 -80 31t-32 78q0 46 32 77.5t79 31.5q46 0 78 -31.5t32 -77.5q0 -47 -31.5 -78t-77.5 -31z" />
    <glyph glyph-name="uni1E3E" unicode="&#x1e3e;" horiz-adv-x="1835" 
d="M120 0l271 1400h168l359 -943l357 943h168l272 -1400h-212l-181 937l-335 -884h-140l-334 884l-181 -937h-212zM864 1510l80 288h208l-148 -288h-140z" />
    <glyph glyph-name="uni1E3F" unicode="&#x1e3f;" horiz-adv-x="1777" 
d="M120 0v1000h208v-106q52 62 127.5 98t163.5 36q107 0 197 -51.5t143 -136.5q53 85 141.5 136.5t195.5 51.5q111 0 202 -54t145 -145t54 -202v-627h-208v574q0 66 -32 121t-86 89t-120 34t-120 -32t-86 -87t-32 -125v-574h-208v574q0 70 -32 125t-86.5 87t-120.5 32
q-65 0 -119.5 -34t-86.5 -89t-32 -121v-574h-208zM905 1110l80 288h208l-148 -288h-140z" />
    <glyph glyph-name="uni1E40" unicode="&#x1e40;" horiz-adv-x="1835" 
d="M120 0l271 1400h168l359 -943l357 943h168l272 -1400h-212l-181 937l-335 -884h-140l-334 884l-181 -937h-212zM920 1545q-48 0 -80 31t-32 78q0 46 32 77.5t79 31.5q46 0 78 -31.5t32 -77.5q0 -47 -31.5 -78t-77.5 -31z" />
    <glyph glyph-name="uni1E41" unicode="&#x1e41;" horiz-adv-x="1777" 
d="M120 0v1000h208v-106q52 62 127.5 98t163.5 36q107 0 197 -51.5t143 -136.5q53 85 141.5 136.5t195.5 51.5q111 0 202 -54t145 -145t54 -202v-627h-208v574q0 66 -32 121t-86 89t-120 34t-120 -32t-86 -87t-32 -125v-574h-208v574q0 70 -32 125t-86.5 87t-120.5 32
q-65 0 -119.5 -34t-86.5 -89t-32 -121v-574h-208zM960 1145q-48 0 -80 31t-32 78q0 46 32 77.5t79 31.5q46 0 78 -31.5t32 -77.5q0 -47 -31.5 -78t-77.5 -31z" />
    <glyph glyph-name="uni1E42" unicode="&#x1e42;" horiz-adv-x="1835" 
d="M120 0l271 1400h168l359 -943l357 943h168l272 -1400h-212l-181 937l-335 -884h-140l-334 884l-181 -937h-212zM920 -424q-48 0 -80 31t-32 78q0 46 32 77.5t79 31.5q46 0 78 -31.5t32 -77.5q0 -47 -31.5 -78t-77.5 -31z" />
    <glyph glyph-name="uni1E43" unicode="&#x1e43;" horiz-adv-x="1777" 
d="M120 0v1000h208v-106q52 62 127.5 98t163.5 36q107 0 197 -51.5t143 -136.5q53 85 141.5 136.5t195.5 51.5q111 0 202 -54t145 -145t54 -202v-627h-208v574q0 66 -32 121t-86 89t-120 34t-120 -32t-86 -87t-32 -125v-574h-208v574q0 70 -32 125t-86.5 87t-120.5 32
q-65 0 -119.5 -34t-86.5 -89t-32 -121v-574h-208zM910 -424q-48 0 -80 31t-32 78q0 46 32 77.5t79 31.5q46 0 78 -31.5t32 -77.5q0 -47 -31.5 -78t-77.5 -31z" />
    <glyph glyph-name="uni1E44" unicode="&#x1e44;" horiz-adv-x="1316" 
d="M120 0v1400h225l643 -1024v1024h208v-1400h-225l-643 1024v-1024h-208zM659 1545q-48 0 -80 31t-32 78q0 46 32 77.5t79 31.5q46 0 78 -31.5t32 -77.5q0 -47 -31.5 -78t-77.5 -31z" />
    <glyph glyph-name="uni1E45" unicode="&#x1e45;" horiz-adv-x="1100" 
d="M1020 627v-627h-208v576q0 67 -32.5 122t-87 87.5t-122.5 32.5q-66 0 -121 -32.5t-88 -87.5t-33 -122v-576h-208v1000h208v-106q52 62 128 98t164 36q111 0 202 -54t144.5 -145t53.5 -202zM585 1145q-48 0 -80 31t-32 78q0 46 32 77.5t79 31.5q46 0 78 -31.5t32 -77.5
q0 -47 -31.5 -78t-77.5 -31z" />
    <glyph glyph-name="uni1E46" unicode="&#x1e46;" horiz-adv-x="1316" 
d="M120 0v1400h225l643 -1024v1024h208v-1400h-225l-643 1024v-1024h-208zM659 -424q-48 0 -80 31t-32 78q0 46 32 77.5t79 31.5q46 0 78 -31.5t32 -77.5q0 -47 -31.5 -78t-77.5 -31z" />
    <glyph glyph-name="uni1E47" unicode="&#x1e47;" horiz-adv-x="1100" 
d="M1020 627v-627h-208v576q0 67 -32.5 122t-87 87.5t-122.5 32.5q-66 0 -121 -32.5t-88 -87.5t-33 -122v-576h-208v1000h208v-106q52 62 128 98t164 36q111 0 202 -54t144.5 -145t53.5 -202zM572 -424q-48 0 -80 31t-32 78q0 46 32 77.5t79 31.5q46 0 78 -31.5t32 -77.5
q0 -47 -31.5 -78t-77.5 -31z" />
    <glyph glyph-name="uni1E62" unicode="&#x1e62;" horiz-adv-x="1239" 
d="M619 -26q-115 0 -221 36t-185 103.5t-113 160.5l195 73q17 -48 65.5 -85.5t116 -58.5t142.5 -21q80 0 150.5 26t114 72t43.5 108q0 64 -45.5 105t-116 65t-146.5 36q-147 24 -263.5 70t-184 129t-67.5 216q0 125 71.5 218t189 144.5t254.5 51.5q113 0 218.5 -35.5
t186 -103t115.5 -163.5l-197 -71q-17 49 -65 85.5t-115.5 57.5t-142.5 21q-80 1 -149.5 -25.5t-113.5 -72.5t-44 -107q0 -75 41 -114t110.5 -57.5t155.5 -33.5q138 -22 255.5 -73t189 -135.5t71.5 -207.5q0 -124 -71.5 -217.5t-189 -145t-255.5 -51.5zM697 -424
q-48 0 -80 31t-32 78q0 46 32 77.5t79 31.5q46 0 78 -31.5t32 -77.5q0 -47 -31.5 -78t-77.5 -31z" />
    <glyph glyph-name="uni1E63" unicode="&#x1e63;" horiz-adv-x="865" 
d="M420 -19q-79 5 -154 32t-131.5 73.5t-84.5 109.5l177 76q13 -27 45.5 -53t76.5 -42.5t92 -16.5q47 0 87.5 13.5t66.5 41.5t26 67q0 44 -29.5 68.5t-73.5 37.5t-88 25q-98 22 -179.5 60.5t-129.5 99t-48 148.5q0 96 52 166.5t136.5 108.5t180.5 38q120 0 220 -51t153 -140
l-165 -98q-15 30 -45 54t-68 38.5t-79 16.5q-51 2 -94.5 -11.5t-69.5 -42.5t-26 -74q0 -44 31 -65.5t78.5 -34.5t97.5 -29q89 -28 167 -68.5t126 -99.5t46 -144q0 -94 -56.5 -165t-146.5 -108t-191 -31zM494 -424q-48 0 -80 31t-32 78q0 46 32 77.5t79 31.5q46 0 78 -31.5
t32 -77.5q0 -47 -31.5 -78t-77.5 -31z" />
    <glyph glyph-name="uni1E6C" unicode="&#x1e6c;" horiz-adv-x="1259" 
d="M1179 1400v-208h-446v-1192h-208v1192h-445v208h1099zM631 -424q-48 0 -80 31t-32 78q0 46 32 77.5t79 31.5q46 0 78 -31.5t32 -77.5q0 -47 -31.5 -78t-77.5 -31z" />
    <glyph glyph-name="uni1E6D" unicode="&#x1e6d;" horiz-adv-x="707" 
d="M648 792h-210l-1 -792h-208l1 792h-159v208h159l-1 314h208l1 -314h210v-208zM335 -424q-48 0 -80 31t-32 78q0 46 32 77.5t79 31.5q46 0 78 -31.5t32 -77.5q0 -47 -31.5 -78t-77.5 -31z" />
    <glyph glyph-name="Wgrave" unicode="&#x1e80;" horiz-adv-x="1804" 
d="M428 0l-358 1400h214l262 -1027l261 1027h189l262 -1027l262 1027h214l-356 -1400h-239l-237 927l-237 -927h-237zM664 1798h208l80 -288h-138z" />
    <glyph glyph-name="wgrave" unicode="&#x1e81;" horiz-adv-x="1677" 
d="M602 0h-207l-335 1000h204l236 -702l234 702h210l234 -702l235 702h204l-334 -1000h-209l-236 707zM601 1398h208l80 -288h-138z" />
    <glyph glyph-name="Wacute" unicode="&#x1e82;" horiz-adv-x="1804" 
d="M428 0l-358 1400h214l262 -1027l261 1027h189l262 -1027l262 1027h214l-356 -1400h-239l-237 927l-237 -927h-237zM848 1510l80 288h208l-148 -288h-140z" />
    <glyph glyph-name="wacute" unicode="&#x1e83;" horiz-adv-x="1677" 
d="M602 0h-207l-335 1000h204l236 -702l234 702h210l234 -702l235 702h204l-334 -1000h-209l-236 707zM785 1110l80 288h208l-148 -288h-140z" />
    <glyph glyph-name="Wdieresis" unicode="&#x1e84;" horiz-adv-x="1804" 
d="M428 0l-358 1400h214l262 -1027l261 1027h189l262 -1027l262 1027h214l-356 -1400h-239l-237 927l-237 -927h-237zM719 1474q-46 0 -79 31t-33 78q0 46 33 78t79 32t78 -32t32 -78q0 -47 -32 -78t-78 -31zM1087 1474q-47 0 -79.5 31t-32.5 78q0 46 32.5 78t79.5 32
q46 0 78 -32t32 -78q0 -47 -32 -78t-78 -31z" />
    <glyph glyph-name="wdieresis" unicode="&#x1e85;" horiz-adv-x="1677" 
d="M602 0h-207l-335 1000h204l236 -702l234 702h210l234 -702l235 702h204l-334 -1000h-209l-236 707zM656 1074q-46 0 -79 31t-33 78q0 46 33 78t79 32t78 -32t32 -78q0 -47 -32 -78t-78 -31zM1024 1074q-47 0 -79.5 31t-32.5 78q0 46 32.5 78t79.5 32q46 0 78 -32t32 -78
q0 -47 -32 -78t-78 -31z" />
    <glyph glyph-name="uni1E92" unicode="&#x1e92;" horiz-adv-x="1292" 
d="M80 0v208l852 984h-852v208h1132v-208l-852 -984h852v-208h-1132zM648 -424q-48 0 -80 31t-32 78q0 46 32 77.5t79 31.5q46 0 78 -31.5t32 -77.5q0 -47 -31.5 -78t-77.5 -31z" />
    <glyph glyph-name="uni1E93" unicode="&#x1e93;" horiz-adv-x="1014" 
d="M934 792l-556 -584h556v-208h-854v208l556 584h-556v208h854v-208zM509 -424q-48 0 -80 31t-32 78q0 46 32 77.5t79 31.5q46 0 78 -31.5t32 -77.5q0 -47 -31.5 -78t-77.5 -31z" />
    <glyph glyph-name="uni1E97" unicode="&#x1e97;" horiz-adv-x="707" 
d="M648 792h-210l-1 -792h-208l1 792h-159v208h159l-1 314h208l1 -314h210v-208zM150 1388q-46 0 -79 31t-33 78q0 46 33 78t79 32t78 -32t32 -78q0 -47 -32 -78t-78 -31zM518 1388q-47 0 -79.5 31t-32.5 78q0 46 32.5 78t79.5 32q46 0 78 -32t32 -78q0 -47 -32 -78t-78 -31
z" />
    <glyph glyph-name="uni1E9E" unicode="&#x1e9e;" horiz-adv-x="1179" 
d="M120 0v917q0 100 38 187.5t104 153.5t153.5 103.5t186.5 37.5q101 0 189 -38t142.5 -105.5t54.5 -155.5q0 -45 -27 -90.5t-81 -110.5t-136 -170q70 11 136.5 -12t120.5 -71t86 -112t32 -135q0 -97 -40.5 -171.5t-107.5 -125t-148 -76.5t-163 -26h-61l-45 180h86
q64 0 131.5 21.5t114 70.5t46.5 129t-47 128t-114 69.5t-131 21.5h-76l-2 80q0 36 21 81t53 93t64.5 93t54 81t21.5 56q0 48 -29.5 72.5t-77 33t-103.5 8.5q-62 0 -116.5 -33.5t-88 -90.5t-33.5 -127v-967h-208z" />
    <glyph glyph-name="uni1EA0" unicode="&#x1ea0;" horiz-adv-x="1421" 
d="M589 1400h243l509 -1400h-220l-97 266h-627l-96 -266h-221zM474 474h473l-237 650zM712 -424q-48 0 -80 31t-32 78q0 46 32 77.5t79 31.5q46 0 78 -31.5t32 -77.5q0 -47 -31.5 -78t-77.5 -31z" />
    <glyph glyph-name="uni1EA1" unicode="&#x1ea1;" horiz-adv-x="1186" 
d="M898 1000h208v-1000h-209l-8 145q-44 -77 -119 -124t-177 -47q-110 0 -207 41.5t-170.5 115.5t-114.5 170.5t-41 207.5q0 107 40 201.5t111 165.5t164.5 111.5t200.5 40.5q109 0 192.5 -49.5t138.5 -126.5zM588 175q88 0 154 43.5t102.5 117.5t36.5 164q0 91 -37 165
t-102.5 117.5t-153.5 43.5q-87 0 -159 -44t-114 -118t-42 -164q0 -91 43.5 -164.5t115 -117t156.5 -43.5zM609 -424q-48 0 -80 31t-32 78q0 46 32 77.5t79 31.5q46 0 78 -31.5t32 -77.5q0 -47 -31.5 -78t-77.5 -31z" />
    <glyph glyph-name="uni1EAC" unicode="&#x1eac;" horiz-adv-x="1421" 
d="M589 1400h243l509 -1400h-220l-97 266h-627l-96 -266h-221zM474 474h473l-237 650zM712 -424q-48 0 -80 31t-32 78q0 46 32 77.5t79 31.5q46 0 78 -31.5t32 -77.5q0 -47 -31.5 -78t-77.5 -31zM827 1798l193 -288h-139l-170 197l-169 -197h-138l190 288h233z" />
    <glyph glyph-name="uni1EAD" unicode="&#x1ead;" horiz-adv-x="1186" 
d="M898 1000h208v-1000h-209l-8 145q-44 -77 -119 -124t-177 -47q-110 0 -207 41.5t-170.5 115.5t-114.5 170.5t-41 207.5q0 107 40 201.5t111 165.5t164.5 111.5t200.5 40.5q109 0 192.5 -49.5t138.5 -126.5zM588 175q88 0 154 43.5t102.5 117.5t36.5 164q0 91 -37 165
t-102.5 117.5t-153.5 43.5q-87 0 -159 -44t-114 -118t-42 -164q0 -91 43.5 -164.5t115 -117t156.5 -43.5zM609 -424q-48 0 -80 31t-32 78q0 46 32 77.5t79 31.5q46 0 78 -31.5t32 -77.5q0 -47 -31.5 -78t-77.5 -31zM724 1398l193 -288h-139l-170 197l-169 -197h-138l190 288
h233z" />
    <glyph glyph-name="uni1EB6" unicode="&#x1eb6;" horiz-adv-x="1421" 
d="M589 1400h243l509 -1400h-220l-97 266h-627l-96 -266h-221zM474 474h473l-237 650zM712 -424q-48 0 -80 31t-32 78q0 46 32 77.5t79 31.5q46 0 78 -31.5t32 -77.5q0 -47 -31.5 -78t-77.5 -31zM710 1488q-91 0 -166.5 45t-120.5 120.5t-45 166.5h134q0 -55 27.5 -100
t72.5 -71.5t98 -26.5q55 0 99.5 26.5t71.5 71.5t27 100h134q0 -93 -45 -168.5t-120.5 -119.5t-166.5 -44z" />
    <glyph glyph-name="uni1EB7" unicode="&#x1eb7;" horiz-adv-x="1186" 
d="M898 1000h208v-1000h-209l-8 145q-44 -77 -119 -124t-177 -47q-110 0 -207 41.5t-170.5 115.5t-114.5 170.5t-41 207.5q0 107 40 201.5t111 165.5t164.5 111.5t200.5 40.5q109 0 192.5 -49.5t138.5 -126.5zM588 175q88 0 154 43.5t102.5 117.5t36.5 164q0 91 -37 165
t-102.5 117.5t-153.5 43.5q-87 0 -159 -44t-114 -118t-42 -164q0 -91 43.5 -164.5t115 -117t156.5 -43.5zM609 -424q-48 0 -80 31t-32 78q0 46 32 77.5t79 31.5q46 0 78 -31.5t32 -77.5q0 -47 -31.5 -78t-77.5 -31zM607 1088q-91 0 -166.5 45t-120.5 120.5t-45 166.5h134
q0 -55 27.5 -100t72.5 -71.5t98 -26.5q55 0 99.5 26.5t71.5 71.5t27 100h134q0 -93 -45 -168.5t-120.5 -119.5t-166.5 -44z" />
    <glyph glyph-name="uni1EB8" unicode="&#x1eb8;" horiz-adv-x="1089" 
d="M120 0v1400h869v-208h-661v-338h532v-208h-532v-438h661v-208h-869zM546 -424q-48 0 -80 31t-32 78q0 46 32 77.5t79 31.5q46 0 78 -31.5t32 -77.5q0 -47 -31.5 -78t-77.5 -31z" />
    <glyph glyph-name="uni1EB9" unicode="&#x1eb9;" horiz-adv-x="1118" 
d="M560 -26q-138 0 -251.5 71t-181 190.5t-67.5 264.5q0 110 39 205.5t107.5 168t159.5 113.5t194 41q115 0 211 -47.5t164 -131t100 -192t19 -230.5h-771q13 -69 50.5 -124.5t96 -87.5t130.5 -33q76 0 138.5 38t102.5 105l211 -49q-60 -133 -181 -217.5t-271 -84.5z
M276 586h568q-10 72 -50.5 130.5t-101 93t-132.5 34.5q-71 0 -131.5 -34t-100 -92.5t-52.5 -131.5zM561 -424q-48 0 -80 31t-32 78q0 46 32 77.5t79 31.5q46 0 78 -31.5t32 -77.5q0 -47 -31.5 -78t-77.5 -31z" />
    <glyph glyph-name="uni1EBC" unicode="&#x1ebc;" horiz-adv-x="1089" 
d="M120 0v1400h869v-208h-661v-338h532v-208h-532v-438h661v-208h-869zM700 1514q-37 0 -85.5 25t-97.5 56.5t-87 51.5t-55 9q-18 -11 -25 -33.5t3 -57.5l-126 -34q-24 70 -10.5 130t58.5 96.5t113 36.5q37 0 84 -22t94 -50t85 -50t56 -22q22 0 30 15.5t7 36.5t-8 39l128 41
q25 -75 9.5 -135.5t-61 -96.5t-112.5 -36z" />
    <glyph glyph-name="uni1EBD" unicode="&#x1ebd;" horiz-adv-x="1118" 
d="M560 -26q-138 0 -251.5 71t-181 190.5t-67.5 264.5q0 110 39 205.5t107.5 168t159.5 113.5t194 41q115 0 211 -47.5t164 -131t100 -192t19 -230.5h-771q13 -69 50.5 -124.5t96 -87.5t130.5 -33q76 0 138.5 38t102.5 105l211 -49q-60 -133 -181 -217.5t-271 -84.5z
M276 586h568q-10 72 -50.5 130.5t-101 93t-132.5 34.5q-71 0 -131.5 -34t-100 -92.5t-52.5 -131.5zM715 1114q-37 0 -85.5 25t-97.5 56.5t-87 51.5t-55 9q-18 -11 -25 -33.5t3 -57.5l-126 -34q-24 70 -10.5 130t58.5 96.5t113 36.5q37 0 84 -22t94 -50t85 -50t56 -22
q22 0 30 15.5t7 36.5t-8 39l128 41q25 -75 9.5 -135.5t-61 -96.5t-112.5 -36z" />
    <glyph glyph-name="uni1EC6" unicode="&#x1ec6;" horiz-adv-x="1089" 
d="M120 0v1400h869v-208h-661v-338h532v-208h-532v-438h661v-208h-869zM546 -424q-48 0 -80 31t-32 78q0 46 32 77.5t79 31.5q46 0 78 -31.5t32 -77.5q0 -47 -31.5 -78t-77.5 -31zM661 1798l193 -288h-139l-170 197l-169 -197h-138l190 288h233z" />
    <glyph glyph-name="uni1EC7" unicode="&#x1ec7;" horiz-adv-x="1118" 
d="M560 -26q-138 0 -251.5 71t-181 190.5t-67.5 264.5q0 110 39 205.5t107.5 168t159.5 113.5t194 41q115 0 211 -47.5t164 -131t100 -192t19 -230.5h-771q13 -69 50.5 -124.5t96 -87.5t130.5 -33q76 0 138.5 38t102.5 105l211 -49q-60 -133 -181 -217.5t-271 -84.5z
M276 586h568q-10 72 -50.5 130.5t-101 93t-132.5 34.5q-71 0 -131.5 -34t-100 -92.5t-52.5 -131.5zM561 -424q-48 0 -80 31t-32 78q0 46 32 77.5t79 31.5q46 0 78 -31.5t32 -77.5q0 -47 -31.5 -78t-77.5 -31zM676 1398l193 -288h-139l-170 197l-169 -197h-138l190 288h233z
" />
    <glyph glyph-name="uni1ECA" unicode="&#x1eca;" horiz-adv-x="508" 
d="M150 0v1400h208v-1400h-208zM256 -424q-48 0 -80 31t-32 78q0 46 32 77.5t79 31.5q46 0 78 -31.5t32 -77.5q0 -47 -31.5 -78t-77.5 -31z" />
    <glyph glyph-name="uni1ECB" unicode="&#x1ecb;" 
d="M120 1000h208v-1000h-208v1000zM226 1145q-48 0 -80 31t-32 78q0 46 32 77.5t79 31.5q46 0 78 -31.5t32 -77.5q0 -47 -31.5 -78t-77.5 -31zM226 -424q-48 0 -80 31t-32 78q0 46 32 77.5t79 31.5q46 0 78 -31.5t32 -77.5q0 -47 -31.5 -78t-77.5 -31z" />
    <glyph glyph-name="uni1ECC" unicode="&#x1ecc;" horiz-adv-x="1540" 
d="M770 -26q-142 0 -267 56.5t-220 156.5t-149 231.5t-54 281.5t54 281.5t149 231.5t220 156.5t267 56.5q143 0 268 -56.5t220 -156.5t148.5 -231.5t53.5 -281.5t-53.5 -281.5t-148.5 -231.5t-220 -156.5t-268 -56.5zM770 182q100 0 187 41t153.5 112.5t104 165t37.5 199.5
t-37.5 200t-104 165.5t-153.5 112t-187 40.5t-187 -41t-153.5 -112.5t-104 -165t-37.5 -199.5q0 -107 37.5 -200.5t104 -165t153.5 -112t187 -40.5zM772 -424q-48 0 -80 31t-32 78q0 46 32 77.5t79 31.5q46 0 78 -31.5t32 -77.5q0 -47 -31.5 -78t-77.5 -31z" />
    <glyph glyph-name="uni1ECD" unicode="&#x1ecd;" horiz-adv-x="1120" 
d="M560 -26q-138 0 -251.5 71t-181 190.5t-67.5 264.5q0 110 39 205.5t107.5 168t159.5 113.5t194 41q138 0 251.5 -71t181 -191t67.5 -266q0 -109 -39 -204t-107.5 -167.5t-159 -113.5t-194.5 -41zM560 182q83 0 149 44t104.5 116.5t38.5 157.5q0 87 -39.5 160
t-105.5 116.5t-147 43.5q-82 0 -148.5 -44t-105 -117t-38.5 -159q0 -89 40 -161t106.5 -114.5t145.5 -42.5zM562 -424q-48 0 -80 31t-32 78q0 46 32 77.5t79 31.5q46 0 78 -31.5t32 -77.5q0 -47 -31.5 -78t-77.5 -31z" />
    <glyph glyph-name="uni1ED8" unicode="&#x1ed8;" horiz-adv-x="1540" 
d="M770 -26q-142 0 -267 56.5t-220 156.5t-149 231.5t-54 281.5t54 281.5t149 231.5t220 156.5t267 56.5q143 0 268 -56.5t220 -156.5t148.5 -231.5t53.5 -281.5t-53.5 -281.5t-148.5 -231.5t-220 -156.5t-268 -56.5zM770 182q100 0 187 41t153.5 112.5t104 165t37.5 199.5
t-37.5 200t-104 165.5t-153.5 112t-187 40.5t-187 -41t-153.5 -112.5t-104 -165t-37.5 -199.5q0 -107 37.5 -200.5t104 -165t153.5 -112t187 -40.5zM772 -424q-48 0 -80 31t-32 78q0 46 32 77.5t79 31.5q46 0 78 -31.5t32 -77.5q0 -47 -31.5 -78t-77.5 -31zM886 1798
l193 -288h-139l-170 197l-169 -197h-138l190 288h233z" />
    <glyph glyph-name="uni1ED9" unicode="&#x1ed9;" horiz-adv-x="1120" 
d="M560 -26q-138 0 -251.5 71t-181 190.5t-67.5 264.5q0 110 39 205.5t107.5 168t159.5 113.5t194 41q138 0 251.5 -71t181 -191t67.5 -266q0 -109 -39 -204t-107.5 -167.5t-159 -113.5t-194.5 -41zM560 182q83 0 149 44t104.5 116.5t38.5 157.5q0 87 -39.5 160
t-105.5 116.5t-147 43.5q-82 0 -148.5 -44t-105 -117t-38.5 -159q0 -89 40 -161t106.5 -114.5t145.5 -42.5zM562 -424q-48 0 -80 31t-32 78q0 46 32 77.5t79 31.5q46 0 78 -31.5t32 -77.5q0 -47 -31.5 -78t-77.5 -31zM676 1398l193 -288h-139l-170 197l-169 -197h-138
l190 288h233z" />
    <glyph glyph-name="uni1EE4" unicode="&#x1ee4;" horiz-adv-x="1348" 
d="M674 -26q-168 0 -292.5 82t-193 220.5t-68.5 307.5v816h208v-816q0 -110 40.5 -201.5t118 -146t187.5 -54.5q113 0 190 54.5t116.5 146t39.5 201.5v816h208v-816q0 -127 -39 -237.5t-112 -194.5t-175 -131t-228 -47zM676 -424q-48 0 -80 31t-32 78q0 46 32 77.5t79 31.5
q46 0 78 -31.5t32 -77.5q0 -47 -31.5 -78t-77.5 -31z" />
    <glyph glyph-name="uni1EE5" unicode="&#x1ee5;" horiz-adv-x="1060" 
d="M80 375v625h208v-574q0 -67 33 -122t88 -87.5t121 -32.5q67 0 121.5 32.5t87 87.5t32.5 122v574h208l1 -1000h-208l-1 108q-51 -62 -127 -98t-163 -36q-111 0 -202 54t-145 145t-54 202zM556 -423q-48 0 -80 31t-32 78q0 46 32 77.5t79 31.5q46 0 78 -31.5t32 -77.5
q0 -47 -31.5 -78t-77.5 -31z" />
    <glyph glyph-name="Ygrave" unicode="&#x1ef2;" horiz-adv-x="1283" 
d="M978 1400h245l-478 -768v-632h-208v632l-477 768h245l336 -541zM404 1798h208l80 -288h-138z" />
    <glyph glyph-name="ygrave" unicode="&#x1ef3;" horiz-adv-x="1107" 
d="M805 1000h222l-548 -1500h-221l181 500l-359 1000h227l236 -715zM315 1398h208l80 -288h-138z" />
    <glyph glyph-name="uni1EF4" unicode="&#x1ef4;" horiz-adv-x="1283" 
d="M978 1400h245l-478 -768v-632h-208v632l-477 768h245l336 -541zM643 -424q-48 0 -80 31t-32 78q0 46 32 77.5t79 31.5q46 0 78 -31.5t32 -77.5q0 -47 -31.5 -78t-77.5 -31z" />
    <glyph glyph-name="uni1EF5" unicode="&#x1ef5;" horiz-adv-x="1107" 
d="M805 1000h222l-548 -1500h-221l181 500l-359 1000h227l236 -715zM777 -424q-48 0 -80 31t-32 78q0 46 32 77.5t79 31.5q46 0 78 -31.5t32 -77.5q0 -47 -31.5 -78t-77.5 -31z" />
    <glyph glyph-name="uni1EF8" unicode="&#x1ef8;" horiz-adv-x="1283" 
d="M978 1400h245l-478 -768v-632h-208v632l-477 768h245l336 -541zM796 1514q-37 0 -85.5 25t-97.5 56.5t-87 51.5t-55 9q-18 -11 -25 -33.5t3 -57.5l-126 -34q-24 70 -10.5 130t58.5 96.5t113 36.5q37 0 84 -22t94 -50t85 -50t56 -22q22 0 30 15.5t7 36.5t-8 39l128 41
q25 -75 9.5 -135.5t-61 -96.5t-112.5 -36z" />
    <glyph glyph-name="uni1EF9" unicode="&#x1ef9;" horiz-adv-x="1107" 
d="M805 1000h222l-548 -1500h-221l181 500l-359 1000h227l236 -715zM708 1114q-37 0 -85.5 25t-97.5 56.5t-87 51.5t-55 9q-18 -11 -25 -33.5t3 -57.5l-126 -34q-24 70 -10.5 130t58.5 96.5t113 36.5q37 0 84 -22t94 -50t85 -50t56 -22q22 0 30 15.5t7 36.5t-8 39l128 41
q25 -75 9.5 -135.5t-61 -96.5t-112.5 -36z" />
    <glyph glyph-name="uni2002" unicode="&#x2002;" horiz-adv-x="1000" 
 />
    <glyph glyph-name="uni2009" unicode="&#x2009;" horiz-adv-x="400" 
 />
    <glyph glyph-name="uni200B" unicode="&#x200b;" horiz-adv-x="0" 
 />
    <glyph glyph-name="endash" unicode="&#x2013;" horiz-adv-x="1240" 
d="M120 704h1000v-208h-1000v208z" />
    <glyph glyph-name="emdash" unicode="&#x2014;" horiz-adv-x="2040" 
d="M120 704h1800v-208h-1800v208z" />
    <glyph glyph-name="quoteright" unicode="&#x2019;" horiz-adv-x="370" 
d="M40 878l62 522h208l-132 -522h-138z" />
    <glyph glyph-name="quoteright" unicode="&#x2032;" horiz-adv-x="370" 
d="M40 878l62 522h208l-132 -522h-138z" />
    <glyph glyph-name="quotesinglbase" unicode="&#x201a;" horiz-adv-x="414" 
d="M64 -112l62 338h208l-132 -338h-138z" />
    <glyph glyph-name="quotedblleft" unicode="&#x201c;" horiz-adv-x="750" 
d="M120 878l132 522h138l-62 -522h-208zM440 882l132 522h138l-62 -522h-208z" />
    <glyph glyph-name="quotedblright" unicode="&#x201d;" horiz-adv-x="750" 
d="M40 878l62 522h208l-132 -522h-138zM360 878l62 522h208l-132 -522h-138z" />
    <glyph glyph-name="quotedblright" unicode="&#x2033;" horiz-adv-x="750" 
d="M40 878l62 522h208l-132 -522h-138zM360 878l62 522h208l-132 -522h-138z" />
    <glyph glyph-name="quotedblbase" unicode="&#x201e;" horiz-adv-x="751" 
d="M64 -112l62 338h208l-132 -338h-138zM401 -112l62 338h208l-132 -338h-138z" />
    <glyph glyph-name="dagger" unicode="&#x2020;" horiz-adv-x="834" 
d="M80 1053v208h234v239h208v-239h232v-208h-232v-477h-208v477h-234z" />
    <glyph glyph-name="daggerdbl" unicode="&#x2021;" horiz-adv-x="834" 
d="M80 748v206h234v162h-234v208h234v176h208v-176h232v-208h-232v-162h232v-206h-232v-188h-208v188h-234z" />
    <glyph glyph-name="bullet" unicode="&#x2022;" horiz-adv-x="452" 
d="M225 453q-60 0 -102.5 42.5t-42.5 105.5q0 60 42.5 103t102.5 43q62 0 104.5 -43t42.5 -103q0 -63 -42.5 -105.5t-104.5 -42.5z" />
    <glyph glyph-name="ellipsis" unicode="&#x2026;" horiz-adv-x="1177" 
d="M189 -26q-46 0 -77.5 32t-31.5 78q0 45 31.5 77t77.5 32t78 -32t32 -77q0 -46 -32 -78t-78 -32zM567 -26q-46 0 -77.5 32t-31.5 78q0 45 31.5 77t77.5 32t78 -32t32 -77q0 -46 -32 -78t-78 -32zM947 -26q-46 0 -77.5 32t-31.5 78q0 45 31.5 77t77.5 32t78 -32t32 -77
q0 -46 -32 -78t-78 -32z" />
    <glyph glyph-name="perthousand" unicode="&#x2030;" horiz-adv-x="2031" 
d="M190 0l808 1400h240l-808 -1400h-240zM359 813q-76 0 -139.5 37.5t-101.5 101t-38 140.5q0 80 38.5 143t102 99.5t138.5 36.5q77 0 140 -37.5t101 -101t38 -140.5q0 -79 -38.5 -142t-102 -100t-138.5 -37zM359 960q56 0 94 38.5t38 93.5q0 56 -38 94.5t-94 38.5
q-55 0 -93.5 -38.5t-38.5 -94.5q0 -55 38.5 -93.5t93.5 -38.5zM1048 27q-78 0 -141.5 39.5t-101 103t-37.5 137.5q0 78 39 141.5t102.5 101t138.5 37.5q79 0 142 -39t100 -103t37 -138q0 -77 -37.5 -140.5t-101 -101.5t-140.5 -38zM1048 174q54 0 93 39t39 94t-39 94t-93 39
q-55 0 -94.5 -39t-39.5 -94t39.5 -94t94.5 -39zM1671 27q-77 0 -140.5 39.5t-101 103t-37.5 137.5q0 78 39 141.5t102.5 101t137.5 37.5q80 0 143.5 -39t100 -103t36.5 -138q0 -77 -37.5 -140.5t-101 -101.5t-141.5 -38zM1671 174q56 0 95 39t39 94t-39 94t-95 39
q-54 0 -93 -39t-39 -94t39 -94t93 -39z" />
    <glyph glyph-name="uni2035" unicode="&#x2035;" horiz-adv-x="510" 
d="M252 878l-132 522h208l62 -522h-138z" />
    <glyph glyph-name="guilsinglleft" unicode="&#x2039;" horiz-adv-x="735" 
d="M420 261l-300 340l300 338h215l-298 -338l298 -340h-215z" />
    <glyph glyph-name="guilsinglright" unicode="&#x203a;" horiz-adv-x="735" 
d="M100 261l299 340l-299 338h215l300 -338l-300 -340h-215z" />
    <glyph glyph-name="fraction" unicode="&#x2044;" horiz-adv-x="450" 
d="M-267 0l808 1400h176l-808 -1400h-176z" />
    <glyph glyph-name="fraction" unicode="&#x2215;" horiz-adv-x="450" 
d="M-267 0l808 1400h176l-808 -1400h-176z" />
    <glyph glyph-name="uni2070" unicode="&#x2070;" horiz-adv-x="648" 
d="M324 798q-69 0 -126.5 43.5t-91.5 119.5t-34 172t34 171.5t91.5 119.5t126.5 44q70 0 127 -44t91 -119.5t34 -171.5t-34 -172t-91 -119.5t-127 -43.5zM324 922q38 0 65 34.5t41.5 83.5t14.5 93q0 50 -15 98.5t-42 80.5t-64 32q-39 0 -66 -33.5t-41 -82t-14 -95.5
q0 -50 15 -98.5t42 -80.5t64 -32z" />
    <glyph glyph-name="uni2074" unicode="&#x2074;" horiz-adv-x="687" 
d="M349 818v106h-253v158l233 367h152v-394h62v-131h-62v-106h-132zM226 1055h134v212z" />
    <glyph glyph-name="uni2075" unicode="&#x2075;" horiz-adv-x="692" 
d="M316 798q-96 0 -164 62t-68 158h131q0 -41 29.5 -68.5t71.5 -27.5q41 0 71 27.5t30 68.5t-30 69t-71 30q-25 1 -57 -0.5t-68 -5.5t-71 -12l32 350h343v-116h-224l-5 -88q127 8 204.5 -54t77.5 -173q0 -96 -68 -158t-164 -62z" />
    <glyph glyph-name="uni2076" unicode="&#x2076;" horiz-adv-x="706" 
d="M329 798q-99 0 -166 62.5t-67 158.5q0 28 7 54.5t28 67.5t63.5 113t111.5 192h153l-117 -201q65 -5 114.5 -36.5t77.5 -81.5t28 -109q0 -67 -32.5 -116.5t-85 -76.5t-115.5 -27zM329 922q45 0 75 30.5t25 75.5q-3 41 -33 66t-67 25q-49 0 -77 -34.5t-23 -76.5
q3 -43 33.5 -64.5t66.5 -21.5z" />
    <glyph glyph-name="uni2077" unicode="&#x2077;" horiz-adv-x="658" 
d="M149 818l285 498h-314v131h466v-128l-287 -501h-150z" />
    <glyph glyph-name="uni2078" unicode="&#x2078;" horiz-adv-x="619" 
d="M308 798q-88 0 -150 55.5t-62 144.5q0 45 18 84t47 68q-24 25 -37.5 59t-13.5 70q0 84 58 137t140 53q83 0 142.5 -53t59.5 -137q0 -36 -14 -70t-38 -59q30 -29 47.5 -68t17.5 -84q0 -89 -62.5 -144.5t-152.5 -55.5zM308 920q35 0 59.5 22t24.5 56t-24.5 58t-59.5 24
q-33 0 -57 -24t-24 -58t24 -56t57 -22zM308 1211q30 0 50 20.5t20 47.5q0 29 -20 47t-50 18q-27 0 -47 -18t-20 -47q0 -27 20 -47.5t47 -20.5z" />
    <glyph glyph-name="uni2079" unicode="&#x2079;" horiz-adv-x="659" 
d="M173 818l118 204q-54 -1 -98.5 22t-73.5 62.5t-39 87.5t4 97q13 81 76 129t146 48q56 0 102 -22t77 -60t42.5 -85.5t-1.5 -97.5q-1 -37 -21 -75l-180 -310h-152zM306 1145q30 0 54.5 17t37 44t7.5 58q-6 37 -36.5 58.5t-62.5 21.5q-33 0 -57 -16t-36 -42t-8 -56
q7 -44 38.5 -64.5t62.5 -20.5z" />
    <glyph glyph-name="uni2080" unicode="&#x2080;" horiz-adv-x="648" 
d="M324 -31q-69 0 -126.5 45.5t-91.5 123t-34 173.5q0 95 34 172.5t91.5 123t126.5 45.5q70 0 127 -45.5t91 -123t34 -172.5q0 -96 -34 -173.5t-91 -123t-127 -45.5zM324 100q38 0 65 34t41.5 83.5t14.5 93.5q0 49 -15 97.5t-42 80.5t-64 32q-39 0 -66 -33.5t-41 -82
t-14 -94.5q0 -50 15 -98.5t42 -80.5t64 -32z" />
    <glyph glyph-name="uni2081" unicode="&#x2081;" horiz-adv-x="441" 
d="M166 0v500h-70l19 131h182v-631h-131z" />
    <glyph glyph-name="uni2082" unicode="&#x2082;" horiz-adv-x="705" 
d="M96 0v118q41 28 91.5 62t99.5 73.5t87.5 83.5t55.5 92q0 42 -29 69.5t-71 27.5t-72.5 -27.5t-30.5 -69.5h-131q0 64 31.5 116t85 82t117.5 30t116.5 -30t83.5 -82t31 -116q0 -41 -21 -81.5t-55 -78.5t-74.5 -73t-78.5 -65h222v-131h-458z" />
    <glyph glyph-name="uni2083" unicode="&#x2083;" horiz-adv-x="570" 
d="M286 -31q-59 0 -107.5 28t-77.5 75t-29 106h131q0 -34 24 -56t59 -22q33 0 56.5 22t23.5 56q0 41 -33 71t-97 30v93q62 0 87.5 26.5t25.5 60.5q0 27 -20.5 44.5t-47.5 17.5t-47 -17.5t-20 -44.5h-131q0 82 58 137.5t140 55.5q83 0 141 -55.5t58 -137.5q0 -39 -14 -73
t-36 -57q34 -31 51 -67.5t17 -83.5q0 -59 -29 -106t-77.5 -75t-105.5 -28z" />
    <glyph glyph-name="uni2084" unicode="&#x2084;" horiz-adv-x="687" 
d="M349 0v106h-253v158l233 367h152v-394h62v-131h-62v-106h-132zM226 237h134v212z" />
    <glyph glyph-name="uni2085" unicode="&#x2085;" horiz-adv-x="692" 
d="M316 -31q-64 0 -116.5 30t-84 81t-31.5 115h131q0 -41 29.5 -68t71.5 -27q41 0 71 27t30 68t-30 70t-71 29l-198 -13l34 345h343v-118h-224l-5 -85l52 3q107 0 168.5 -67t61.5 -164q0 -64 -31.5 -115t-84 -81t-116.5 -30z" />
    <glyph glyph-name="uni2086" unicode="&#x2086;" horiz-adv-x="682" 
d="M329 -31q-99 0 -166 66t-67 162q0 29 7 55t28.5 67.5t63.5 113.5l112 192h152l-117 -203q65 -4 114.5 -35.5t77.5 -81.5t28 -109q0 -66 -32.5 -117.5t-85 -80.5t-115.5 -29zM329 100q45 0 75 30.5t25 75.5q-3 42 -33 66.5t-67 24.5q-49 0 -76.5 -35t-23.5 -76
q3 -43 33.5 -64.5t66.5 -21.5z" />
    <glyph glyph-name="uni2087" unicode="&#x2087;" horiz-adv-x="658" 
d="M146 0l288 500h-314v131h466v-128l-290 -503h-150z" />
    <glyph glyph-name="uni2088" unicode="&#x2088;" horiz-adv-x="619" 
d="M308 -31q-88 0 -150 59t-62 147q0 46 18 85.5t47 67.5q-24 25 -37.5 58.5t-13.5 70.5q0 84 58 140t140 56q83 0 142.5 -56t59.5 -140q0 -37 -14 -70.5t-38 -58.5q30 -28 47.5 -67.5t17.5 -85.5q0 -88 -62.5 -147t-152.5 -59zM308 98q35 0 59.5 21.5t24.5 55.5t-24.5 58.5
t-59.5 24.5q-33 0 -57 -24.5t-24 -58.5t24 -55.5t57 -21.5zM308 389q30 0 50 20.5t20 47.5q0 29 -20 47t-50 18q-27 0 -47 -18t-20 -47q0 -27 20 -47.5t47 -20.5z" />
    <glyph glyph-name="uni2089" unicode="&#x2089;" horiz-adv-x="659" 
d="M173 0l118 204q-54 -1 -98.5 22t-73.5 63t-39 88t4 97q9 55 40.5 96t78.5 64t103 23q66 0 118 -31t82 -81.5t32 -111.5t-31 -119l-182 -314h-152zM306 328q30 0 54.5 17t37 43.5t7.5 57.5q-6 37 -36.5 58.5t-62.5 21.5q-33 0 -57 -16t-36 -42t-8 -55q7 -45 38.5 -65
t62.5 -20z" />
    <glyph glyph-name="Euro" unicode="&#x20ac;" horiz-adv-x="1137" 
d="M1057 -15q-135 -24 -260 3.5t-229.5 97.5t-179.5 174t-112 234h-196v146h170v118h-170v146h196q36 132 112 236.5t181.5 174.5t229.5 97t258 4v-214q-93 23 -178.5 11t-159 -53.5t-129.5 -107t-89 -148.5h291v-146h-333l1 -118h332v-146h-290q34 -85 91 -150
t130.5 -105.5t158.5 -51.5t175 12v-214z" />
    <glyph glyph-name="trademark" unicode="&#x2122;" horiz-adv-x="2994" 
d="M1179 1400v-208h-446v-1192h-208v1192h-445v208h1099zM1279 0l271 1400h168l359 -943l357 943h168l272 -1400h-212l-181 937l-335 -884h-140l-334 884l-181 -937h-212z" />
    <glyph glyph-name="oneeighth" unicode="&#x215b;" horiz-adv-x="1511" 
d="M166 818v500h-70l19 131h182v-631h-131zM174 0l808 1400h176l-808 -1400h-176zM1199 -31q-88 0 -150 59t-62 147q0 46 18 85.5t47 67.5q-24 25 -37.5 58.5t-13.5 70.5q0 84 58 140t140 56q83 0 142.5 -56t59.5 -140q0 -37 -14 -70.5t-38 -58.5q30 -28 47.5 -67.5
t17.5 -85.5q0 -88 -62.5 -147t-152.5 -59zM1199 98q35 0 59.5 21.5t24.5 55.5t-24.5 58.5t-59.5 24.5q-33 0 -57 -24.5t-24 -58.5t24 -55.5t57 -21.5zM1199 389q30 0 50 20.5t20 47.5q0 29 -20 47t-50 18q-27 0 -47 -18t-20 -47q0 -27 20 -47.5t47 -20.5z" />
    <glyph glyph-name="threeeighths" unicode="&#x215c;" horiz-adv-x="1639" 
d="M286 798q-88 0 -151 57t-63 146h131q0 -35 24 -57t59 -22q33 0 56.5 22t23.5 57q0 40 -33 70t-97 30v93q62 0 87.5 26t25.5 60q0 28 -20.5 46t-47.5 18t-47 -18t-20 -46h-131q0 83 58 135t140 52q83 0 141 -52t58 -135q0 -38 -14 -72.5t-36 -56.5q34 -30 51 -67t17 -83
q0 -89 -63 -146t-149 -57zM303 0l808 1400h176l-808 -1400h-176zM1328 -31q-88 0 -150 59t-62 147q0 46 18 85.5t47 67.5q-24 25 -37.5 58.5t-13.5 70.5q0 84 58 140t140 56q83 0 142.5 -56t59.5 -140q0 -37 -14 -70.5t-38 -58.5q30 -28 47.5 -67.5t17.5 -85.5
q0 -88 -62.5 -147t-152.5 -59zM1328 98q35 0 59.5 21.5t24.5 55.5t-24.5 58.5t-59.5 24.5q-33 0 -57 -24.5t-24 -58.5t24 -55.5t57 -21.5zM1328 389q30 0 50 20.5t20 47.5q0 29 -20 47t-50 18q-27 0 -47 -18t-20 -47q0 -27 20 -47.5t47 -20.5z" />
    <glyph glyph-name="fiveeighths" unicode="&#x215d;" horiz-adv-x="1762" 
d="M316 798q-96 0 -164 62t-68 158h131q0 -41 29.5 -68.5t71.5 -27.5q41 0 71 27.5t30 68.5t-30 69t-71 30q-25 1 -57 -0.5t-68 -5.5t-71 -12l32 350h343v-116h-224l-5 -88q127 8 204.5 -54t77.5 -173q0 -96 -68 -158t-164 -62zM425 0l808 1400h176l-808 -1400h-176z
M1450 -31q-88 0 -150 59t-62 147q0 46 18 85.5t47 67.5q-24 25 -37.5 58.5t-13.5 70.5q0 84 58 140t140 56q83 0 142.5 -56t59.5 -140q0 -37 -14 -70.5t-38 -58.5q30 -28 47.5 -67.5t17.5 -85.5q0 -88 -62.5 -147t-152.5 -59zM1450 98q35 0 59.5 21.5t24.5 55.5t-24.5 58.5
t-59.5 24.5q-33 0 -57 -24.5t-24 -58.5t24 -55.5t57 -21.5zM1450 389q30 0 50 20.5t20 47.5q0 29 -20 47t-50 18q-27 0 -47 -18t-20 -47q0 -27 20 -47.5t47 -20.5z" />
    <glyph glyph-name="seveneighths" unicode="&#x215e;" horiz-adv-x="1727" 
d="M149 818l285 498h-314v131h466v-128l-287 -501h-150zM391 0l808 1400h176l-808 -1400h-176zM1416 -31q-88 0 -150 59t-62 147q0 46 18 85.5t47 67.5q-24 25 -37.5 58.5t-13.5 70.5q0 84 58 140t140 56q83 0 142.5 -56t59.5 -140q0 -37 -14 -70.5t-38 -58.5
q30 -28 47.5 -67.5t17.5 -85.5q0 -88 -62.5 -147t-152.5 -59zM1416 98q35 0 59.5 21.5t24.5 55.5t-24.5 58.5t-59.5 24.5q-33 0 -57 -24.5t-24 -58.5t24 -55.5t57 -21.5zM1416 389q30 0 50 20.5t20 47.5q0 29 -20 47t-50 18q-27 0 -47 -18t-20 -47q0 -27 20 -47.5t47 -20.5z
" />
    <glyph glyph-name="arrowleft" unicode="&#x2190;" horiz-adv-x="1394" 
d="M599 231l-519 519l519 519l147 -147l-269 -268h837v-208h-837l269 -268z" />
    <glyph glyph-name="arrowup" unicode="&#x2191;" horiz-adv-x="1199" 
d="M496 132v837l-268 -268l-148 148l520 519l519 -519l-147 -148l-268 268v-837h-208z" />
    <glyph glyph-name="arrowright" unicode="&#x2192;" horiz-adv-x="1395" 
d="M795 231l-147 147l267 268h-835v208h835l-267 268l147 147l520 -519z" />
    <glyph glyph-name="arrowdown" unicode="&#x2193;" horiz-adv-x="1198" 
d="M598 133l-518 519l147 147l267 -267v835h208v-835l269 267l147 -147z" />
    <glyph glyph-name="arrowboth" unicode="&#x2194;" horiz-adv-x="1788" 
d="M599 231l-519 519l519 519l147 -147l-269 -268h831l-267 268l147 147l520 -519l-520 -519l-147 147l267 268h-831l269 -268z" />
    <glyph glyph-name="arrowupdn" unicode="&#x2195;" horiz-adv-x="1199" 
d="M599 -64l-519 519l147 148l268 -269v832l-268 -268l-147 147l519 519l520 -519l-148 -147l-268 268v-832l268 269l148 -148z" />
    <glyph glyph-name="uni2196" unicode="&#x2196;" horiz-adv-x="1107" 
d="M880 277l-592 591v-379h-208v734h734v-208h-378l591 -591z" />
    <glyph glyph-name="uni2197" unicode="&#x2197;" horiz-adv-x="1106" 
d="M227 278l-147 147l591 589h-380v208h735v-734h-208v379z" />
    <glyph glyph-name="uni2198" unicode="&#x2198;" horiz-adv-x="1106" 
d="M292 278v208h379l-591 589l147 147l591 -589v379h208v-734h-734z" />
    <glyph glyph-name="uni2199" unicode="&#x2199;" horiz-adv-x="1106" 
d="M80 278v734h208v-379l591 589l147 -147l-591 -589h379v-208h-734z" />
    <glyph glyph-name="partialdiff" unicode="&#x2202;" horiz-adv-x="1165" 
d="M583 -26q-138 0 -252.5 68t-182.5 182t-68 252q0 104 39 195.5t108.5 160.5t160.5 108t195 39q64 0 119 -24.5t93 -67.5q-22 74 -58 148.5t-89.5 136.5t-127.5 99t-173 37v208q164 0 299.5 -80.5t233.5 -220t151.5 -320t53.5 -379.5q0 -159 -64 -281t-177.5 -191.5
t-260.5 -69.5zM583 182q82 0 149 40.5t106.5 107.5t39.5 146q0 81 -39.5 148t-106.5 107t-149 40t-149 -40t-106.5 -107.5t-39.5 -147.5t39.5 -147t107 -107t148.5 -40z" />
    <glyph glyph-name="emptyset" unicode="&#x2205;" horiz-adv-x="1160" 
d="M350 -68l-148 85l51 88q-79 72 -126 174.5t-47 220.5q0 110 39 205.5t107.5 168t159.5 113.5t194 41q49 0 95 -9.5t87 -28.5l48 81l149 -85l-51 -88q79 -72 125.5 -175t46.5 -223q0 -109 -39 -204t-107.5 -167.5t-159 -113.5t-194.5 -41q-49 0 -95 10.5t-89 27.5z
M356 281l312 543q-73 23 -143.5 5.5t-127 -66t-90.5 -119.5t-34 -155q0 -63 22.5 -116t60.5 -92zM492 179q76 -23 146.5 -6t126.5 65.5t89 119t33 153.5q0 63 -22.5 117t-59.5 93z" />
    <glyph glyph-name="product" unicode="&#x220f;" horiz-adv-x="1280" 
d="M80 1400h1120v-208h-1120v208zM236 1259h208v-1259h-208v1259zM836 1259h208v-1259h-208v1259z" />
    <glyph glyph-name="summation" unicode="&#x2211;" horiz-adv-x="934" 
d="M80 0v208l251 490l-251 490v208h794v-208h-560l250 -490l-250 -490h560v-208h-794z" />
    <glyph glyph-name="minus" unicode="&#x2212;" horiz-adv-x="1160" 
d="M80 496v208h1000v-208h-1000z" />
    <glyph glyph-name="radical" unicode="&#x221a;" horiz-adv-x="1325" 
d="M890 1400h355v-208h-210l-436 -1192h-261l-258 708h221l168 -459z" />
    <glyph glyph-name="infinity" unicode="&#x221e;" horiz-adv-x="1504" 
d="M420 271q-105 10 -181 59t-117.5 124.5t-41.5 166.5q0 96 43.5 174.5t120 125.5t176.5 50q71 0 126 -21.5t104.5 -63.5t102.5 -106q52 64 102 106t103.5 63.5t116.5 21.5q111 -3 189 -51t119 -126.5t41 -172.5q0 -96 -42.5 -174.5t-119 -125t-176.5 -50.5
q-70 0 -124.5 20t-104 62t-104.5 107q-55 -65 -105 -108t-104.5 -63.5t-123.5 -17.5zM419 461q46 0 82 22t68.5 58t66.5 80q-37 47 -69.5 83t-67.5 56t-80 19q-68 -5 -109 -52.5t-41 -105.5q0 -66 43 -110.5t107 -49.5zM1086 461q69 6 109.5 52.5t40.5 107.5q0 63 -41 109
t-109 50q-44 0 -79 -20t-67.5 -56t-70.5 -83q31 -37 57 -67t51 -50.5t51.5 -31.5t57.5 -11z" />
    <glyph glyph-name="integral" unicode="&#x222b;" horiz-adv-x="1006" 
d="M324 -26q-71 1 -128.5 34.5t-88.5 92t-26 132.5l136 -11q2 -32 12.5 -54.5t42.5 -24.5q31 -1 53.5 16.5t26.5 48.5l98 1031q8 54 44 96.5t88.5 67t107.5 23.5q70 -1 125.5 -38t85.5 -96t24 -126l-125 12q-3 43 -26.5 61.5t-53.5 15.5q-27 0 -46 -19t-22 -49l-97 -1026
q-21 -99 -85 -142.5t-146 -44.5z" />
    <glyph glyph-name="approxequal" unicode="&#x2248;" horiz-adv-x="1277" 
d="M899 694q-65 0 -139.5 29t-150.5 66.5t-143.5 66.5t-119.5 29q-36 1 -60 -18.5t-33.5 -51t-4.5 -65.5l-203 -1q-16 85 19 161t104.5 124t158.5 48q63 0 131.5 -29.5t137 -68.5t133 -68.5t117.5 -29.5q37 0 61.5 19t35 50t5.5 66l203 2q17 -86 -11.5 -161t-91 -121.5
t-149.5 -46.5zM899 146q-65 0 -139.5 29t-150.5 66.5t-143.5 66.5t-119.5 29q-36 1 -60 -18.5t-33.5 -51t-4.5 -65.5l-203 -1q-16 85 19 161t104.5 124t158.5 48q63 0 131.5 -29.5t137 -68.5t133 -68.5t117.5 -29.5q37 0 61.5 19t35 50t5.5 66l203 2q17 -86 -11.5 -161
t-91 -121.5t-149.5 -46.5z" />
    <glyph glyph-name="notequal" unicode="&#x2260;" horiz-adv-x="1160" 
d="M858 1182l-78 -268h300v-207h-361l-63 -214h424v-207h-484l-80 -268h-216l79 268h-299v207h359l63 214h-422v207h484l78 268h216z" />
    <glyph glyph-name="lessequal" unicode="&#x2264;" horiz-adv-x="1160" 
d="M1080 335l-1000 284v346l1000 286v-216l-848 -242l848 -241v-217zM80 0v208h1000v-208h-1000z" />
    <glyph glyph-name="greaterequal" unicode="&#x2265;" horiz-adv-x="1160" 
d="M80 350v217l848 234l-848 234v216l1000 -279v-345zM80 0v208h1000v-208h-1000z" />
    <glyph glyph-name="lozenge" unicode="&#x25ca;" horiz-adv-x="1007" 
d="M328 0l-268 702l266 698h355l266 -698l-268 -702h-351zM503 134l226 568l-226 568l-224 -568z" />
    <glyph glyph-name="uniFFFD" unicode="&#xfffd;" horiz-adv-x="1630" 
d="M816 -26q-54 0 -106 20t-94 62l-414 414q-42 42 -62 94t-20 106t21 106t61 92l414 414q42 42 94 62t106 20t105 -20t93 -62l414 -414q42 -42 62 -93t20 -105t-20 -106t-62 -94l-414 -414q-40 -40 -92 -61t-106 -21zM822 276q31 0 52 21.5t21 52.5q0 30 -21 51.5t-52 21.5
t-52.5 -21.5t-21.5 -51.5q0 -31 21.5 -52.5t52.5 -21.5zM744 515h146v2q0 40 37 61q56 32 90 88.5t34 124.5q0 66 -32.5 121t-87 87t-121.5 32q-66 0 -121 -32t-88 -87t-33 -121h147q0 40 28 67t67 27t66.5 -27t27.5 -67q0 -27 -12.5 -50t-33.5 -34q-54 -27 -84 -78.5
t-30 -111.5v-2z" />
    </font>
</defs>
</svg>
