<?xml version="1.0" standalone="no"?>
<!DOCTYPE svg PUBLIC "-//W3C//DTD SVG 1.1//EN" "http://www.w3.org/Graphics/SVG/1.1/DTD/svg11.dtd" >
<svg xmlns="http://www.w3.org/2000/svg" xmlns:xlink="http://www.w3.org/1999/xlink" version="1.1">
<metadata>
Created by FontForge 20201107 at Wed Oct 27 17:11:08 2021
 By 
Copyright 2021 The Urbanist Project Authors (https://github.com/coreyhu/Urbanist)
</metadata>
<defs>
<font id="Urbanist-Medium" horiz-adv-x="408" >
  <font-face 
    font-family="Urbanist Medium"
    font-weight="500"
    font-stretch="normal"
    units-per-em="2000"
    panose-1="2 11 10 4 4 2 0 0 2 3"
    ascent="1600"
    descent="-400"
    x-height="1000"
    cap-height="1400"
    bbox="-253 -500 2835 2030"
    underline-thickness="50"
    underline-position="-125"
    unicode-range="U+000D-FFFD"
  />
<missing-glyph horiz-adv-x="1000" 
d="M100 -500v2400h800v-2400h-800zM200 -400h600v2200h-600v-2200z" />
    <glyph glyph-name=".notdef" horiz-adv-x="1000" 
d="M100 -500v2400h800v-2400h-800zM200 -400h600v2200h-600v-2200z" />
    <glyph glyph-name=".null" horiz-adv-x="1200" 
 />
    <glyph glyph-name=".null" horiz-adv-x="1200" 
 />
    <glyph glyph-name="nonmarkingreturn" unicode="&#xd;" horiz-adv-x="1200" 
 />
    <glyph glyph-name="nonmarkingreturn" unicode="&#xfeff;" horiz-adv-x="1200" 
 />
    <glyph glyph-name="space" unicode=" " horiz-adv-x="480" 
 />
    <glyph glyph-name="exclam" unicode="!" horiz-adv-x="383" 
d="M100 420v980h145v-980h-145zM173 -26q-39 0 -66 27t-27 66q0 38 27 64.5t66 26.5q37 0 63.5 -26.5t26.5 -64.5q0 -39 -26.5 -66t-63.5 -27z" />
    <glyph glyph-name="quotedbl" unicode="&#x22;" horiz-adv-x="538" 
d="M71 878v522h123v-522h-123zM344 878v522h123v-522h-123z" />
    <glyph glyph-name="numbersign" unicode="#" horiz-adv-x="1528" 
d="M1404 915h-192l-116 -429h194l-44 -162h-192l-88 -324h-168l88 324h-445l-87 -324h-168l87 324h-193l44 162h192l116 429h-194l44 162h193l86 323h168l-86 -323h445l85 323h168l-85 -323h192zM928 486l116 429h-444l-116 -429h444z" />
    <glyph glyph-name="dollar" unicode="$" horiz-adv-x="1188" 
d="M593 1253q-89 1 -166 -29t-125 -83t-48 -123q0 -84 44.5 -128.5t121.5 -66.5t173 -39q136 -23 252 -72.5t186.5 -131.5t70.5 -202q0 -112 -61 -198t-162 -138.5t-223 -63.5v-202h-123v202q-103 8 -195 45t-160 99.5t-98 145.5l157 59q20 -56 74.5 -97.5t128.5 -64.5
t153 -23q90 0 167.5 29.5t125.5 82.5t48 124q0 73 -50 119.5t-128 74t-163 42.5q-145 24 -259.5 68.5t-181 124.5t-66.5 211q0 112 61 198.5t162.5 138.5t223.5 63v206h123v-206q99 -9 190 -45.5t160.5 -98.5t101.5 -148l-159 -58q-20 57 -74.5 98.5t-128 64t-153.5 22.5z
" />
    <glyph glyph-name="percent" unicode="%" horiz-adv-x="1343" 
d="M170 0l808 1400h194l-808 -1400h-194zM336 837q-71 0 -128.5 34t-92.5 92t-35 129q0 73 35 130.5t93 91.5t128 34t128 -34.5t92.5 -92t34.5 -129.5t-35 -129.5t-93 -91.5t-127 -34zM336 960q55 0 93.5 38.5t38.5 93.5q0 56 -38.5 94.5t-93.5 38.5t-94 -38.5t-39 -94.5
q0 -55 39 -93.5t94 -38.5zM1007 51q-70 0 -128.5 35.5t-93 94t-34.5 126.5q0 72 35.5 130t93.5 92t127 34q72 0 130 -35.5t92 -93.5t34 -127q0 -71 -34.5 -129t-92.5 -92.5t-129 -34.5zM1007 174q55 0 94 39t39 94t-39 94t-94 39t-94 -39t-39 -94t39 -94t94 -39z" />
    <glyph glyph-name="ampersand" unicode="&#x26;" horiz-adv-x="1421" 
d="M492 -26q-120 0 -213 58t-146 152.5t-53 202.5q0 65 13 113t45.5 94.5t89.5 106.5t146 149q-51 52 -85 88.5t-53 67.5t-27 63t-8 74q0 82 40 148.5t106.5 105t144.5 38.5q81 0 147 -39t105.5 -105t39.5 -148q0 -43 -8 -76t-28 -64t-53.5 -67.5t-83.5 -85.5l345 -345
l228 229v-237l-111 -112l268 -266l-119 -119l-266 265q-90 -89 -150.5 -146t-107 -89t-94 -44t-112.5 -12zM492 142q46 0 78.5 10.5t66 37t80 74t120.5 122.5l-345 345q-76 -77 -124 -124.5t-73.5 -80.5t-35.5 -65t-10 -76q0 -69 33.5 -124t88.5 -87t121 -32zM492 947
q59 59 89.5 89t41.5 52t11 57q0 62 -43 102t-99 40q-58 0 -99 -42t-41 -100q0 -35 12 -58.5t42 -53.5z" />
    <glyph glyph-name="quotesingle" unicode="'" horiz-adv-x="265" 
d="M71 878v522h123v-522h-123z" />
    <glyph glyph-name="parenleft" unicode="(" horiz-adv-x="674" 
d="M406 -112q-102 97 -165 216t-92 255.5t-29 284.5q0 78 12 166.5t36 177t58.5 168.5t79.5 143.5t100 100.5h168q-49 -44 -91 -107.5t-77 -141t-61 -163.5t-40.5 -173.5t-16.5 -170.5q3 -157 40.5 -296t101 -255t144.5 -205h-168z" />
    <glyph glyph-name="parenright" unicode=")" horiz-adv-x="674" 
d="M100 -112q81 89 144 205t101 255t41 296q-2 83 -16.5 170.5t-40.5 173.5t-61 163.5t-77 141t-91 107.5h168q55 -37 99.5 -100.5t79.5 -143.5t59 -168.5t36 -177t12 -166.5q0 -148 -29 -284.5t-92 -255.5t-165 -216h-168z" />
    <glyph glyph-name="asterisk" unicode="*" horiz-adv-x="710" 
d="M221 848l-99 73l118 162l-190 61l37 117l191 -61v200h124v-200l190 61l38 -117l-191 -61l118 -162l-100 -73l-117 163z" />
    <glyph glyph-name="plus" unicode="+" horiz-adv-x="1160" 
d="M496 100v416h-416v168h416v416h168v-416h416v-168h-416v-416h-168z" />
    <glyph glyph-name="comma" unicode="," horiz-adv-x="430" 
d="M80 -112l62 338h168l-118 -338h-112z" />
    <glyph glyph-name="hyphen" unicode="-" horiz-adv-x="880" 
d="M120 684h640v-168h-640v168z" />
    <glyph glyph-name="period" unicode="." horiz-adv-x="384" 
d="M171 -26q-38 0 -64.5 27t-26.5 66q0 37 26.5 64t64.5 27q39 0 66 -27t27 -64q0 -39 -27 -66t-66 -27z" />
    <glyph glyph-name="slash" unicode="/" horiz-adv-x="733" 
d="M653 1400l-405 -1512h-168l405 1512h168z" />
    <glyph glyph-name="zero" unicode="0" horiz-adv-x="1196" 
d="M599 -26q-125 0 -224 56.5t-170 156.5t-108 231.5t-37 281.5t37 282t108 231.5t170 156t224 56.5q124 0 223.5 -56.5t169 -156t107 -231.5t37.5 -282t-37.5 -281.5t-107 -231.5t-169 -156.5t-223.5 -56.5zM599 142q125 0 209.5 77.5t126.5 204.5t42 276
q0 157 -43.5 283.5t-128 200.5t-206.5 74q-96 0 -167.5 -45t-118.5 -123t-70.5 -178.5t-23.5 -211.5q0 -149 43 -276.5t127.5 -204.5t209.5 -77z" />
    <glyph glyph-name="one" unicode="1" horiz-adv-x="565" 
d="M237 0v1232h-157l47 168h278v-1400h-168z" />
    <glyph glyph-name="two" unicode="2" horiz-adv-x="1104" 
d="M80 0v149q77 69 173 154.5t191.5 179t175.5 185.5t129 174.5t49 144.5q0 74 -36 135.5t-96.5 98.5t-134.5 37t-135.5 -37t-98 -98.5t-36.5 -135.5h-168q0 123 60 222.5t159 158t219 58.5t218.5 -59t157.5 -158.5t59 -221.5q0 -70 -34 -150.5t-93 -165.5t-134 -171.5
t-158 -170.5t-165 -161h602v-168h-904z" />
    <glyph glyph-name="three" unicode="3" horiz-adv-x="994" 
d="M496 -26q-127 0 -225.5 57.5t-154.5 154t-56 214.5h168q0 -71 33 -129.5t93 -93.5t142 -35q71 0 132.5 35t99.5 93.5t38 129.5q0 89 -45.5 148.5t-126 89t-183.5 29.5v135q142 0 227.5 59t85.5 174q0 61 -33 112t-86.5 81.5t-114.5 30.5q-62 0 -119 -30.5t-93 -81.5
t-36 -112h-168q0 81 33.5 152t92 125t132.5 84.5t156 30.5q107 0 199 -53t148.5 -142t56.5 -197q0 -97 -49 -179t-133 -115q73 -25 123 -77.5t75.5 -120.5t25.5 -143q0 -117 -60.5 -214t-160 -154.5t-217.5 -57.5z" />
    <glyph glyph-name="four" unicode="4" horiz-adv-x="1109" 
d="M682 0v378h-602v170l560 852h210v-854h139v-168h-139v-378h-168zM277 548l405 -2l-3 618z" />
    <glyph glyph-name="five" unicode="5" horiz-adv-x="1118" 
d="M535 -26q-130 0 -236 63t-167.5 168.5t-61.5 232.5h168q0 -81 40 -148.5t107.5 -107.5t149.5 -40q81 0 148 40t107 107.5t40 148.5t-37.5 149t-109.5 108.5t-175 40.5h-345l136 664h664v-168h-528l-65 -328l145 -1q143 -3 251.5 -63.5t170 -164t61.5 -237.5
q0 -95 -36 -179.5t-100 -148.5t-147.5 -100t-179.5 -36z" />
    <glyph glyph-name="six" unicode="6" horiz-adv-x="1083" 
d="M535 -26q-133 0 -243 66t-176 176.5t-66 244.5q0 75 17.5 131t52.5 121l396 687h195l-283 -491q86 27 171 19t161.5 -46t135.5 -100t93 -143.5t34 -177.5q0 -101 -38.5 -189t-105 -155t-155.5 -105t-189 -38zM535 142q92 0 164.5 45t114 118t41.5 156q0 87 -42.5 159
t-115 115.5t-160.5 43.5q-92 0 -164 -45t-113.5 -117t-41.5 -156q0 -91 44 -163t116.5 -114t156.5 -42z" />
    <glyph glyph-name="seven" unicode="7" horiz-adv-x="1077" 
d="M133 0l710 1232h-803v168h997v-168l-712 -1232h-192z" />
    <glyph glyph-name="eight" unicode="8" horiz-adv-x="1063" 
d="M531 -26q-125 0 -227.5 57t-163 152.5t-60.5 211.5q0 108 57 198.5t149 143.5q-75 48 -123.5 127.5t-48.5 172.5q0 108 56.5 196t151 140.5t209.5 52.5t209.5 -52.5t151 -140.5t56.5 -196q0 -93 -48 -172.5t-125 -127.5q95 -53 151.5 -143.5t56.5 -198.5q0 -115 -61 -211
t-163.5 -153t-227.5 -57zM531 142q76 0 137.5 34t98.5 91.5t37 127.5q0 71 -37 128t-98.5 91t-137.5 34q-75 0 -137 -34t-99 -91t-37 -128q0 -70 37 -127.5t99 -91.5t137 -34zM531 816q66 0 120 30t86.5 80t32.5 111q0 62 -32.5 111.5t-86.5 79.5t-120 30t-120 -30
t-86.5 -79.5t-32.5 -111.5q0 -61 32.5 -111t86.5 -80t120 -30z" />
    <glyph glyph-name="nine" unicode="9" horiz-adv-x="1065" 
d="M335 0l299 516q-105 -31 -206.5 -10.5t-184.5 82t-133 155.5t-50 209q0 98 37 184t102 151t150.5 102t183.5 37q130 0 236.5 -64t171 -171.5t64.5 -238.5q0 -71 -17.5 -125.5t-52.5 -118.5l-406 -708h-194zM531 647q89 0 158.5 42.5t109 112.5t39.5 150q0 87 -42 156.5
t-112 110t-151 40.5q-89 0 -158.5 -43t-109 -113.5t-39.5 -150.5q0 -84 40.5 -153.5t110 -110.5t154.5 -41z" />
    <glyph glyph-name="colon" unicode=":" horiz-adv-x="384" 
d="M171 816q-38 0 -64.5 27t-26.5 66q0 37 26.5 64t64.5 27q39 0 66 -27t27 -64q0 -39 -27 -66t-66 -27zM171 -26q-38 0 -64.5 27t-26.5 66q0 37 26.5 64t64.5 27q39 0 66 -27t27 -64q0 -39 -27 -66t-66 -27z" />
    <glyph glyph-name="semicolon" unicode=";" horiz-adv-x="437" 
d="M80 -112l62 338h168l-118 -338h-112zM225 816q-39 0 -66 26.5t-27 64.5q0 39 27 66t66 27q37 0 64.5 -27t27.5 -66q0 -38 -27.5 -64.5t-64.5 -26.5z" />
    <glyph glyph-name="less" unicode="&#x3c;" horiz-adv-x="1160" 
d="M1080 176l-1000 284v278l1000 286v-176l-874 -248l874 -250v-174z" />
    <glyph glyph-name="equal" unicode="=" horiz-adv-x="1160" 
d="M80 311v167h1000v-167h-1000zM80 722v167h1000v-167h-1000z" />
    <glyph glyph-name="greater" unicode="&#x3e;" horiz-adv-x="1160" 
d="M80 182v174l874 244l-874 243v175l1000 -280v-278z" />
    <glyph glyph-name="question" unicode="?" horiz-adv-x="1031" 
d="M425 467q0 103 51.5 189t142.5 136q58 30 91 89.5t33 130.5q0 69 -33.5 125t-90 89t-124.5 33t-124.5 -33t-89.5 -89t-33 -125h-168q0 115 56 209t150.5 150t208.5 56q115 0 209.5 -56t150.5 -150t56 -209q0 -117 -57 -216t-156 -153q-49 -26 -77 -72.5t-28 -103.5h-168z
M509 -26q-39 0 -66 27.5t-27 65.5t27 64.5t66 26.5q38 0 65 -26.5t27 -64.5t-27 -65.5t-65 -27.5z" />
    <glyph glyph-name="at" unicode="@" horiz-adv-x="1759" 
d="M880 -203q-166 0 -311 55t-255 156.5t-172 239.5t-62 303t62 310t172 255t255 172t311 62q167 0 312 -62.5t254.5 -172.5t171 -254.5t61.5 -309.5q0 -86 -21.5 -170.5t-62 -153.5t-100 -110.5t-135.5 -41.5q-59 0 -116.5 26.5t-97 72.5t-45.5 102q-41 -56 -104.5 -89.5
t-145.5 -33.5q-109 0 -199.5 53.5t-144 144t-53.5 200.5t53.5 200t144 143.5t199.5 53.5q79 0 148.5 -32t108.5 -85v97l131 -23v-558q0 -45 34 -74.5t78 -29.5q56 0 91.5 49.5t52 121t16.5 137.5q0 131 -49.5 245.5t-136.5 201t-201 135.5t-244 49t-244.5 -49t-201.5 -135.5
t-136.5 -201t-49.5 -245.5t49 -238.5t136 -185.5t201.5 -120.5t245.5 -42.5v-167zM863 284q74 0 128 40t84 103.5t30 133.5q0 67 -28 125.5t-82 94t-132 35.5q-74 0 -134 -35.5t-96 -95.5t-36 -134q0 -75 36.5 -135t97 -96t132.5 -36z" />
    <glyph glyph-name="A" unicode="A" horiz-adv-x="1381" 
d="M589 1400h203l509 -1400h-178l-104 286h-657l-103 -286h-179zM424 454h533l-267 731z" />
    <glyph glyph-name="B" unicode="B" horiz-adv-x="1131" 
d="M120 0v1400h483q104 0 189.5 -42.5t135.5 -123.5t50 -194q0 -61 -20.5 -117.5t-56 -97t-80.5 -54.5q63 -16 107 -56.5t71.5 -94.5t39.5 -113t12 -114q0 -116 -52.5 -204.5t-140.5 -138.5t-194 -50h-544zM288 148h361q69 0 125.5 35.5t90.5 97.5t34 140q0 69 -34 130.5
t-90.5 99.5t-125.5 38h-361v-541zM288 834h299q92 0 157.5 54.5t65.5 152.5q0 106 -65.5 158.5t-157.5 52.5h-299v-418z" />
    <glyph glyph-name="C" unicode="C" horiz-adv-x="1418" 
d="M768 -26q-142 0 -267 56.5t-219.5 156t-148 231.5t-53.5 282t53.5 282t148 231.5t219.5 156t267 56.5q170 0 313 -79t237 -210l-149 -80q-70 92 -176.5 146.5t-224.5 54.5q-109 0 -203.5 -44t-165.5 -121t-111 -178t-40 -215q0 -115 40.5 -216t112 -178t166 -120.5
t201.5 -43.5q122 0 226.5 55.5t174.5 145.5l149 -81q-94 -131 -237 -209.5t-313 -78.5z" />
    <glyph glyph-name="D" unicode="D" horiz-adv-x="1343" 
d="M120 0v1400h463q145 0 272 -54.5t223 -151t150.5 -223t54.5 -271.5t-54.5 -271.5t-150.5 -223t-223 -151t-272 -54.5h-463zM288 168h295q110 0 206.5 41.5t169.5 114.5t114.5 169.5t41.5 206.5t-41.5 206.5t-115 169.5t-169.5 114.5t-206 41.5h-295v-1064z" />
    <glyph glyph-name="E" unicode="E" horiz-adv-x="1079" 
d="M120 0v1400h859v-168h-691v-398h566v-168h-566v-498h691v-168h-859z" />
    <glyph glyph-name="F" unicode="F" horiz-adv-x="961" 
d="M120 0v1400h821v-168h-653v-398h557v-168h-557v-666h-168z" />
    <glyph glyph-name="G" unicode="G" horiz-adv-x="1536" 
d="M769 -26q-145 0 -270.5 56.5t-219 157t-146.5 232t-53 281.5q0 155 55.5 287t152 230t221 152.5t263.5 54.5q158 0 301 -74t246 -214l-150 -81q-77 98 -182.5 150t-216.5 52q-106 0 -200.5 -43t-167 -120t-113.5 -178t-41 -219q0 -115 41 -216t112.5 -177.5t166.5 -119.5
t203 -43q86 0 163.5 29t143 82t112 125t70.5 158h-345v150h541q-1 -147 -55.5 -276t-149 -227t-218 -153.5t-264.5 -55.5z" />
    <glyph glyph-name="H" unicode="H" horiz-adv-x="1269" 
d="M981 1400h168v-1400h-168v666h-693v-666h-168v1400h168v-566h693v566z" />
    <glyph glyph-name="I" unicode="I" horiz-adv-x="468" 
d="M150 0v1400h168v-1400h-168z" />
    <glyph glyph-name="J" unicode="J" horiz-adv-x="826" 
d="M299 -26q-70 0 -137 23.5t-122 70.5l107 130q29 -25 67.5 -40.5t84.5 -15.5q66 0 120 35t86.5 92t32.5 122v1009h168v-1009q0 -112 -55 -206.5t-147 -152.5t-205 -58z" />
    <glyph glyph-name="K" unicode="K" horiz-adv-x="1095" 
d="M1052 0h-217l-442 607l-105 -126v-481h-168v1400h168v-658l551 658h219l-555 -661z" />
    <glyph glyph-name="L" unicode="L" horiz-adv-x="1015" 
d="M120 0v1400h168v-1232h627v-168h-795z" />
    <glyph glyph-name="M" unicode="M" horiz-adv-x="1796" 
d="M120 0l271 1400h129l378 -994l377 994h129l272 -1400h-171l-197 1016l-355 -940h-111l-355 940l-196 -1016h-171z" />
    <glyph glyph-name="N" unicode="N" horiz-adv-x="1289" 
d="M120 0v1400h182l699 -1096v1096h168v-1400h-181l-700 1096v-1096h-168z" />
    <glyph glyph-name="O" unicode="O" horiz-adv-x="1540" 
d="M770 -26q-142 0 -267 56.5t-220 156.5t-149 231.5t-54 281.5t54 281.5t149 231.5t220 156.5t267 56.5q143 0 268 -56.5t220 -156.5t148.5 -231.5t53.5 -281.5t-53.5 -281.5t-148.5 -231.5t-220 -156.5t-268 -56.5zM770 142q109 0 203.5 44t166 121.5t112 178t40.5 214.5
t-41 215.5t-112.5 178t-166 120.5t-202.5 44q-109 0 -203.5 -44t-166 -121.5t-112 -178t-40.5 -214.5q0 -115 41 -216t112.5 -178t166 -120.5t202.5 -43.5z" />
    <glyph glyph-name="P" unicode="P" horiz-adv-x="1063" 
d="M120 0v1400h462q113 0 203.5 -55t144 -148.5t53.5 -208.5q0 -117 -54.5 -210.5t-146 -148t-200.5 -54.5h-294v-575h-168zM288 743h279q68 0 124.5 33.5t90 91t33.5 129.5q0 73 -33.5 130.5t-90 91t-124.5 33.5h-279v-509z" />
    <glyph glyph-name="Q" unicode="Q" horiz-adv-x="1558" 
d="M1358 -29l-164 164q-86 -74 -194.5 -115.5t-229.5 -41.5q-143 0 -268 56.5t-220 156t-148.5 231.5t-53.5 282t53.5 281.5t148.5 231.5t220 156.5t268 56.5t267.5 -56.5t219.5 -156.5t148.5 -231.5t53.5 -281.5q0 -128 -39.5 -242t-109.5 -207l167 -165zM770 146
q82 0 161 28.5t141 82.5l-186 185l119 120l180 -182q52 69 79 152.5t27 171.5q0 115 -40.5 216t-112.5 178t-166.5 120.5t-201.5 43.5q-109 0 -203.5 -44.5t-166 -122t-112 -178t-40.5 -213.5q0 -115 41 -216t113 -178.5t166.5 -120.5t201.5 -43z" />
    <glyph glyph-name="R" unicode="R" horiz-adv-x="1141" 
d="M120 0v1400h492q112 0 202.5 -55t144 -148.5t53.5 -208.5q0 -101 -40 -184t-109.5 -138.5t-157.5 -76.5l340 -589h-194l-334 575h-229v-575h-168zM288 743h307q68 0 125 33.5t90.5 91t33.5 129.5q0 73 -33.5 130.5t-90.5 91t-125 33.5h-307v-509z" />
    <glyph glyph-name="S" unicode="S" horiz-adv-x="1228" 
d="M613 -26q-113 0 -218 35.5t-183.5 101.5t-111.5 157l157 59q20 -56 74.5 -97.5t128.5 -64.5t153 -23q90 0 167.5 29.5t125.5 82.5t48 124q0 73 -50 119.5t-128 74t-163 42.5q-145 24 -259.5 68.5t-181 124.5t-66.5 211q0 122 70.5 213t186.5 141t250 50
q111 0 215.5 -34.5t184.5 -100.5t115 -161l-159 -58q-20 57 -74.5 98.5t-128 64t-153.5 22.5q-89 1 -166 -29t-125 -83t-48 -123q0 -84 44.5 -128.5t121.5 -66.5t173 -39q136 -23 252 -72.5t186.5 -131.5t70.5 -202q0 -122 -70.5 -213t-186.5 -141t-252 -50z" />
    <glyph glyph-name="T" unicode="T" horiz-adv-x="1259" 
d="M1179 1400v-168h-466v-1232h-168v1232h-465v168h1099z" />
    <glyph glyph-name="U" unicode="U" horiz-adv-x="1335" 
d="M668 -26q-168 0 -291.5 82t-190 220.5t-66.5 307.5v816h168v-816q0 -120 44.5 -221t129 -161t206.5 -60q124 0 208 60.5t127.5 161t43.5 220.5v816h168v-816q0 -127 -38 -237.5t-109.5 -194.5t-172.5 -131t-227 -47z" />
    <glyph glyph-name="V" unicode="V" horiz-adv-x="1337" 
d="M564 0l-508 1400h178l434 -1195l435 1195h177l-508 -1400h-208z" />
    <glyph glyph-name="W" unicode="W" horiz-adv-x="1736" 
d="M414 0l-358 1400h173l282 -1105l281 1105h151l282 -1105l281 1105h173l-356 -1400h-196l-259 1014l-259 -1014h-195z" />
    <glyph glyph-name="X" unicode="X" horiz-adv-x="1353" 
d="M60 0l513 704l-507 696h207l403 -554l404 554h207l-506 -696l512 -704h-208l-409 560l-407 -560h-209z" />
    <glyph glyph-name="Y" unicode="Y" horiz-adv-x="1236" 
d="M978 1400h198l-474 -767v-633h-168v633l-474 767h198l360 -583z" />
    <glyph glyph-name="Z" unicode="Z" horiz-adv-x="1292" 
d="M80 0v168l907 1064h-907v168h1132v-168l-907 -1064h907v-168h-1132z" />
    <glyph glyph-name="bracketleft" unicode="[" horiz-adv-x="566" 
d="M466 56v-168h-346v1512h346v-168h-178v-1176h178z" />
    <glyph glyph-name="backslash" unicode="\" horiz-adv-x="733" 
d="M485 -112l-405 1512h168l405 -1512h-168z" />
    <glyph glyph-name="bracketright" unicode="]" horiz-adv-x="567" 
d="M100 -112v168h179v1176h-179v168h347v-1512h-347z" />
    <glyph glyph-name="asciicircum" unicode="^" horiz-adv-x="832" 
d="M80 1000l236 650h200l236 -650h-179l-157 433l-158 -433h-178z" />
    <glyph glyph-name="underscore" unicode="_" horiz-adv-x="1240" 
d="M120 56h1000v-168h-1000v168z" />
    <glyph glyph-name="grave" unicode="`" horiz-adv-x="828" 
d="M254 1398h168l80 -288h-112z" />
    <glyph glyph-name="a" unicode="a" horiz-adv-x="1172" 
d="M924 1000h168v-1000h-168l-7 169q-47 -87 -129.5 -141t-196.5 -54q-110 0 -206 41.5t-169.5 115t-114.5 169.5t-41 207q0 107 40 202t111.5 166.5t165.5 112t202 40.5q118 0 207 -55.5t144 -143.5zM588 137q99 0 171.5 48.5t112 131.5t39.5 183q0 102 -40 184.5
t-112.5 131t-170.5 48.5q-99 0 -180 -49t-128.5 -131.5t-47.5 -183.5t49 -183.5t130 -131t177 -48.5z" />
    <glyph glyph-name="b" unicode="b" horiz-adv-x="1213" 
d="M626 1028q146 0 265.5 -71t190.5 -190.5t71 -265.5q0 -109 -41 -204.5t-113.5 -168t-168 -113.5t-204.5 -41q-116 0 -201.5 54.5t-136.5 142.5v-171h-168v1500h168v-669q51 88 136.5 142.5t201.5 54.5zM624 138q99 0 180 49t129 131.5t48 182.5q0 102 -49 184.5t-130 131
t-178 48.5q-98 0 -170.5 -49t-112 -132t-39.5 -183q0 -101 39.5 -183.5t112.5 -131t170 -48.5z" />
    <glyph glyph-name="c" unicode="c" horiz-adv-x="1019" 
d="M809 264l150 -81q-68 -95 -172.5 -152t-226.5 -57q-138 0 -251.5 71t-181 190.5t-67.5 264.5q0 110 39 205.5t107.5 168t159.5 113.5t194 41q122 0 226.5 -57t172.5 -153l-150 -81q-48 59 -114 91t-135 32q-93 0 -168.5 -49.5t-119.5 -131.5t-44 -179t44.5 -178.5
t120 -130.5t167.5 -49q74 0 139 34t110 88z" />
    <glyph glyph-name="d" unicode="d" horiz-adv-x="1213" 
d="M925 1500h168v-1500h-168v170q-51 -88 -137 -142t-202 -54q-109 0 -204 41t-167.5 113.5t-113.5 167.5t-41 204t41 204.5t113.5 168t167.5 113.5t204 41q116 0 202 -54t137 -142v669zM588 137q99 0 171.5 48.5t112 131.5t39.5 183q0 102 -40 184.5t-112.5 131
t-170.5 48.5q-99 0 -179.5 -49t-128.5 -131.5t-48 -183.5t49 -183.5t130 -131t177 -48.5z" />
    <glyph glyph-name="e" unicode="e" horiz-adv-x="1118" 
d="M560 -26q-138 0 -251.5 71t-181 190.5t-67.5 264.5q0 110 39 205.5t107.5 168t159.5 113.5t194 41q113 0 207.5 -45.5t162 -126.5t101 -188t24.5 -229h-816q12 -85 56 -151.5t112.5 -105.5t152.5 -40q90 0 163 46.5t118 127.5l171 -40q-60 -133 -181 -217.5t-271 -84.5z
M234 571h652q-8 84 -54 153.5t-117 111.5t-155 42t-154 -41t-115.5 -110.5t-56.5 -155.5z" />
    <glyph glyph-name="f" unicode="f" horiz-adv-x="684" 
d="M347 1247v-247h293v-168h-293v-832h-168v832h-129v168h129v247q0 77 37.5 139.5t101 100t139.5 37.5q56 0 109 -22.5t94 -66.5l-120 -119q-14 19 -36.5 29.5t-46.5 10.5q-45 0 -77.5 -32t-32.5 -77z" />
    <glyph glyph-name="g" unicode="g" horiz-adv-x="1189" 
d="M901 1000h168v-1032q0 -99 -42.5 -184.5t-114.5 -149t-164 -99t-192 -35.5q-104 0 -201 46.5t-169.5 124t-104.5 173.5l154 70q19 -69 68.5 -124.5t116 -88t136.5 -32.5q66 0 127.5 23t111 63.5t78 95t28.5 117.5v199q-51 -86 -134.5 -139.5t-194.5 -53.5q-106 0 -199 41
t-163 113.5t-110 167.5t-40 204t40 204.5t110 168t163 113.5t199 41q111 0 194.5 -53t134.5 -140v166zM573 137q97 0 168.5 50t110.5 133t39 180q0 100 -39.5 182.5t-111 132t-167.5 49.5q-94 0 -172 -49t-123.5 -131.5t-45.5 -183.5t46.5 -183.5t124 -131t170.5 -48.5z" />
    <glyph glyph-name="h" unicode="h" horiz-adv-x="1084" 
d="M1004 622v-622h-168v585q0 76 -37 138t-99 98.5t-138 36.5q-75 0 -137.5 -36.5t-99.5 -98.5t-37 -138v-585h-168v1500h168v-625q53 70 134 111.5t176 41.5q112 0 204.5 -54.5t147 -146.5t54.5 -205z" />
    <glyph glyph-name="i" unicode="i" 
d="M120 1000h168v-1000h-168v1000zM206 1163q-40 0 -67 26t-27 65t27 65t66 26t66 -26t27 -65t-26.5 -65t-65.5 -26z" />
    <glyph glyph-name="j" unicode="j" horiz-adv-x="453" 
d="M-80 -500v168q70 0 125.5 31t87.5 85.5t32 121.5v1094h168v-1094q0 -112 -54 -204t-147.5 -147t-211.5 -55zM251 1163q-40 0 -67 26t-27 65t27 65t66 26t66 -26t27 -65t-26.5 -65t-65.5 -26z" />
    <glyph glyph-name="k" unicode="k" horiz-adv-x="1006" 
d="M931 0h-193l-266 459l-184 -220v-239h-168v1500h168v-1000l419 500h219l-340 -405z" />
    <glyph glyph-name="l" unicode="l" 
d="M120 0v1500h168v-1500h-168z" />
    <glyph glyph-name="m" unicode="m" horiz-adv-x="1777" 
d="M120 0v1000h168v-125q53 70 133.5 111.5t175.5 41.5q111 0 203 -54t145 -143q53 89 144.5 143t201.5 54q113 0 205 -54.5t146.5 -146.5t54.5 -205v-622h-168v582q0 74 -36 137t-97 101t-135 38t-135 -35.5t-97 -98t-36 -142.5v-582h-168v582q0 80 -36 142.5t-97.5 98
t-135.5 35.5q-73 0 -134.5 -38t-97.5 -101t-36 -137v-582h-168z" />
    <glyph glyph-name="n" unicode="n" horiz-adv-x="1084" 
d="M1004 622v-622h-168v585q0 76 -37 138t-99 98.5t-138 36.5q-75 0 -137.5 -36.5t-99.5 -98.5t-37 -138v-585h-168v1000h168v-125q53 70 134 111.5t176 41.5q112 0 204.5 -54.5t147 -146.5t54.5 -205z" />
    <glyph glyph-name="o" unicode="o" horiz-adv-x="1120" 
d="M560 -26q-138 0 -251.5 71t-181 190.5t-67.5 264.5q0 110 39 205.5t107.5 168t159.5 113.5t194 41q138 0 251.5 -71t181 -191t67.5 -266q0 -109 -39 -204t-107.5 -167.5t-159 -113.5t-194.5 -41zM560 142q94 0 169.5 49.5t119 131t43.5 177.5q0 98 -44.5 180t-119.5 131
t-168 49q-94 0 -169 -49.5t-119 -131.5t-44 -179q0 -100 45 -181.5t121 -129t166 -47.5z" />
    <glyph glyph-name="p" unicode="p" horiz-adv-x="1212" 
d="M288 -500h-168v1500h168v-171q51 88 136 142.5t202 54.5q109 0 204.5 -41t167.5 -113.5t113 -167.5t41 -204t-41 -205t-113 -168.5t-167.5 -113.5t-204.5 -41q-117 0 -202 54.5t-136 142.5v-669zM624 863q-97 0 -170 -49t-112.5 -131t-39.5 -183q0 -100 39.5 -183
t112 -132t170.5 -49q97 0 178 48.5t130 131t49 184.5q0 100 -48 182.5t-129 131.5t-180 49z" />
    <glyph glyph-name="q" unicode="q" horiz-adv-x="1212" 
d="M586 -28q-145 0 -264.5 71t-190.5 191t-71 266q0 109 41 204t113.5 167.5t167.5 113.5t204 41q116 0 201.5 -54.5t136.5 -142.5v171h168v-1500h-168v669q-51 -88 -136.5 -142.5t-201.5 -54.5zM588 863q-99 0 -180 -49t-128.5 -131.5t-47.5 -182.5q0 -102 48.5 -184.5
t129.5 -131t178 -48.5q99 0 171 49t111.5 132t39.5 183q0 101 -39.5 183t-112 131t-170.5 49z" />
    <glyph glyph-name="r" unicode="r" horiz-adv-x="730" 
d="M120 0v1000h168v-125q53 70 134 111.5t176 41.5q58 0 112 -15l-68 -168q-41 13 -80 13q-75 0 -137.5 -36.5t-99.5 -98.5t-37 -138v-585h-168z" />
    <glyph glyph-name="s" unicode="s" horiz-adv-x="862" 
d="M425 -19q-81 3 -157.5 30.5t-134 75t-83.5 109.5l144 62q15 -34 54 -64t90 -48t103 -18q55 0 103 17t78.5 50.5t30.5 80.5q0 50 -33.5 78.5t-84 45t-102.5 31.5q-103 26 -184 62.5t-127.5 93t-46.5 144.5q0 93 51.5 161t135.5 105t180 37q121 0 221 -52t149 -141
l-135 -79q-17 36 -52 63.5t-80 43.5t-92 17q-58 2 -108.5 -15t-81 -51.5t-30.5 -85.5q0 -50 32.5 -76t85 -41.5t114.5 -35.5q91 -29 170 -67t127.5 -95t47.5 -141q0 -92 -55 -160.5t-142.5 -104.5t-187.5 -32z" />
    <glyph glyph-name="t" unicode="t" horiz-adv-x="697" 
d="M638 832h-227l-1 -832h-168l1 832h-172v168h172l-1 314h168l1 -314h227v-168z" />
    <glyph glyph-name="u" unicode="u" horiz-adv-x="1044" 
d="M80 380v620h168v-583q0 -76 37 -138t99.5 -98.5t137.5 -36.5q76 0 137.5 36.5t98.5 98.5t37 138v583h168l1 -1000h-168l-1 127q-53 -70 -134 -111.5t-175 -41.5q-112 0 -204.5 54.5t-147 146.5t-54.5 205z" />
    <glyph glyph-name="v" unicode="v" horiz-adv-x="1064" 
d="M640 0h-215l-365 1002h179l293 -807l293 807h179z" />
    <glyph glyph-name="w" unicode="w" horiz-adv-x="1647" 
d="M565 0h-170l-335 1000h164l258 -763l255 763h173l256 -763l255 763h166l-335 -1000h-171l-259 770z" />
    <glyph glyph-name="x" unicode="x" horiz-adv-x="1099" 
d="M80 0l366 502l-364 500h207l261 -356l260 356h207l-364 -500l366 -502h-207l-262 360l-263 -360h-207z" />
    <glyph glyph-name="y" unicode="y" horiz-adv-x="1063" 
d="M805 1000h178l-547 -1500h-178l181 500l-359 1000h184l259 -769z" />
    <glyph glyph-name="z" unicode="z" horiz-adv-x="1014" 
d="M934 832l-615 -664h615v-168h-854v168l615 664h-615v168h854v-168z" />
    <glyph glyph-name="braceleft" unicode="{" horiz-adv-x="808" 
d="M625 -113q-97 0 -176.5 47.5t-126.5 127t-47 175.5v245q-1 31 -25 49t-54 31.5t-53 31.5t-23 49q0 32 23 50.5t53 32t54 31t25 47.5v246q0 96 47 175.5t126.5 127t176.5 47.5h83v-168h-83q-50 0 -91 -24.5t-66 -66t-25 -91.5v-252q-2 -37 -17.5 -60.5t-40.5 -44
t-56 -50.5q32 -32 56.5 -52.5t40 -42t17.5 -60.5v-251q0 -50 24.5 -91.5t65.5 -66t92 -24.5h83v-168h-83z" />
    <glyph glyph-name="bar" unicode="|" horiz-adv-x="448" 
d="M140 1400h168v-1702h-168v1702z" />
    <glyph glyph-name="braceright" unicode="}" horiz-adv-x="808" 
d="M100 -113v168h83q50 0 91.5 24.5t66 66t24.5 91.5v251q2 39 17 60.5t40 42t57 52.5q-30 30 -55.5 50.5t-41 44t-17.5 60.5v252q0 50 -24.5 91.5t-66 66t-91.5 24.5h-83v168h83q97 0 176.5 -47.5t126.5 -127t47 -175.5v-246q2 -30 25 -47.5t53.5 -31t53.5 -32t23 -50.5
q0 -31 -23 -49t-53.5 -31.5t-53.5 -31.5t-25 -49v-245q0 -96 -47 -175.5t-126.5 -127t-176.5 -47.5h-83z" />
    <glyph glyph-name="asciitilde" unicode="~" horiz-adv-x="1246" 
d="M914 416q-63 0 -137.5 31.5t-150 72.5t-143 72t-117.5 31q-41 1 -70 -21.5t-41.5 -58.5t-4.5 -76l-164 -4q-17 81 15.5 154t98.5 120t152 47q62 0 130.5 -32t138.5 -74t135.5 -73.5t119.5 -31.5q42 0 71.5 21.5t42.5 57.5t4 76l165 6q18 -83 -10 -155.5t-89.5 -117.5
t-145.5 -45z" />
    <glyph glyph-name="uni00A0" unicode="&#xa0;" horiz-adv-x="480" 
 />
    <glyph glyph-name="exclamdown" unicode="&#xa1;" horiz-adv-x="362" 
d="M171 1026q39 0 65.5 -26.5t26.5 -66.5q0 -38 -26.5 -64.5t-65.5 -26.5q-38 0 -64.5 26.5t-26.5 64.5q0 40 26.5 66.5t64.5 26.5zM244 580v-980h-146v980h146z" />
    <glyph glyph-name="cent" unicode="&#xa2;" horiz-adv-x="1092" 
d="M518 0v204q-123 16 -222.5 85.5t-157.5 177t-58 235.5t58 235t157.5 176.5t222.5 84.5v202h124v-202q117 -12 214 -76t156 -160l-145 -84q-46 72 -123 115t-162 43q-91 0 -167 -45t-121.5 -121t-45.5 -168q0 -94 46 -170t122 -121t166 -45q85 0 162 43t123 115l145 -84
q-59 -96 -156 -159.5t-214 -76.5v-204h-124z" />
    <glyph glyph-name="sterling" unicode="&#xa3;" horiz-adv-x="1170" 
d="M104 0v168q56 0 110 15t96.5 42t63 66t9.5 86q-7 57 -31.5 99.5t-59 78t-71 71t-69 76t-52.5 94.5t-20 126q0 104 39.5 195t109 160.5t160.5 109t195 39.5q105 0 196.5 -39.5t161.5 -108.5t109 -160.5t39 -195.5h-168q0 93 -45.5 169t-122.5 121.5t-170 45.5
q-92 0 -168.5 -45.5t-122 -121.5t-45.5 -169q0 -76 22 -128t57.5 -90t75 -71.5t74.5 -72.5t57.5 -92.5t22.5 -133.5q0 -37 -16 -70t-39.5 -58t-48.5 -38h625v-168h-974zM104 448v123h756v-123h-756z" />
    <glyph glyph-name="currency" unicode="&#xa4;" horiz-adv-x="995" 
d="M167 282l-87 87l125 126q-43 61 -57.5 132.5t0.5 143.5t59 132l-127 129l87 86l128 -127q59 43 131 57.5t144.5 1t131.5 -56.5l127 125l86 -86l-125 -126q46 -60 61 -133t0.5 -146t-59.5 -134l123 -124l-86 -87l-124 123q-62 -44 -134.5 -59t-144.5 0t-134 61zM499 461
q66 1 119 33t85.5 85.5t32.5 118.5q0 68 -32 120.5t-86 84t-119 31.5q-67 0 -120 -32t-84.5 -86t-31.5 -118q0 -66 32.5 -120t86.5 -85.5t117 -31.5z" />
    <glyph glyph-name="yen" unicode="&#xa5;" horiz-adv-x="1258" 
d="M545 0v181h-280v122h280v144h-280v122h280v64l-474 767h198l360 -583l360 583h198l-474 -767v-64h280v-122h-280v-144h280v-122h-280v-181h-168z" />
    <glyph glyph-name="brokenbar" unicode="&#xa6;" 
d="M120 448h168v-750h-168v750zM120 1400h168v-750h-168v750z" />
    <glyph glyph-name="section" unicode="&#xa7;" horiz-adv-x="1083" 
d="M544 -393q-121 0 -221 52t-149 140l135 79q17 -35 52 -62.5t80.5 -44t91.5 -17.5q59 -2 109 15t80.5 52t30.5 85q0 52 -32 80.5t-84.5 44.5t-115.5 29q-118 21 -208.5 80.5t-141.5 151.5t-51 207q0 81 30.5 154t85.5 129t127 86q-97 28 -144 82.5t-47 139.5
q0 94 51.5 162t135.5 104.5t180 36.5q121 0 221 -51.5t149 -140.5l-135 -79q-17 35 -52 62.5t-80 44t-92 17.5q-58 2 -108.5 -15t-81 -52t-30.5 -85q0 -51 30.5 -79t82.5 -44t117 -30q121 -24 212 -82t141 -147.5t50 -212.5q0 -81 -31 -154t-86.5 -128.5t-126.5 -84.5
q97 -28 144.5 -82.5t47.5 -139.5q0 -94 -51.5 -162t-135 -104.5t-180.5 -36.5zM548 222q72 0 132 38t96 100.5t36 135.5q0 87 -39 150.5t-103 97.5t-138 34q-70 0 -129.5 -38.5t-95.5 -102t-36 -138.5q0 -78 38 -140.5t101 -99.5t138 -37z" />
    <glyph glyph-name="dieresis" unicode="&#xa8;" horiz-adv-x="1324" 
d="M495 1078q-39 0 -67 26t-28 65t28 66.5t67 27.5q38 0 65 -27.5t27 -66.5t-27 -65t-65 -26zM831 1078q-39 0 -66.5 26t-27.5 65t27.5 66.5t66.5 27.5q38 0 65.5 -27.5t27.5 -66.5t-27.5 -65t-65.5 -26z" />
    <glyph glyph-name="copyright" unicode="&#xa9;" horiz-adv-x="1831" 
d="M915 -244q-173 0 -324.5 65t-266.5 179.5t-179.5 266t-64.5 324.5t64.5 324.5t179.5 266.5t266.5 179.5t324.5 64.5t324.5 -64.5t266.5 -179.5t180 -266.5t65 -324.5t-65 -324.5t-180 -266t-266.5 -179.5t-324.5 -65zM915 -76q141 0 262.5 52.5t212.5 145t142 213
t51 256.5q0 138 -52.5 259.5t-144.5 213.5t-213 143.5t-258 50.5q-140 -1 -261 -53.5t-212 -144.5t-142.5 -212t-51.5 -257q0 -141 53 -262.5t145.5 -212.5t213 -141.5t255.5 -50.5zM1170 356l151 -82q-69 -95 -173 -152t-227 -57q-138 0 -251.5 71t-181 190.5t-67.5 264.5
q0 110 39 205.5t107.5 168t159.5 113.5t194 41q123 0 227 -57t173 -153l-151 -81q-47 60 -113.5 91.5t-135.5 31.5q-93 0 -168.5 -49.5t-119.5 -131.5t-44 -179t45 -178.5t120.5 -130.5t166.5 -49q74 0 139.5 34t109.5 89z" />
    <glyph glyph-name="ordfeminine" unicode="&#xaa;" horiz-adv-x="1172" 
d="M924 1000h168v-1000h-168l-7 169q-47 -87 -129.5 -141t-196.5 -54q-110 0 -206 41.5t-169.5 115t-114.5 169.5t-41 207q0 107 40 202t111.5 166.5t165.5 112t202 40.5q118 0 207 -55.5t144 -143.5zM588 137q99 0 171.5 48.5t112 131.5t39.5 183q0 102 -40 184.5
t-112.5 131t-170.5 48.5q-99 0 -180 -49t-128.5 -131.5t-47.5 -183.5t49 -183.5t130 -131t177 -48.5z" />
    <glyph glyph-name="guillemotleft" unicode="&#xab;" horiz-adv-x="1062" 
d="M420 261l-300 340l300 338h179l-299 -338l299 -340h-179zM783 261l-300 340l300 338h179l-299 -338l299 -340h-179z" />
    <glyph glyph-name="logicalnot" unicode="&#xac;" horiz-adv-x="986" 
d="M738 308v416h-658v168h826v-584h-168z" />
    <glyph glyph-name="uni00AD" unicode="&#xad;" horiz-adv-x="902" 
d="M142 684h640v-168h-640v168z" />
    <glyph glyph-name="registered" unicode="&#xae;" horiz-adv-x="1030" 
d="M514 446q-94 0 -176.5 36t-145 99t-97.5 145t-35 175t35.5 175t98 145t144.5 98.5t176 35.5q97 0 179.5 -36t145 -100t97 -145.5t34.5 -172.5q0 -94 -35.5 -176t-98 -145t-145 -98.5t-177.5 -35.5zM514 573q91 0 165 44.5t118.5 119t44.5 164.5t-44.5 164.5t-118.5 118.5
t-165 44q-90 0 -164 -44t-118.5 -118.5t-44.5 -164.5t44.5 -164.5t118.5 -119t164 -44.5zM388 707v407h154q50 0 84.5 -36.5t34.5 -88.5q0 -39 -20.5 -69.5t-54.5 -43.5l99 -169h-95l-94 159h-25v-159h-83zM471 948h71q15 0 25.5 12.5t10.5 28.5q0 19 -10.5 30.5t-25.5 11.5
h-71v-83z" />
    <glyph glyph-name="macron" unicode="&#xaf;" horiz-adv-x="1200" 
d="M262 1295h676v-132h-676v132z" />
    <glyph glyph-name="degree" unicode="&#xb0;" horiz-adv-x="761" 
d="M381 780q-84 0 -152.5 41.5t-108.5 110t-40 148.5q0 82 40.5 150t108.5 109t152 41q85 0 153 -41.5t107.5 -109.5t39.5 -149q0 -84 -41 -152.5t-109 -108t-150 -39.5zM381 948q55 0 93.5 38.5t38.5 93.5q0 56 -38.5 94t-93.5 38t-94 -38t-39 -94q0 -55 39 -93.5t94 -38.5
z" />
    <glyph glyph-name="plusminus" unicode="&#xb1;" horiz-adv-x="1160" 
d="M496 345v416h-416v168h416v416h168v-416h416v-168h-416v-416h-168zM80 0v168h1000v-168h-1000z" />
    <glyph glyph-name="uni00B2" unicode="&#xb2;" horiz-adv-x="696" 
d="M96 818v106q40 27 92.5 64t105 79.5t91.5 89.5t51 94q0 47 -32 77t-79 30t-80.5 -30t-33.5 -77h-115q0 63 31 112t83 77t115 28q94 0 160.5 -61.5t66.5 -155.5q0 -43 -24 -86t-61.5 -85t-81 -79.5t-83.5 -67.5h244v-115h-450z" />
    <glyph glyph-name="uni00B3" unicode="&#xb3;" horiz-adv-x="562" 
d="M282 798q-86 0 -148 56t-62 143h115q0 -40 27.5 -64.5t67.5 -24.5q38 0 65 24.5t27 64.5q0 45 -35.5 76.5t-102.5 31.5v87q63 0 92 26.5t29 65.5q0 32 -24 52.5t-56 20.5t-55.5 -20.5t-23.5 -52.5h-115q0 81 57 132t137 51q81 0 138 -51t57 -132q0 -40 -16 -76.5
t-40 -56.5q37 -31 55.5 -67.5t18.5 -86.5q0 -87 -61.5 -143t-146.5 -56z" />
    <glyph glyph-name="acute" unicode="&#xb4;" horiz-adv-x="828" 
d="M326 1110l80 288h168l-136 -288h-112z" />
    <glyph glyph-name="uni00B5" unicode="&#xb5;" horiz-adv-x="1078" 
d="M80 -432v1432h168v-526q0 -93 39 -169.5t106 -122t151 -45.5t148.5 45.5t101 122t36.5 169.5v526h168v-1000h-168v155q-54 -84 -133 -133t-177 -49q-85 0 -155 39.5t-117 102.5v-547h-168z" />
    <glyph glyph-name="paragraph" unicode="&#xb6;" horiz-adv-x="911" 
d="M420 -302v1020q-94 0 -171 46t-123 123.5t-46 171.5t46 171.5t123 123.5t171 46h168v-1702h-168zM663 -302v1702h168v-1702h-168z" />
    <glyph glyph-name="periodcentered" unicode="&#xb7;" horiz-adv-x="344" 
d="M171 508q-38 0 -64.5 27t-26.5 66q0 37 26.5 64t64.5 27q39 0 66 -27t27 -64q0 -39 -27 -66t-66 -27z" />
    <glyph glyph-name="cedilla" unicode="&#xb8;" horiz-adv-x="1235" 
d="M602 -369q-65 -18 -124 16t-77 99l97 26q7 -25 29.5 -38t48.5 -6t39.5 29.5t5.5 48.5q-6 26 -28.5 38.5t-49.5 7.5l-104 -11l128 223l87 -51l-41 -71q37 -11 66 -40t39 -70q18 -66 -16 -125t-100 -76z" />
    <glyph glyph-name="uni00B9" unicode="&#xb9;" horiz-adv-x="431" 
d="M171 818v516h-75l17 115h174v-631h-116z" />
    <glyph glyph-name="ordmasculine" unicode="&#xba;" horiz-adv-x="1120" 
d="M560 -26q-138 0 -251.5 71t-181 190.5t-67.5 264.5q0 110 39 205.5t107.5 168t159.5 113.5t194 41q138 0 251.5 -71t181 -191t67.5 -266q0 -109 -39 -204t-107.5 -167.5t-159 -113.5t-194.5 -41zM560 142q94 0 169.5 49.5t119 131t43.5 177.5q0 98 -44.5 180t-119.5 131
t-168 49q-94 0 -169 -49.5t-119 -131.5t-44 -179q0 -100 45 -181.5t121 -129t166 -47.5z" />
    <glyph glyph-name="guillemotright" unicode="&#xbb;" horiz-adv-x="1082" 
d="M463 261l299 340l-299 338h179l300 -338l-300 -340h-179zM100 261l299 340l-299 338h179l300 -338l-300 -340h-179z" />
    <glyph glyph-name="onequarter" unicode="&#xbc;" horiz-adv-x="1564" 
d="M171 818v516h-75l17 115h174v-631h-116zM178 0l808 1400h148l-808 -1400h-148zM1238 0v115h-261v139l239 377h138v-401h67v-115h-67v-115h-116zM1093 230h153v243z" />
    <glyph glyph-name="onehalf" unicode="&#xbd;" horiz-adv-x="1576" 
d="M171 818v516h-75l17 115h174v-631h-116zM178 0l808 1400h148l-808 -1400h-148zM977 0v106q40 27 92.5 64t105 80t91.5 90t51 94q0 47 -32 76.5t-79 29.5t-80.5 -29.5t-33.5 -76.5h-115q0 63 31 113t83 79t115 29t114.5 -29t82 -79t30.5 -113q0 -43 -24 -86.5t-61.5 -85
t-81 -79t-83.5 -68.5h244v-115h-450z" />
    <glyph glyph-name="threequarters" unicode="&#xbe;" horiz-adv-x="1695" 
d="M282 798q-86 0 -148 56t-62 143h115q0 -40 27.5 -64.5t67.5 -24.5q38 0 65 24.5t27 64.5q0 45 -35.5 76.5t-102.5 31.5v87q63 0 92 26.5t29 65.5q0 32 -24 52.5t-56 20.5t-55.5 -20.5t-23.5 -52.5h-115q0 81 57 132t137 51q81 0 138 -51t57 -132q0 -40 -16 -76.5
t-40 -56.5q37 -31 55.5 -67.5t18.5 -86.5q0 -87 -61.5 -143t-146.5 -56zM309 0l808 1400h148l-808 -1400h-148zM1369 0v115h-261v139l239 377h138v-401h67v-115h-67v-115h-116zM1224 230h153v243z" />
    <glyph glyph-name="questiondown" unicode="&#xbf;" horiz-adv-x="1010" 
d="M496 -427q-115 0 -209 56t-150.5 150.5t-56.5 208.5q0 117 57 217t156 152q49 26 77 73t28 104h168q0 -101 -51.5 -188t-142.5 -137q-58 -31 -91 -90.5t-33 -130.5q0 -68 33.5 -124t90 -89.5t124.5 -33.5t124.5 33.5t90 89.5t33.5 124h168q0 -114 -56 -208.5
t-150.5 -150.5t-209.5 -56zM482 842q-38 0 -64.5 26.5t-26.5 64.5q0 40 26.5 66.5t64.5 26.5q39 0 65.5 -26.5t26.5 -66.5q0 -38 -26.5 -64.5t-65.5 -26.5z" />
    <glyph glyph-name="Agrave" unicode="&#xc0;" horiz-adv-x="1381" 
d="M589 1400h203l509 -1400h-178l-104 286h-657l-103 -286h-179zM424 454h533l-267 731zM479 1798h168l80 -288h-112z" />
    <glyph glyph-name="Aacute" unicode="&#xc1;" horiz-adv-x="1381" 
d="M589 1400h203l509 -1400h-178l-104 286h-657l-103 -286h-179zM424 454h533l-267 731zM648 1510l80 288h168l-136 -288h-112z" />
    <glyph glyph-name="Acircumflex" unicode="&#xc2;" horiz-adv-x="1381" 
d="M589 1400h203l509 -1400h-178l-104 286h-657l-103 -286h-179zM424 454h533l-267 731zM783 1798l193 -288h-112l-174 200l-172 -200h-112l191 288h186z" />
    <glyph glyph-name="Atilde" unicode="&#xc3;" horiz-adv-x="1381" 
d="M589 1400h203l509 -1400h-178l-104 286h-657l-103 -286h-179zM424 454h533l-267 731zM845 1524q-37 0 -83.5 24t-93.5 55t-85.5 51.5t-60.5 12.5q-23 -8 -34.5 -33t-1.5 -62l-108 -29q-21 62 -7 117.5t56.5 89.5t105.5 34q38 0 83.5 -22t92 -50.5t85 -50t61.5 -21.5
q22 0 33 16.5t12 38.5t-6 39l109 35q22 -66 6.5 -121.5t-59 -89.5t-105.5 -34z" />
    <glyph glyph-name="Adieresis" unicode="&#xc4;" horiz-adv-x="1381" 
d="M589 1400h203l509 -1400h-178l-104 286h-657l-103 -286h-179zM424 454h533l-267 731zM523 1478q-39 0 -67 26t-28 65t28 66.5t67 27.5q38 0 65 -27.5t27 -66.5t-27 -65t-65 -26zM859 1478q-39 0 -66.5 26t-27.5 65t27.5 66.5t66.5 27.5q38 0 65.5 -27.5t27.5 -66.5
t-27.5 -65t-65.5 -26z" />
    <glyph glyph-name="Aring" unicode="&#xc5;" horiz-adv-x="1381" 
d="M589 1400h203l509 -1400h-178l-104 286h-657l-103 -286h-179zM424 454h533l-267 731zM690 1488q-69 0 -117.5 49.5t-48.5 117.5q0 45 22.5 82.5t60 60t83.5 22.5q68 0 117 -48.5t49 -116.5q0 -70 -49 -118.5t-117 -48.5zM690 1577q32 0 54.5 23t22.5 55q0 31 -22.5 53
t-54.5 22t-54 -22t-22 -53q0 -32 22 -55t54 -23z" />
    <glyph glyph-name="AE" unicode="&#xc6;" horiz-adv-x="1635" 
d="M80 0l509 1400h946v-168h-551v-448h455v-168h-455v-448h551v-168h-719v286h-454l-103 -286h-179zM424 454h392v778h-108z" />
    <glyph glyph-name="Ccedilla" unicode="&#xc7;" horiz-adv-x="1418" 
d="M768 -26q-142 0 -267 56.5t-219.5 156t-148 231.5t-53.5 282t53.5 282t148 231.5t219.5 156t267 56.5q170 0 313 -79t237 -210l-149 -80q-70 92 -176.5 146.5t-224.5 54.5q-109 0 -203.5 -44t-165.5 -121t-111 -178t-40 -215q0 -115 40.5 -216t112 -178t166 -120.5
t201.5 -43.5q122 0 226.5 55.5t174.5 145.5l149 -81q-94 -131 -237 -209.5t-313 -78.5zM772 -369q-65 -18 -124 16t-77 99l97 26q7 -25 29.5 -38t48.5 -6t39.5 29.5t5.5 48.5q-6 26 -28.5 38.5t-49.5 7.5l-104 -11l128 223l87 -51l-41 -71q37 -11 66 -40t39 -70
q18 -66 -16 -125t-100 -76z" />
    <glyph glyph-name="Egrave" unicode="&#xc8;" horiz-adv-x="1079" 
d="M120 0v1400h859v-168h-691v-398h566v-168h-566v-498h691v-168h-859zM328 1798h168l80 -288h-112z" />
    <glyph glyph-name="Eacute" unicode="&#xc9;" horiz-adv-x="1079" 
d="M120 0v1400h859v-168h-691v-398h566v-168h-566v-498h691v-168h-859zM498 1510l80 288h168l-136 -288h-112z" />
    <glyph glyph-name="Ecircumflex" unicode="&#xca;" horiz-adv-x="1079" 
d="M120 0v1400h859v-168h-691v-398h566v-168h-566v-498h691v-168h-859zM633 1798l193 -288h-112l-174 200l-172 -200h-112l191 288h186z" />
    <glyph glyph-name="Edieresis" unicode="&#xcb;" horiz-adv-x="1079" 
d="M120 0v1400h859v-168h-691v-398h566v-168h-566v-498h691v-168h-859zM372 1478q-39 0 -67 26t-28 65t28 66.5t67 27.5q38 0 65 -27.5t27 -66.5t-27 -65t-65 -26zM708 1478q-39 0 -66.5 26t-27.5 65t27.5 66.5t66.5 27.5q38 0 65.5 -27.5t27.5 -66.5t-27.5 -65t-65.5 -26z
" />
    <glyph glyph-name="Igrave" unicode="&#xcc;" horiz-adv-x="468" 
d="M150 0v1400h168v-1400h-168zM23 1798h168l80 -288h-112z" />
    <glyph glyph-name="Iacute" unicode="&#xcd;" horiz-adv-x="468" 
d="M150 0v1400h168v-1400h-168zM192 1510l80 288h168l-136 -288h-112z" />
    <glyph glyph-name="Icircumflex" unicode="&#xce;" horiz-adv-x="468" 
d="M150 0v1400h168v-1400h-168zM327 1798l193 -288h-112l-174 200l-172 -200h-112l191 288h186z" />
    <glyph glyph-name="Idieresis" unicode="&#xcf;" horiz-adv-x="468" 
d="M150 0v1400h168v-1400h-168zM67 1478q-39 0 -67 26t-28 65t28 66.5t67 27.5q38 0 65 -27.5t27 -66.5t-27 -65t-65 -26zM403 1478q-39 0 -66.5 26t-27.5 65t27.5 66.5t66.5 27.5q38 0 65.5 -27.5t27.5 -66.5t-27.5 -65t-65.5 -26z" />
    <glyph glyph-name="Eth" unicode="&#xd0;" horiz-adv-x="1456" 
d="M233 0v666h-133v168h133v566h463q145 0 271.5 -54.5t223 -151t151 -223t54.5 -271.5t-54.5 -271.5t-151 -223t-223 -151t-271.5 -54.5h-463zM401 168h295q112 0 208.5 41.5t169 116t113.5 170.5t41 204q0 111 -42 208t-115.5 169.5t-169.5 113.5t-205 41h-295v-398h327
v-168h-327v-498z" />
    <glyph glyph-name="Ntilde" unicode="&#xd1;" horiz-adv-x="1289" 
d="M120 0v1400h182l699 -1096v1096h168v-1400h-181l-700 1096v-1096h-168zM799 1524q-37 0 -83.5 24t-93.5 55t-85.5 51.5t-60.5 12.5q-23 -8 -34.5 -33t-1.5 -62l-108 -29q-21 62 -7 117.5t56.5 89.5t105.5 34q38 0 83.5 -22t92 -50.5t85 -50t61.5 -21.5q22 0 33 16.5
t12 38.5t-6 39l109 35q22 -66 6.5 -121.5t-59 -89.5t-105.5 -34z" />
    <glyph glyph-name="Ograve" unicode="&#xd2;" horiz-adv-x="1540" 
d="M770 -26q-142 0 -267 56.5t-220 156.5t-149 231.5t-54 281.5t54 281.5t149 231.5t220 156.5t267 56.5q143 0 268 -56.5t220 -156.5t148.5 -231.5t53.5 -281.5t-53.5 -281.5t-148.5 -231.5t-220 -156.5t-268 -56.5zM770 142q109 0 203.5 44t166 121.5t112 178t40.5 214.5
t-41 215.5t-112.5 178t-166 120.5t-202.5 44q-109 0 -203.5 -44t-166 -121.5t-112 -178t-40.5 -214.5q0 -115 41 -216t112.5 -178t166 -120.5t202.5 -43.5zM559 1798h168l80 -288h-112z" />
    <glyph glyph-name="Oacute" unicode="&#xd3;" horiz-adv-x="1540" 
d="M770 -26q-142 0 -267 56.5t-220 156.5t-149 231.5t-54 281.5t54 281.5t149 231.5t220 156.5t267 56.5q143 0 268 -56.5t220 -156.5t148.5 -231.5t53.5 -281.5t-53.5 -281.5t-148.5 -231.5t-220 -156.5t-268 -56.5zM770 142q109 0 203.5 44t166 121.5t112 178t40.5 214.5
t-41 215.5t-112.5 178t-166 120.5t-202.5 44q-109 0 -203.5 -44t-166 -121.5t-112 -178t-40.5 -214.5q0 -115 41 -216t112.5 -178t166 -120.5t202.5 -43.5zM728 1510l80 288h168l-136 -288h-112z" />
    <glyph glyph-name="Ocircumflex" unicode="&#xd4;" horiz-adv-x="1540" 
d="M770 -26q-142 0 -267 56.5t-220 156.5t-149 231.5t-54 281.5t54 281.5t149 231.5t220 156.5t267 56.5q143 0 268 -56.5t220 -156.5t148.5 -231.5t53.5 -281.5t-53.5 -281.5t-148.5 -231.5t-220 -156.5t-268 -56.5zM770 142q109 0 203.5 44t166 121.5t112 178t40.5 214.5
t-41 215.5t-112.5 178t-166 120.5t-202.5 44q-109 0 -203.5 -44t-166 -121.5t-112 -178t-40.5 -214.5q0 -115 41 -216t112.5 -178t166 -120.5t202.5 -43.5zM863 1798l193 -288h-112l-174 200l-172 -200h-112l191 288h186z" />
    <glyph glyph-name="Otilde" unicode="&#xd5;" horiz-adv-x="1540" 
d="M770 -26q-142 0 -267 56.5t-220 156.5t-149 231.5t-54 281.5t54 281.5t149 231.5t220 156.5t267 56.5q143 0 268 -56.5t220 -156.5t148.5 -231.5t53.5 -281.5t-53.5 -281.5t-148.5 -231.5t-220 -156.5t-268 -56.5zM770 142q109 0 203.5 44t166 121.5t112 178t40.5 214.5
t-41 215.5t-112.5 178t-166 120.5t-202.5 44q-109 0 -203.5 -44t-166 -121.5t-112 -178t-40.5 -214.5q0 -115 41 -216t112.5 -178t166 -120.5t202.5 -43.5zM925 1524q-37 0 -83.5 24t-93.5 55t-85.5 51.5t-60.5 12.5q-23 -8 -34.5 -33t-1.5 -62l-108 -29q-21 62 -7 117.5
t56.5 89.5t105.5 34q38 0 83.5 -22t92 -50.5t85 -50t61.5 -21.5q22 0 33 16.5t12 38.5t-6 39l109 35q22 -66 6.5 -121.5t-59 -89.5t-105.5 -34z" />
    <glyph glyph-name="Odieresis" unicode="&#xd6;" horiz-adv-x="1540" 
d="M770 -26q-142 0 -267 56.5t-220 156.5t-149 231.5t-54 281.5t54 281.5t149 231.5t220 156.5t267 56.5q143 0 268 -56.5t220 -156.5t148.5 -231.5t53.5 -281.5t-53.5 -281.5t-148.5 -231.5t-220 -156.5t-268 -56.5zM770 142q109 0 203.5 44t166 121.5t112 178t40.5 214.5
t-41 215.5t-112.5 178t-166 120.5t-202.5 44q-109 0 -203.5 -44t-166 -121.5t-112 -178t-40.5 -214.5q0 -115 41 -216t112.5 -178t166 -120.5t202.5 -43.5zM603 1478q-39 0 -67 26t-28 65t28 66.5t67 27.5q38 0 65 -27.5t27 -66.5t-27 -65t-65 -26zM939 1478q-39 0 -66.5 26
t-27.5 65t27.5 66.5t66.5 27.5q38 0 65.5 -27.5t27.5 -66.5t-27.5 -65t-65.5 -26z" />
    <glyph glyph-name="multiply" unicode="&#xd7;" horiz-adv-x="986" 
d="M199 187l-119 119l293 294l-293 294l119 119l293 -294l294 294l120 -119l-295 -294l295 -294l-120 -119l-294 294z" />
    <glyph glyph-name="Oslash" unicode="&#xd8;" horiz-adv-x="1540" 
d="M413 -89l-146 84l79 137q-119 99 -192.5 247.5t-73.5 320.5q0 150 54 281.5t149 231.5t220 156.5t267 56.5q77 0 148.5 -17.5t135.5 -49.5l75 130l146 -84l-79 -136q120 -98 192 -246.5t72 -322.5q0 -150 -53.5 -281.5t-148.5 -231.5t-220 -156.5t-268 -56.5
q-75 0 -146 18t-136 49zM434 286l535 924q-44 23 -95 35.5t-104 12.5q-109 0 -203.5 -44t-166 -121.5t-112 -178t-40.5 -214.5q0 -125 51 -233t135 -181zM770 142q109 0 203.5 44t166 121.5t112 178t40.5 214.5q0 125 -50 233t-134 182l-535 -925q45 -23 95.5 -35.5
t101.5 -12.5z" />
    <glyph glyph-name="Ugrave" unicode="&#xd9;" horiz-adv-x="1335" 
d="M668 -26q-168 0 -291.5 82t-190 220.5t-66.5 307.5v816h168v-816q0 -120 44.5 -221t129 -161t206.5 -60q124 0 208 60.5t127.5 161t43.5 220.5v816h168v-816q0 -127 -38 -237.5t-109.5 -194.5t-172.5 -131t-227 -47zM456 1798h168l80 -288h-112z" />
    <glyph glyph-name="Uacute" unicode="&#xda;" horiz-adv-x="1335" 
d="M668 -26q-168 0 -291.5 82t-190 220.5t-66.5 307.5v816h168v-816q0 -120 44.5 -221t129 -161t206.5 -60q124 0 208 60.5t127.5 161t43.5 220.5v816h168v-816q0 -127 -38 -237.5t-109.5 -194.5t-172.5 -131t-227 -47zM626 1510l80 288h168l-136 -288h-112z" />
    <glyph glyph-name="Ucircumflex" unicode="&#xdb;" horiz-adv-x="1335" 
d="M668 -26q-168 0 -291.5 82t-190 220.5t-66.5 307.5v816h168v-816q0 -120 44.5 -221t129 -161t206.5 -60q124 0 208 60.5t127.5 161t43.5 220.5v816h168v-816q0 -127 -38 -237.5t-109.5 -194.5t-172.5 -131t-227 -47zM761 1798l193 -288h-112l-174 200l-172 -200h-112
l191 288h186z" />
    <glyph glyph-name="Udieresis" unicode="&#xdc;" horiz-adv-x="1335" 
d="M668 -26q-168 0 -291.5 82t-190 220.5t-66.5 307.5v816h168v-816q0 -120 44.5 -221t129 -161t206.5 -60q124 0 208 60.5t127.5 161t43.5 220.5v816h168v-816q0 -127 -38 -237.5t-109.5 -194.5t-172.5 -131t-227 -47zM500 1478q-39 0 -67 26t-28 65t28 66.5t67 27.5
q38 0 65 -27.5t27 -66.5t-27 -65t-65 -26zM836 1478q-39 0 -66.5 26t-27.5 65t27.5 66.5t66.5 27.5q38 0 65.5 -27.5t27.5 -66.5t-27.5 -65t-65.5 -26z" />
    <glyph glyph-name="Yacute" unicode="&#xdd;" horiz-adv-x="1236" 
d="M978 1400h198l-474 -767v-633h-168v633l-474 767h198l360 -583zM576 1510l80 288h168l-136 -288h-112z" />
    <glyph glyph-name="Thorn" unicode="&#xde;" horiz-adv-x="1043" 
d="M120 0v1400h168v-288h294q113 0 203.5 -55t144 -148.5t53.5 -208.5q0 -116 -54.5 -209.5t-146 -148t-200.5 -54.5h-294v-288h-168zM288 456h279q68 0 124.5 33t90 90.5t33.5 130.5q0 72 -33.5 129.5t-90 91t-124.5 33.5h-279v-508z" />
    <glyph glyph-name="germandbls" unicode="&#xdf;" horiz-adv-x="1089" 
d="M120 0v938q0 96 35.5 179.5t99 147t147 99.5t179.5 36q105 0 190 -51.5t135.5 -138.5t50.5 -196q0 -57 -17.5 -114.5t-52.5 -104.5t-88 -75q61 -13 104.5 -47.5t71.5 -81.5t41 -101.5t13 -109.5q0 -107 -52 -193t-140.5 -136.5t-195.5 -50.5h-74l-29 148h89
q69 0 125.5 33t90.5 88t34 121q0 67 -34 121t-90.5 87t-125.5 33l-89 2v142l26 2q62 3 113 34.5t81.5 84.5t30.5 118q0 66 -30.5 119.5t-81.5 86t-113 32.5q-76 0 -139 -37.5t-100 -100.5t-37 -140v-974h-168z" />
    <glyph glyph-name="agrave" unicode="&#xe0;" horiz-adv-x="1172" 
d="M924 1000h168v-1000h-168l-7 169q-47 -87 -129.5 -141t-196.5 -54q-110 0 -206 41.5t-169.5 115t-114.5 169.5t-41 207q0 107 40 202t111.5 166.5t165.5 112t202 40.5q118 0 207 -55.5t144 -143.5zM588 137q99 0 171.5 48.5t112 131.5t39.5 183q0 102 -40 184.5
t-112.5 131t-170.5 48.5q-99 0 -180 -49t-128.5 -131.5t-47.5 -183.5t49 -183.5t130 -131t177 -48.5zM389 1398h168l80 -288h-112z" />
    <glyph glyph-name="aacute" unicode="&#xe1;" horiz-adv-x="1172" 
d="M924 1000h168v-1000h-168l-7 169q-47 -87 -129.5 -141t-196.5 -54q-110 0 -206 41.5t-169.5 115t-114.5 169.5t-41 207q0 107 40 202t111.5 166.5t165.5 112t202 40.5q118 0 207 -55.5t144 -143.5zM588 137q99 0 171.5 48.5t112 131.5t39.5 183q0 102 -40 184.5
t-112.5 131t-170.5 48.5q-99 0 -180 -49t-128.5 -131.5t-47.5 -183.5t49 -183.5t130 -131t177 -48.5zM559 1110l80 288h168l-136 -288h-112z" />
    <glyph glyph-name="acircumflex" unicode="&#xe2;" horiz-adv-x="1172" 
d="M924 1000h168v-1000h-168l-7 169q-47 -87 -129.5 -141t-196.5 -54q-110 0 -206 41.5t-169.5 115t-114.5 169.5t-41 207q0 107 40 202t111.5 166.5t165.5 112t202 40.5q118 0 207 -55.5t144 -143.5zM588 137q99 0 171.5 48.5t112 131.5t39.5 183q0 102 -40 184.5
t-112.5 131t-170.5 48.5q-99 0 -180 -49t-128.5 -131.5t-47.5 -183.5t49 -183.5t130 -131t177 -48.5zM694 1398l193 -288h-112l-174 200l-172 -200h-112l191 288h186z" />
    <glyph glyph-name="atilde" unicode="&#xe3;" horiz-adv-x="1172" 
d="M924 1000h168v-1000h-168l-7 169q-47 -87 -129.5 -141t-196.5 -54q-110 0 -206 41.5t-169.5 115t-114.5 169.5t-41 207q0 107 40 202t111.5 166.5t165.5 112t202 40.5q118 0 207 -55.5t144 -143.5zM588 137q99 0 171.5 48.5t112 131.5t39.5 183q0 102 -40 184.5
t-112.5 131t-170.5 48.5q-99 0 -180 -49t-128.5 -131.5t-47.5 -183.5t49 -183.5t130 -131t177 -48.5zM756 1124q-37 0 -83.5 24t-93.5 55t-85.5 51.5t-60.5 12.5q-23 -8 -34.5 -33t-1.5 -62l-108 -29q-21 62 -7 117.5t56.5 89.5t105.5 34q38 0 83.5 -22t92 -50.5t85 -50
t61.5 -21.5q22 0 33 16.5t12 38.5t-6 39l109 35q22 -66 6.5 -121.5t-59 -89.5t-105.5 -34z" />
    <glyph glyph-name="adieresis" unicode="&#xe4;" horiz-adv-x="1172" 
d="M924 1000h168v-1000h-168l-7 169q-47 -87 -129.5 -141t-196.5 -54q-110 0 -206 41.5t-169.5 115t-114.5 169.5t-41 207q0 107 40 202t111.5 166.5t165.5 112t202 40.5q118 0 207 -55.5t144 -143.5zM588 137q99 0 171.5 48.5t112 131.5t39.5 183q0 102 -40 184.5
t-112.5 131t-170.5 48.5q-99 0 -180 -49t-128.5 -131.5t-47.5 -183.5t49 -183.5t130 -131t177 -48.5zM434 1078q-39 0 -67 26t-28 65t28 66.5t67 27.5q38 0 65 -27.5t27 -66.5t-27 -65t-65 -26zM770 1078q-39 0 -66.5 26t-27.5 65t27.5 66.5t66.5 27.5q38 0 65.5 -27.5
t27.5 -66.5t-27.5 -65t-65.5 -26z" />
    <glyph glyph-name="aring" unicode="&#xe5;" horiz-adv-x="1172" 
d="M924 1000h168v-1000h-168l-7 169q-47 -87 -129.5 -141t-196.5 -54q-110 0 -206 41.5t-169.5 115t-114.5 169.5t-41 207q0 107 40 202t111.5 166.5t165.5 112t202 40.5q118 0 207 -55.5t144 -143.5zM588 137q99 0 171.5 48.5t112 131.5t39.5 183q0 102 -40 184.5
t-112.5 131t-170.5 48.5q-99 0 -180 -49t-128.5 -131.5t-47.5 -183.5t49 -183.5t130 -131t177 -48.5zM601 1088q-69 0 -117.5 49.5t-48.5 117.5q0 45 22.5 82.5t60 60t83.5 22.5q68 0 117 -48.5t49 -116.5q0 -70 -49 -118.5t-117 -48.5zM601 1177q32 0 54.5 23t22.5 55
q0 31 -22.5 53t-54.5 22t-54 -22t-22 -53q0 -32 22 -55t54 -23z" />
    <glyph glyph-name="ae" unicode="&#xe6;" horiz-adv-x="1763" 
d="M339 -25q-88 0 -158 38.5t-110.5 106t-40.5 152.5q0 80 38 148t106.5 109.5t160.5 41.5h366q-3 79 -39 145t-100.5 105t-151.5 39q-76 0 -144 -34l-92 141q55 31 114.5 46t119.5 15q126 0 230.5 -63.5t165.5 -170.5q41 70 103 122.5t138.5 82t161.5 29.5q113 0 207 -45.5
t161.5 -126.5t101 -188t24.5 -229h-816q12 -85 56.5 -152t113.5 -106t153 -39q89 0 162 46.5t118 127.5l171 -40q-60 -133 -181 -217.5t-271 -84.5q-92 0 -174.5 34t-146.5 94t-105 140q-38 -76 -105.5 -136.5t-153.5 -95.5t-183 -35zM339 125q104 0 184.5 52.5t124.5 132.5
q35 59 52 130h-365q-70 0 -112.5 -45.5t-42.5 -112.5q0 -61 42 -109t117 -48zM880 571h651q-8 84 -53.5 153.5t-116 111.5t-154.5 42q-85 0 -155.5 -41t-115.5 -110.5t-56 -155.5z" />
    <glyph glyph-name="ccedilla" unicode="&#xe7;" horiz-adv-x="1019" 
d="M809 264l150 -81q-68 -95 -172.5 -152t-226.5 -57q-138 0 -251.5 71t-181 190.5t-67.5 264.5q0 110 39 205.5t107.5 168t159.5 113.5t194 41q122 0 226.5 -57t172.5 -153l-150 -81q-48 59 -114 91t-135 32q-93 0 -168.5 -49.5t-119.5 -131.5t-44 -179t44.5 -178.5
t120 -130.5t167.5 -49q74 0 139 34t110 88zM564 -369q-65 -18 -124 16t-77 99l97 26q7 -25 29.5 -38t48.5 -6t39.5 29.5t5.5 48.5q-6 26 -28.5 38.5t-49.5 7.5l-104 -11l128 223l87 -51l-41 -71q37 -11 66 -40t39 -70q18 -66 -16 -125t-100 -76z" />
    <glyph glyph-name="egrave" unicode="&#xe8;" horiz-adv-x="1118" 
d="M560 -26q-138 0 -251.5 71t-181 190.5t-67.5 264.5q0 110 39 205.5t107.5 168t159.5 113.5t194 41q113 0 207.5 -45.5t162 -126.5t101 -188t24.5 -229h-816q12 -85 56 -151.5t112.5 -105.5t152.5 -40q90 0 163 46.5t118 127.5l171 -40q-60 -133 -181 -217.5t-271 -84.5z
M234 571h652q-8 84 -54 153.5t-117 111.5t-155 42t-154 -41t-115.5 -110.5t-56.5 -155.5zM348 1398h168l80 -288h-112z" />
    <glyph glyph-name="eacute" unicode="&#xe9;" horiz-adv-x="1118" 
d="M560 -26q-138 0 -251.5 71t-181 190.5t-67.5 264.5q0 110 39 205.5t107.5 168t159.5 113.5t194 41q113 0 207.5 -45.5t162 -126.5t101 -188t24.5 -229h-816q12 -85 56 -151.5t112.5 -105.5t152.5 -40q90 0 163 46.5t118 127.5l171 -40q-60 -133 -181 -217.5t-271 -84.5z
M234 571h652q-8 84 -54 153.5t-117 111.5t-155 42t-154 -41t-115.5 -110.5t-56.5 -155.5zM517 1110l80 288h168l-136 -288h-112z" />
    <glyph glyph-name="ecircumflex" unicode="&#xea;" horiz-adv-x="1118" 
d="M560 -26q-138 0 -251.5 71t-181 190.5t-67.5 264.5q0 110 39 205.5t107.5 168t159.5 113.5t194 41q113 0 207.5 -45.5t162 -126.5t101 -188t24.5 -229h-816q12 -85 56 -151.5t112.5 -105.5t152.5 -40q90 0 163 46.5t118 127.5l171 -40q-60 -133 -181 -217.5t-271 -84.5z
M234 571h652q-8 84 -54 153.5t-117 111.5t-155 42t-154 -41t-115.5 -110.5t-56.5 -155.5zM652 1398l193 -288h-112l-174 200l-172 -200h-112l191 288h186z" />
    <glyph glyph-name="edieresis" unicode="&#xeb;" horiz-adv-x="1118" 
d="M560 -26q-138 0 -251.5 71t-181 190.5t-67.5 264.5q0 110 39 205.5t107.5 168t159.5 113.5t194 41q113 0 207.5 -45.5t162 -126.5t101 -188t24.5 -229h-816q12 -85 56 -151.5t112.5 -105.5t152.5 -40q90 0 163 46.5t118 127.5l171 -40q-60 -133 -181 -217.5t-271 -84.5z
M234 571h652q-8 84 -54 153.5t-117 111.5t-155 42t-154 -41t-115.5 -110.5t-56.5 -155.5zM392 1078q-39 0 -67 26t-28 65t28 66.5t67 27.5q38 0 65 -27.5t27 -66.5t-27 -65t-65 -26zM728 1078q-39 0 -66.5 26t-27.5 65t27.5 66.5t66.5 27.5q38 0 65.5 -27.5t27.5 -66.5
t-27.5 -65t-65.5 -26z" />
    <glyph glyph-name="igrave" unicode="&#xec;" 
d="M120 1000h168v-1000h-168v1000zM-7 1398h168l80 -288h-112z" />
    <glyph glyph-name="iacute" unicode="&#xed;" 
d="M120 1000h168v-1000h-168v1000zM162 1110l80 288h168l-136 -288h-112z" />
    <glyph glyph-name="icircumflex" unicode="&#xee;" 
d="M120 1000h168v-1000h-168v1000zM297 1398l193 -288h-112l-174 200l-172 -200h-112l191 288h186z" />
    <glyph glyph-name="idieresis" unicode="&#xef;" 
d="M120 1000h168v-1000h-168v1000zM37 1078q-39 0 -67 26t-28 65t28 66.5t67 27.5q38 0 65 -27.5t27 -66.5t-27 -65t-65 -26zM373 1078q-39 0 -66.5 26t-27.5 65t27.5 66.5t66.5 27.5q38 0 65.5 -27.5t27.5 -66.5t-27.5 -65t-65.5 -26z" />
    <glyph glyph-name="eth" unicode="&#xf0;" horiz-adv-x="1125" 
d="M433 1047l-88 87l440 431l85 -88zM583 -26q-138 0 -252.5 68t-182.5 182t-68 252q0 104 39 195.5t108.5 160.5t160.5 108t195 39q82 0 152 -35t116 -94q-22 89 -63.5 175.5t-103.5 157.5t-145 113t-188 42l-1 168q161 0 295 -78.5t232.5 -216t152.5 -316t55 -377.5
q0 -160 -64 -282.5t-177 -192t-261 -69.5zM583 142q94 0 170 46t120.5 122t44.5 166q0 92 -45 168t-121 121.5t-169 45.5q-94 0 -169.5 -46t-120.5 -122t-45 -167q0 -90 45 -166.5t121 -122t169 -45.5z" />
    <glyph glyph-name="ntilde" unicode="&#xf1;" horiz-adv-x="1084" 
d="M1004 622v-622h-168v585q0 76 -37 138t-99 98.5t-138 36.5q-75 0 -137.5 -36.5t-99.5 -98.5t-37 -138v-585h-168v1000h168v-125q53 70 134 111.5t176 41.5q112 0 204.5 -54.5t147 -146.5t54.5 -205zM726 1124q-37 0 -83.5 24t-93.5 55t-85.5 51.5t-60.5 12.5
q-23 -8 -34.5 -33t-1.5 -62l-108 -29q-21 62 -7 117.5t56.5 89.5t105.5 34q38 0 83.5 -22t92 -50.5t85 -50t61.5 -21.5q22 0 33 16.5t12 38.5t-6 39l109 35q22 -66 6.5 -121.5t-59 -89.5t-105.5 -34z" />
    <glyph glyph-name="ograve" unicode="&#xf2;" horiz-adv-x="1120" 
d="M560 -26q-138 0 -251.5 71t-181 190.5t-67.5 264.5q0 110 39 205.5t107.5 168t159.5 113.5t194 41q138 0 251.5 -71t181 -191t67.5 -266q0 -109 -39 -204t-107.5 -167.5t-159 -113.5t-194.5 -41zM560 142q94 0 169.5 49.5t119 131t43.5 177.5q0 98 -44.5 180t-119.5 131
t-168 49q-94 0 -169 -49.5t-119 -131.5t-44 -179q0 -100 45 -181.5t121 -129t166 -47.5zM349 1398h168l80 -288h-112z" />
    <glyph glyph-name="oacute" unicode="&#xf3;" horiz-adv-x="1120" 
d="M560 -26q-138 0 -251.5 71t-181 190.5t-67.5 264.5q0 110 39 205.5t107.5 168t159.5 113.5t194 41q138 0 251.5 -71t181 -191t67.5 -266q0 -109 -39 -204t-107.5 -167.5t-159 -113.5t-194.5 -41zM560 142q94 0 169.5 49.5t119 131t43.5 177.5q0 98 -44.5 180t-119.5 131
t-168 49q-94 0 -169 -49.5t-119 -131.5t-44 -179q0 -100 45 -181.5t121 -129t166 -47.5zM518 1110l80 288h168l-136 -288h-112z" />
    <glyph glyph-name="ocircumflex" unicode="&#xf4;" horiz-adv-x="1120" 
d="M560 -26q-138 0 -251.5 71t-181 190.5t-67.5 264.5q0 110 39 205.5t107.5 168t159.5 113.5t194 41q138 0 251.5 -71t181 -191t67.5 -266q0 -109 -39 -204t-107.5 -167.5t-159 -113.5t-194.5 -41zM560 142q94 0 169.5 49.5t119 131t43.5 177.5q0 98 -44.5 180t-119.5 131
t-168 49q-94 0 -169 -49.5t-119 -131.5t-44 -179q0 -100 45 -181.5t121 -129t166 -47.5zM653 1398l193 -288h-112l-174 200l-172 -200h-112l191 288h186z" />
    <glyph glyph-name="otilde" unicode="&#xf5;" horiz-adv-x="1120" 
d="M560 -26q-138 0 -251.5 71t-181 190.5t-67.5 264.5q0 110 39 205.5t107.5 168t159.5 113.5t194 41q138 0 251.5 -71t181 -191t67.5 -266q0 -109 -39 -204t-107.5 -167.5t-159 -113.5t-194.5 -41zM560 142q94 0 169.5 49.5t119 131t43.5 177.5q0 98 -44.5 180t-119.5 131
t-168 49q-94 0 -169 -49.5t-119 -131.5t-44 -179q0 -100 45 -181.5t121 -129t166 -47.5zM715 1124q-37 0 -83.5 24t-93.5 55t-85.5 51.5t-60.5 12.5q-23 -8 -34.5 -33t-1.5 -62l-108 -29q-21 62 -7 117.5t56.5 89.5t105.5 34q38 0 83.5 -22t92 -50.5t85 -50t61.5 -21.5
q22 0 33 16.5t12 38.5t-6 39l109 35q22 -66 6.5 -121.5t-59 -89.5t-105.5 -34z" />
    <glyph glyph-name="odieresis" unicode="&#xf6;" horiz-adv-x="1120" 
d="M560 -26q-138 0 -251.5 71t-181 190.5t-67.5 264.5q0 110 39 205.5t107.5 168t159.5 113.5t194 41q138 0 251.5 -71t181 -191t67.5 -266q0 -109 -39 -204t-107.5 -167.5t-159 -113.5t-194.5 -41zM560 142q94 0 169.5 49.5t119 131t43.5 177.5q0 98 -44.5 180t-119.5 131
t-168 49q-94 0 -169 -49.5t-119 -131.5t-44 -179q0 -100 45 -181.5t121 -129t166 -47.5zM393 1078q-39 0 -67 26t-28 65t28 66.5t67 27.5q38 0 65 -27.5t27 -66.5t-27 -65t-65 -26zM729 1078q-39 0 -66.5 26t-27.5 65t27.5 66.5t66.5 27.5q38 0 65.5 -27.5t27.5 -66.5
t-27.5 -65t-65.5 -26z" />
    <glyph glyph-name="divide" unicode="&#xf7;" horiz-adv-x="1160" 
d="M80 516v168h1000v-168h-1000zM580 1074q45 0 77.5 -34.5t32.5 -78.5q0 -45 -32.5 -78t-77.5 -33q-48 0 -79.5 33t-31.5 78q0 44 31.5 78.5t79.5 34.5zM580 350q45 0 79 -34.5t34 -78.5q0 -46 -34 -78.5t-79 -32.5q-48 0 -79.5 32.5t-31.5 78.5q0 44 31.5 78.5t79.5 34.5z
" />
    <glyph glyph-name="oslash" unicode="&#xf8;" horiz-adv-x="1120" 
d="M317 -60l-122 70l50 85q-85 72 -135 177.5t-50 227.5q0 110 39 205.5t107.5 168t159.5 113.5t194 41q53 0 102.5 -11.5t93.5 -32.5l48 80l122 -70l-49 -86q84 -72 133.5 -177.5t49.5 -230.5q0 -109 -39 -204t-107.5 -167.5t-159 -113.5t-194.5 -41q-52 0 -102 12t-95 33z
M328 238l351 611q-83 33 -165 18t-149 -67t-107.5 -132t-40.5 -176q0 -78 30 -143t81 -111zM441 154q86 -33 168 -18.5t148.5 67t106 131.5t39.5 174q0 78 -30 144t-80 113z" />
    <glyph glyph-name="ugrave" unicode="&#xf9;" horiz-adv-x="1044" 
d="M80 380v620h168v-583q0 -76 37 -138t99.5 -98.5t137.5 -36.5q76 0 137.5 36.5t98.5 98.5t37 138v583h168l1 -1000h-168l-1 127q-53 -70 -134 -111.5t-175 -41.5q-112 0 -204.5 54.5t-147 146.5t-54.5 205zM328 1399h168l80 -288h-112z" />
    <glyph glyph-name="uacute" unicode="&#xfa;" horiz-adv-x="1044" 
d="M80 380v620h168v-583q0 -76 37 -138t99.5 -98.5t137.5 -36.5q76 0 137.5 36.5t98.5 98.5t37 138v583h168l1 -1000h-168l-1 127q-53 -70 -134 -111.5t-175 -41.5q-112 0 -204.5 54.5t-147 146.5t-54.5 205zM498 1111l80 288h168l-136 -288h-112z" />
    <glyph glyph-name="ucircumflex" unicode="&#xfb;" horiz-adv-x="1044" 
d="M80 380v620h168v-583q0 -76 37 -138t99.5 -98.5t137.5 -36.5q76 0 137.5 36.5t98.5 98.5t37 138v583h168l1 -1000h-168l-1 127q-53 -70 -134 -111.5t-175 -41.5q-112 0 -204.5 54.5t-147 146.5t-54.5 205zM633 1399l193 -288h-112l-174 200l-172 -200h-112l191 288h186z
" />
    <glyph glyph-name="udieresis" unicode="&#xfc;" horiz-adv-x="1044" 
d="M80 380v620h168v-583q0 -76 37 -138t99.5 -98.5t137.5 -36.5q76 0 137.5 36.5t98.5 98.5t37 138v583h168l1 -1000h-168l-1 127q-53 -70 -134 -111.5t-175 -41.5q-112 0 -204.5 54.5t-147 146.5t-54.5 205zM372 1079q-39 0 -67 26t-28 65t28 66.5t67 27.5q38 0 65 -27.5
t27 -66.5t-27 -65t-65 -26zM708 1079q-39 0 -66.5 26t-27.5 65t27.5 66.5t66.5 27.5q38 0 65.5 -27.5t27.5 -66.5t-27.5 -65t-65.5 -26z" />
    <glyph glyph-name="yacute" unicode="&#xfd;" horiz-adv-x="1063" 
d="M805 1000h178l-547 -1500h-178l181 500l-359 1000h184l259 -769zM489 1110l80 288h168l-136 -288h-112z" />
    <glyph glyph-name="thorn" unicode="&#xfe;" horiz-adv-x="1212" 
d="M120 -500v1900h168v-571q51 88 136 142.5t202 54.5q109 0 204.5 -41t167.5 -113.5t113 -167.5t41 -204t-41 -205t-113 -168.5t-167.5 -113.5t-204.5 -41q-117 0 -202 54.5t-136 142.5v-669h-168zM624 136q97 0 178 48.5t130 131t49 184.5q0 100 -48 182.5t-129 131.5
t-180 49q-97 0 -170 -49t-112.5 -131t-39.5 -183q0 -100 39.5 -183t112 -132t170.5 -49z" />
    <glyph glyph-name="ydieresis" unicode="&#xff;" horiz-adv-x="1063" 
d="M805 1000h178l-547 -1500h-178l181 500l-359 1000h184l259 -769zM364 1078q-39 0 -67 26t-28 65t28 66.5t67 27.5q38 0 65 -27.5t27 -66.5t-27 -65t-65 -26zM700 1078q-39 0 -66.5 26t-27.5 65t27.5 66.5t66.5 27.5q38 0 65.5 -27.5t27.5 -66.5t-27.5 -65t-65.5 -26z" />
    <glyph glyph-name="Amacron" unicode="&#x100;" horiz-adv-x="1381" 
d="M589 1400h203l509 -1400h-178l-104 286h-657l-103 -286h-179zM424 454h533l-267 731zM352 1695h676v-132h-676v132z" />
    <glyph glyph-name="amacron" unicode="&#x101;" horiz-adv-x="1172" 
d="M924 1000h168v-1000h-168l-7 169q-47 -87 -129.5 -141t-196.5 -54q-110 0 -206 41.5t-169.5 115t-114.5 169.5t-41 207q0 107 40 202t111.5 166.5t165.5 112t202 40.5q118 0 207 -55.5t144 -143.5zM588 137q99 0 171.5 48.5t112 131.5t39.5 183q0 102 -40 184.5
t-112.5 131t-170.5 48.5q-99 0 -180 -49t-128.5 -131.5t-47.5 -183.5t49 -183.5t130 -131t177 -48.5zM263 1295h676v-132h-676v132z" />
    <glyph glyph-name="Abreve" unicode="&#x102;" horiz-adv-x="1381" 
d="M589 1400h203l509 -1400h-178l-104 286h-657l-103 -286h-179zM424 454h533l-267 731zM690 1488q-91 0 -166.5 45t-120.5 120.5t-45 166.5h114q0 -61 30.5 -110.5t80 -78.5t107.5 -29q60 0 109.5 29t79 79t29.5 110h114q0 -93 -45.5 -168.5t-121 -119.5t-165.5 -44z" />
    <glyph glyph-name="abreve" unicode="&#x103;" horiz-adv-x="1172" 
d="M924 1000h168v-1000h-168l-7 169q-47 -87 -129.5 -141t-196.5 -54q-110 0 -206 41.5t-169.5 115t-114.5 169.5t-41 207q0 107 40 202t111.5 166.5t165.5 112t202 40.5q118 0 207 -55.5t144 -143.5zM588 137q99 0 171.5 48.5t112 131.5t39.5 183q0 102 -40 184.5
t-112.5 131t-170.5 48.5q-99 0 -180 -49t-128.5 -131.5t-47.5 -183.5t49 -183.5t130 -131t177 -48.5zM601 1088q-91 0 -166.5 45t-120.5 120.5t-45 166.5h114q0 -61 30.5 -110.5t80 -78.5t107.5 -29q60 0 109.5 29t79 79t29.5 110h114q0 -93 -45.5 -168.5t-121 -119.5
t-165.5 -44z" />
    <glyph glyph-name="Aogonek" unicode="&#x104;" horiz-adv-x="1381" 
d="M589 1400h203l509 -1400h-178l-104 286h-657l-103 -286h-179zM424 454h533l-267 731zM1183 -418q-58 1 -102.5 29.5t-68.5 73.5t-24 95q0 38 14 73.5t44 65.5l168 168l87 -87q-50 -50 -85 -84t-56.5 -58t-31 -43.5t-9.5 -39.5q0 -27 19 -49t52 -24q38 0 69 28t31 73h116
q0 -61 -29.5 -111.5t-80 -80t-113.5 -29.5z" />
    <glyph glyph-name="aogonek" unicode="&#x105;" horiz-adv-x="1172" 
d="M924 1000h168v-1000h-168l-7 169q-47 -87 -129.5 -141t-196.5 -54q-110 0 -206 41.5t-169.5 115t-114.5 169.5t-41 207q0 107 40 202t111.5 166.5t165.5 112t202 40.5q118 0 207 -55.5t144 -143.5zM588 137q99 0 171.5 48.5t112 131.5t39.5 183q0 102 -40 184.5
t-112.5 131t-170.5 48.5q-99 0 -180 -49t-128.5 -131.5t-47.5 -183.5t49 -183.5t130 -131t177 -48.5zM974 -418q-58 1 -102.5 29.5t-68.5 73.5t-24 95q0 38 14 73.5t44 65.5l168 168l87 -87q-50 -50 -85 -84t-56.5 -58t-31 -43.5t-9.5 -39.5q0 -27 19 -49t52 -24q38 0 69 28
t31 73h116q0 -61 -29.5 -111.5t-80 -80t-113.5 -29.5z" />
    <glyph glyph-name="Cacute" unicode="&#x106;" horiz-adv-x="1418" 
d="M768 -26q-142 0 -267 56.5t-219.5 156t-148 231.5t-53.5 282t53.5 282t148 231.5t219.5 156t267 56.5q170 0 313 -79t237 -210l-149 -80q-70 92 -176.5 146.5t-224.5 54.5q-109 0 -203.5 -44t-165.5 -121t-111 -178t-40 -215q0 -115 40.5 -216t112 -178t166 -120.5
t201.5 -43.5q122 0 226.5 55.5t174.5 145.5l149 -81q-94 -131 -237 -209.5t-313 -78.5zM726 1510l80 288h168l-136 -288h-112z" />
    <glyph glyph-name="cacute" unicode="&#x107;" horiz-adv-x="1019" 
d="M809 264l150 -81q-68 -95 -172.5 -152t-226.5 -57q-138 0 -251.5 71t-181 190.5t-67.5 264.5q0 110 39 205.5t107.5 168t159.5 113.5t194 41q122 0 226.5 -57t172.5 -153l-150 -81q-48 59 -114 91t-135 32q-93 0 -168.5 -49.5t-119.5 -131.5t-44 -179t44.5 -178.5
t120 -130.5t167.5 -49q74 0 139 34t110 88zM518 1110l80 288h168l-136 -288h-112z" />
    <glyph glyph-name="Ccircumflex" unicode="&#x108;" horiz-adv-x="1418" 
d="M768 -26q-142 0 -267 56.5t-219.5 156t-148 231.5t-53.5 282t53.5 282t148 231.5t219.5 156t267 56.5q170 0 313 -79t237 -210l-149 -80q-70 92 -176.5 146.5t-224.5 54.5q-109 0 -203.5 -44t-165.5 -121t-111 -178t-40 -215q0 -115 40.5 -216t112 -178t166 -120.5
t201.5 -43.5q122 0 226.5 55.5t174.5 145.5l149 -81q-94 -131 -237 -209.5t-313 -78.5zM861 1798l193 -288h-112l-174 200l-172 -200h-112l191 288h186z" />
    <glyph glyph-name="ccircumflex" unicode="&#x109;" horiz-adv-x="1019" 
d="M809 264l150 -81q-68 -95 -172.5 -152t-226.5 -57q-138 0 -251.5 71t-181 190.5t-67.5 264.5q0 110 39 205.5t107.5 168t159.5 113.5t194 41q122 0 226.5 -57t172.5 -153l-150 -81q-48 59 -114 91t-135 32q-93 0 -168.5 -49.5t-119.5 -131.5t-44 -179t44.5 -178.5
t120 -130.5t167.5 -49q74 0 139 34t110 88zM653 1398l193 -288h-112l-174 200l-172 -200h-112l191 288h186z" />
    <glyph glyph-name="Cdotaccent" unicode="&#x10a;" horiz-adv-x="1418" 
d="M768 -26q-142 0 -267 56.5t-219.5 156t-148 231.5t-53.5 282t53.5 282t148 231.5t219.5 156t267 56.5q170 0 313 -79t237 -210l-149 -80q-70 92 -176.5 146.5t-224.5 54.5q-109 0 -203.5 -44t-165.5 -121t-111 -178t-40 -215q0 -115 40.5 -216t112 -178t166 -120.5
t201.5 -43.5q122 0 226.5 55.5t174.5 145.5l149 -81q-94 -131 -237 -209.5t-313 -78.5zM770 1563q-40 0 -67 26t-27 65t27 65t66 26t66 -26t27 -65t-26.5 -65t-65.5 -26z" />
    <glyph glyph-name="cdotaccent" unicode="&#x10b;" horiz-adv-x="1019" 
d="M809 264l150 -81q-68 -95 -172.5 -152t-226.5 -57q-138 0 -251.5 71t-181 190.5t-67.5 264.5q0 110 39 205.5t107.5 168t159.5 113.5t194 41q122 0 226.5 -57t172.5 -153l-150 -81q-48 59 -114 91t-135 32q-93 0 -168.5 -49.5t-119.5 -131.5t-44 -179t44.5 -178.5
t120 -130.5t167.5 -49q74 0 139 34t110 88zM562 1163q-40 0 -67 26t-27 65t27 65t66 26t66 -26t27 -65t-26.5 -65t-65.5 -26z" />
    <glyph glyph-name="Ccaron" unicode="&#x10c;" horiz-adv-x="1418" 
d="M768 -26q-142 0 -267 56.5t-219.5 156t-148 231.5t-53.5 282t53.5 282t148 231.5t219.5 156t267 56.5q170 0 313 -79t237 -210l-149 -80q-70 92 -176.5 146.5t-224.5 54.5q-109 0 -203.5 -44t-165.5 -121t-111 -178t-40 -215q0 -115 40.5 -216t112 -178t166 -120.5
t201.5 -43.5q122 0 226.5 55.5t174.5 145.5l149 -81q-94 -131 -237 -209.5t-313 -78.5zM675 1510l-193 288h112l174 -200l171 200h113l-191 -288h-186z" />
    <glyph glyph-name="ccaron" unicode="&#x10d;" horiz-adv-x="1019" 
d="M809 264l150 -81q-68 -95 -172.5 -152t-226.5 -57q-138 0 -251.5 71t-181 190.5t-67.5 264.5q0 110 39 205.5t107.5 168t159.5 113.5t194 41q122 0 226.5 -57t172.5 -153l-150 -81q-48 59 -114 91t-135 32q-93 0 -168.5 -49.5t-119.5 -131.5t-44 -179t44.5 -178.5
t120 -130.5t167.5 -49q74 0 139 34t110 88zM467 1110l-193 288h112l174 -200l171 200h113l-191 -288h-186z" />
    <glyph glyph-name="Dcaron" unicode="&#x10e;" horiz-adv-x="1343" 
d="M120 0v1400h463q145 0 272 -54.5t223 -151t150.5 -223t54.5 -271.5t-54.5 -271.5t-150.5 -223t-223 -151t-272 -54.5h-463zM288 168h295q110 0 206.5 41.5t169.5 114.5t114.5 169.5t41.5 206.5t-41.5 206.5t-115 169.5t-169.5 114.5t-206 41.5h-295v-1064zM559 1510
l-193 288h112l174 -200l171 200h113l-191 -288h-186z" />
    <glyph glyph-name="dcaron" unicode="&#x10f;" horiz-adv-x="1213" 
d="M925 1500h168v-1500h-168v170q-51 -88 -137 -142t-202 -54q-109 0 -204 41t-167.5 113.5t-113.5 167.5t-41 204t41 204.5t113.5 168t167.5 113.5t204 41q116 0 202 -54t137 -142v669zM588 137q99 0 171.5 48.5t112 131.5t39.5 183q0 102 -40 184.5t-112.5 131
t-170.5 48.5q-99 0 -179.5 -49t-128.5 -131.5t-48 -183.5t49 -183.5t130 -131t177 -48.5zM1171 1212l80 288h168l-136 -288h-112z" />
    <glyph glyph-name="Emacron" unicode="&#x112;" horiz-adv-x="1079" 
d="M120 0v1400h859v-168h-691v-398h566v-168h-566v-498h691v-168h-859zM201 1695h676v-132h-676v132z" />
    <glyph glyph-name="emacron" unicode="&#x113;" horiz-adv-x="1118" 
d="M560 -26q-138 0 -251.5 71t-181 190.5t-67.5 264.5q0 110 39 205.5t107.5 168t159.5 113.5t194 41q113 0 207.5 -45.5t162 -126.5t101 -188t24.5 -229h-816q12 -85 56 -151.5t112.5 -105.5t152.5 -40q90 0 163 46.5t118 127.5l171 -40q-60 -133 -181 -217.5t-271 -84.5z
M234 571h652q-8 84 -54 153.5t-117 111.5t-155 42t-154 -41t-115.5 -110.5t-56.5 -155.5zM221 1295h676v-132h-676v132z" />
    <glyph glyph-name="Edotaccent" unicode="&#x116;" horiz-adv-x="1079" 
d="M120 0v1400h859v-168h-691v-398h566v-168h-566v-498h691v-168h-859zM541 1563q-40 0 -67 26t-27 65t27 65t66 26t66 -26t27 -65t-26.5 -65t-65.5 -26z" />
    <glyph glyph-name="edotaccent" unicode="&#x117;" horiz-adv-x="1118" 
d="M560 -26q-138 0 -251.5 71t-181 190.5t-67.5 264.5q0 110 39 205.5t107.5 168t159.5 113.5t194 41q113 0 207.5 -45.5t162 -126.5t101 -188t24.5 -229h-816q12 -85 56 -151.5t112.5 -105.5t152.5 -40q90 0 163 46.5t118 127.5l171 -40q-60 -133 -181 -217.5t-271 -84.5z
M234 571h652q-8 84 -54 153.5t-117 111.5t-155 42t-154 -41t-115.5 -110.5t-56.5 -155.5zM561 1163q-40 0 -67 26t-27 65t27 65t66 26t66 -26t27 -65t-26.5 -65t-65.5 -26z" />
    <glyph glyph-name="Eogonek" unicode="&#x118;" horiz-adv-x="1079" 
d="M120 0v1400h859v-168h-691v-398h566v-168h-566v-498h691v-168h-859zM744 -418q-58 1 -102.5 29.5t-68.5 73.5t-24 95q0 38 14 73.5t44 65.5l168 168l87 -87q-50 -50 -85 -84t-56.5 -58t-31 -43.5t-9.5 -39.5q0 -27 19 -49t52 -24q38 0 69 28t31 73h116
q0 -61 -29.5 -111.5t-80 -80t-113.5 -29.5z" />
    <glyph glyph-name="eogonek" unicode="&#x119;" horiz-adv-x="1118" 
d="M560 -26q-138 0 -251.5 71t-181 190.5t-67.5 264.5q0 110 39 205.5t107.5 168t159.5 113.5t194 41q113 0 207.5 -45.5t162 -126.5t101 -188t24.5 -229h-816q12 -85 56 -151.5t112.5 -105.5t152.5 -40q90 0 163 46.5t118 127.5l171 -40q-60 -133 -181 -217.5t-271 -84.5z
M234 571h652q-8 84 -54 153.5t-117 111.5t-155 42t-154 -41t-115.5 -110.5t-56.5 -155.5zM598 -418q-58 1 -102.5 29.5t-68.5 73.5t-24 95q0 38 14 73.5t44 65.5l168 168l87 -87q-50 -50 -85 -84t-56.5 -58t-31 -43.5t-9.5 -39.5q0 -27 19 -49t52 -24q38 0 69 28t31 73h116
q0 -61 -29.5 -111.5t-80 -80t-113.5 -29.5z" />
    <glyph glyph-name="Ecaron" unicode="&#x11a;" horiz-adv-x="1079" 
d="M120 0v1400h859v-168h-691v-398h566v-168h-566v-498h691v-168h-859zM446 1510l-193 288h112l174 -200l171 200h113l-191 -288h-186z" />
    <glyph glyph-name="ecaron" unicode="&#x11b;" horiz-adv-x="1118" 
d="M560 -26q-138 0 -251.5 71t-181 190.5t-67.5 264.5q0 110 39 205.5t107.5 168t159.5 113.5t194 41q113 0 207.5 -45.5t162 -126.5t101 -188t24.5 -229h-816q12 -85 56 -151.5t112.5 -105.5t152.5 -40q90 0 163 46.5t118 127.5l171 -40q-60 -133 -181 -217.5t-271 -84.5z
M234 571h652q-8 84 -54 153.5t-117 111.5t-155 42t-154 -41t-115.5 -110.5t-56.5 -155.5zM466 1110l-193 288h112l174 -200l171 200h113l-191 -288h-186z" />
    <glyph glyph-name="Gcircumflex" unicode="&#x11c;" horiz-adv-x="1536" 
d="M769 -26q-145 0 -270.5 56.5t-219 157t-146.5 232t-53 281.5q0 155 55.5 287t152 230t221 152.5t263.5 54.5q158 0 301 -74t246 -214l-150 -81q-77 98 -182.5 150t-216.5 52q-106 0 -200.5 -43t-167 -120t-113.5 -178t-41 -219q0 -115 41 -216t112.5 -177.5t166.5 -119.5
t203 -43q86 0 163.5 29t143 82t112 125t70.5 158h-345v150h541q-1 -147 -55.5 -276t-149 -227t-218 -153.5t-264.5 -55.5zM863 1798l193 -288h-112l-174 200l-172 -200h-112l191 288h186z" />
    <glyph glyph-name="gcircumflex" unicode="&#x11d;" horiz-adv-x="1189" 
d="M901 1000h168v-1032q0 -99 -42.5 -184.5t-114.5 -149t-164 -99t-192 -35.5q-104 0 -201 46.5t-169.5 124t-104.5 173.5l154 70q19 -69 68.5 -124.5t116 -88t136.5 -32.5q66 0 127.5 23t111 63.5t78 95t28.5 117.5v199q-51 -86 -134.5 -139.5t-194.5 -53.5q-106 0 -199 41
t-163 113.5t-110 167.5t-40 204t40 204.5t110 168t163 113.5t199 41q111 0 194.5 -53t134.5 -140v166zM573 137q97 0 168.5 50t110.5 133t39 180q0 100 -39.5 182.5t-111 132t-167.5 49.5q-94 0 -172 -49t-123.5 -131.5t-45.5 -183.5t46.5 -183.5t124 -131t170.5 -48.5z
M688 1398l193 -288h-112l-174 200l-172 -200h-112l191 288h186z" />
    <glyph glyph-name="Gbreve" unicode="&#x11e;" horiz-adv-x="1536" 
d="M769 -26q-145 0 -270.5 56.5t-219 157t-146.5 232t-53 281.5q0 155 55.5 287t152 230t221 152.5t263.5 54.5q158 0 301 -74t246 -214l-150 -81q-77 98 -182.5 150t-216.5 52q-106 0 -200.5 -43t-167 -120t-113.5 -178t-41 -219q0 -115 41 -216t112.5 -177.5t166.5 -119.5
t203 -43q86 0 163.5 29t143 82t112 125t70.5 158h-345v150h541q-1 -147 -55.5 -276t-149 -227t-218 -153.5t-264.5 -55.5zM770 1488q-91 0 -166.5 45t-120.5 120.5t-45 166.5h114q0 -61 30.5 -110.5t80 -78.5t107.5 -29q60 0 109.5 29t79 79t29.5 110h114
q0 -93 -45.5 -168.5t-121 -119.5t-165.5 -44z" />
    <glyph glyph-name="gbreve" unicode="&#x11f;" horiz-adv-x="1189" 
d="M901 1000h168v-1032q0 -99 -42.5 -184.5t-114.5 -149t-164 -99t-192 -35.5q-104 0 -201 46.5t-169.5 124t-104.5 173.5l154 70q19 -69 68.5 -124.5t116 -88t136.5 -32.5q66 0 127.5 23t111 63.5t78 95t28.5 117.5v199q-51 -86 -134.5 -139.5t-194.5 -53.5q-106 0 -199 41
t-163 113.5t-110 167.5t-40 204t40 204.5t110 168t163 113.5t199 41q111 0 194.5 -53t134.5 -140v166zM573 137q97 0 168.5 50t110.5 133t39 180q0 100 -39.5 182.5t-111 132t-167.5 49.5q-94 0 -172 -49t-123.5 -131.5t-45.5 -183.5t46.5 -183.5t124 -131t170.5 -48.5z
M595 1088q-91 0 -166.5 45t-120.5 120.5t-45 166.5h114q0 -61 30.5 -110.5t80 -78.5t107.5 -29q60 0 109.5 29t79 79t29.5 110h114q0 -93 -45.5 -168.5t-121 -119.5t-165.5 -44z" />
    <glyph glyph-name="Gdotaccent" unicode="&#x120;" horiz-adv-x="1536" 
d="M769 -26q-145 0 -270.5 56.5t-219 157t-146.5 232t-53 281.5q0 155 55.5 287t152 230t221 152.5t263.5 54.5q158 0 301 -74t246 -214l-150 -81q-77 98 -182.5 150t-216.5 52q-106 0 -200.5 -43t-167 -120t-113.5 -178t-41 -219q0 -115 41 -216t112.5 -177.5t166.5 -119.5
t203 -43q86 0 163.5 29t143 82t112 125t70.5 158h-345v150h541q-1 -147 -55.5 -276t-149 -227t-218 -153.5t-264.5 -55.5zM771 1563q-40 0 -67 26t-27 65t27 65t66 26t66 -26t27 -65t-26.5 -65t-65.5 -26z" />
    <glyph glyph-name="gdotaccent" unicode="&#x121;" horiz-adv-x="1189" 
d="M901 1000h168v-1032q0 -99 -42.5 -184.5t-114.5 -149t-164 -99t-192 -35.5q-104 0 -201 46.5t-169.5 124t-104.5 173.5l154 70q19 -69 68.5 -124.5t116 -88t136.5 -32.5q66 0 127.5 23t111 63.5t78 95t28.5 117.5v199q-51 -86 -134.5 -139.5t-194.5 -53.5q-106 0 -199 41
t-163 113.5t-110 167.5t-40 204t40 204.5t110 168t163 113.5t199 41q111 0 194.5 -53t134.5 -140v166zM573 137q97 0 168.5 50t110.5 133t39 180q0 100 -39.5 182.5t-111 132t-167.5 49.5q-94 0 -172 -49t-123.5 -131.5t-45.5 -183.5t46.5 -183.5t124 -131t170.5 -48.5z
M596 1163q-40 0 -67 26t-27 65t27 65t66 26t66 -26t27 -65t-26.5 -65t-65.5 -26z" />
    <glyph glyph-name="uni0122" unicode="&#x122;" horiz-adv-x="1536" 
d="M769 -26q-145 0 -270.5 56.5t-219 157t-146.5 232t-53 281.5q0 155 55.5 287t152 230t221 152.5t263.5 54.5q158 0 301 -74t246 -214l-150 -81q-77 98 -182.5 150t-216.5 52q-106 0 -200.5 -43t-167 -120t-113.5 -178t-41 -219q0 -115 41 -216t112.5 -177.5t166.5 -119.5
t203 -43q86 0 163.5 29t143 82t112 125t70.5 158h-345v150h541q-1 -147 -55.5 -276t-149 -227t-218 -153.5t-264.5 -55.5zM622 -441l62 338h168l-118 -338h-112z" />
    <glyph glyph-name="Hcircumflex" unicode="&#x124;" horiz-adv-x="1269" 
d="M981 1400h168v-1400h-168v666h-693v-666h-168v1400h168v-566h693v566zM727 1798l193 -288h-112l-174 200l-172 -200h-112l191 288h186z" />
    <glyph glyph-name="hcircumflex" unicode="&#x125;" horiz-adv-x="1084" 
d="M1004 622v-622h-168v585q0 76 -37 138t-99 98.5t-138 36.5q-75 0 -137.5 -36.5t-99.5 -98.5t-37 -138v-585h-168v1500h168v-625q53 70 134 111.5t176 41.5q112 0 204.5 -54.5t147 -146.5t54.5 -205zM673 1823l193 -288h-112l-174 200l-172 -200h-112l191 288h186z" />
    <glyph glyph-name="Itilde" unicode="&#x128;" horiz-adv-x="468" 
d="M150 0v1400h168v-1400h-168zM389 1524q-37 0 -83.5 24t-93.5 55t-85.5 51.5t-60.5 12.5q-23 -8 -34.5 -33t-1.5 -62l-108 -29q-21 62 -7 117.5t56.5 89.5t105.5 34q38 0 83.5 -22t92 -50.5t85 -50t61.5 -21.5q22 0 33 16.5t12 38.5t-6 39l109 35q22 -66 6.5 -121.5
t-59 -89.5t-105.5 -34z" />
    <glyph glyph-name="itilde" unicode="&#x129;" 
d="M320 1099q-29 0 -63.5 19.5t-69.5 44t-63.5 41t-45.5 10.5q-16 -7 -24.5 -27t-1.5 -49l-81 -24q-16 50 -5.5 94t42.5 72t79 28q28 0 62.5 -17.5t68.5 -40.5t63 -40.5t46 -17.5q24 0 30 27.5t-2 47.5l82 28q24 -79 -12 -137.5t-105 -58.5zM120 1000h168v-1000h-168v1000z
" />
    <glyph glyph-name="Imacron" unicode="&#x12a;" horiz-adv-x="468" 
d="M150 0v1400h168v-1400h-168zM-104 1695h676v-132h-676v132z" />
    <glyph glyph-name="imacron" unicode="&#x12b;" 
d="M0 1295h408v-132h-408v132zM120 1000h168v-1000h-168v1000z" />
    <glyph glyph-name="Iogonek" unicode="&#x12e;" horiz-adv-x="468" 
d="M150 0v1400h168v-1400h-168zM200 -418q-58 1 -102.5 29.5t-68.5 73.5t-24 95q0 38 14 73.5t44 65.5l168 168l87 -87q-50 -50 -85 -84t-56.5 -58t-31 -43.5t-9.5 -39.5q0 -27 19 -49t52 -24q38 0 69 28t31 73h116q0 -61 -29.5 -111.5t-80 -80t-113.5 -29.5z" />
    <glyph glyph-name="iogonek" unicode="&#x12f;" 
d="M120 1000h168v-1000h-168v1000zM206 1163q-40 0 -67 26t-27 65t27 65t66 26t66 -26t27 -65t-26.5 -65t-65.5 -26zM170 -418q-58 1 -102.5 29.5t-68.5 73.5t-24 95q0 38 14 73.5t44 65.5l168 168l87 -87q-50 -50 -85 -84t-56.5 -58t-31 -43.5t-9.5 -39.5q0 -27 19 -49
t52 -24q38 0 69 28t31 73h116q0 -61 -29.5 -111.5t-80 -80t-113.5 -29.5z" />
    <glyph glyph-name="Idotaccent" unicode="&#x130;" horiz-adv-x="468" 
d="M150 0v1400h168v-1400h-168zM236 1563q-40 0 -67 26t-27 65t27 65t66 26t66 -26t27 -65t-26.5 -65t-65.5 -26z" />
    <glyph glyph-name="dotlessi" unicode="&#x131;" 
d="M120 1000h168v-1000h-168v1000z" />
    <glyph glyph-name="IJ" unicode="&#x132;" horiz-adv-x="1294" 
d="M150 0v1400h168v-1400h-168zM767 -26q-70 0 -137 23.5t-122 70.5l107 130q29 -25 67.5 -40.5t84.5 -15.5q66 0 120 35t86.5 92t32.5 122v1009h168v-1009q0 -112 -55 -206.5t-147 -152.5t-205 -58z" />
    <glyph glyph-name="ij" unicode="&#x133;" horiz-adv-x="826" 
d="M120 1000h168v-1000h-168v1000zM206 1163q-40 0 -67 26t-27 65t27 65t66 26t66 -26t27 -65t-26.5 -65t-65.5 -26zM293 -500v168q70 0 125.5 31t87.5 85.5t32 121.5v1094h168v-1094q0 -112 -54 -204t-147.5 -147t-211.5 -55zM624 1163q-40 0 -67 26t-27 65t27 65t66 26
t66 -26t27 -65t-26.5 -65t-65.5 -26z" />
    <glyph glyph-name="Jcircumflex" unicode="&#x134;" horiz-adv-x="826" 
d="M299 -26q-70 0 -137 23.5t-122 70.5l107 130q29 -25 67.5 -40.5t84.5 -15.5q66 0 120 35t86.5 92t32.5 122v1009h168v-1009q0 -112 -55 -206.5t-147 -152.5t-205 -58zM715 1798l193 -288h-112l-174 200l-172 -200h-112l191 288h186z" />
    <glyph glyph-name="jcircumflex" unicode="&#x135;" horiz-adv-x="453" 
d="M-80 -500v168q70 0 125.5 31t87.5 85.5t32 121.5v1094h168v-1094q0 -112 -54 -204t-147.5 -147t-211.5 -55zM343 1398l193 -288h-112l-174 200l-172 -200h-112l191 288h186z" />
    <glyph glyph-name="uni0136" unicode="&#x136;" horiz-adv-x="1095" 
d="M1052 0h-217l-442 607l-105 -126v-481h-168v1400h168v-658l551 658h219l-555 -661zM401 -441l62 338h168l-118 -338h-112z" />
    <glyph glyph-name="uni0137" unicode="&#x137;" horiz-adv-x="1006" 
d="M931 0h-193l-266 459l-184 -220v-239h-168v1500h168v-1000l419 500h219l-340 -405zM349 -441l62 338h168l-118 -338h-112z" />
    <glyph glyph-name="Lacute" unicode="&#x139;" horiz-adv-x="1015" 
d="M120 0v1400h168v-1232h627v-168h-795zM162 1510l80 288h168l-136 -288h-112z" />
    <glyph glyph-name="lacute" unicode="&#x13a;" 
d="M120 0v1500h168v-1500h-168zM162 1610l80 288h168l-136 -288h-112z" />
    <glyph glyph-name="uni013B" unicode="&#x13b;" horiz-adv-x="1015" 
d="M120 0v1400h168v-1232h627v-168h-795zM372 -441l62 338h168l-118 -338h-112z" />
    <glyph glyph-name="uni013C" unicode="&#x13c;" 
d="M120 0v1500h168v-1500h-168zM58 -441l62 338h168l-118 -338h-112z" />
    <glyph glyph-name="Lcaron" unicode="&#x13d;" horiz-adv-x="1015" 
d="M120 0v1400h168v-1232h627v-168h-795zM566 1212l80 288h168l-136 -288h-112z" />
    <glyph glyph-name="lcaron" unicode="&#x13e;" 
d="M120 0v1500h168v-1500h-168zM361 1212l80 288h168l-136 -288h-112z" />
    <glyph glyph-name="Nacute" unicode="&#x143;" horiz-adv-x="1289" 
d="M120 0v1400h182l699 -1096v1096h168v-1400h-181l-700 1096v-1096h-168zM603 1510l80 288h168l-136 -288h-112z" />
    <glyph glyph-name="nacute" unicode="&#x144;" horiz-adv-x="1084" 
d="M1004 622v-622h-168v585q0 76 -37 138t-99 98.5t-138 36.5q-75 0 -137.5 -36.5t-99.5 -98.5t-37 -138v-585h-168v1000h168v-125q53 70 134 111.5t176 41.5q112 0 204.5 -54.5t147 -146.5t54.5 -205zM529 1110l80 288h168l-136 -288h-112z" />
    <glyph glyph-name="uni0145" unicode="&#x145;" horiz-adv-x="1289" 
d="M120 0v1400h182l699 -1096v1096h168v-1400h-181l-700 1096v-1096h-168zM498 -441l62 338h168l-118 -338h-112z" />
    <glyph glyph-name="uni0146" unicode="&#x146;" horiz-adv-x="1084" 
d="M1004 622v-622h-168v585q0 76 -37 138t-99 98.5t-138 36.5q-75 0 -137.5 -36.5t-99.5 -98.5t-37 -138v-585h-168v1000h168v-125q53 70 134 111.5t176 41.5q112 0 204.5 -54.5t147 -146.5t54.5 -205zM416 -441l62 338h168l-118 -338h-112z" />
    <glyph glyph-name="Ncaron" unicode="&#x147;" horiz-adv-x="1289" 
d="M120 0v1400h182l699 -1096v1096h168v-1400h-181l-700 1096v-1096h-168zM551 1510l-193 288h112l174 -200l171 200h113l-191 -288h-186z" />
    <glyph glyph-name="ncaron" unicode="&#x148;" horiz-adv-x="1084" 
d="M1004 622v-622h-168v585q0 76 -37 138t-99 98.5t-138 36.5q-75 0 -137.5 -36.5t-99.5 -98.5t-37 -138v-585h-168v1000h168v-125q53 70 134 111.5t176 41.5q112 0 204.5 -54.5t147 -146.5t54.5 -205zM478 1110l-193 288h112l174 -200l171 200h113l-191 -288h-186z" />
    <glyph glyph-name="Omacron" unicode="&#x14c;" horiz-adv-x="1540" 
d="M770 -26q-142 0 -267 56.5t-220 156.5t-149 231.5t-54 281.5t54 281.5t149 231.5t220 156.5t267 56.5q143 0 268 -56.5t220 -156.5t148.5 -231.5t53.5 -281.5t-53.5 -281.5t-148.5 -231.5t-220 -156.5t-268 -56.5zM770 142q109 0 203.5 44t166 121.5t112 178t40.5 214.5
t-41 215.5t-112.5 178t-166 120.5t-202.5 44q-109 0 -203.5 -44t-166 -121.5t-112 -178t-40.5 -214.5q0 -115 41 -216t112.5 -178t166 -120.5t202.5 -43.5zM432 1695h676v-132h-676v132z" />
    <glyph glyph-name="omacron" unicode="&#x14d;" horiz-adv-x="1120" 
d="M560 -26q-138 0 -251.5 71t-181 190.5t-67.5 264.5q0 110 39 205.5t107.5 168t159.5 113.5t194 41q138 0 251.5 -71t181 -191t67.5 -266q0 -109 -39 -204t-107.5 -167.5t-159 -113.5t-194.5 -41zM560 142q94 0 169.5 49.5t119 131t43.5 177.5q0 98 -44.5 180t-119.5 131
t-168 49q-94 0 -169 -49.5t-119 -131.5t-44 -179q0 -100 45 -181.5t121 -129t166 -47.5zM222 1295h676v-132h-676v132z" />
    <glyph glyph-name="Ohungarumlaut" unicode="&#x150;" horiz-adv-x="1540" 
d="M770 -26q-142 0 -267 56.5t-220 156.5t-149 231.5t-54 281.5t54 281.5t149 231.5t220 156.5t267 56.5q143 0 268 -56.5t220 -156.5t148.5 -231.5t53.5 -281.5t-53.5 -281.5t-148.5 -231.5t-220 -156.5t-268 -56.5zM770 142q109 0 203.5 44t166 121.5t112 178t40.5 214.5
t-41 215.5t-112.5 178t-166 120.5t-202.5 44q-109 0 -203.5 -44t-166 -121.5t-112 -178t-40.5 -214.5q0 -115 41 -216t112.5 -178t166 -120.5t202.5 -43.5zM883 1510l80 288h168l-136 -288h-112zM592 1510l80 288h168l-136 -288h-112z" />
    <glyph glyph-name="ohungarumlaut" unicode="&#x151;" horiz-adv-x="1120" 
d="M560 -26q-138 0 -251.5 71t-181 190.5t-67.5 264.5q0 110 39 205.5t107.5 168t159.5 113.5t194 41q138 0 251.5 -71t181 -191t67.5 -266q0 -109 -39 -204t-107.5 -167.5t-159 -113.5t-194.5 -41zM560 142q94 0 169.5 49.5t119 131t43.5 177.5q0 98 -44.5 180t-119.5 131
t-168 49q-94 0 -169 -49.5t-119 -131.5t-44 -179q0 -100 45 -181.5t121 -129t166 -47.5zM673 1110l80 288h168l-136 -288h-112zM382 1110l80 288h168l-136 -288h-112z" />
    <glyph glyph-name="OE" unicode="&#x152;" horiz-adv-x="2156" 
d="M770 -26q-142 0 -267 56.5t-220 156.5t-149 231.5t-54 281.5t54 281.5t149 231.5t220 156.5t267 56.5q110 0 209 -37.5t179.5 -103.5t135.5 -154v269h762v-168h-594v-448h498v-168h-498v-448h594v-168h-762v269q-55 -87 -135.5 -153.5t-179.5 -104t-209 -37.5zM770 142
q109 0 203.5 44t166 121.5t112 178t40.5 214.5t-41 215.5t-112.5 178t-166 120.5t-202.5 44q-109 0 -203.5 -44t-166 -121.5t-112 -178t-40.5 -214.5q0 -115 41 -216t112.5 -178t166 -120.5t202.5 -43.5z" />
    <glyph glyph-name="oe" unicode="&#x153;" horiz-adv-x="1949" 
d="M560 -26q-138 0 -251.5 71t-181 190.5t-67.5 264.5q0 110 39 205.5t107.5 168t159.5 113.5t194 41q90 0 170 -32.5t143.5 -91t102.5 -135.5q40 77 103 135.5t143.5 91t169.5 32.5q112 0 207 -45.5t162 -126t100.5 -187.5t24.5 -230h-815q12 -85 56 -151.5t112.5 -105.5
t152.5 -40q90 0 163 46.5t118 127.5l171 -40q-60 -133 -181 -217.5t-271 -84.5q-89 0 -169.5 32.5t-143.5 91t-103 134.5q-39 -76 -102.5 -134.5t-143.5 -91t-170 -32.5zM560 142q94 0 169.5 49.5t119 131t43.5 177.5q0 98 -44.5 180t-119.5 131t-168 49q-94 0 -169 -49.5
t-119 -131.5t-44 -179q0 -100 45 -181.5t121 -129t166 -47.5zM1065 572h652q-9 83 -54.5 153t-116 111.5t-154.5 41.5t-154.5 -41t-116 -110t-56.5 -155z" />
    <glyph glyph-name="Racute" unicode="&#x154;" horiz-adv-x="1141" 
d="M120 0v1400h492q112 0 202.5 -55t144 -148.5t53.5 -208.5q0 -101 -40 -184t-109.5 -138.5t-157.5 -76.5l340 -589h-194l-334 575h-229v-575h-168zM288 743h307q68 0 125 33.5t90.5 91t33.5 129.5q0 73 -33.5 130.5t-90.5 91t-125 33.5h-307v-509zM410 1510l80 288h168
l-136 -288h-112z" />
    <glyph glyph-name="racute" unicode="&#x155;" horiz-adv-x="730" 
d="M120 0v1000h168v-125q53 70 134 111.5t176 41.5q58 0 112 -15l-68 -168q-41 13 -80 13q-75 0 -137.5 -36.5t-99.5 -98.5t-37 -138v-585h-168zM365 1110l80 288h168l-136 -288h-112z" />
    <glyph glyph-name="uni0156" unicode="&#x156;" horiz-adv-x="1141" 
d="M120 0v1400h492q112 0 202.5 -55t144 -148.5t53.5 -208.5q0 -101 -40 -184t-109.5 -138.5t-157.5 -76.5l340 -589h-194l-334 575h-229v-575h-168zM288 743h307q68 0 125 33.5t90.5 91t33.5 129.5q0 73 -33.5 130.5t-90.5 91t-125 33.5h-307v-509zM417 -441l62 338h168
l-118 -338h-112z" />
    <glyph glyph-name="uni0157" unicode="&#x157;" horiz-adv-x="730" 
d="M120 0v1000h168v-125q53 70 134 111.5t176 41.5q58 0 112 -15l-68 -168q-41 13 -80 13q-75 0 -137.5 -36.5t-99.5 -98.5t-37 -138v-585h-168zM58 -441l62 338h168l-118 -338h-112z" />
    <glyph glyph-name="Rcaron" unicode="&#x158;" horiz-adv-x="1141" 
d="M120 0v1400h492q112 0 202.5 -55t144 -148.5t53.5 -208.5q0 -101 -40 -184t-109.5 -138.5t-157.5 -76.5l340 -589h-194l-334 575h-229v-575h-168zM288 743h307q68 0 125 33.5t90.5 91t33.5 129.5q0 73 -33.5 130.5t-90.5 91t-125 33.5h-307v-509zM359 1510l-193 288h112
l174 -200l171 200h113l-191 -288h-186z" />
    <glyph glyph-name="rcaron" unicode="&#x159;" horiz-adv-x="730" 
d="M120 0v1000h168v-125q53 70 134 111.5t176 41.5q58 0 112 -15l-68 -168q-41 13 -80 13q-75 0 -137.5 -36.5t-99.5 -98.5t-37 -138v-585h-168zM314 1110l-193 288h112l174 -200l171 200h113l-191 -288h-186z" />
    <glyph glyph-name="Sacute" unicode="&#x15a;" horiz-adv-x="1228" 
d="M613 -26q-113 0 -218 35.5t-183.5 101.5t-111.5 157l157 59q20 -56 74.5 -97.5t128.5 -64.5t153 -23q90 0 167.5 29.5t125.5 82.5t48 124q0 73 -50 119.5t-128 74t-163 42.5q-145 24 -259.5 68.5t-181 124.5t-66.5 211q0 122 70.5 213t186.5 141t250 50
q111 0 215.5 -34.5t184.5 -100.5t115 -161l-159 -58q-20 57 -74.5 98.5t-128 64t-153.5 22.5q-89 1 -166 -29t-125 -83t-48 -123q0 -84 44.5 -128.5t121.5 -66.5t173 -39q136 -23 252 -72.5t186.5 -131.5t70.5 -202q0 -122 -70.5 -213t-186.5 -141t-252 -50zM572 1510
l80 288h168l-136 -288h-112z" />
    <glyph glyph-name="sacute" unicode="&#x15b;" horiz-adv-x="862" 
d="M425 -19q-81 3 -157.5 30.5t-134 75t-83.5 109.5l144 62q15 -34 54 -64t90 -48t103 -18q55 0 103 17t78.5 50.5t30.5 80.5q0 50 -33.5 78.5t-84 45t-102.5 31.5q-103 26 -184 62.5t-127.5 93t-46.5 144.5q0 93 51.5 161t135.5 105t180 37q121 0 221 -52t149 -141
l-135 -79q-17 36 -52 63.5t-80 43.5t-92 17q-58 2 -108.5 -15t-81 -51.5t-30.5 -85.5q0 -50 32.5 -76t85 -41.5t114.5 -35.5q91 -29 170 -67t127.5 -95t47.5 -141q0 -92 -55 -160.5t-142.5 -104.5t-187.5 -32zM389 1110l80 288h168l-136 -288h-112z" />
    <glyph glyph-name="Scircumflex" unicode="&#x15c;" horiz-adv-x="1228" 
d="M613 -26q-113 0 -218 35.5t-183.5 101.5t-111.5 157l157 59q20 -56 74.5 -97.5t128.5 -64.5t153 -23q90 0 167.5 29.5t125.5 82.5t48 124q0 73 -50 119.5t-128 74t-163 42.5q-145 24 -259.5 68.5t-181 124.5t-66.5 211q0 122 70.5 213t186.5 141t250 50
q111 0 215.5 -34.5t184.5 -100.5t115 -161l-159 -58q-20 57 -74.5 98.5t-128 64t-153.5 22.5q-89 1 -166 -29t-125 -83t-48 -123q0 -84 44.5 -128.5t121.5 -66.5t173 -39q136 -23 252 -72.5t186.5 -131.5t70.5 -202q0 -122 -70.5 -213t-186.5 -141t-252 -50zM707 1798
l193 -288h-112l-174 200l-172 -200h-112l191 288h186z" />
    <glyph glyph-name="scircumflex" unicode="&#x15d;" horiz-adv-x="862" 
d="M425 -19q-81 3 -157.5 30.5t-134 75t-83.5 109.5l144 62q15 -34 54 -64t90 -48t103 -18q55 0 103 17t78.5 50.5t30.5 80.5q0 50 -33.5 78.5t-84 45t-102.5 31.5q-103 26 -184 62.5t-127.5 93t-46.5 144.5q0 93 51.5 161t135.5 105t180 37q121 0 221 -52t149 -141
l-135 -79q-17 36 -52 63.5t-80 43.5t-92 17q-58 2 -108.5 -15t-81 -51.5t-30.5 -85.5q0 -50 32.5 -76t85 -41.5t114.5 -35.5q91 -29 170 -67t127.5 -95t47.5 -141q0 -92 -55 -160.5t-142.5 -104.5t-187.5 -32zM524 1398l193 -288h-112l-174 200l-172 -200h-112l191 288h186z
" />
    <glyph glyph-name="Scedilla" unicode="&#x15e;" horiz-adv-x="1228" 
d="M613 -26q-113 0 -218 35.5t-183.5 101.5t-111.5 157l157 59q20 -56 74.5 -97.5t128.5 -64.5t153 -23q90 0 167.5 29.5t125.5 82.5t48 124q0 73 -50 119.5t-128 74t-163 42.5q-145 24 -259.5 68.5t-181 124.5t-66.5 211q0 122 70.5 213t186.5 141t250 50
q111 0 215.5 -34.5t184.5 -100.5t115 -161l-159 -58q-20 57 -74.5 98.5t-128 64t-153.5 22.5q-89 1 -166 -29t-125 -83t-48 -123q0 -84 44.5 -128.5t121.5 -66.5t173 -39q136 -23 252 -72.5t186.5 -131.5t70.5 -202q0 -122 -70.5 -213t-186.5 -141t-252 -50zM690 -369
q-65 -18 -124 16t-77 99l97 26q7 -25 29.5 -38t48.5 -6t39.5 29.5t5.5 48.5q-6 26 -28.5 38.5t-49.5 7.5l-104 -11l128 223l87 -51l-41 -71q37 -11 66 -40t39 -70q18 -66 -16 -125t-100 -76z" />
    <glyph glyph-name="scedilla" unicode="&#x15f;" horiz-adv-x="862" 
d="M425 -19q-81 3 -157.5 30.5t-134 75t-83.5 109.5l144 62q15 -34 54 -64t90 -48t103 -18q55 0 103 17t78.5 50.5t30.5 80.5q0 50 -33.5 78.5t-84 45t-102.5 31.5q-103 26 -184 62.5t-127.5 93t-46.5 144.5q0 93 51.5 161t135.5 105t180 37q121 0 221 -52t149 -141
l-135 -79q-17 36 -52 63.5t-80 43.5t-92 17q-58 2 -108.5 -15t-81 -51.5t-30.5 -85.5q0 -50 32.5 -76t85 -41.5t114.5 -35.5q91 -29 170 -67t127.5 -95t47.5 -141q0 -92 -55 -160.5t-142.5 -104.5t-187.5 -32zM494 -369q-65 -18 -124 16t-77 99l97 26q7 -25 29.5 -38
t48.5 -6t39.5 29.5t5.5 48.5q-6 26 -28.5 38.5t-49.5 7.5l-104 -11l128 223l87 -51l-41 -71q37 -11 66 -40t39 -70q18 -66 -16 -125t-100 -76z" />
    <glyph glyph-name="Scaron" unicode="&#x160;" horiz-adv-x="1228" 
d="M613 -26q-113 0 -218 35.5t-183.5 101.5t-111.5 157l157 59q20 -56 74.5 -97.5t128.5 -64.5t153 -23q90 0 167.5 29.5t125.5 82.5t48 124q0 73 -50 119.5t-128 74t-163 42.5q-145 24 -259.5 68.5t-181 124.5t-66.5 211q0 122 70.5 213t186.5 141t250 50
q111 0 215.5 -34.5t184.5 -100.5t115 -161l-159 -58q-20 57 -74.5 98.5t-128 64t-153.5 22.5q-89 1 -166 -29t-125 -83t-48 -123q0 -84 44.5 -128.5t121.5 -66.5t173 -39q136 -23 252 -72.5t186.5 -131.5t70.5 -202q0 -122 -70.5 -213t-186.5 -141t-252 -50zM521 1510
l-193 288h112l174 -200l171 200h113l-191 -288h-186z" />
    <glyph glyph-name="scaron" unicode="&#x161;" horiz-adv-x="862" 
d="M425 -19q-81 3 -157.5 30.5t-134 75t-83.5 109.5l144 62q15 -34 54 -64t90 -48t103 -18q55 0 103 17t78.5 50.5t30.5 80.5q0 50 -33.5 78.5t-84 45t-102.5 31.5q-103 26 -184 62.5t-127.5 93t-46.5 144.5q0 93 51.5 161t135.5 105t180 37q121 0 221 -52t149 -141
l-135 -79q-17 36 -52 63.5t-80 43.5t-92 17q-58 2 -108.5 -15t-81 -51.5t-30.5 -85.5q0 -50 32.5 -76t85 -41.5t114.5 -35.5q91 -29 170 -67t127.5 -95t47.5 -141q0 -92 -55 -160.5t-142.5 -104.5t-187.5 -32zM338 1110l-193 288h112l174 -200l171 200h113l-191 -288h-186z
" />
    <glyph glyph-name="uni0162" unicode="&#x162;" horiz-adv-x="1259" 
d="M1179 1400v-168h-466v-1232h-168v1232h-465v168h1099zM633 -369q-65 -18 -124 16t-77 99l97 26q7 -25 29.5 -38t48.5 -6t39.5 29.5t5.5 48.5q-6 26 -28.5 38.5t-49.5 7.5l-104 -11l128 223l87 -51l-41 -71q37 -11 66 -40t39 -70q18 -66 -16 -125t-100 -76z" />
    <glyph glyph-name="uni0163" unicode="&#x163;" horiz-adv-x="697" 
d="M638 832h-227l-1 -832h-168l1 832h-172v168h172l-1 314h168l1 -314h227v-168zM330 -369q-65 -18 -124 16t-77 99l97 26q7 -25 29.5 -38t48.5 -6t39.5 29.5t5.5 48.5q-6 26 -28.5 38.5t-49.5 7.5l-104 -11l128 223l87 -51l-41 -71q37 -11 66 -40t39 -70q18 -66 -16 -125
t-100 -76z" />
    <glyph glyph-name="Tcaron" unicode="&#x164;" horiz-adv-x="1259" 
d="M1179 1400v-168h-466v-1232h-168v1232h-465v168h1099zM536 1510l-193 288h112l174 -200l171 200h113l-191 -288h-186z" />
    <glyph glyph-name="tcaron" unicode="&#x165;" horiz-adv-x="697" 
d="M638 832h-227l-1 -832h-168l1 832h-172v168h172l-1 314h168l1 -314h227v-168zM521 1212l80 288h168l-136 -288h-112z" />
    <glyph glyph-name="Utilde" unicode="&#x168;" horiz-adv-x="1335" 
d="M668 -26q-168 0 -291.5 82t-190 220.5t-66.5 307.5v816h168v-816q0 -120 44.5 -221t129 -161t206.5 -60q124 0 208 60.5t127.5 161t43.5 220.5v816h168v-816q0 -127 -38 -237.5t-109.5 -194.5t-172.5 -131t-227 -47zM822 1524q-37 0 -83.5 24t-93.5 55t-85.5 51.5
t-60.5 12.5q-23 -8 -34.5 -33t-1.5 -62l-108 -29q-21 62 -7 117.5t56.5 89.5t105.5 34q38 0 83.5 -22t92 -50.5t85 -50t61.5 -21.5q22 0 33 16.5t12 38.5t-6 39l109 35q22 -66 6.5 -121.5t-59 -89.5t-105.5 -34z" />
    <glyph glyph-name="utilde" unicode="&#x169;" horiz-adv-x="1044" 
d="M80 380v620h168v-583q0 -76 37 -138t99.5 -98.5t137.5 -36.5q76 0 137.5 36.5t98.5 98.5t37 138v583h168l1 -1000h-168l-1 127q-53 -70 -134 -111.5t-175 -41.5q-112 0 -204.5 54.5t-147 146.5t-54.5 205zM694 1125q-37 0 -83.5 24t-93.5 55t-85.5 51.5t-60.5 12.5
q-23 -8 -34.5 -33t-1.5 -62l-108 -29q-21 62 -7 117.5t56.5 89.5t105.5 34q38 0 83.5 -22t92 -50.5t85 -50t61.5 -21.5q22 0 33 16.5t12 38.5t-6 39l109 35q22 -66 6.5 -121.5t-59 -89.5t-105.5 -34z" />
    <glyph glyph-name="Umacron" unicode="&#x16a;" horiz-adv-x="1335" 
d="M668 -26q-168 0 -291.5 82t-190 220.5t-66.5 307.5v816h168v-816q0 -120 44.5 -221t129 -161t206.5 -60q124 0 208 60.5t127.5 161t43.5 220.5v816h168v-816q0 -127 -38 -237.5t-109.5 -194.5t-172.5 -131t-227 -47zM330 1695h676v-132h-676v132z" />
    <glyph glyph-name="umacron" unicode="&#x16b;" horiz-adv-x="1044" 
d="M80 380v620h168v-583q0 -76 37 -138t99.5 -98.5t137.5 -36.5q76 0 137.5 36.5t98.5 98.5t37 138v583h168l1 -1000h-168l-1 127q-53 -70 -134 -111.5t-175 -41.5q-112 0 -204.5 54.5t-147 146.5t-54.5 205zM201 1296h676v-132h-676v132z" />
    <glyph glyph-name="Ubreve" unicode="&#x16c;" horiz-adv-x="1335" 
d="M668 -26q-168 0 -291.5 82t-190 220.5t-66.5 307.5v816h168v-816q0 -120 44.5 -221t129 -161t206.5 -60q124 0 208 60.5t127.5 161t43.5 220.5v816h168v-816q0 -127 -38 -237.5t-109.5 -194.5t-172.5 -131t-227 -47zM668 1488q-91 0 -166.5 45t-120.5 120.5t-45 166.5
h114q0 -61 30.5 -110.5t80 -78.5t107.5 -29q60 0 109.5 29t79 79t29.5 110h114q0 -93 -45.5 -168.5t-121 -119.5t-165.5 -44z" />
    <glyph glyph-name="ubreve" unicode="&#x16d;" horiz-adv-x="1044" 
d="M80 380v620h168v-583q0 -76 37 -138t99.5 -98.5t137.5 -36.5q76 0 137.5 36.5t98.5 98.5t37 138v583h168l1 -1000h-168l-1 127q-53 -70 -134 -111.5t-175 -41.5q-112 0 -204.5 54.5t-147 146.5t-54.5 205zM539 1089q-91 0 -166.5 45t-120.5 120.5t-45 166.5h114
q0 -61 30.5 -110.5t80 -78.5t107.5 -29q60 0 109.5 29t79 79t29.5 110h114q0 -93 -45.5 -168.5t-121 -119.5t-165.5 -44z" />
    <glyph glyph-name="Uring" unicode="&#x16e;" horiz-adv-x="1335" 
d="M668 -26q-168 0 -291.5 82t-190 220.5t-66.5 307.5v816h168v-816q0 -120 44.5 -221t129 -161t206.5 -60q124 0 208 60.5t127.5 161t43.5 220.5v816h168v-816q0 -127 -38 -237.5t-109.5 -194.5t-172.5 -131t-227 -47zM667 1488q-69 0 -117.5 49.5t-48.5 117.5
q0 45 22.5 82.5t60 60t83.5 22.5q68 0 117 -48.5t49 -116.5q0 -70 -49 -118.5t-117 -48.5zM667 1577q32 0 54.5 23t22.5 55q0 31 -22.5 53t-54.5 22t-54 -22t-22 -53q0 -32 22 -55t54 -23z" />
    <glyph glyph-name="uring" unicode="&#x16f;" horiz-adv-x="1044" 
d="M80 380v620h168v-583q0 -76 37 -138t99.5 -98.5t137.5 -36.5q76 0 137.5 36.5t98.5 98.5t37 138v583h168l1 -1000h-168l-1 127q-53 -70 -134 -111.5t-175 -41.5q-112 0 -204.5 54.5t-147 146.5t-54.5 205zM539 1089q-69 0 -117.5 49.5t-48.5 117.5q0 45 22.5 82.5t60 60
t83.5 22.5q68 0 117 -48.5t49 -116.5q0 -70 -49 -118.5t-117 -48.5zM539 1178q32 0 54.5 23t22.5 55q0 31 -22.5 53t-54.5 22t-54 -22t-22 -53q0 -32 22 -55t54 -23z" />
    <glyph glyph-name="Uhungarumlaut" unicode="&#x170;" horiz-adv-x="1335" 
d="M668 -26q-168 0 -291.5 82t-190 220.5t-66.5 307.5v816h168v-816q0 -120 44.5 -221t129 -161t206.5 -60q124 0 208 60.5t127.5 161t43.5 220.5v816h168v-816q0 -127 -38 -237.5t-109.5 -194.5t-172.5 -131t-227 -47zM780 1510l80 288h168l-136 -288h-112zM490 1510
l80 288h168l-136 -288h-112z" />
    <glyph glyph-name="uhungarumlaut" unicode="&#x171;" horiz-adv-x="1044" 
d="M80 380v620h168v-583q0 -76 37 -138t99.5 -98.5t137.5 -36.5q76 0 137.5 36.5t98.5 98.5t37 138v583h168l1 -1000h-168l-1 127q-53 -70 -134 -111.5t-175 -41.5q-112 0 -204.5 54.5t-147 146.5t-54.5 205zM652 1111l80 288h168l-136 -288h-112zM362 1111l80 288h168
l-136 -288h-112z" />
    <glyph glyph-name="Uogonek" unicode="&#x172;" horiz-adv-x="1335" 
d="M668 -26q-168 0 -291.5 82t-190 220.5t-66.5 307.5v816h168v-816q0 -120 44.5 -221t129 -161t206.5 -60q124 0 208 60.5t127.5 161t43.5 220.5v816h168v-816q0 -127 -38 -237.5t-109.5 -194.5t-172.5 -131t-227 -47zM676 -427q-58 1 -102.5 29.5t-68.5 73.5t-24 95
q0 38 14 73.5t44 65.5l168 168l87 -87q-50 -50 -85 -84t-56.5 -58t-31 -43.5t-9.5 -39.5q0 -27 19 -49t52 -24q38 0 69 28t31 73h116q0 -61 -29.5 -111.5t-80 -80t-113.5 -29.5z" />
    <glyph glyph-name="uogonek" unicode="&#x173;" horiz-adv-x="1044" 
d="M80 380v620h168v-583q0 -76 37 -138t99.5 -98.5t137.5 -36.5q76 0 137.5 36.5t98.5 98.5t37 138v583h168l1 -1000h-168l-1 127q-53 -70 -134 -111.5t-175 -41.5q-112 0 -204.5 54.5t-147 146.5t-54.5 205zM846 -417q-58 1 -102.5 29.5t-68.5 73.5t-24 95q0 38 14 73.5
t44 65.5l168 168l87 -87q-50 -50 -85 -84t-56.5 -58t-31 -43.5t-9.5 -39.5q0 -27 19 -49t52 -24q38 0 69 28t31 73h116q0 -61 -29.5 -111.5t-80 -80t-113.5 -29.5z" />
    <glyph glyph-name="Wcircumflex" unicode="&#x174;" horiz-adv-x="1736" 
d="M414 0l-358 1400h173l282 -1105l281 1105h151l282 -1105l281 1105h173l-356 -1400h-196l-259 1014l-259 -1014h-195zM961 1798l193 -288h-112l-174 200l-172 -200h-112l191 288h186z" />
    <glyph glyph-name="wcircumflex" unicode="&#x175;" horiz-adv-x="1647" 
d="M565 0h-170l-335 1000h164l258 -763l255 763h173l256 -763l255 763h166l-335 -1000h-171l-259 770zM917 1398l193 -288h-112l-174 200l-172 -200h-112l191 288h186z" />
    <glyph glyph-name="Ycircumflex" unicode="&#x176;" horiz-adv-x="1236" 
d="M978 1400h198l-474 -767v-633h-168v633l-474 767h198l360 -583zM711 1798l193 -288h-112l-174 200l-172 -200h-112l191 288h186z" />
    <glyph glyph-name="ycircumflex" unicode="&#x177;" horiz-adv-x="1063" 
d="M805 1000h178l-547 -1500h-178l181 500l-359 1000h184l259 -769zM624 1398l193 -288h-112l-174 200l-172 -200h-112l191 288h186z" />
    <glyph glyph-name="Ydieresis" unicode="&#x178;" horiz-adv-x="1236" 
d="M978 1400h198l-474 -767v-633h-168v633l-474 767h198l360 -583zM451 1478q-39 0 -67 26t-28 65t28 66.5t67 27.5q38 0 65 -27.5t27 -66.5t-27 -65t-65 -26zM787 1478q-39 0 -66.5 26t-27.5 65t27.5 66.5t66.5 27.5q38 0 65.5 -27.5t27.5 -66.5t-27.5 -65t-65.5 -26z" />
    <glyph glyph-name="Zacute" unicode="&#x179;" horiz-adv-x="1292" 
d="M80 0v168l907 1064h-907v168h1132v-168l-907 -1064h907v-168h-1132zM604 1510l80 288h168l-136 -288h-112z" />
    <glyph glyph-name="zacute" unicode="&#x17a;" horiz-adv-x="1014" 
d="M934 832l-615 -664h615v-168h-854v168l615 664h-615v168h854v-168zM465 1110l80 288h168l-136 -288h-112z" />
    <glyph glyph-name="Zdotaccent" unicode="&#x17b;" horiz-adv-x="1292" 
d="M80 0v168l907 1064h-907v168h1132v-168l-907 -1064h907v-168h-1132zM648 1563q-40 0 -67 26t-27 65t27 65t66 26t66 -26t27 -65t-26.5 -65t-65.5 -26z" />
    <glyph glyph-name="zdotaccent" unicode="&#x17c;" horiz-adv-x="1014" 
d="M934 832l-615 -664h615v-168h-854v168l615 664h-615v168h854v-168zM509 1163q-40 0 -67 26t-27 65t27 65t66 26t66 -26t27 -65t-26.5 -65t-65.5 -26z" />
    <glyph glyph-name="Zcaron" unicode="&#x17d;" horiz-adv-x="1292" 
d="M80 0v168l907 1064h-907v168h1132v-168l-907 -1064h907v-168h-1132zM553 1510l-193 288h112l174 -200l171 200h113l-191 -288h-186z" />
    <glyph glyph-name="zcaron" unicode="&#x17e;" horiz-adv-x="1014" 
d="M934 832l-615 -664h615v-168h-854v168l615 664h-615v168h854v-168zM414 1110l-193 288h112l174 -200l171 200h113l-191 -288h-186z" />
    <glyph glyph-name="uni01CD" unicode="&#x1cd;" horiz-adv-x="1381" 
d="M589 1400h203l509 -1400h-178l-104 286h-657l-103 -286h-179zM424 454h533l-267 731zM597 1510l-193 288h112l174 -200l171 200h113l-191 -288h-186z" />
    <glyph glyph-name="uni01CE" unicode="&#x1ce;" horiz-adv-x="1172" 
d="M924 1000h168v-1000h-168l-7 169q-47 -87 -129.5 -141t-196.5 -54q-110 0 -206 41.5t-169.5 115t-114.5 169.5t-41 207q0 107 40 202t111.5 166.5t165.5 112t202 40.5q118 0 207 -55.5t144 -143.5zM588 137q99 0 171.5 48.5t112 131.5t39.5 183q0 102 -40 184.5
t-112.5 131t-170.5 48.5q-99 0 -180 -49t-128.5 -131.5t-47.5 -183.5t49 -183.5t130 -131t177 -48.5zM507 1110l-193 288h112l174 -200l171 200h113l-191 -288h-186z" />
    <glyph glyph-name="uni01CF" unicode="&#x1cf;" horiz-adv-x="468" 
d="M150 0v1400h168v-1400h-168zM141 1510l-193 288h112l174 -200l171 200h113l-191 -288h-186z" />
    <glyph glyph-name="uni01D0" unicode="&#x1d0;" 
d="M120 1000h168v-1000h-168v1000zM111 1110l-193 288h112l174 -200l171 200h113l-191 -288h-186z" />
    <glyph glyph-name="uni01D1" unicode="&#x1d1;" horiz-adv-x="1540" 
d="M770 -26q-142 0 -267 56.5t-220 156.5t-149 231.5t-54 281.5t54 281.5t149 231.5t220 156.5t267 56.5q143 0 268 -56.5t220 -156.5t148.5 -231.5t53.5 -281.5t-53.5 -281.5t-148.5 -231.5t-220 -156.5t-268 -56.5zM770 142q109 0 203.5 44t166 121.5t112 178t40.5 214.5
t-41 215.5t-112.5 178t-166 120.5t-202.5 44q-109 0 -203.5 -44t-166 -121.5t-112 -178t-40.5 -214.5q0 -115 41 -216t112.5 -178t166 -120.5t202.5 -43.5zM677 1510l-193 288h112l174 -200l171 200h113l-191 -288h-186z" />
    <glyph glyph-name="uni01D2" unicode="&#x1d2;" horiz-adv-x="1120" 
d="M560 -26q-138 0 -251.5 71t-181 190.5t-67.5 264.5q0 110 39 205.5t107.5 168t159.5 113.5t194 41q138 0 251.5 -71t181 -191t67.5 -266q0 -109 -39 -204t-107.5 -167.5t-159 -113.5t-194.5 -41zM560 142q94 0 169.5 49.5t119 131t43.5 177.5q0 98 -44.5 180t-119.5 131
t-168 49q-94 0 -169 -49.5t-119 -131.5t-44 -179q0 -100 45 -181.5t121 -129t166 -47.5zM467 1110l-193 288h112l174 -200l171 200h113l-191 -288h-186z" />
    <glyph glyph-name="uni01D3" unicode="&#x1d3;" horiz-adv-x="1335" 
d="M668 -26q-168 0 -291.5 82t-190 220.5t-66.5 307.5v816h168v-816q0 -120 44.5 -221t129 -161t206.5 -60q124 0 208 60.5t127.5 161t43.5 220.5v816h168v-816q0 -127 -38 -237.5t-109.5 -194.5t-172.5 -131t-227 -47zM574 1510l-193 288h112l174 -200l171 200h113
l-191 -288h-186z" />
    <glyph glyph-name="uni01D4" unicode="&#x1d4;" horiz-adv-x="1044" 
d="M80 380v620h168v-583q0 -76 37 -138t99.5 -98.5t137.5 -36.5q76 0 137.5 36.5t98.5 98.5t37 138v583h168l1 -1000h-168l-1 127q-53 -70 -134 -111.5t-175 -41.5q-112 0 -204.5 54.5t-147 146.5t-54.5 205zM446 1111l-193 288h112l174 -200l171 200h113l-191 -288h-186z
" />
    <glyph glyph-name="uni01D5" unicode="&#x1d5;" horiz-adv-x="1335" 
d="M668 -26q-168 0 -291.5 82t-190 220.5t-66.5 307.5v816h168v-816q0 -120 44.5 -221t129 -161t206.5 -60q124 0 208 60.5t127.5 161t43.5 220.5v816h168v-816q0 -127 -38 -237.5t-109.5 -194.5t-172.5 -131t-227 -47zM500 1478q-39 0 -67 26t-28 65t28 66.5t67 27.5
q38 0 65 -27.5t27 -66.5t-27 -65t-65 -26zM836 1478q-39 0 -66.5 26t-27.5 65t27.5 66.5t66.5 27.5q38 0 65.5 -27.5t27.5 -66.5t-27.5 -65t-65.5 -26zM330 1927h676v-132h-676v132z" />
    <glyph glyph-name="uni01D6" unicode="&#x1d6;" horiz-adv-x="1044" 
d="M80 380v620h168v-583q0 -76 37 -138t99.5 -98.5t137.5 -36.5q76 0 137.5 36.5t98.5 98.5t37 138v583h168l1 -1000h-168l-1 127q-53 -70 -134 -111.5t-175 -41.5q-112 0 -204.5 54.5t-147 146.5t-54.5 205zM372 1079q-39 0 -67 26t-28 65t28 66.5t67 27.5q38 0 65 -27.5
t27 -66.5t-27 -65t-65 -26zM708 1079q-39 0 -66.5 26t-27.5 65t27.5 66.5t66.5 27.5q38 0 65.5 -27.5t27.5 -66.5t-27.5 -65t-65.5 -26zM201 1528h676v-132h-676v132z" />
    <glyph glyph-name="uni01D7" unicode="&#x1d7;" horiz-adv-x="1335" 
d="M668 -26q-168 0 -291.5 82t-190 220.5t-66.5 307.5v816h168v-816q0 -120 44.5 -221t129 -161t206.5 -60q124 0 208 60.5t127.5 161t43.5 220.5v816h168v-816q0 -127 -38 -237.5t-109.5 -194.5t-172.5 -131t-227 -47zM500 1478q-39 0 -67 26t-28 65t28 66.5t67 27.5
q38 0 65 -27.5t27 -66.5t-27 -65t-65 -26zM836 1478q-39 0 -66.5 26t-27.5 65t27.5 66.5t66.5 27.5q38 0 65.5 -27.5t27.5 -66.5t-27.5 -65t-65.5 -26zM626 1742l80 288h168l-136 -288h-112z" />
    <glyph glyph-name="uni01D8" unicode="&#x1d8;" horiz-adv-x="1044" 
d="M80 380v620h168v-583q0 -76 37 -138t99.5 -98.5t137.5 -36.5q76 0 137.5 36.5t98.5 98.5t37 138v583h168l1 -1000h-168l-1 127q-53 -70 -134 -111.5t-175 -41.5q-112 0 -204.5 54.5t-147 146.5t-54.5 205zM372 1079q-39 0 -67 26t-28 65t28 66.5t67 27.5q38 0 65 -27.5
t27 -66.5t-27 -65t-65 -26zM708 1079q-39 0 -66.5 26t-27.5 65t27.5 66.5t66.5 27.5q38 0 65.5 -27.5t27.5 -66.5t-27.5 -65t-65.5 -26zM498 1343l80 288h168l-136 -288h-112z" />
    <glyph glyph-name="uni01D9" unicode="&#x1d9;" horiz-adv-x="1335" 
d="M668 -26q-168 0 -291.5 82t-190 220.5t-66.5 307.5v816h168v-816q0 -120 44.5 -221t129 -161t206.5 -60q124 0 208 60.5t127.5 161t43.5 220.5v816h168v-816q0 -127 -38 -237.5t-109.5 -194.5t-172.5 -131t-227 -47zM500 1478q-39 0 -67 26t-28 65t28 66.5t67 27.5
q38 0 65 -27.5t27 -66.5t-27 -65t-65 -26zM836 1478q-39 0 -66.5 26t-27.5 65t27.5 66.5t66.5 27.5q38 0 65.5 -27.5t27.5 -66.5t-27.5 -65t-65.5 -26zM574 1742l-193 288h112l174 -200l171 200h113l-191 -288h-186z" />
    <glyph glyph-name="uni01DA" unicode="&#x1da;" horiz-adv-x="1044" 
d="M80 380v620h168v-583q0 -76 37 -138t99.5 -98.5t137.5 -36.5q76 0 137.5 36.5t98.5 98.5t37 138v583h168l1 -1000h-168l-1 127q-53 -70 -134 -111.5t-175 -41.5q-112 0 -204.5 54.5t-147 146.5t-54.5 205zM372 1079q-39 0 -67 26t-28 65t28 66.5t67 27.5q38 0 65 -27.5
t27 -66.5t-27 -65t-65 -26zM708 1079q-39 0 -66.5 26t-27.5 65t27.5 66.5t66.5 27.5q38 0 65.5 -27.5t27.5 -66.5t-27.5 -65t-65.5 -26zM446 1343l-193 288h112l174 -200l171 200h113l-191 -288h-186z" />
    <glyph glyph-name="uni01DB" unicode="&#x1db;" horiz-adv-x="1335" 
d="M668 -26q-168 0 -291.5 82t-190 220.5t-66.5 307.5v816h168v-816q0 -120 44.5 -221t129 -161t206.5 -60q124 0 208 60.5t127.5 161t43.5 220.5v816h168v-816q0 -127 -38 -237.5t-109.5 -194.5t-172.5 -131t-227 -47zM500 1478q-39 0 -67 26t-28 65t28 66.5t67 27.5
q38 0 65 -27.5t27 -66.5t-27 -65t-65 -26zM836 1478q-39 0 -66.5 26t-27.5 65t27.5 66.5t66.5 27.5q38 0 65.5 -27.5t27.5 -66.5t-27.5 -65t-65.5 -26zM456 2030h168l80 -288h-112z" />
    <glyph glyph-name="uni01DC" unicode="&#x1dc;" horiz-adv-x="1044" 
d="M80 380v620h168v-583q0 -76 37 -138t99.5 -98.5t137.5 -36.5q76 0 137.5 36.5t98.5 98.5t37 138v583h168l1 -1000h-168l-1 127q-53 -70 -134 -111.5t-175 -41.5q-112 0 -204.5 54.5t-147 146.5t-54.5 205zM372 1079q-39 0 -67 26t-28 65t28 66.5t67 27.5q38 0 65 -27.5
t27 -66.5t-27 -65t-65 -26zM708 1079q-39 0 -66.5 26t-27.5 65t27.5 66.5t66.5 27.5q38 0 65.5 -27.5t27.5 -66.5t-27.5 -65t-65.5 -26zM328 1631h168l80 -288h-112z" />
    <glyph glyph-name="uni01DE" unicode="&#x1de;" horiz-adv-x="1381" 
d="M589 1400h203l509 -1400h-178l-104 286h-657l-103 -286h-179zM424 454h533l-267 731zM523 1478q-39 0 -67 26t-28 65t28 66.5t67 27.5q38 0 65 -27.5t27 -66.5t-27 -65t-65 -26zM859 1478q-39 0 -66.5 26t-27.5 65t27.5 66.5t66.5 27.5q38 0 65.5 -27.5t27.5 -66.5
t-27.5 -65t-65.5 -26zM352 1927h676v-132h-676v132z" />
    <glyph glyph-name="uni01DF" unicode="&#x1df;" horiz-adv-x="1172" 
d="M924 1000h168v-1000h-168l-7 169q-47 -87 -129.5 -141t-196.5 -54q-110 0 -206 41.5t-169.5 115t-114.5 169.5t-41 207q0 107 40 202t111.5 166.5t165.5 112t202 40.5q118 0 207 -55.5t144 -143.5zM588 137q99 0 171.5 48.5t112 131.5t39.5 183q0 102 -40 184.5
t-112.5 131t-170.5 48.5q-99 0 -180 -49t-128.5 -131.5t-47.5 -183.5t49 -183.5t130 -131t177 -48.5zM434 1078q-39 0 -67 26t-28 65t28 66.5t67 27.5q38 0 65 -27.5t27 -66.5t-27 -65t-65 -26zM770 1078q-39 0 -66.5 26t-27.5 65t27.5 66.5t66.5 27.5q38 0 65.5 -27.5
t27.5 -66.5t-27.5 -65t-65.5 -26zM263 1527h676v-132h-676v132z" />
    <glyph glyph-name="uni01E2" unicode="&#x1e2;" horiz-adv-x="1635" 
d="M80 0l509 1400h946v-168h-551v-448h455v-168h-455v-448h551v-168h-719v286h-454l-103 -286h-179zM424 454h392v778h-108zM724 1695h676v-132h-676v132z" />
    <glyph glyph-name="uni01E3" unicode="&#x1e3;" horiz-adv-x="1763" 
d="M339 -25q-88 0 -158 38.5t-110.5 106t-40.5 152.5q0 80 38 148t106.5 109.5t160.5 41.5h366q-3 79 -39 145t-100.5 105t-151.5 39q-76 0 -144 -34l-92 141q55 31 114.5 46t119.5 15q126 0 230.5 -63.5t165.5 -170.5q41 70 103 122.5t138.5 82t161.5 29.5q113 0 207 -45.5
t161.5 -126.5t101 -188t24.5 -229h-816q12 -85 56.5 -152t113.5 -106t153 -39q89 0 162 46.5t118 127.5l171 -40q-60 -133 -181 -217.5t-271 -84.5q-92 0 -174.5 34t-146.5 94t-105 140q-38 -76 -105.5 -136.5t-153.5 -95.5t-183 -35zM339 125q104 0 184.5 52.5t124.5 132.5
q35 59 52 130h-365q-70 0 -112.5 -45.5t-42.5 -112.5q0 -61 42 -109t117 -48zM880 571h651q-8 84 -53.5 153.5t-116 111.5t-154.5 42q-85 0 -155.5 -41t-115.5 -110.5t-56 -155.5zM466 1296h676v-132h-676v132z" />
    <glyph glyph-name="Gcaron" unicode="&#x1e6;" horiz-adv-x="1536" 
d="M769 -26q-145 0 -270.5 56.5t-219 157t-146.5 232t-53 281.5q0 155 55.5 287t152 230t221 152.5t263.5 54.5q158 0 301 -74t246 -214l-150 -81q-77 98 -182.5 150t-216.5 52q-106 0 -200.5 -43t-167 -120t-113.5 -178t-41 -219q0 -115 41 -216t112.5 -177.5t166.5 -119.5
t203 -43q86 0 163.5 29t143 82t112 125t70.5 158h-345v150h541q-1 -147 -55.5 -276t-149 -227t-218 -153.5t-264.5 -55.5zM677 1510l-193 288h112l174 -200l171 200h113l-191 -288h-186z" />
    <glyph glyph-name="gcaron" unicode="&#x1e7;" horiz-adv-x="1189" 
d="M901 1000h168v-1032q0 -99 -42.5 -184.5t-114.5 -149t-164 -99t-192 -35.5q-104 0 -201 46.5t-169.5 124t-104.5 173.5l154 70q19 -69 68.5 -124.5t116 -88t136.5 -32.5q66 0 127.5 23t111 63.5t78 95t28.5 117.5v199q-51 -86 -134.5 -139.5t-194.5 -53.5q-106 0 -199 41
t-163 113.5t-110 167.5t-40 204t40 204.5t110 168t163 113.5t199 41q111 0 194.5 -53t134.5 -140v166zM573 137q97 0 168.5 50t110.5 133t39 180q0 100 -39.5 182.5t-111 132t-167.5 49.5q-94 0 -172 -49t-123.5 -131.5t-45.5 -183.5t46.5 -183.5t124 -131t170.5 -48.5z
M502 1110l-193 288h112l174 -200l171 200h113l-191 -288h-186z" />
    <glyph glyph-name="uni01E8" unicode="&#x1e8;" horiz-adv-x="1095" 
d="M1052 0h-217l-442 607l-105 -126v-481h-168v1400h168v-658l551 658h219l-555 -661zM454 1510l-193 288h112l174 -200l171 200h113l-191 -288h-186z" />
    <glyph glyph-name="uni01E9" unicode="&#x1e9;" horiz-adv-x="1006" 
d="M931 0h-193l-266 459l-184 -220v-239h-168v1500h168v-1000l419 500h219l-340 -405zM474 1510l-193 288h112l174 -200l171 200h113l-191 -288h-186z" />
    <glyph glyph-name="uni0218" unicode="&#x218;" horiz-adv-x="1228" 
d="M613 -26q-113 0 -218 35.5t-183.5 101.5t-111.5 157l157 59q20 -56 74.5 -97.5t128.5 -64.5t153 -23q90 0 167.5 29.5t125.5 82.5t48 124q0 73 -50 119.5t-128 74t-163 42.5q-145 24 -259.5 68.5t-181 124.5t-66.5 211q0 122 70.5 213t186.5 141t250 50
q111 0 215.5 -34.5t184.5 -100.5t115 -161l-159 -58q-20 57 -74.5 98.5t-128 64t-153.5 22.5q-89 1 -166 -29t-125 -83t-48 -123q0 -84 44.5 -128.5t121.5 -66.5t173 -39q136 -23 252 -72.5t186.5 -131.5t70.5 -202q0 -122 -70.5 -213t-186.5 -141t-252 -50zM540 -441
l62 338h168l-118 -338h-112z" />
    <glyph glyph-name="uni0219" unicode="&#x219;" horiz-adv-x="862" 
d="M425 -19q-81 3 -157.5 30.5t-134 75t-83.5 109.5l144 62q15 -34 54 -64t90 -48t103 -18q55 0 103 17t78.5 50.5t30.5 80.5q0 50 -33.5 78.5t-84 45t-102.5 31.5q-103 26 -184 62.5t-127.5 93t-46.5 144.5q0 93 51.5 161t135.5 105t180 37q121 0 221 -52t149 -141
l-135 -79q-17 36 -52 63.5t-80 43.5t-92 17q-58 2 -108.5 -15t-81 -51.5t-30.5 -85.5q0 -50 32.5 -76t85 -41.5t114.5 -35.5q91 -29 170 -67t127.5 -95t47.5 -141q0 -92 -55 -160.5t-142.5 -104.5t-187.5 -32zM345 -441l62 338h168l-118 -338h-112z" />
    <glyph glyph-name="uni021A" unicode="&#x21a;" horiz-adv-x="1259" 
d="M1179 1400v-168h-466v-1232h-168v1232h-465v168h1099zM483 -441l62 338h168l-118 -338h-112z" />
    <glyph glyph-name="uni021B" unicode="&#x21b;" horiz-adv-x="697" 
d="M638 832h-227l-1 -832h-168l1 832h-172v168h172l-1 314h168l1 -314h227v-168zM180 -441l62 338h168l-118 -338h-112z" />
    <glyph glyph-name="uni022A" unicode="&#x22a;" horiz-adv-x="1540" 
d="M770 -26q-142 0 -267 56.5t-220 156.5t-149 231.5t-54 281.5t54 281.5t149 231.5t220 156.5t267 56.5q143 0 268 -56.5t220 -156.5t148.5 -231.5t53.5 -281.5t-53.5 -281.5t-148.5 -231.5t-220 -156.5t-268 -56.5zM770 142q109 0 203.5 44t166 121.5t112 178t40.5 214.5
t-41 215.5t-112.5 178t-166 120.5t-202.5 44q-109 0 -203.5 -44t-166 -121.5t-112 -178t-40.5 -214.5q0 -115 41 -216t112.5 -178t166 -120.5t202.5 -43.5zM603 1478q-39 0 -67 26t-28 65t28 66.5t67 27.5q38 0 65 -27.5t27 -66.5t-27 -65t-65 -26zM939 1478q-39 0 -66.5 26
t-27.5 65t27.5 66.5t66.5 27.5q38 0 65.5 -27.5t27.5 -66.5t-27.5 -65t-65.5 -26zM432 1927h676v-132h-676v132z" />
    <glyph glyph-name="uni022B" unicode="&#x22b;" horiz-adv-x="1120" 
d="M560 -26q-138 0 -251.5 71t-181 190.5t-67.5 264.5q0 110 39 205.5t107.5 168t159.5 113.5t194 41q138 0 251.5 -71t181 -191t67.5 -266q0 -109 -39 -204t-107.5 -167.5t-159 -113.5t-194.5 -41zM560 142q94 0 169.5 49.5t119 131t43.5 177.5q0 98 -44.5 180t-119.5 131
t-168 49q-94 0 -169 -49.5t-119 -131.5t-44 -179q0 -100 45 -181.5t121 -129t166 -47.5zM393 1078q-39 0 -67 26t-28 65t28 66.5t67 27.5q38 0 65 -27.5t27 -66.5t-27 -65t-65 -26zM729 1078q-39 0 -66.5 26t-27.5 65t27.5 66.5t66.5 27.5q38 0 65.5 -27.5t27.5 -66.5
t-27.5 -65t-65.5 -26zM222 1527h676v-132h-676v132z" />
    <glyph glyph-name="uni0232" unicode="&#x232;" horiz-adv-x="1236" 
d="M978 1400h198l-474 -767v-633h-168v633l-474 767h198l360 -583zM280 1695h676v-132h-676v132z" />
    <glyph glyph-name="uni0233" unicode="&#x233;" horiz-adv-x="1063" 
d="M805 1000h178l-547 -1500h-178l181 500l-359 1000h184l259 -769zM193 1295h676v-132h-676v132z" />
    <glyph glyph-name="uni0237" unicode="&#x237;" horiz-adv-x="453" 
d="M-80 -500v168q70 0 125.5 31t87.5 85.5t32 121.5v1094h168v-1094q0 -112 -54 -204t-147.5 -147t-211.5 -55z" />
    <glyph glyph-name="quoteleft" unicode="&#x2bb;" horiz-adv-x="330" 
d="M60 878l118 522h112l-62 -522h-168z" />
    <glyph glyph-name="quoteleft" unicode="&#x2018;" horiz-adv-x="330" 
d="M60 878l118 522h112l-62 -522h-168z" />
    <glyph glyph-name="uni02BC" unicode="&#x2bc;" horiz-adv-x="437" 
d="M40 878l62 522h168l-118 -522h-112z" />
    <glyph glyph-name="circumflex" unicode="&#x2c6;" horiz-adv-x="598" 
d="M391 1398l193 -288h-112l-174 200l-172 -200h-112l191 288h186z" />
    <glyph glyph-name="caron" unicode="&#x2c7;" horiz-adv-x="562" 
d="M189 1110l-193 288h112l174 -200l171 200h113l-191 -288h-186z" />
    <glyph glyph-name="breve" unicode="&#x2d8;" horiz-adv-x="1144" 
d="M572 1088q-91 0 -166.5 45t-120.5 120.5t-45 166.5h114q0 -61 30.5 -110.5t80 -78.5t107.5 -29q60 0 109.5 29t79 79t29.5 110h114q0 -93 -45.5 -168.5t-121 -119.5t-165.5 -44z" />
    <glyph glyph-name="dotaccent" unicode="&#x2d9;" horiz-adv-x="986" 
d="M494 1163q-40 0 -67 26t-27 65t27 65t66 26t66 -26t27 -65t-26.5 -65t-65.5 -26z" />
    <glyph glyph-name="ring" unicode="&#x2da;" horiz-adv-x="1132" 
d="M566 1088q-69 0 -117.5 49.5t-48.5 117.5q0 45 22.5 82.5t60 60t83.5 22.5q68 0 117 -48.5t49 -116.5q0 -70 -49 -118.5t-117 -48.5zM566 1177q32 0 54.5 23t22.5 55q0 31 -22.5 53t-54.5 22t-54 -22t-22 -53q0 -32 22 -55t54 -23z" />
    <glyph glyph-name="ogonek" unicode="&#x2db;" horiz-adv-x="1018" 
d="M495 -418q-58 1 -102.5 29.5t-68.5 73.5t-24 95q0 38 14 73.5t44 65.5l168 168l87 -87q-50 -50 -85 -84t-56.5 -58t-31 -43.5t-9.5 -39.5q0 -27 19 -49t52 -24q38 0 69 28t31 73h116q0 -61 -29.5 -111.5t-80 -80t-113.5 -29.5z" />
    <glyph glyph-name="tilde" unicode="&#x2dc;" horiz-adv-x="1211" 
d="M769 1134q-37 0 -83.5 24t-93.5 55t-85.5 51.5t-60.5 12.5q-23 -8 -34.5 -33t-1.5 -62l-108 -29q-21 62 -7 117.5t56.5 89.5t105.5 34q38 0 83.5 -22t92 -50.5t85 -50t61.5 -21.5q22 0 33 16.5t12 38.5t-6 39l109 35q22 -66 6.5 -121.5t-59 -89.5t-105.5 -34z" />
    <glyph glyph-name="hungarumlaut" unicode="&#x2dd;" horiz-adv-x="938" 
d="M491 1110l80 288h168l-136 -288h-112zM200 1110l80 288h168l-136 -288h-112z" />
    <glyph glyph-name="gravecomb" unicode="&#x300;" horiz-adv-x="0" 
d="M254 1398h168l80 -288h-112z" />
    <glyph glyph-name="acutecomb" unicode="&#x301;" horiz-adv-x="0" 
d="M326 1110l80 288h168l-136 -288h-112z" />
    <glyph glyph-name="uni0302" unicode="&#x302;" horiz-adv-x="0" 
d="M391 1398l193 -288h-112l-174 200l-172 -200h-112l191 288h186z" />
    <glyph glyph-name="tildecomb" unicode="&#x303;" horiz-adv-x="0" 
d="M780 1124q-37 0 -83.5 24t-93.5 55t-85.5 51.5t-60.5 12.5q-23 -8 -34.5 -33t-1.5 -62l-108 -29q-21 62 -7 117.5t56.5 89.5t105.5 34q38 0 83.5 -22t92 -50.5t85 -50t61.5 -21.5q22 0 33 16.5t12 38.5t-6 39l109 35q22 -66 6.5 -121.5t-59 -89.5t-105.5 -34z" />
    <glyph glyph-name="uni0304" unicode="&#x304;" horiz-adv-x="0" 
d="M262 1295h676v-132h-676v132z" />
    <glyph glyph-name="uni0306" unicode="&#x306;" horiz-adv-x="0" 
d="M572 1088q-91 0 -166.5 45t-120.5 120.5t-45 166.5h114q0 -61 30.5 -110.5t80 -78.5t107.5 -29q60 0 109.5 29t79 79t29.5 110h114q0 -93 -45.5 -168.5t-121 -119.5t-165.5 -44z" />
    <glyph glyph-name="uni0307" unicode="&#x307;" horiz-adv-x="0" 
d="M494 1163q-40 0 -67 26t-27 65t27 65t66 26t66 -26t27 -65t-26.5 -65t-65.5 -26z" />
    <glyph glyph-name="uni0308" unicode="&#x308;" horiz-adv-x="0" 
d="M495 1078q-39 0 -67 26t-28 65t28 66.5t67 27.5q38 0 65 -27.5t27 -66.5t-27 -65t-65 -26zM831 1078q-39 0 -66.5 26t-27.5 65t27.5 66.5t66.5 27.5q38 0 65.5 -27.5t27.5 -66.5t-27.5 -65t-65.5 -26z" />
    <glyph glyph-name="uni030A" unicode="&#x30a;" horiz-adv-x="0" 
d="M566 1088q-69 0 -117.5 49.5t-48.5 117.5q0 45 22.5 82.5t60 60t83.5 22.5q68 0 117 -48.5t49 -116.5q0 -70 -49 -118.5t-117 -48.5zM566 1177q32 0 54.5 23t22.5 55q0 31 -22.5 53t-54.5 22t-54 -22t-22 -53q0 -32 22 -55t54 -23z" />
    <glyph glyph-name="uni030B" unicode="&#x30b;" horiz-adv-x="0" 
d="M491 1110l80 288h168l-136 -288h-112zM200 1110l80 288h168l-136 -288h-112z" />
    <glyph glyph-name="uni030C" unicode="&#x30c;" horiz-adv-x="0" 
d="M189 1110l-193 288h112l174 -200l171 200h113l-191 -288h-186z" />
    <glyph glyph-name="dotbelowcomb" unicode="&#x323;" horiz-adv-x="0" 
d="M494 -406q-40 0 -67 26t-27 65t27 65t66 26t66 -26t27 -65t-26.5 -65t-65.5 -26z" />
    <glyph glyph-name="uni0326" unicode="&#x326;" horiz-adv-x="0" 
d="M400 -441l62 338h168l-118 -338h-112z" />
    <glyph glyph-name="uni0327" unicode="&#x327;" horiz-adv-x="0" 
d="M602 -369q-65 -18 -124 16t-77 99l97 26q7 -25 29.5 -38t48.5 -6t39.5 29.5t5.5 48.5q-6 26 -28.5 38.5t-49.5 7.5l-104 -11l128 223l87 -51l-41 -71q37 -11 66 -40t39 -70q18 -66 -16 -125t-100 -76z" />
    <glyph glyph-name="uni0328" unicode="&#x328;" horiz-adv-x="0" 
d="M495 -418q-58 1 -102.5 29.5t-68.5 73.5t-24 95q0 38 14 73.5t44 65.5l168 168l87 -87q-50 -50 -85 -84t-56.5 -58t-31 -43.5t-9.5 -39.5q0 -27 19 -49t52 -24q38 0 69 28t31 73h116q0 -61 -29.5 -111.5t-80 -80t-113.5 -29.5z" />
    <glyph glyph-name="uni03BC" unicode="&#x3bc;" horiz-adv-x="1078" 
d="M80 -432v1432h168v-526q0 -93 39 -169.5t106 -122t151 -45.5t148.5 45.5t101 122t36.5 169.5v526h168v-1000h-168v155q-54 -84 -133 -133t-177 -49q-85 0 -155 39.5t-117 102.5v-547h-168z" />
    <glyph glyph-name="uni1E04" unicode="&#x1e04;" horiz-adv-x="1131" 
d="M120 0v1400h483q104 0 189.5 -42.5t135.5 -123.5t50 -194q0 -61 -20.5 -117.5t-56 -97t-80.5 -54.5q63 -16 107 -56.5t71.5 -94.5t39.5 -113t12 -114q0 -116 -52.5 -204.5t-140.5 -138.5t-194 -50h-544zM288 148h361q69 0 125.5 35.5t90.5 97.5t34 140q0 69 -34 130.5
t-90.5 99.5t-125.5 38h-361v-541zM288 834h299q92 0 157.5 54.5t65.5 152.5q0 106 -65.5 158.5t-157.5 52.5h-299v-418zM567 -406q-40 0 -67 26t-27 65t27 65t66 26t66 -26t27 -65t-26.5 -65t-65.5 -26z" />
    <glyph glyph-name="uni1E05" unicode="&#x1e05;" horiz-adv-x="1213" 
d="M626 1028q146 0 265.5 -71t190.5 -190.5t71 -265.5q0 -109 -41 -204.5t-113.5 -168t-168 -113.5t-204.5 -41q-116 0 -201.5 54.5t-136.5 142.5v-171h-168v1500h168v-669q51 88 136.5 142.5t201.5 54.5zM624 138q99 0 180 49t129 131.5t48 182.5q0 102 -49 184.5t-130 131
t-178 48.5q-98 0 -170.5 -49t-112 -132t-39.5 -183q0 -101 39.5 -183.5t112.5 -131t170 -48.5zM608 -406q-40 0 -67 26t-27 65t27 65t66 26t66 -26t27 -65t-26.5 -65t-65.5 -26z" />
    <glyph glyph-name="uni1E0C" unicode="&#x1e0c;" horiz-adv-x="1343" 
d="M120 0v1400h463q145 0 272 -54.5t223 -151t150.5 -223t54.5 -271.5t-54.5 -271.5t-150.5 -223t-223 -151t-272 -54.5h-463zM288 168h295q110 0 206.5 41.5t169.5 114.5t114.5 169.5t41.5 206.5t-41.5 206.5t-115 169.5t-169.5 114.5t-206 41.5h-295v-1064zM664 -406
q-40 0 -67 26t-27 65t27 65t66 26t66 -26t27 -65t-26.5 -65t-65.5 -26z" />
    <glyph glyph-name="uni1E0D" unicode="&#x1e0d;" horiz-adv-x="1213" 
d="M925 1500h168v-1500h-168v170q-51 -88 -137 -142t-202 -54q-109 0 -204 41t-167.5 113.5t-113.5 167.5t-41 204t41 204.5t113.5 168t167.5 113.5t204 41q116 0 202 -54t137 -142v669zM588 137q99 0 171.5 48.5t112 131.5t39.5 183q0 102 -40 184.5t-112.5 131
t-170.5 48.5q-99 0 -179.5 -49t-128.5 -131.5t-48 -183.5t49 -183.5t130 -131t177 -48.5zM612 -406q-40 0 -67 26t-27 65t27 65t66 26t66 -26t27 -65t-26.5 -65t-65.5 -26z" />
    <glyph glyph-name="uni1E20" unicode="&#x1e20;" horiz-adv-x="1536" 
d="M769 -26q-145 0 -270.5 56.5t-219 157t-146.5 232t-53 281.5q0 155 55.5 287t152 230t221 152.5t263.5 54.5q158 0 301 -74t246 -214l-150 -81q-77 98 -182.5 150t-216.5 52q-106 0 -200.5 -43t-167 -120t-113.5 -178t-41 -219q0 -115 41 -216t112.5 -177.5t166.5 -119.5
t203 -43q86 0 163.5 29t143 82t112 125t70.5 158h-345v150h541q-1 -147 -55.5 -276t-149 -227t-218 -153.5t-264.5 -55.5zM432 1695h676v-132h-676v132z" />
    <glyph glyph-name="uni1E21" unicode="&#x1e21;" horiz-adv-x="1189" 
d="M901 1000h168v-1032q0 -99 -42.5 -184.5t-114.5 -149t-164 -99t-192 -35.5q-104 0 -201 46.5t-169.5 124t-104.5 173.5l154 70q19 -69 68.5 -124.5t116 -88t136.5 -32.5q66 0 127.5 23t111 63.5t78 95t28.5 117.5v199q-51 -86 -134.5 -139.5t-194.5 -53.5q-106 0 -199 41
t-163 113.5t-110 167.5t-40 204t40 204.5t110 168t163 113.5t199 41q111 0 194.5 -53t134.5 -140v166zM573 137q97 0 168.5 50t110.5 133t39 180q0 100 -39.5 182.5t-111 132t-167.5 49.5q-94 0 -172 -49t-123.5 -131.5t-45.5 -183.5t46.5 -183.5t124 -131t170.5 -48.5z
M257 1295h676v-132h-676v132z" />
    <glyph glyph-name="uni1E24" unicode="&#x1e24;" horiz-adv-x="1269" 
d="M981 1400h168v-1400h-168v666h-693v-666h-168v1400h168v-566h693v566zM636 -406q-40 0 -67 26t-27 65t27 65t66 26t66 -26t27 -65t-26.5 -65t-65.5 -26z" />
    <glyph glyph-name="uni1E25" unicode="&#x1e25;" horiz-adv-x="1084" 
d="M1004 622v-622h-168v585q0 76 -37 138t-99 98.5t-138 36.5q-75 0 -137.5 -36.5t-99.5 -98.5t-37 -138v-585h-168v1500h168v-625q53 70 134 111.5t176 41.5q112 0 204.5 -54.5t147 -146.5t54.5 -205zM581 -406q-40 0 -67 26t-27 65t27 65t66 26t66 -26t27 -65t-26.5 -65
t-65.5 -26z" />
    <glyph glyph-name="uni1E2E" unicode="&#x1e2e;" horiz-adv-x="468" 
d="M150 0v1400h168v-1400h-168zM67 1478q-39 0 -67 26t-28 65t28 66.5t67 27.5q38 0 65 -27.5t27 -66.5t-27 -65t-65 -26zM403 1478q-39 0 -66.5 26t-27.5 65t27.5 66.5t66.5 27.5q38 0 65.5 -27.5t27.5 -66.5t-27.5 -65t-65.5 -26zM192 1742l80 288h168l-136 -288h-112z
" />
    <glyph glyph-name="uni1E2F" unicode="&#x1e2f;" 
d="M120 1000h168v-1000h-168v1000zM37 1078q-39 0 -67 26t-28 65t28 66.5t67 27.5q38 0 65 -27.5t27 -66.5t-27 -65t-65 -26zM373 1078q-39 0 -66.5 26t-27.5 65t27.5 66.5t66.5 27.5q38 0 65.5 -27.5t27.5 -66.5t-27.5 -65t-65.5 -26zM162 1342l80 288h168l-136 -288h-112z
" />
    <glyph glyph-name="uni1E36" unicode="&#x1e36;" horiz-adv-x="1015" 
d="M120 0v1400h168v-1232h627v-168h-795zM519 -406q-40 0 -67 26t-27 65t27 65t66 26t66 -26t27 -65t-26.5 -65t-65.5 -26z" />
    <glyph glyph-name="uni1E37" unicode="&#x1e37;" 
d="M120 0v1500h168v-1500h-168zM206 -406q-40 0 -67 26t-27 65t27 65t66 26t66 -26t27 -65t-26.5 -65t-65.5 -26z" />
    <glyph glyph-name="uni1E3E" unicode="&#x1e3e;" horiz-adv-x="1796" 
d="M120 0l271 1400h129l378 -994l377 994h129l272 -1400h-171l-197 1016l-355 -940h-111l-355 940l-196 -1016h-171zM857 1510l80 288h168l-136 -288h-112z" />
    <glyph glyph-name="uni1E3F" unicode="&#x1e3f;" horiz-adv-x="1777" 
d="M120 0v1000h168v-125q53 70 133.5 111.5t175.5 41.5q111 0 203 -54t145 -143q53 89 144.5 143t201.5 54q113 0 205 -54.5t146.5 -146.5t54.5 -205v-622h-168v582q0 74 -36 137t-97 101t-135 38t-135 -35.5t-97 -98t-36 -142.5v-582h-168v582q0 80 -36 142.5t-97.5 98
t-135.5 35.5q-73 0 -134.5 -38t-97.5 -101t-36 -137v-582h-168zM904 1110l80 288h168l-136 -288h-112z" />
    <glyph glyph-name="uni1E40" unicode="&#x1e40;" horiz-adv-x="1796" 
d="M120 0l271 1400h129l378 -994l377 994h129l272 -1400h-171l-197 1016l-355 -940h-111l-355 940l-196 -1016h-171zM900 1563q-40 0 -67 26t-27 65t27 65t66 26t66 -26t27 -65t-26.5 -65t-65.5 -26z" />
    <glyph glyph-name="uni1E41" unicode="&#x1e41;" horiz-adv-x="1777" 
d="M120 0v1000h168v-125q53 70 133.5 111.5t175.5 41.5q111 0 203 -54t145 -143q53 89 144.5 143t201.5 54q113 0 205 -54.5t146.5 -146.5t54.5 -205v-622h-168v582q0 74 -36 137t-97 101t-135 38t-135 -35.5t-97 -98t-36 -142.5v-582h-168v582q0 80 -36 142.5t-97.5 98
t-135.5 35.5q-73 0 -134.5 -38t-97.5 -101t-36 -137v-582h-168zM947 1163q-40 0 -67 26t-27 65t27 65t66 26t66 -26t27 -65t-26.5 -65t-65.5 -26z" />
    <glyph glyph-name="uni1E42" unicode="&#x1e42;" horiz-adv-x="1796" 
d="M120 0l271 1400h129l378 -994l377 994h129l272 -1400h-171l-197 1016l-355 -940h-111l-355 940l-196 -1016h-171zM900 -406q-40 0 -67 26t-27 65t27 65t66 26t66 -26t27 -65t-26.5 -65t-65.5 -26z" />
    <glyph glyph-name="uni1E43" unicode="&#x1e43;" horiz-adv-x="1777" 
d="M120 0v1000h168v-125q53 70 133.5 111.5t175.5 41.5q111 0 203 -54t145 -143q53 89 144.5 143t201.5 54q113 0 205 -54.5t146.5 -146.5t54.5 -205v-622h-168v582q0 74 -36 137t-97 101t-135 38t-135 -35.5t-97 -98t-36 -142.5v-582h-168v582q0 80 -36 142.5t-97.5 98
t-135.5 35.5q-73 0 -134.5 -38t-97.5 -101t-36 -137v-582h-168zM910 -406q-40 0 -67 26t-27 65t27 65t66 26t66 -26t27 -65t-26.5 -65t-65.5 -26z" />
    <glyph glyph-name="uni1E44" unicode="&#x1e44;" horiz-adv-x="1289" 
d="M120 0v1400h182l699 -1096v1096h168v-1400h-181l-700 1096v-1096h-168zM646 1563q-40 0 -67 26t-27 65t27 65t66 26t66 -26t27 -65t-26.5 -65t-65.5 -26z" />
    <glyph glyph-name="uni1E45" unicode="&#x1e45;" horiz-adv-x="1084" 
d="M1004 622v-622h-168v585q0 76 -37 138t-99 98.5t-138 36.5q-75 0 -137.5 -36.5t-99.5 -98.5t-37 -138v-585h-168v1000h168v-125q53 70 134 111.5t176 41.5q112 0 204.5 -54.5t147 -146.5t54.5 -205zM573 1163q-40 0 -67 26t-27 65t27 65t66 26t66 -26t27 -65t-26.5 -65
t-65.5 -26z" />
    <glyph glyph-name="uni1E46" unicode="&#x1e46;" horiz-adv-x="1289" 
d="M120 0v1400h182l699 -1096v1096h168v-1400h-181l-700 1096v-1096h-168zM646 -406q-40 0 -67 26t-27 65t27 65t66 26t66 -26t27 -65t-26.5 -65t-65.5 -26z" />
    <glyph glyph-name="uni1E47" unicode="&#x1e47;" horiz-adv-x="1084" 
d="M1004 622v-622h-168v585q0 76 -37 138t-99 98.5t-138 36.5q-75 0 -137.5 -36.5t-99.5 -98.5t-37 -138v-585h-168v1000h168v-125q53 70 134 111.5t176 41.5q112 0 204.5 -54.5t147 -146.5t54.5 -205zM564 -406q-40 0 -67 26t-27 65t27 65t66 26t66 -26t27 -65t-26.5 -65
t-65.5 -26z" />
    <glyph glyph-name="uni1E62" unicode="&#x1e62;" horiz-adv-x="1228" 
d="M613 -26q-113 0 -218 35.5t-183.5 101.5t-111.5 157l157 59q20 -56 74.5 -97.5t128.5 -64.5t153 -23q90 0 167.5 29.5t125.5 82.5t48 124q0 73 -50 119.5t-128 74t-163 42.5q-145 24 -259.5 68.5t-181 124.5t-66.5 211q0 122 70.5 213t186.5 141t250 50
q111 0 215.5 -34.5t184.5 -100.5t115 -161l-159 -58q-20 57 -74.5 98.5t-128 64t-153.5 22.5q-89 1 -166 -29t-125 -83t-48 -123q0 -84 44.5 -128.5t121.5 -66.5t173 -39q136 -23 252 -72.5t186.5 -131.5t70.5 -202q0 -122 -70.5 -213t-186.5 -141t-252 -50zM688 -406
q-40 0 -67 26t-27 65t27 65t66 26t66 -26t27 -65t-26.5 -65t-65.5 -26z" />
    <glyph glyph-name="uni1E63" unicode="&#x1e63;" horiz-adv-x="862" 
d="M425 -19q-81 3 -157.5 30.5t-134 75t-83.5 109.5l144 62q15 -34 54 -64t90 -48t103 -18q55 0 103 17t78.5 50.5t30.5 80.5q0 50 -33.5 78.5t-84 45t-102.5 31.5q-103 26 -184 62.5t-127.5 93t-46.5 144.5q0 93 51.5 161t135.5 105t180 37q121 0 221 -52t149 -141
l-135 -79q-17 36 -52 63.5t-80 43.5t-92 17q-58 2 -108.5 -15t-81 -51.5t-30.5 -85.5q0 -50 32.5 -76t85 -41.5t114.5 -35.5q91 -29 170 -67t127.5 -95t47.5 -141q0 -92 -55 -160.5t-142.5 -104.5t-187.5 -32zM492 -406q-40 0 -67 26t-27 65t27 65t66 26t66 -26t27 -65
t-26.5 -65t-65.5 -26z" />
    <glyph glyph-name="uni1E6C" unicode="&#x1e6c;" horiz-adv-x="1259" 
d="M1179 1400v-168h-466v-1232h-168v1232h-465v168h1099zM631 -406q-40 0 -67 26t-27 65t27 65t66 26t66 -26t27 -65t-26.5 -65t-65.5 -26z" />
    <glyph glyph-name="uni1E6D" unicode="&#x1e6d;" horiz-adv-x="697" 
d="M638 832h-227l-1 -832h-168l1 832h-172v168h172l-1 314h168l1 -314h227v-168zM328 -406q-40 0 -67 26t-27 65t27 65t66 26t66 -26t27 -65t-26.5 -65t-65.5 -26z" />
    <glyph glyph-name="Wgrave" unicode="&#x1e80;" horiz-adv-x="1736" 
d="M414 0l-358 1400h173l282 -1105l281 1105h151l282 -1105l281 1105h173l-356 -1400h-196l-259 1014l-259 -1014h-195zM656 1798h168l80 -288h-112z" />
    <glyph glyph-name="wgrave" unicode="&#x1e81;" horiz-adv-x="1647" 
d="M565 0h-170l-335 1000h164l258 -763l255 763h173l256 -763l255 763h166l-335 -1000h-171l-259 770zM612 1398h168l80 -288h-112z" />
    <glyph glyph-name="Wacute" unicode="&#x1e82;" horiz-adv-x="1736" 
d="M414 0l-358 1400h173l282 -1105l281 1105h151l282 -1105l281 1105h173l-356 -1400h-196l-259 1014l-259 -1014h-195zM826 1510l80 288h168l-136 -288h-112z" />
    <glyph glyph-name="wacute" unicode="&#x1e83;" horiz-adv-x="1647" 
d="M565 0h-170l-335 1000h164l258 -763l255 763h173l256 -763l255 763h166l-335 -1000h-171l-259 770zM782 1110l80 288h168l-136 -288h-112z" />
    <glyph glyph-name="Wdieresis" unicode="&#x1e84;" horiz-adv-x="1736" 
d="M414 0l-358 1400h173l282 -1105l281 1105h151l282 -1105l281 1105h173l-356 -1400h-196l-259 1014l-259 -1014h-195zM701 1478q-39 0 -67 26t-28 65t28 66.5t67 27.5q38 0 65 -27.5t27 -66.5t-27 -65t-65 -26zM1037 1478q-39 0 -66.5 26t-27.5 65t27.5 66.5t66.5 27.5
q38 0 65.5 -27.5t27.5 -66.5t-27.5 -65t-65.5 -26z" />
    <glyph glyph-name="wdieresis" unicode="&#x1e85;" horiz-adv-x="1647" 
d="M565 0h-170l-335 1000h164l258 -763l255 763h173l256 -763l255 763h166l-335 -1000h-171l-259 770zM657 1078q-39 0 -67 26t-28 65t28 66.5t67 27.5q38 0 65 -27.5t27 -66.5t-27 -65t-65 -26zM993 1078q-39 0 -66.5 26t-27.5 65t27.5 66.5t66.5 27.5q38 0 65.5 -27.5
t27.5 -66.5t-27.5 -65t-65.5 -26z" />
    <glyph glyph-name="uni1E92" unicode="&#x1e92;" horiz-adv-x="1292" 
d="M80 0v168l907 1064h-907v168h1132v-168l-907 -1064h907v-168h-1132zM648 -406q-40 0 -67 26t-27 65t27 65t66 26t66 -26t27 -65t-26.5 -65t-65.5 -26z" />
    <glyph glyph-name="uni1E93" unicode="&#x1e93;" horiz-adv-x="1014" 
d="M934 832l-615 -664h615v-168h-854v168l615 664h-615v168h854v-168zM509 -406q-40 0 -67 26t-27 65t27 65t66 26t66 -26t27 -65t-26.5 -65t-65.5 -26z" />
    <glyph glyph-name="uni1E97" unicode="&#x1e97;" horiz-adv-x="697" 
d="M638 832h-227l-1 -832h-168l1 832h-172v168h172l-1 314h168l1 -314h227v-168zM159 1392q-39 0 -67 26t-28 65t28 66.5t67 27.5q38 0 65 -27.5t27 -66.5t-27 -65t-65 -26zM495 1392q-39 0 -66.5 26t-27.5 65t27.5 66.5t66.5 27.5q38 0 65.5 -27.5t27.5 -66.5t-27.5 -65
t-65.5 -26z" />
    <glyph glyph-name="uni1E9E" unicode="&#x1e9e;" horiz-adv-x="1149" 
d="M120 0v937q0 96 36 179.5t99.5 147t147.5 99.5t179 36q99 0 185 -35t138.5 -99t52.5 -151q0 -44 -27 -90t-83 -115t-142 -182q71 9 139.5 -14t123.5 -71t87.5 -113.5t32.5 -139.5q0 -95 -39.5 -168t-105 -122t-144.5 -74t-159 -25h-64l-39 148h89q69 0 140.5 24.5
t120.5 78t49 140.5q0 86 -49.5 139t-121 77t-140.5 24h-73l-3 67q0 31 23 75t58 93.5t70 98t59 88.5t24 64q0 53 -32.5 81.5t-84 40t-113.5 11.5q-71 0 -132 -37t-97.5 -99.5t-36.5 -139.5v-974h-168z" />
    <glyph glyph-name="uni1EA0" unicode="&#x1ea0;" horiz-adv-x="1381" 
d="M589 1400h203l509 -1400h-178l-104 286h-657l-103 -286h-179zM424 454h533l-267 731zM692 -406q-40 0 -67 26t-27 65t27 65t66 26t66 -26t27 -65t-26.5 -65t-65.5 -26z" />
    <glyph glyph-name="uni1EA1" unicode="&#x1ea1;" horiz-adv-x="1172" 
d="M924 1000h168v-1000h-168l-7 169q-47 -87 -129.5 -141t-196.5 -54q-110 0 -206 41.5t-169.5 115t-114.5 169.5t-41 207q0 107 40 202t111.5 166.5t165.5 112t202 40.5q118 0 207 -55.5t144 -143.5zM588 137q99 0 171.5 48.5t112 131.5t39.5 183q0 102 -40 184.5
t-112.5 131t-170.5 48.5q-99 0 -180 -49t-128.5 -131.5t-47.5 -183.5t49 -183.5t130 -131t177 -48.5zM602 -406q-40 0 -67 26t-27 65t27 65t66 26t66 -26t27 -65t-26.5 -65t-65.5 -26z" />
    <glyph glyph-name="uni1EAC" unicode="&#x1eac;" horiz-adv-x="1381" 
d="M589 1400h203l509 -1400h-178l-104 286h-657l-103 -286h-179zM424 454h533l-267 731zM692 -406q-40 0 -67 26t-27 65t27 65t66 26t66 -26t27 -65t-26.5 -65t-65.5 -26zM783 1798l193 -288h-112l-174 200l-172 -200h-112l191 288h186z" />
    <glyph glyph-name="uni1EAD" unicode="&#x1ead;" horiz-adv-x="1172" 
d="M924 1000h168v-1000h-168l-7 169q-47 -87 -129.5 -141t-196.5 -54q-110 0 -206 41.5t-169.5 115t-114.5 169.5t-41 207q0 107 40 202t111.5 166.5t165.5 112t202 40.5q118 0 207 -55.5t144 -143.5zM588 137q99 0 171.5 48.5t112 131.5t39.5 183q0 102 -40 184.5
t-112.5 131t-170.5 48.5q-99 0 -180 -49t-128.5 -131.5t-47.5 -183.5t49 -183.5t130 -131t177 -48.5zM602 -406q-40 0 -67 26t-27 65t27 65t66 26t66 -26t27 -65t-26.5 -65t-65.5 -26zM694 1398l193 -288h-112l-174 200l-172 -200h-112l191 288h186z" />
    <glyph glyph-name="uni1EB6" unicode="&#x1eb6;" horiz-adv-x="1381" 
d="M589 1400h203l509 -1400h-178l-104 286h-657l-103 -286h-179zM424 454h533l-267 731zM692 -406q-40 0 -67 26t-27 65t27 65t66 26t66 -26t27 -65t-26.5 -65t-65.5 -26zM690 1488q-91 0 -166.5 45t-120.5 120.5t-45 166.5h114q0 -61 30.5 -110.5t80 -78.5t107.5 -29
q60 0 109.5 29t79 79t29.5 110h114q0 -93 -45.5 -168.5t-121 -119.5t-165.5 -44z" />
    <glyph glyph-name="uni1EB7" unicode="&#x1eb7;" horiz-adv-x="1172" 
d="M924 1000h168v-1000h-168l-7 169q-47 -87 -129.5 -141t-196.5 -54q-110 0 -206 41.5t-169.5 115t-114.5 169.5t-41 207q0 107 40 202t111.5 166.5t165.5 112t202 40.5q118 0 207 -55.5t144 -143.5zM588 137q99 0 171.5 48.5t112 131.5t39.5 183q0 102 -40 184.5
t-112.5 131t-170.5 48.5q-99 0 -180 -49t-128.5 -131.5t-47.5 -183.5t49 -183.5t130 -131t177 -48.5zM602 -406q-40 0 -67 26t-27 65t27 65t66 26t66 -26t27 -65t-26.5 -65t-65.5 -26zM601 1088q-91 0 -166.5 45t-120.5 120.5t-45 166.5h114q0 -61 30.5 -110.5t80 -78.5
t107.5 -29q60 0 109.5 29t79 79t29.5 110h114q0 -93 -45.5 -168.5t-121 -119.5t-165.5 -44z" />
    <glyph glyph-name="uni1EB8" unicode="&#x1eb8;" horiz-adv-x="1079" 
d="M120 0v1400h859v-168h-691v-398h566v-168h-566v-498h691v-168h-859zM541 -406q-40 0 -67 26t-27 65t27 65t66 26t66 -26t27 -65t-26.5 -65t-65.5 -26z" />
    <glyph glyph-name="uni1EB9" unicode="&#x1eb9;" horiz-adv-x="1118" 
d="M560 -26q-138 0 -251.5 71t-181 190.5t-67.5 264.5q0 110 39 205.5t107.5 168t159.5 113.5t194 41q113 0 207.5 -45.5t162 -126.5t101 -188t24.5 -229h-816q12 -85 56 -151.5t112.5 -105.5t152.5 -40q90 0 163 46.5t118 127.5l171 -40q-60 -133 -181 -217.5t-271 -84.5z
M234 571h652q-8 84 -54 153.5t-117 111.5t-155 42t-154 -41t-115.5 -110.5t-56.5 -155.5zM561 -406q-40 0 -67 26t-27 65t27 65t66 26t66 -26t27 -65t-26.5 -65t-65.5 -26z" />
    <glyph glyph-name="uni1EBC" unicode="&#x1ebc;" horiz-adv-x="1079" 
d="M120 0v1400h859v-168h-691v-398h566v-168h-566v-498h691v-168h-859zM694 1524q-37 0 -83.5 24t-93.5 55t-85.5 51.5t-60.5 12.5q-23 -8 -34.5 -33t-1.5 -62l-108 -29q-21 62 -7 117.5t56.5 89.5t105.5 34q38 0 83.5 -22t92 -50.5t85 -50t61.5 -21.5q22 0 33 16.5t12 38.5
t-6 39l109 35q22 -66 6.5 -121.5t-59 -89.5t-105.5 -34z" />
    <glyph glyph-name="uni1EBD" unicode="&#x1ebd;" horiz-adv-x="1118" 
d="M560 -26q-138 0 -251.5 71t-181 190.5t-67.5 264.5q0 110 39 205.5t107.5 168t159.5 113.5t194 41q113 0 207.5 -45.5t162 -126.5t101 -188t24.5 -229h-816q12 -85 56 -151.5t112.5 -105.5t152.5 -40q90 0 163 46.5t118 127.5l171 -40q-60 -133 -181 -217.5t-271 -84.5z
M234 571h652q-8 84 -54 153.5t-117 111.5t-155 42t-154 -41t-115.5 -110.5t-56.5 -155.5zM714 1124q-37 0 -83.5 24t-93.5 55t-85.5 51.5t-60.5 12.5q-23 -8 -34.5 -33t-1.5 -62l-108 -29q-21 62 -7 117.5t56.5 89.5t105.5 34q38 0 83.5 -22t92 -50.5t85 -50t61.5 -21.5
q22 0 33 16.5t12 38.5t-6 39l109 35q22 -66 6.5 -121.5t-59 -89.5t-105.5 -34z" />
    <glyph glyph-name="uni1EC6" unicode="&#x1ec6;" horiz-adv-x="1079" 
d="M120 0v1400h859v-168h-691v-398h566v-168h-566v-498h691v-168h-859zM541 -406q-40 0 -67 26t-27 65t27 65t66 26t66 -26t27 -65t-26.5 -65t-65.5 -26zM633 1798l193 -288h-112l-174 200l-172 -200h-112l191 288h186z" />
    <glyph glyph-name="uni1EC7" unicode="&#x1ec7;" horiz-adv-x="1118" 
d="M560 -26q-138 0 -251.5 71t-181 190.5t-67.5 264.5q0 110 39 205.5t107.5 168t159.5 113.5t194 41q113 0 207.5 -45.5t162 -126.5t101 -188t24.5 -229h-816q12 -85 56 -151.5t112.5 -105.5t152.5 -40q90 0 163 46.5t118 127.5l171 -40q-60 -133 -181 -217.5t-271 -84.5z
M234 571h652q-8 84 -54 153.5t-117 111.5t-155 42t-154 -41t-115.5 -110.5t-56.5 -155.5zM561 -406q-40 0 -67 26t-27 65t27 65t66 26t66 -26t27 -65t-26.5 -65t-65.5 -26zM652 1398l193 -288h-112l-174 200l-172 -200h-112l191 288h186z" />
    <glyph glyph-name="uni1ECA" unicode="&#x1eca;" horiz-adv-x="468" 
d="M150 0v1400h168v-1400h-168zM236 -406q-40 0 -67 26t-27 65t27 65t66 26t66 -26t27 -65t-26.5 -65t-65.5 -26z" />
    <glyph glyph-name="uni1ECB" unicode="&#x1ecb;" 
d="M120 1000h168v-1000h-168v1000zM206 1163q-40 0 -67 26t-27 65t27 65t66 26t66 -26t27 -65t-26.5 -65t-65.5 -26zM206 -406q-40 0 -67 26t-27 65t27 65t66 26t66 -26t27 -65t-26.5 -65t-65.5 -26z" />
    <glyph glyph-name="uni1ECC" unicode="&#x1ecc;" horiz-adv-x="1540" 
d="M770 -26q-142 0 -267 56.5t-220 156.5t-149 231.5t-54 281.5t54 281.5t149 231.5t220 156.5t267 56.5q143 0 268 -56.5t220 -156.5t148.5 -231.5t53.5 -281.5t-53.5 -281.5t-148.5 -231.5t-220 -156.5t-268 -56.5zM770 142q109 0 203.5 44t166 121.5t112 178t40.5 214.5
t-41 215.5t-112.5 178t-166 120.5t-202.5 44q-109 0 -203.5 -44t-166 -121.5t-112 -178t-40.5 -214.5q0 -115 41 -216t112.5 -178t166 -120.5t202.5 -43.5zM772 -406q-40 0 -67 26t-27 65t27 65t66 26t66 -26t27 -65t-26.5 -65t-65.5 -26z" />
    <glyph glyph-name="uni1ECD" unicode="&#x1ecd;" horiz-adv-x="1120" 
d="M560 -26q-138 0 -251.5 71t-181 190.5t-67.5 264.5q0 110 39 205.5t107.5 168t159.5 113.5t194 41q138 0 251.5 -71t181 -191t67.5 -266q0 -109 -39 -204t-107.5 -167.5t-159 -113.5t-194.5 -41zM560 142q94 0 169.5 49.5t119 131t43.5 177.5q0 98 -44.5 180t-119.5 131
t-168 49q-94 0 -169 -49.5t-119 -131.5t-44 -179q0 -100 45 -181.5t121 -129t166 -47.5zM562 -406q-40 0 -67 26t-27 65t27 65t66 26t66 -26t27 -65t-26.5 -65t-65.5 -26z" />
    <glyph glyph-name="uni1ED8" unicode="&#x1ed8;" horiz-adv-x="1540" 
d="M770 -26q-142 0 -267 56.5t-220 156.5t-149 231.5t-54 281.5t54 281.5t149 231.5t220 156.5t267 56.5q143 0 268 -56.5t220 -156.5t148.5 -231.5t53.5 -281.5t-53.5 -281.5t-148.5 -231.5t-220 -156.5t-268 -56.5zM770 142q109 0 203.5 44t166 121.5t112 178t40.5 214.5
t-41 215.5t-112.5 178t-166 120.5t-202.5 44q-109 0 -203.5 -44t-166 -121.5t-112 -178t-40.5 -214.5q0 -115 41 -216t112.5 -178t166 -120.5t202.5 -43.5zM772 -406q-40 0 -67 26t-27 65t27 65t66 26t66 -26t27 -65t-26.5 -65t-65.5 -26zM863 1798l193 -288h-112l-174 200
l-172 -200h-112l191 288h186z" />
    <glyph glyph-name="uni1ED9" unicode="&#x1ed9;" horiz-adv-x="1120" 
d="M560 -26q-138 0 -251.5 71t-181 190.5t-67.5 264.5q0 110 39 205.5t107.5 168t159.5 113.5t194 41q138 0 251.5 -71t181 -191t67.5 -266q0 -109 -39 -204t-107.5 -167.5t-159 -113.5t-194.5 -41zM560 142q94 0 169.5 49.5t119 131t43.5 177.5q0 98 -44.5 180t-119.5 131
t-168 49q-94 0 -169 -49.5t-119 -131.5t-44 -179q0 -100 45 -181.5t121 -129t166 -47.5zM562 -406q-40 0 -67 26t-27 65t27 65t66 26t66 -26t27 -65t-26.5 -65t-65.5 -26zM653 1398l193 -288h-112l-174 200l-172 -200h-112l191 288h186z" />
    <glyph glyph-name="uni1EE4" unicode="&#x1ee4;" horiz-adv-x="1335" 
d="M668 -26q-168 0 -291.5 82t-190 220.5t-66.5 307.5v816h168v-816q0 -120 44.5 -221t129 -161t206.5 -60q124 0 208 60.5t127.5 161t43.5 220.5v816h168v-816q0 -127 -38 -237.5t-109.5 -194.5t-172.5 -131t-227 -47zM669 -406q-40 0 -67 26t-27 65t27 65t66 26t66 -26
t27 -65t-26.5 -65t-65.5 -26z" />
    <glyph glyph-name="uni1EE5" unicode="&#x1ee5;" horiz-adv-x="1044" 
d="M80 380v620h168v-583q0 -76 37 -138t99.5 -98.5t137.5 -36.5q76 0 137.5 36.5t98.5 98.5t37 138v583h168l1 -1000h-168l-1 127q-53 -70 -134 -111.5t-175 -41.5q-112 0 -204.5 54.5t-147 146.5t-54.5 205zM541 -405q-40 0 -67 26t-27 65t27 65t66 26t66 -26t27 -65
t-26.5 -65t-65.5 -26z" />
    <glyph glyph-name="Ygrave" unicode="&#x1ef2;" horiz-adv-x="1236" 
d="M978 1400h198l-474 -767v-633h-168v633l-474 767h198l360 -583zM406 1798h168l80 -288h-112z" />
    <glyph glyph-name="ygrave" unicode="&#x1ef3;" horiz-adv-x="1063" 
d="M805 1000h178l-547 -1500h-178l181 500l-359 1000h184l259 -769zM320 1398h168l80 -288h-112z" />
    <glyph glyph-name="uni1EF4" unicode="&#x1ef4;" horiz-adv-x="1236" 
d="M978 1400h198l-474 -767v-633h-168v633l-474 767h198l360 -583zM619 -406q-40 0 -67 26t-27 65t27 65t66 26t66 -26t27 -65t-26.5 -65t-65.5 -26z" />
    <glyph glyph-name="uni1EF5" unicode="&#x1ef5;" horiz-adv-x="1063" 
d="M805 1000h178l-547 -1500h-178l181 500l-359 1000h184l259 -769zM737 -406q-40 0 -67 26t-27 65t27 65t66 26t66 -26t27 -65t-26.5 -65t-65.5 -26z" />
    <glyph glyph-name="uni1EF8" unicode="&#x1ef8;" horiz-adv-x="1236" 
d="M978 1400h198l-474 -767v-633h-168v633l-474 767h198l360 -583zM772 1524q-37 0 -83.5 24t-93.5 55t-85.5 51.5t-60.5 12.5q-23 -8 -34.5 -33t-1.5 -62l-108 -29q-21 62 -7 117.5t56.5 89.5t105.5 34q38 0 83.5 -22t92 -50.5t85 -50t61.5 -21.5q22 0 33 16.5t12 38.5
t-6 39l109 35q22 -66 6.5 -121.5t-59 -89.5t-105.5 -34z" />
    <glyph glyph-name="uni1EF9" unicode="&#x1ef9;" horiz-adv-x="1063" 
d="M805 1000h178l-547 -1500h-178l181 500l-359 1000h184l259 -769zM686 1124q-37 0 -83.5 24t-93.5 55t-85.5 51.5t-60.5 12.5q-23 -8 -34.5 -33t-1.5 -62l-108 -29q-21 62 -7 117.5t56.5 89.5t105.5 34q38 0 83.5 -22t92 -50.5t85 -50t61.5 -21.5q22 0 33 16.5t12 38.5
t-6 39l109 35q22 -66 6.5 -121.5t-59 -89.5t-105.5 -34z" />
    <glyph glyph-name="uni2002" unicode="&#x2002;" horiz-adv-x="1000" 
 />
    <glyph glyph-name="uni2009" unicode="&#x2009;" horiz-adv-x="400" 
 />
    <glyph glyph-name="uni200B" unicode="&#x200b;" horiz-adv-x="0" 
 />
    <glyph glyph-name="endash" unicode="&#x2013;" horiz-adv-x="1240" 
d="M120 684h1000v-168h-1000v168z" />
    <glyph glyph-name="emdash" unicode="&#x2014;" horiz-adv-x="2040" 
d="M120 684h1800v-168h-1800v168z" />
    <glyph glyph-name="quoteright" unicode="&#x2019;" horiz-adv-x="330" 
d="M40 878l62 522h168l-118 -522h-112z" />
    <glyph glyph-name="quoteright" unicode="&#x2032;" horiz-adv-x="330" 
d="M40 878l62 522h168l-118 -522h-112z" />
    <glyph glyph-name="quotesinglbase" unicode="&#x201a;" horiz-adv-x="368" 
d="M58 -112l62 338h168l-118 -338h-112z" />
    <glyph glyph-name="quotedblleft" unicode="&#x201c;" horiz-adv-x="690" 
d="M120 878l118 522h112l-62 -522h-168zM420 882l118 522h112l-62 -522h-168z" />
    <glyph glyph-name="quotedblright" unicode="&#x201d;" horiz-adv-x="690" 
d="M40 878l62 522h168l-118 -522h-112zM340 878l62 522h168l-118 -522h-112z" />
    <glyph glyph-name="quotedblright" unicode="&#x2033;" horiz-adv-x="690" 
d="M40 878l62 522h168l-118 -522h-112zM340 878l62 522h168l-118 -522h-112z" />
    <glyph glyph-name="quotedblbase" unicode="&#x201e;" horiz-adv-x="667" 
d="M58 -112l62 338h168l-118 -338h-112zM357 -112l62 338h168l-118 -338h-112z" />
    <glyph glyph-name="dagger" unicode="&#x2020;" horiz-adv-x="808" 
d="M80 1077v168h240v255h168v-255h240v-168h-240v-495h-168v495h-240z" />
    <glyph glyph-name="daggerdbl" unicode="&#x2021;" horiz-adv-x="808" 
d="M80 768v166h240v188h-240v168h240v210h168v-210h240v-168h-240v-188h240v-166h-240v-208h-168v208h-240z" />
    <glyph glyph-name="bullet" unicode="&#x2022;" horiz-adv-x="406" 
d="M202 477q-51 0 -86.5 35.5t-35.5 88.5q0 51 35.5 86.5t86.5 35.5q52 0 88 -35.5t36 -86.5q0 -53 -36 -88.5t-88 -35.5z" />
    <glyph glyph-name="ellipsis" unicode="&#x2026;" horiz-adv-x="1089" 
d="M171 -26q-38 0 -64.5 27t-26.5 66q0 37 26.5 64t64.5 27q39 0 66 -27t27 -64q0 -39 -27 -66t-66 -27zM523 -26q-38 0 -64.5 27t-26.5 66q0 37 26.5 64t64.5 27q39 0 66 -27t27 -64q0 -39 -27 -66t-66 -27zM875 -26q-38 0 -64.5 27t-26.5 66q0 37 26.5 64t64.5 27
q39 0 66 -27t27 -64q0 -39 -27 -66t-66 -27z" />
    <glyph glyph-name="perthousand" unicode="&#x2030;" horiz-adv-x="1892" 
d="M170 0l808 1400h194l-808 -1400h-194zM336 837q-71 0 -128.5 34t-92.5 92t-35 129q0 73 35 130.5t93 91.5t128 34t128 -34.5t92.5 -92.5t34.5 -129q0 -72 -35 -129.5t-93 -91.5t-127 -34zM336 960q55 0 93.5 38.5t38.5 93.5q0 56 -38.5 94.5t-93.5 38.5t-94 -38.5
t-39 -94.5q0 -55 39 -93.5t94 -38.5zM974 51q-70 0 -128.5 35.5t-93 94t-34.5 126.5q0 72 35.5 130t93.5 92t127 34q72 0 130 -35.5t92 -93.5t34 -127q0 -71 -34.5 -129t-92.5 -92.5t-129 -34.5zM974 174q55 0 94 39t39 94t-39 94t-94 39t-94 -39t-39 -94t39 -94t94 -39z
M1556 51q-70 0 -128.5 35.5t-93 94t-34.5 126.5q0 72 35.5 130t94 92t126.5 34q73 0 131 -35.5t91.5 -93.5t33.5 -127q0 -71 -34 -129t-92.5 -92.5t-129.5 -34.5zM1556 174q56 0 95 39t39 94t-39 94t-95 39q-54 0 -93 -39t-39 -94t39 -94t93 -39z" />
    <glyph glyph-name="uni2035" unicode="&#x2035;" horiz-adv-x="470" 
d="M238 878l-118 522h168l62 -522h-112z" />
    <glyph glyph-name="guilsinglleft" unicode="&#x2039;" horiz-adv-x="699" 
d="M420 261l-300 340l300 338h179l-299 -338l299 -340h-179z" />
    <glyph glyph-name="guilsinglright" unicode="&#x203a;" horiz-adv-x="699" 
d="M100 261l299 340l-299 338h179l300 -338l-300 -340h-179z" />
    <glyph glyph-name="fraction" unicode="&#x2044;" horiz-adv-x="450" 
d="M-253 0l808 1400h148l-808 -1400h-148z" />
    <glyph glyph-name="fraction" unicode="&#x2215;" horiz-adv-x="450" 
d="M-253 0l808 1400h148l-808 -1400h-148z" />
    <glyph glyph-name="uni2070" unicode="&#x2070;" horiz-adv-x="648" 
d="M324 798q-69 0 -126.5 43.5t-91.5 119.5t-34 172t34 171.5t91.5 119.5t126.5 44q70 0 127 -44t91 -119.5t34 -171.5t-34 -172t-91 -119.5t-127 -43.5zM324 908q43 0 73.5 35.5t47 88t16.5 101.5q0 55 -17 106.5t-48 85t-72 33.5q-43 0 -74 -35t-47 -86.5t-16 -103.5
q0 -55 17 -106.5t48 -85t72 -33.5z" />
    <glyph glyph-name="uni2074" unicode="&#x2074;" horiz-adv-x="684" 
d="M357 818v115h-261v138l239 378h138v-401h67v-115h-67v-115h-116zM212 1048h153v243z" />
    <glyph glyph-name="uni2075" unicode="&#x2075;" horiz-adv-x="686" 
d="M313 798q-95 0 -162 61t-67 156h115q0 -46 33.5 -76.5t80.5 -30.5q46 0 80 30.5t34 76.5t-34 78t-80 34q-28 1 -58 -1t-63 -7t-70 -14l31 344h344v-104h-240l-6 -107q128 12 209.5 -48.5t81.5 -174.5q0 -95 -67 -156t-162 -61z" />
    <glyph glyph-name="uni2076" unicode="&#x2076;" horiz-adv-x="706" 
d="M329 798q-100 0 -166.5 63t-66.5 158q0 29 7.5 56t29 69t63.5 113.5t110 188.5h134l-116 -201q68 2 122 -29t85 -83t31 -115q0 -67 -32.5 -116.5t-85.5 -76.5t-115 -27zM329 908q51 0 85.5 33.5t30.5 84.5q-1 50 -37 80t-79 30q-54 0 -87 -38.5t-30 -87.5q3 -48 38 -75
t79 -27z" />
    <glyph glyph-name="uni2077" unicode="&#x2077;" horiz-adv-x="646" 
d="M145 818l295 514h-320v116h454v-113l-296 -517h-133z" />
    <glyph glyph-name="uni2078" unicode="&#x2078;" horiz-adv-x="612" 
d="M305 798q-87 0 -148 54.5t-61 141.5q0 48 19.5 88t51.5 68q-26 26 -41.5 60.5t-15.5 72.5q0 82 57 134t138 52t139 -52t58 -134q0 -38 -15.5 -72.5t-41.5 -60.5q33 -28 52 -68t19 -88q0 -87 -61.5 -141.5t-149.5 -54.5zM305 907q40 0 68 24.5t28 62.5q0 40 -28 67.5
t-68 27.5q-38 0 -66 -27.5t-28 -67.5q0 -38 28 -62.5t66 -24.5zM305 1204q34 0 57.5 23.5t23.5 55.5q0 35 -23.5 55t-57.5 20q-32 0 -55.5 -20t-23.5 -55q0 -32 23.5 -55.5t55.5 -23.5z" />
    <glyph glyph-name="uni2079" unicode="&#x2079;" horiz-adv-x="659" 
d="M192 818l118 204q-59 -6 -108.5 18t-82 67t-41.5 96.5t11 107.5q18 74 79 115.5t138 41.5q59 0 107 -24.5t78.5 -65t39.5 -91.5t-10 -104q-1 -27 -17 -57l-179 -308h-133zM306 1129q36 0 64.5 20t42.5 52.5t7 69.5q-8 42 -42.5 64.5t-71.5 22.5q-38 0 -66.5 -18.5
t-42 -49.5t-7.5 -66q10 -48 45 -71.5t71 -23.5z" />
    <glyph glyph-name="uni2080" unicode="&#x2080;" horiz-adv-x="648" 
d="M324 -31q-69 0 -126.5 44.5t-91.5 121.5t-34 173t34 172.5t91.5 122t126.5 45.5q70 0 127 -45.5t91 -122t34 -172.5t-34 -173t-91 -121.5t-127 -44.5zM324 84q43 0 73.5 35.5t47 87.5t16.5 101q0 54 -17 106t-48 85.5t-72 33.5q-43 0 -74 -35t-47 -87t-16 -103
q0 -54 17 -105.5t48 -85t72 -33.5z" />
    <glyph glyph-name="uni2081" unicode="&#x2081;" horiz-adv-x="431" 
d="M171 0v516h-75l17 115h174v-631h-116z" />
    <glyph glyph-name="uni2082" unicode="&#x2082;" horiz-adv-x="696" 
d="M96 0v106q40 27 92.5 64t105 80t91.5 90t51 94q0 47 -32 76.5t-79 29.5t-80.5 -29.5t-33.5 -76.5h-115q0 63 31 113t83 79t115 29t114.5 -29t82 -79t30.5 -113q0 -43 -24 -86.5t-61.5 -85t-81 -79t-83.5 -68.5h244v-115h-450z" />
    <glyph glyph-name="uni2083" unicode="&#x2083;" horiz-adv-x="562" 
d="M282 -31q-58 0 -105.5 27t-76 72.5t-28.5 103.5h115q0 -39 27.5 -63.5t67.5 -24.5q38 0 65 24.5t27 63.5q0 46 -35.5 77t-102.5 31v87q63 0 92 27t29 67q0 31 -24 51.5t-56 20.5t-55.5 -20.5t-23.5 -51.5h-115q0 80 57 133.5t137 53.5q81 0 138 -53.5t57 -133.5
q0 -42 -16 -77.5t-40 -56.5q37 -32 55.5 -68t18.5 -87q0 -58 -28.5 -103.5t-76 -72.5t-103.5 -27z" />
    <glyph glyph-name="uni2084" unicode="&#x2084;" horiz-adv-x="684" 
d="M357 0v115h-261v139l239 377h138v-401h67v-115h-67v-115h-116zM212 230h153v243z" />
    <glyph glyph-name="uni2085" unicode="&#x2085;" horiz-adv-x="686" 
d="M313 -31q-63 0 -115 29t-83 79t-31 113h115q0 -46 33.5 -76t80.5 -30q46 0 80 30t34 76q0 47 -34 79.5t-80 32.5l-193 -19l33 341h344v-106h-240l-6 -105l63 5q103 0 165.5 -66t62.5 -162q0 -63 -31 -113t-83 -79t-115 -29z" />
    <glyph glyph-name="uni2086" unicode="&#x2086;" horiz-adv-x="682" 
d="M329 -31q-100 0 -166.5 66t-66.5 160q0 29 7.5 56.5t29.5 69.5t64 113.5t110 188.5h134l-117 -203q68 3 122 -28t85 -83t31 -115q0 -66 -32.5 -117t-85.5 -79.5t-115 -28.5zM329 84q51 0 85.5 33.5t30.5 84.5q-1 50 -37 79.5t-79 29.5q-54 0 -86.5 -38t-30.5 -87
q3 -48 38 -75t79 -27z" />
    <glyph glyph-name="uni2087" unicode="&#x2087;" horiz-adv-x="646" 
d="M142 0l298 516h-320v115h454v-113l-299 -518h-133z" />
    <glyph glyph-name="uni2088" unicode="&#x2088;" horiz-adv-x="612" 
d="M305 -31q-87 0 -148 57.5t-61 143.5q0 47 19.5 87.5t51.5 68.5q-26 25 -41.5 60t-15.5 73q0 83 57 136.5t138 53.5t139 -53.5t58 -136.5q0 -38 -15.5 -73t-41.5 -60q33 -28 52 -68.5t19 -87.5q0 -86 -61.5 -143.5t-149.5 -57.5zM305 83q40 0 68 24t28 63t-28 66.5
t-68 27.5q-38 0 -66 -27.5t-28 -66.5t28 -63t66 -24zM305 379q34 0 57.5 24.5t23.5 55.5q0 34 -23.5 54.5t-57.5 20.5q-32 0 -55.5 -20.5t-23.5 -54.5q0 -31 23.5 -55.5t55.5 -24.5z" />
    <glyph glyph-name="uni2089" unicode="&#x2089;" horiz-adv-x="659" 
d="M192 0l118 204q-59 -6 -108.5 18t-82 67.5t-41.5 97t11 107.5q13 50 44.5 86t76.5 55.5t96 19.5q66 0 118.5 -31t82.5 -81t32 -110.5t-32 -118.5l-182 -314h-133zM306 312q36 0 64.5 20t42.5 52t7 69q-8 42 -42.5 64.5t-71.5 22.5q-38 0 -66.5 -18.5t-42 -49t-7.5 -66.5
q10 -48 45 -71t71 -23z" />
    <glyph glyph-name="Euro" unicode="&#x20ac;" horiz-adv-x="1155" 
d="M1075 -15q-136 -24 -262 4t-232 99.5t-181 178t-110 239.5h-210v123h188v141h-188v123h210q35 134 111.5 241.5t182.5 178.5t231.5 99t259.5 4v-172q-103 23 -197 7t-174.5 -65t-140.5 -124t-92 -169h315v-123h-348v-141h348v-123h-314q33 -97 93.5 -172t141 -122.5
t174.5 -62.5t194 9v-173z" />
    <glyph glyph-name="trademark" unicode="&#x2122;" horiz-adv-x="2955" 
d="M1179 1400v-168h-466v-1232h-168v1232h-465v168h1099zM1279 0l271 1400h129l378 -994l377 994h129l272 -1400h-171l-197 1016l-355 -940h-111l-355 940l-196 -1016h-171z" />
    <glyph glyph-name="oneeighth" unicode="&#x215b;" horiz-adv-x="1493" 
d="M171 818v516h-75l17 115h174v-631h-116zM178 0l808 1400h148l-808 -1400h-148zM1186 -31q-87 0 -148 57.5t-61 143.5q0 47 19.5 87.5t51.5 68.5q-26 25 -41.5 60t-15.5 73q0 83 57 136.5t138 53.5t139 -53.5t58 -136.5q0 -38 -15.5 -73t-41.5 -60q33 -28 52 -68.5
t19 -87.5q0 -86 -61.5 -143.5t-149.5 -57.5zM1186 83q40 0 68 24t28 63t-28 66.5t-68 27.5q-38 0 -66 -27.5t-28 -66.5t28 -63t66 -24zM1186 379q34 0 57.5 24.5t23.5 55.5q0 34 -23.5 54.5t-57.5 20.5q-32 0 -55.5 -20.5t-23.5 -54.5q0 -31 23.5 -55.5t55.5 -24.5z" />
    <glyph glyph-name="threeeighths" unicode="&#x215c;" horiz-adv-x="1624" 
d="M282 798q-86 0 -148 56t-62 143h115q0 -40 27.5 -64.5t67.5 -24.5q38 0 65 24.5t27 64.5q0 45 -35.5 76.5t-102.5 31.5v87q63 0 92 26.5t29 65.5q0 32 -24 52.5t-56 20.5t-55.5 -20.5t-23.5 -52.5h-115q0 81 57 132t137 51q81 0 138 -51t57 -132q0 -40 -16 -76.5
t-40 -56.5q37 -31 55.5 -67.5t18.5 -86.5q0 -87 -61.5 -143t-146.5 -56zM309 0l808 1400h148l-808 -1400h-148zM1317 -31q-87 0 -148 57.5t-61 143.5q0 47 19.5 87.5t51.5 68.5q-26 25 -41.5 60t-15.5 73q0 83 57 136.5t138 53.5t139 -53.5t58 -136.5q0 -38 -15.5 -73
t-41.5 -60q33 -28 52 -68.5t19 -87.5q0 -86 -61.5 -143.5t-149.5 -57.5zM1317 83q40 0 68 24t28 63t-28 66.5t-68 27.5q-38 0 -66 -27.5t-28 -66.5t28 -63t66 -24zM1317 379q34 0 57.5 24.5t23.5 55.5q0 34 -23.5 54.5t-57.5 20.5q-32 0 -55.5 -20.5t-23.5 -54.5
q0 -31 23.5 -55.5t55.5 -24.5z" />
    <glyph glyph-name="fiveeighths" unicode="&#x215d;" horiz-adv-x="1748" 
d="M313 798q-95 0 -162 61t-67 156h115q0 -46 33.5 -76.5t80.5 -30.5q46 0 80 30.5t34 76.5t-34 78t-80 34q-28 1 -58 -1t-63 -7t-70 -14l31 344h344v-104h-240l-6 -107q128 12 209.5 -48.5t81.5 -174.5q0 -95 -67 -156t-162 -61zM433 0l808 1400h148l-808 -1400h-148z
M1441 -31q-87 0 -148 57.5t-61 143.5q0 47 19.5 87.5t51.5 68.5q-26 25 -41.5 60t-15.5 73q0 83 57 136.5t138 53.5t139 -53.5t58 -136.5q0 -38 -15.5 -73t-41.5 -60q33 -28 52 -68.5t19 -87.5q0 -86 -61.5 -143.5t-149.5 -57.5zM1441 83q40 0 68 24t28 63t-28 66.5
t-68 27.5q-38 0 -66 -27.5t-28 -66.5t28 -63t66 -24zM1441 379q34 0 57.5 24.5t23.5 55.5q0 34 -23.5 54.5t-57.5 20.5q-32 0 -55.5 -20.5t-23.5 -54.5q0 -31 23.5 -55.5t55.5 -24.5z" />
    <glyph glyph-name="seveneighths" unicode="&#x215e;" horiz-adv-x="1708" 
d="M145 818l295 514h-320v116h454v-113l-296 -517h-133zM393 0l808 1400h148l-808 -1400h-148zM1401 -31q-87 0 -148 57.5t-61 143.5q0 47 19.5 87.5t51.5 68.5q-26 25 -41.5 60t-15.5 73q0 83 57 136.5t138 53.5t139 -53.5t58 -136.5q0 -38 -15.5 -73t-41.5 -60
q33 -28 52 -68.5t19 -87.5q0 -86 -61.5 -143.5t-149.5 -57.5zM1401 83q40 0 68 24t28 63t-28 66.5t-68 27.5q-38 0 -66 -27.5t-28 -66.5t28 -63t66 -24zM1401 379q34 0 57.5 24.5t23.5 55.5q0 34 -23.5 54.5t-57.5 20.5q-32 0 -55.5 -20.5t-23.5 -54.5q0 -31 23.5 -55.5
t55.5 -24.5z" />
    <glyph glyph-name="arrowleft" unicode="&#x2190;" horiz-adv-x="1380" 
d="M585 245l-505 505l505 505l118 -119l-302 -302h899v-168h-899l302 -302z" />
    <glyph glyph-name="arrowup" unicode="&#x2191;" horiz-adv-x="1171" 
d="M502 139v900l-302 -303l-120 120l506 505l505 -505l-119 -120l-302 303v-900h-168z" />
    <glyph glyph-name="arrowright" unicode="&#x2192;" horiz-adv-x="1381" 
d="M795 245l-119 119l301 302h-897v168h897l-301 302l119 119l506 -505z" />
    <glyph glyph-name="arrowdown" unicode="&#x2193;" horiz-adv-x="1170" 
d="M584 140l-504 505l119 119l301 -302v898h168v-898l303 302l119 -119z" />
    <glyph glyph-name="arrowboth" unicode="&#x2194;" horiz-adv-x="1727" 
d="M585 245l-505 505l505 505l118 -119l-302 -302h923l-302 302l119 119l506 -505l-506 -505l-119 119l302 302h-923l302 -302z" />
    <glyph glyph-name="arrowupdn" unicode="&#x2195;" horiz-adv-x="1171" 
d="M585 -34l-505 506l119 119l302 -303v924l-302 -302l-119 119l505 505l506 -505l-120 -119l-302 302v-924l302 303l120 -119z" />
    <glyph glyph-name="uni2196" unicode="&#x2196;" horiz-adv-x="1083" 
d="M884 289l-636 636v-428h-168v714h714v-168h-426l635 -636z" />
    <glyph glyph-name="uni2197" unicode="&#x2197;" horiz-adv-x="1082" 
d="M199 290l-119 118l635 634h-428v168h715v-714h-168v428z" />
    <glyph glyph-name="uni2198" unicode="&#x2198;" horiz-adv-x="1082" 
d="M288 290v168h427l-635 634l119 118l635 -634v428h168v-714h-714z" />
    <glyph glyph-name="uni2199" unicode="&#x2199;" horiz-adv-x="1082" 
d="M80 290v714h168v-428l635 634l119 -118l-635 -634h427v-168h-714z" />
    <glyph glyph-name="partialdiff" unicode="&#x2202;" horiz-adv-x="1165" 
d="M583 -26q-138 0 -252.5 68t-182.5 182t-68 252q0 104 39 195.5t108.5 160.5t160.5 108t195 39q82 0 152 -35t116 -94q-22 89 -63.5 175.5t-103.5 157.5t-145 113t-188 42l-1 168q161 0 295 -78.5t232.5 -216t152.5 -316t55 -377.5q0 -160 -64 -282.5t-177 -192
t-261 -69.5zM583 142q94 0 170 46t120.5 122t44.5 166q0 92 -45 168t-121 121.5t-169 45.5q-94 0 -169.5 -46t-120.5 -122t-45 -167q0 -90 45 -166.5t121 -122t169 -45.5z" />
    <glyph glyph-name="emptyset" unicode="&#x2205;" horiz-adv-x="1160" 
d="M337 -60l-122 70l50 85q-85 72 -135 177.5t-50 227.5q0 110 39 205.5t107.5 168t159.5 113.5t194 41q53 0 102.5 -11.5t93.5 -32.5l48 80l122 -70l-49 -86q84 -72 133.5 -177.5t49.5 -230.5q0 -109 -39 -204t-107.5 -167.5t-159 -113.5t-194.5 -41q-52 0 -102 12t-95 33z
M348 238l351 611q-83 33 -165 18t-149 -67t-107.5 -132t-40.5 -176q0 -78 30 -143t81 -111zM461 154q86 -33 168 -18.5t148.5 67t106 131.5t39.5 174q0 78 -30 144t-80 113z" />
    <glyph glyph-name="product" unicode="&#x220f;" horiz-adv-x="1280" 
d="M80 1400h1120v-168h-1120v168zM256 1287h168v-1287h-168v1287zM856 1287h168v-1287h-168v1287z" />
    <glyph glyph-name="summation" unicode="&#x2211;" horiz-adv-x="946" 
d="M80 0v168l271 530l-271 530v168h806v-168h-617l271 -530l-271 -530h617v-168h-806z" />
    <glyph glyph-name="minus" unicode="&#x2212;" horiz-adv-x="1160" 
d="M80 516v168h1000v-168h-1000z" />
    <glyph glyph-name="radical" unicode="&#x221a;" horiz-adv-x="1302" 
d="M878 1400h344v-168h-227l-451 -1232h-206l-258 708h179l183 -500z" />
    <glyph glyph-name="infinity" unicode="&#x221e;" horiz-adv-x="1485" 
d="M400 290q-98 10 -169.5 57t-111 119t-39.5 158q0 91 41 165t113 120t166 49q74 0 129.5 -22.5t106 -68t107.5 -115.5q56 69 106.5 114.5t104 68.5t118.5 23q106 -3 180.5 -49.5t113.5 -120.5t39 -164t-40.5 -164.5t-112 -119.5t-165.5 -50q-73 0 -127.5 21t-105 66
t-111.5 117q-59 -71 -109.5 -117t-105.5 -68t-128 -19zM400 445q53 0 92 21.5t74.5 61.5t80.5 96q-47 59 -83 99t-74 60t-90 19q-74 -6 -120 -58.5t-46 -119.5q0 -74 48.5 -123.5t117.5 -55.5zM1086 445q74 7 120 58.5t46 120.5q0 71 -46.5 122t-126.5 57q-48 0 -85 -21
t-73 -61t-82 -97q39 -48 69.5 -82t57 -55.5t55.5 -31.5t65 -10z" />
    <glyph glyph-name="integral" unicode="&#x222b;" horiz-adv-x="931" 
d="M291 -26q-62 1 -111.5 30.5t-76.5 81t-22 115.5l115 -9q1 -31 13.5 -53t44.5 -26q30 -1 52 17t26 48l100 1080q8 50 40 88.5t78.5 60t95.5 19.5q60 -2 108.5 -34t74.5 -83.5t21 -110.5l-107 10q-2 40 -24 59.5t-53 17.5q-28 1 -47.5 -19t-22.5 -48l-99 -1075
q-16 -88 -73 -128t-133 -41z" />
    <glyph glyph-name="approxequal" unicode="&#x2248;" horiz-adv-x="1246" 
d="M874 710q-63 0 -137.5 31.5t-150 72.5t-143 72t-117.5 31q-41 1 -70 -21.5t-41.5 -58.5t-4.5 -76l-164 -4q-17 81 15.5 154t98.5 120t152 47q62 0 130.5 -32t138.5 -74t135.5 -73.5t119.5 -31.5q42 0 71.5 21.5t42.5 57.5t4 76l165 6q18 -83 -10 -155.5t-89.5 -117.5
t-145.5 -45zM874 162q-63 0 -137.5 31.5t-150 72.5t-143 72t-117.5 31q-41 1 -70 -21.5t-41.5 -58.5t-4.5 -76l-164 -4q-17 81 15.5 154t98.5 120t152 47q62 0 130.5 -32t138.5 -74t135.5 -73.5t119.5 -31.5q42 0 71.5 21.5t42.5 57.5t4 76l165 6q18 -83 -10 -155.5
t-89.5 -117.5t-145.5 -45z" />
    <glyph glyph-name="notequal" unicode="&#x2260;" horiz-adv-x="1160" 
d="M837 1182l-85 -293h328v-167h-378l-71 -244h449v-167h-498l-86 -293h-175l86 293h-327v167h376l71 244h-447v167h497l85 293h175z" />
    <glyph glyph-name="lessequal" unicode="&#x2264;" horiz-adv-x="1160" 
d="M1080 339l-1000 284v277l1000 286v-175l-874 -248l874 -249v-175zM80 0v168h1000v-168h-1000z" />
    <glyph glyph-name="greaterequal" unicode="&#x2265;" horiz-adv-x="1160" 
d="M80 350v175l874 243l-874 243v175l1000 -280v-278zM80 0v168h1000v-168h-1000z" />
    <glyph glyph-name="lozenge" unicode="&#x25ca;" horiz-adv-x="923" 
d="M328 0l-268 702l266 698h271l266 -698l-268 -702h-267zM461 134l226 568l-226 568l-224 -568z" />
    <glyph glyph-name="uniFFFD" unicode="&#xfffd;" horiz-adv-x="1630" 
d="M816 -26q-54 0 -106 20t-94 62l-414 414q-42 42 -62 94t-20 106t21 106t61 92l414 414q42 42 94 62t106 20t105 -20t93 -62l414 -414q42 -42 62 -93t20 -105t-20 -106t-62 -94l-414 -414q-40 -40 -92 -61t-106 -21zM822 296q27 0 44.5 18.5t17.5 43.5q0 26 -17.5 43.5
t-44.5 17.5q-25 0 -43.5 -17.5t-18.5 -43.5q0 -25 18.5 -43.5t43.5 -18.5zM757 516h123v2q0 47 43 71q54 30 86 84t32 119q0 63 -31 115t-83 83t-115 31t-115.5 -31t-83.5 -83t-31 -115h123q0 45 31 75.5t76 30.5q44 0 75 -30.5t31 -75.5q0 -30 -14.5 -56t-38.5 -39
q-51 -25 -79.5 -73.5t-28.5 -105.5v-2z" />
    </font>
</defs>
</svg>
