<?xml version="1.0" standalone="no"?>
<!DOCTYPE svg PUBLIC "-//W3C//DTD SVG 1.1//EN" "http://www.w3.org/Graphics/SVG/1.1/DTD/svg11.dtd" >
<svg xmlns="http://www.w3.org/2000/svg" xmlns:xlink="http://www.w3.org/1999/xlink" version="1.1">
<metadata>
Created by FontForge 20201107 at Wed Oct 27 17:11:08 2021
 By 
Copyright 2021 The Urbanist Project Authors (https://github.com/coreyhu/Urbanist)
</metadata>
<defs>
<font id="Urbanist-Italic" horiz-adv-x="1072" >
  <font-face 
    font-family="Urbanist"
    font-weight="400"
    font-style="italic"
    font-stretch="normal"
    units-per-em="2000"
    panose-1="2 11 10 4 4 2 0 0 2 3"
    ascent="1600"
    descent="-400"
    x-height="1000"
    cap-height="1400"
    bbox="-341 -500 2710 2011"
    underline-thickness="50"
    underline-position="-125"
    unicode-range="U+000D-FFFD"
  />
<missing-glyph horiz-adv-x="1000" 
d="M100 -500v2400h800v-2400h-800zM200 -400h600v2200h-600v-2200z" />
    <glyph glyph-name=".notdef" horiz-adv-x="1000" 
d="M100 -500v2400h800v-2400h-800zM200 -400h600v2200h-600v-2200z" />
    <glyph glyph-name=".null" horiz-adv-x="1200" 
 />
    <glyph glyph-name=".null" horiz-adv-x="1200" 
 />
    <glyph glyph-name="nonmarkingreturn" unicode="&#xd;" horiz-adv-x="1200" 
 />
    <glyph glyph-name="nonmarkingreturn" unicode="&#xfeff;" horiz-adv-x="1200" 
 />
    <glyph glyph-name="space" unicode=" " horiz-adv-x="480" 
 />
    <glyph glyph-name="exclam" unicode="!" horiz-adv-x="359" 
d="M60 420l137 980h123l-137 -980h-123zM59 -26q-34 0 -54 23.5t-16 57.5q5 33 31.5 56t60.5 23q33 0 52.5 -23t14.5 -56q-4 -34 -30.5 -57.5t-58.5 -23.5z" />
    <glyph glyph-name="quotedbl" unicode="&#x22;" horiz-adv-x="519" 
d="M98 878l73 522h107l-73 -522h-107zM364 878l73 522h107l-73 -522h-107z" />
    <glyph glyph-name="numbersign" unicode="#" horiz-adv-x="1511" 
d="M1427 929h-201l-188 -456h204l-57 -136h-201l-138 -337h-140l138 337h-473l-137 -337h-140l137 337h-202l56 136h201l188 456h-204l56 135h203l136 336h140l-136 -336h472l136 336h140l-136 -336h202zM898 473l188 456h-472l-188 -456h472z" />
    <glyph glyph-name="dollar" unicode="$" horiz-adv-x="1180" 
d="M671 1280q-95 1 -182.5 -31.5t-146.5 -90t-70 -134.5q-12 -90 29 -138.5t119.5 -72.5t178.5 -43q131 -23 239 -71.5t167 -129t42 -198.5q-15 -112 -89 -197t-183 -136t-233 -61l-28 -201h-107l29 201q-102 7 -190 43.5t-148.5 98.5t-78.5 145l138 49q14 -62 66 -106.5
t127 -68.5t157 -24q95 0 182.5 32t147 89.5t70.5 135.5q11 79 -35 130t-125 80.5t-168 45.5q-139 25 -247 68t-163 121.5t-37 207.5q16 112 89.5 197t183.5 136t233 60l29 207h107l-29 -207q98 -7 185.5 -43t149 -97.5t81.5 -147.5l-140 -48q-13 63 -65.5 107.5t-127.5 68
t-157 23.5z" />
    <glyph glyph-name="percent" unicode="%" horiz-adv-x="1282" 
d="M57 0l1004 1400h162l-1004 -1400h-162zM341 853q-66 0 -116 32t-75 86.5t-15 120.5q10 68 50 122t99 86t124 32q66 0 115.5 -32.5t74.5 -86.5t15 -121q-9 -67 -49.5 -121t-99 -86t-123.5 -32zM356 960q56 0 99.5 38.5t50.5 93.5q8 56 -24.5 94.5t-88.5 38.5
q-55 0 -99 -38.5t-52 -94.5q-7 -55 26 -93.5t88 -38.5zM874 67q-66 0 -116 33.5t-74.5 88t-15.5 118.5q9 67 49.5 121.5t100 86.5t123.5 32q68 0 117.5 -33t73.5 -87.5t15 -119.5q-9 -66 -49 -120.5t-99 -87t-125 -32.5zM889 174q54 0 99 39t52 94q8 55 -26 94t-88 39
q-55 0 -99.5 -39t-52.5 -94q-7 -55 26.5 -94t88.5 -39z" />
    <glyph glyph-name="ampersand" unicode="&#x26;" horiz-adv-x="1417" 
d="M383 -26q-119 0 -202 57.5t-121.5 150.5t-24.5 199q9 65 29 113t60.5 95t109 109t174.5 155q-47 56 -77 94t-45.5 68.5t-19 62t2.5 73.5q11 79 58.5 143t116.5 101.5t144 37.5q78 0 136.5 -38t88 -101.5t18.5 -142.5q-6 -43 -19.5 -75.5t-38.5 -63.5t-65.5 -68.5
t-100.5 -90.5l320 -374l252 220l-27 -198l-141 -123l241 -279l-112 -99l-240 278q-108 -94 -178.5 -153.5t-122 -92.5t-101 -45.5t-115.5 -12.5zM403 114q50 0 86.5 11t76.5 39.5t98.5 80.5t150.5 134l-322 375q-95 -84 -154.5 -136t-92.5 -87.5t-48 -70t-22 -82.5
q-10 -74 17 -134t82 -95t128 -35zM519 936q73 64 111 97t53.5 57.5t20.5 62.5q9 66 -31 110t-102 44q-65 0 -116 -46t-59 -108q-5 -38 4 -63.5t38 -58.5t81 -95z" />
    <glyph glyph-name="quotesingle" unicode="'" horiz-adv-x="253" 
d="M98 878l73 522h107l-73 -522h-107z" />
    <glyph glyph-name="parenleft" unicode="(" horiz-adv-x="643" 
d="M289 -112q-88 95 -133.5 215t-54.5 257.5t11 283.5q11 80 35 168t59.5 174.5t80.5 165.5t99 143t115 105h140q-57 -49 -109 -113.5t-96.5 -140.5t-80.5 -159.5t-62 -170t-41 -172.5q-18 -157 -2 -295t62 -253.5t117 -207.5h-140z" />
    <glyph glyph-name="parenright" unicode=")" horiz-adv-x="643" 
d="M-14 -112q97 92 175.5 207.5t133 253.5t80.5 295q10 86 8 172.5t-14.5 170t-35.5 159.5t-57 140.5t-78 113.5h140q50 -41 86 -105t59 -143t34 -165.5t10 -174.5t-12 -168q-20 -146 -68.5 -283.5t-127.5 -257.5t-193 -215h-140z" />
    <glyph glyph-name="asterisk" unicode="*" horiz-adv-x="705" 
d="M233 853l-77 63l148 171l-190 65l45 101l194 -64l29 211h107l-30 -211l210 64l19 -101l-211 -65l101 -171l-96 -63l-99 172z" />
    <glyph glyph-name="plus" unicode="+" horiz-adv-x="1160" 
d="M426 100l60 430h-430l20 140h430l60 430h140l-60 -430h430l-20 -140h-430l-60 -430h-140z" />
    <glyph glyph-name="comma" unicode="," horiz-adv-x="402" 
d="M-34 -112l109 338h140l-156 -338h-93z" />
    <glyph glyph-name="hyphen" unicode="-" horiz-adv-x="880" 
d="M116 670h640l-20 -140h-640z" />
    <glyph glyph-name="period" unicode="." horiz-adv-x="360" 
d="M57 -26q-33 0 -52.5 23.5t-15.5 57.5q5 32 31.5 55.5t59.5 23.5q34 0 54 -23.5t15 -55.5q-4 -34 -31 -57.5t-61 -23.5z" />
    <glyph glyph-name="slash" unicode="/" horiz-adv-x="705" 
d="M723 1400l-617 -1512h-140l617 1512h140z" />
    <glyph glyph-name="zero" unicode="0" horiz-adv-x="1191" 
d="M495 -26q-126 0 -217.5 56.5t-147 156.5t-73.5 231.5t3 281.5t76 282t139 231.5t191 156t233 56.5q125 0 216 -56.5t146 -156t73 -231.5t-3 -282t-76 -281.5t-138 -231.5t-190 -156.5t-232 -56.5zM514 114q133 0 233.5 81t164.5 214.5t86 290.5q24 166 -4 298.5t-107 210
t-208 77.5q-102 0 -184 -47t-144 -129t-101.5 -187.5t-56.5 -222.5q-22 -158 5 -291.5t105.5 -214t210.5 -80.5z" />
    <glyph glyph-name="one" unicode="1" horiz-adv-x="530" 
d="M132 0l177 1260h-150l59 140h250l-196 -1400h-140z" />
    <glyph glyph-name="two" unicode="2" horiz-adv-x="1089" 
d="M-18 0l17 124q93 76 204 166.5t221 187t203 191t153.5 179t69.5 149.5q11 79 -18.5 144.5t-88.5 105t-138 39.5t-150 -39.5t-119 -105t-59 -144.5h-140q17 120 89 217t177 154.5t222 57.5t205.5 -58t132.5 -155t27 -216q-10 -71 -59.5 -155.5t-126 -175t-170 -182.5
t-192 -179.5t-191.5 -164.5h640l-20 -140h-889z" />
    <glyph glyph-name="three" unicode="3" horiz-adv-x="983" 
d="M389 -26q-128 0 -217 56.5t-130 151.5t-25 210h140q-11 -76 15.5 -139.5t86.5 -101t150 -37.5q76 0 148 37.5t122 101t61 139.5q13 95 -26.5 158.5t-118.5 95t-187 31.5l16 116q149 0 248.5 63.5t116.5 186.5q9 67 -19.5 122t-82 88.5t-120.5 33.5q-68 0 -134 -33.5
t-112 -88.5t-56 -122h-140q11 79 54 148.5t107.5 122.5t141.5 83t157 30q105 0 188.5 -52t127 -139t28.5 -193q-15 -103 -79.5 -186t-159.5 -117q75 -26 120.5 -78.5t63 -121.5t6.5 -148q-16 -115 -89.5 -210t-180 -151.5t-221.5 -56.5z" />
    <glyph glyph-name="four" unicode="4" horiz-adv-x="1091" 
d="M586 0l55 393h-604l20 142l689 865h176l-122 -867h148l-20 -140h-147l-55 -393h-140zM223 535l437 -2l92 667z" />
    <glyph glyph-name="five" unicode="5" horiz-adv-x="1107" 
d="M427 -26q-128 0 -223.5 62t-142 166.5t-29.5 229.5h140q-12 -87 20.5 -159.5t99 -115.5t154.5 -43t166 43t131.5 115.5t65.5 159.5q13 88 -18.5 160.5t-101 116t-172.5 43.5h-341l223 648h655l-19 -140h-542l-125 -368l163 -1q143 -2 243 -61t147 -161.5t28 -236.5
q-13 -94 -60.5 -177t-119.5 -146.5t-159.5 -99t-182.5 -35.5z" />
    <glyph glyph-name="six" unicode="6" horiz-adv-x="1077" 
d="M430 -26q-132 0 -232.5 65.5t-150.5 175.5t-31 243q11 77 36.5 131.5t70.5 121.5l493 689h163l-362 -504q93 34 181.5 30.5t164 -39.5t130 -98.5t79.5 -146.5t11 -184t-64.5 -187.5t-126.5 -154t-169 -104.5t-193 -38zM449 114q100 0 185 48.5t140.5 127.5t68.5 169
q13 94 -22 171.5t-106.5 124t-166.5 46.5q-98 0 -182.5 -48t-140.5 -125.5t-69 -168.5q-13 -98 23 -176t107.5 -123.5t162.5 -45.5z" />
    <glyph glyph-name="seven" unicode="7" horiz-adv-x="1069" 
d="M43 0l902 1260h-826l19 140h989l-19 -140l-905 -1260h-160z" />
    <glyph glyph-name="eight" unicode="8" horiz-adv-x="1053" 
d="M424 -26q-123 0 -216.5 56t-140.5 150t-31 209q16 112 91 204.5t181 143.5q-76 47 -117 128.5t-28 179.5q15 105 82.5 191.5t168.5 138t214 51.5t199 -51.5t129.5 -138t28.5 -191.5q-13 -98 -77.5 -179.5t-153.5 -128.5q93 -51 142 -143.5t33 -204.5
q-16 -114 -89.5 -208.5t-182.5 -150.5t-233 -56zM443 114q83 0 156 37t121.5 99.5t59.5 138.5t-20.5 138t-93.5 99t-145 37q-81 0 -154 -37t-122 -99t-60 -138t20.5 -138.5t94 -99.5t143.5 -37zM540 803q73 0 137 32.5t107 87.5t52 122q10 67 -17.5 121.5t-82 87
t-127.5 32.5t-137 -32.5t-107 -87t-53 -121.5q-9 -67 18.5 -122t82.5 -87.5t127 -32.5z" />
    <glyph glyph-name="nine" unicode="9" horiz-adv-x="1053" 
d="M254 0l384 535q-111 -40 -215.5 -24.5t-184 76t-119 156t-22.5 215.5q13 96 61 181t121.5 149.5t163 101t186.5 36.5q128 0 225 -63.5t145.5 -169.5t30.5 -235q-10 -73 -35.5 -125.5t-68.5 -117.5l-511 -715h-161zM515 630q95 0 176 45.5t134.5 120.5t65.5 161
q13 94 -22 168.5t-103.5 118t-155.5 43.5q-96 0 -177 -46t-134 -121.5t-66 -162.5q-12 -90 21.5 -164.5t101.5 -118.5t159 -44z" />
    <glyph glyph-name="colon" unicode=":" horiz-adv-x="360" 
d="M179 840q-33 0 -53 23.5t-15 57.5q5 32 31 55.5t59 23.5q34 0 54.5 -23.5t15.5 -55.5q-5 -34 -31.5 -57.5t-60.5 -23.5zM57 -26q-33 0 -52.5 23.5t-15.5 57.5q5 32 31.5 55.5t59.5 23.5q34 0 54 -23.5t15 -55.5q-4 -34 -31 -57.5t-61 -23.5z" />
    <glyph glyph-name="semicolon" unicode=";" horiz-adv-x="410" 
d="M-34 -112l109 338h140l-156 -338h-93zM231 840q-34 0 -54.5 23t-15.5 56q5 34 31.5 57.5t60.5 23.5q32 0 52.5 -23.5t15.5 -57.5q-5 -33 -31.5 -56t-58.5 -23z" />
    <glyph glyph-name="less" unicode="&#x3c;" horiz-adv-x="1160" 
d="M1010 200l-960 284l32 230l1040 286l-20 -147l-929 -253l857 -255z" />
    <glyph glyph-name="equal" unicode="=" horiz-adv-x="1160" 
d="M28 328l19 140h1000l-19 -140h-1000zM85 732l19 140h1000l-19 -140h-1000z" />
    <glyph glyph-name="greater" unicode="&#x3e;" horiz-adv-x="1160" 
d="M10 204l21 145l928 251l-858 249l21 147l960 -282l-32 -230z" />
    <glyph glyph-name="question" unicode="?" horiz-adv-x="1003" 
d="M394 481q14 99 75.5 182t155.5 131q65 32 109 94.5t54 137.5q11 73 -16.5 132t-82 94t-126.5 35t-136 -35t-107.5 -94t-53.5 -132h-140q16 111 82.5 202t165.5 145t209 54q111 0 194.5 -54t125 -145t25.5 -202q-16 -113 -84 -208.5t-171 -147.5q-57 -28 -94 -78t-45 -111
h-140zM389 -26q-33 0 -53 24t-16 57q5 33 31.5 56t59.5 23q34 0 54 -23t15 -56q-4 -33 -31 -57t-60 -24z" />
    <glyph glyph-name="at" unicode="@" horiz-adv-x="1731" 
d="M741 -186q-162 0 -297 54t-229.5 152.5t-136.5 233.5t-19 297t104 304.5t204 250.5t274 169t314 61q164 0 298 -61.5t226.5 -169.5t133 -250t17.5 -304q-12 -82 -43.5 -164t-80 -149.5t-111 -108t-135.5 -40.5q-57 0 -109 26.5t-83 72.5t-28 103q-50 -63 -122 -100.5
t-160 -37.5q-109 0 -192 53.5t-123.5 144t-25.5 200.5q16 110 82 200t164 143.5t207 53.5q86 0 152 -36.5t97 -97.5l16 114l111 -17l-80 -570q-7 -48 26.5 -80t80.5 -32q60 0 104.5 50.5t73.5 125t39 146.5q19 134 -15 251t-110.5 205.5t-186.5 138.5t-243 50t-257 -50
t-225 -138.5t-168 -205.5t-86 -251t16 -243.5t112.5 -188.5t188.5 -122t245 -43zM783 266q79 0 142.5 43t104 111.5t50.5 142.5q10 71 -10.5 133t-72 100.5t-135.5 38.5q-79 0 -149 -38t-117 -102.5t-58 -143.5q-11 -80 19 -144.5t89.5 -102.5t136.5 -38z" />
    <glyph glyph-name="A" unicode="A" horiz-adv-x="1353" 
d="M687 1400h174l314 -1400h-149l-68 300h-676l-151 -300h-149zM353 440h574l-177 788z" />
    <glyph glyph-name="B" unicode="B" horiz-adv-x="1115" 
d="M22 0l196 1400h473q102 0 180 -41.5t116.5 -121t22.5 -192.5q-9 -64 -40 -122t-74 -98.5t-88 -52.5q60 -16 99.5 -55.5t61 -93t26.5 -112.5t-3 -116q-16 -118 -80 -207t-157 -138.5t-198 -49.5h-535zM179 125h384q73 0 138 38t110 104t56 149q11 74 -15.5 139.5
t-80.5 106t-127 40.5h-384zM278 825h320q99 0 178 57.5t94 163.5q16 116 -47 172.5t-162 56.5h-320z" />
    <glyph glyph-name="C" unicode="C" horiz-adv-x="1418" 
d="M666 -26q-142 0 -259 56.5t-197.5 156t-115.5 231.5t-14 282t93 282t180.5 231.5t241.5 156t275 56.5q170 0 301.5 -79t207.5 -210l-133 -67q-60 99 -165 157.5t-230 58.5q-115 0 -221 -46.5t-192.5 -127.5t-143.5 -187t-74 -225q-17 -121 10.5 -227t91.5 -187
t157 -126.5t206 -45.5q131 0 251 59.5t206 155.5l114 -67q-112 -131 -266 -209.5t-324 -78.5z" />
    <glyph glyph-name="D" unicode="D" horiz-adv-x="1343" 
d="M22 0l196 1400h463q145 0 264.5 -54.5t202 -151t119 -223t16.5 -271.5t-92 -271.5t-182 -223t-244.5 -151t-279.5 -54.5h-463zM181 140h323q116 0 223.5 43.5t195.5 120.5t146 178.5t74 217.5t-13.5 217.5t-95.5 178.5t-161.5 120.5t-211.5 43.5h-322z" />
    <glyph glyph-name="E" unicode="E" 
d="M22 0l196 1400h852l-19 -140h-712l-62 -440h589l-19 -140h-590l-76 -540h712l-19 -140h-852z" />
    <glyph glyph-name="F" unicode="F" horiz-adv-x="959" 
d="M22 0l196 1400h819l-20 -140h-678l-62 -440h582l-19 -140h-583l-95 -680h-140z" />
    <glyph glyph-name="G" unicode="G" horiz-adv-x="1536" 
d="M667 -26q-144 0 -261.5 56.5t-197.5 157t-114.5 232t-13.5 281.5q21 153 94.5 285t183.5 230.5t242.5 153.5t272.5 55q161 0 293.5 -75t214.5 -213l-135 -68q-66 105 -170 161t-223 56q-113 0 -219.5 -45.5t-193.5 -126.5t-145 -187t-75 -228q-17 -121 11 -227t92 -186.5
t157.5 -126t207.5 -45.5q94 0 183.5 32.5t167 91.5t137.5 138t95 172h-377l18 127h541q-24 -145 -97 -272t-180.5 -223.5t-238 -151t-270.5 -54.5z" />
    <glyph glyph-name="H" unicode="H" horiz-adv-x="1255" 
d="M1093 1400h140l-196 -1400h-140l95 680h-735l-95 -680h-140l196 1400h140l-81 -580h734z" />
    <glyph glyph-name="I" unicode="I" horiz-adv-x="440" 
d="M52 0l196 1400h140l-196 -1400h-140z" />
    <glyph glyph-name="J" unicode="J" horiz-adv-x="803" 
d="M188 -26q-68 0 -129.5 22.5t-108.5 68.5l105 108q28 -27 67 -43t85 -16q70 0 133 37.5t105.5 98t52.5 129.5l143 1021h140l-143 -1021q-15 -108 -81 -200t-163 -148.5t-206 -56.5z" />
    <glyph glyph-name="K" unicode="K" horiz-adv-x="1066" 
d="M921 0h-181l-371 629l-139 -143l-68 -486h-140l196 1400h140l-98 -696l681 696h183l-648 -661z" />
    <glyph glyph-name="L" unicode="L" horiz-adv-x="1003" 
d="M22 0l196 1400h140l-177 -1260h644l-20 -140h-783z" />
    <glyph glyph-name="M" unicode="M" horiz-adv-x="1769" 
d="M22 0l467 1400h102l247 -1030l535 1030h102l76 -1400h-143l-57 1071l-508 -979h-89l-233 979l-357 -1071h-142z" />
    <glyph glyph-name="N" unicode="N" horiz-adv-x="1271" 
d="M22 0l196 1400h152l578 -1147l161 1147h140l-196 -1400h-151l-579 1147l-161 -1147h-140z" />
    <glyph glyph-name="O" unicode="O" horiz-adv-x="1540" 
d="M668 -26q-142 0 -259.5 56.5t-198 156.5t-116 231.5t-14.5 281.5t93 281.5t181.5 231.5t242.5 156.5t275 56.5q143 0 260 -56.5t197.5 -156.5t116 -231.5t14.5 -281.5t-93 -281.5t-181.5 -231.5t-242 -156.5t-275.5 -56.5zM687 114q115 0 221 46.5t193 127.5t144.5 187
t74.5 225q17 120 -11 226.5t-92 187t-157 126.5t-207 46q-115 0 -221 -46.5t-193 -127.5t-144.5 -187t-74.5 -225q-17 -121 11 -227t92 -187t157 -126.5t207 -45.5z" />
    <glyph glyph-name="P" unicode="P" horiz-adv-x="1047" 
d="M22 0l196 1400h448q112 0 194.5 -54.5t123 -147t23.5 -207.5q-16 -116 -83.5 -209t-165.5 -147t-207 -54h-308l-81 -581h-140zM263 721h296q74 0 140.5 36.5t112.5 99t56 141.5q12 79 -16 141.5t-84.5 99t-130.5 36.5h-296z" />
    <glyph glyph-name="Q" unicode="Q" horiz-adv-x="1553" 
d="M1270 -24l-144 167q-99 -78 -216.5 -122t-241.5 -44q-143 0 -260 56.5t-198 156t-116 231.5t-14 282t93 281.5t181 231.5t242 156.5t276 56.5t259.5 -56.5t197.5 -156.5t116 -231.5t14 -281.5q-19 -132 -77 -249t-145 -211l146 -168zM688 117q90 0 182.5 33t168.5 94
l-178 207l113 100l174 -204q69 75 113.5 167t57.5 189q17 121 -11 227t-92 187t-157 126.5t-206 45.5q-115 0 -221 -46.5t-193 -128t-144.5 -187t-74.5 -224.5q-17 -121 11 -227t92.5 -187t158 -126.5t206.5 -45.5z" />
    <glyph glyph-name="R" unicode="R" horiz-adv-x="1115" 
d="M22 0l196 1400h475q112 0 194.5 -54.5t122.5 -147t24 -207.5q-14 -103 -68 -187t-134.5 -139t-174.5 -73l260 -592h-162l-256 581h-256l-81 -581h-140zM263 721h323q74 0 140.5 36.5t112 99t56.5 141.5q12 79 -16 141.5t-84.5 99t-130.5 36.5h-323z" />
    <glyph glyph-name="S" unicode="S" horiz-adv-x="1220" 
d="M507 -26q-112 0 -211.5 35t-168 100t-88.5 155l138 49q14 -62 66 -106.5t127 -68.5t157 -24q95 0 182.5 32t147 89.5t70.5 135.5q11 79 -35 130t-125 80.5t-168 45.5q-139 25 -247 68t-163 121.5t-37 207.5q17 121 100 210t204.5 138t254.5 49q109 0 208 -34t169.5 -99
t92.5 -159l-140 -48q-13 63 -65.5 107.5t-127.5 68t-157 23.5q-95 1 -182.5 -31.5t-146.5 -90t-70 -134.5q-12 -90 29 -138.5t119.5 -72.5t178.5 -43q131 -23 239 -71.5t167 -129t42 -198.5q-17 -120 -99.5 -209.5t-204 -138.5t-256.5 -49z" />
    <glyph glyph-name="T" unicode="T" horiz-adv-x="1259" 
d="M1277 1400l-20 -140h-480l-176 -1260h-140l176 1260h-478l19 140h1099z" />
    <glyph glyph-name="U" unicode="U" horiz-adv-x="1326" 
d="M561 -26q-168 0 -278 82t-156.5 220.5t-22.5 307.5l114 816h140l-114 -816q-18 -128 13.5 -235t112.5 -171t211 -64q131 0 230 64.5t160 171.5t79 234l114 816h140l-114 -816q-18 -127 -71 -237.5t-135.5 -194.5t-189.5 -131t-233 -47z" />
    <glyph glyph-name="V" unicode="V" horiz-adv-x="1280" 
d="M457 0l-312 1400h148l273 -1224l617 1224h148l-705 -1400h-169z" />
    <glyph glyph-name="W" unicode="W" horiz-adv-x="1688" 
d="M307 0l-162 1400h144l134 -1159l457 1159h124l134 -1159l457 1159h144l-552 -1400h-166l-124 1075l-426 -1075h-164z" />
    <glyph glyph-name="X" unicode="X" horiz-adv-x="1319" 
d="M-38 0l612 704l-410 696h173l340 -578l501 578h173l-603 -696l413 -704h-174l-344 584l-506 -584h-175z" />
    <glyph glyph-name="Y" unicode="Y" horiz-adv-x="1203" 
d="M1076 1400h165l-579 -766l-89 -634h-140l89 634l-364 766h165l290 -613z" />
    <glyph glyph-name="Z" unicode="Z" horiz-adv-x="1292" 
d="M-18 0l19 140l1102 1120h-944l19 140h1132l-19 -140l-1102 -1120h944l-19 -140h-1132z" />
    <glyph glyph-name="bracketleft" unicode="[" horiz-adv-x="539" 
d="M344 28l-19 -140h-319l212 1512h319l-20 -140h-178l-174 -1232h179z" />
    <glyph glyph-name="backslash" unicode="\" horiz-adv-x="705" 
d="M371 -112l-193 1512h140l193 -1512h-140z" />
    <glyph glyph-name="bracketright" unicode="]" horiz-adv-x="539" 
d="M-14 -112l19 140h180l173 1232h-179l19 140h319l-212 -1512h-319z" />
    <glyph glyph-name="asciicircum" unicode="^" horiz-adv-x="785" 
d="M122 1000l328 650h153l144 -650h-149l-100 451l-228 -451h-148z" />
    <glyph glyph-name="underscore" unicode="_" horiz-adv-x="1240" 
d="M25 28h1000l-19 -140h-1000z" />
    <glyph glyph-name="grave" unicode="`" horiz-adv-x="753" 
d="M338 1398h140l40 -288h-93z" />
    <glyph glyph-name="a" unicode="a" horiz-adv-x="1161" 
d="M984 1000h140l-140 -1000h-140l21 186q-62 -95 -158.5 -153.5t-218.5 -58.5q-110 0 -200.5 41.5t-153 114.5t-90 169t-11.5 206q15 108 68.5 203t135.5 167t182 112.5t208 40.5q125 0 210 -59.5t126 -155.5zM504 110q107 0 191.5 52.5t138.5 141.5t69 196
q16 110 -14 198.5t-99.5 140.5t-175.5 52t-201 -52.5t-159 -141.5t-79 -197q-15 -109 25 -197.5t120.5 -140.5t183.5 -52z" />
    <glyph glyph-name="b" unicode="b" horiz-adv-x="1204" 
d="M663 1028q146 0 255.5 -71t164 -190.5t33.5 -265.5q-15 -109 -69.5 -204.5t-137 -168t-184 -113.5t-210.5 -41q-124 0 -206 59t-120 154l-26 -187h-140l210 1500h140l-96 -685q65 95 163.5 154t222.5 59zM533 111q107 0 201.5 52.5t159 141.5t79.5 196
q16 110 -24.5 198.5t-121 140.5t-184.5 52q-106 0 -191 -53t-139 -142t-69 -196q-15 -109 15 -197.5t99.5 -140.5t174.5 -52z" />
    <glyph glyph-name="c" unicode="c" horiz-adv-x="1019" 
d="M771 251l115 -68q-82 -95 -194 -152t-234 -57q-138 0 -241.5 71t-154 190.5t-30.5 264.5q15 110 67.5 205.5t131.5 168t175.5 113.5t199.5 41q122 0 218.5 -57t151.5 -153l-135 -67q-43 66 -110.5 101.5t-143.5 35.5q-102 0 -191 -53.5t-149 -141.5t-75 -193t21 -193
t110.5 -140.5t173.5 -52.5q83 0 160.5 38t133.5 99z" />
    <glyph glyph-name="d" unicode="d" horiz-adv-x="1203" 
d="M1055 1500h140l-210 -1500h-140l26 187q-65 -96 -164 -154.5t-223 -58.5q-109 0 -198.5 41t-151.5 113.5t-89.5 167.5t-12.5 204t69.5 204.5t137 168t183.5 113.5t210 41q124 0 206.5 -58.5t120.5 -153.5zM504 110q107 0 191.5 52.5t138.5 141.5t69 196q16 110 -14 198.5
t-99.5 140.5t-175.5 52t-200.5 -52.5t-159 -141.5t-79.5 -197q-15 -109 25 -197.5t120.5 -140.5t183.5 -52z" />
    <glyph glyph-name="e" unicode="e" horiz-adv-x="1116" 
d="M458 -26q-138 0 -241.5 71t-154 190.5t-30.5 264.5q15 110 67.5 205.5t131.5 168t175.5 113.5t199.5 41q111 0 198.5 -44t143.5 -123t76 -185t-4 -229h-847q-2 -95 36 -170t107 -118.5t161 -44.5q100 0 188.5 52t149.5 143l137 -33q-79 -133 -211.5 -217.5t-282.5 -84.5z
M185 560h710q6 93 -32.5 170.5t-109.5 124t-164 46.5q-94 0 -177 -45.5t-143 -123t-84 -172.5z" />
    <glyph glyph-name="f" unicode="f" horiz-adv-x="667" 
d="M405 1261l-36 -261h300l-19 -140h-301l-120 -860h-140l120 860h-136l19 140h137l36 261q11 73 55 132.5t109 95t138 35.5q53 0 99.5 -21t79.5 -62l-114 -99q-13 20 -36 31t-49 11q-51 0 -92.5 -36t-49.5 -87z" />
    <glyph glyph-name="g" unicode="g" horiz-adv-x="1175" 
d="M957 1000h140l-145 -1037q-13 -96 -66.5 -180t-133.5 -147.5t-175 -99.5t-192 -36q-104 0 -194 47.5t-150 126.5t-77 175l137 59q8 -75 52 -135.5t110.5 -96t141.5 -35.5q69 0 137 25.5t126 69.5t96.5 102.5t47.5 124.5l31 221q-65 -94 -162 -152t-214 -58
q-105 0 -191.5 41t-146.5 113.5t-86 167.5t-11 204t68 204.5t133.5 168t178.5 113.5t203 41q117 0 197.5 -57.5t119.5 -152.5zM487 110q103 0 186.5 54t137.5 143t68 193q15 107 -14 195.5t-97.5 142t-170.5 53.5q-103 0 -193.5 -52.5t-152 -141.5t-76.5 -197t22 -196.5
t113.5 -141t176.5 -52.5z" />
    <glyph glyph-name="h" unicode="h" horiz-adv-x="1073" 
d="M981 619l-86 -619h-140l82 591q12 82 -18.5 149t-92 107t-143.5 40t-154.5 -40t-121.5 -107t-61 -149l-83 -591h-140l210 1500h140l-89 -638q64 76 155 121t191 45q113 0 198 -55t127 -148t26 -206z" />
    <glyph glyph-name="i" unicode="i" horiz-adv-x="380" 
d="M162 1000h140l-140 -1000h-140zM258 1175q-34 0 -54.5 22.5t-15.5 56.5t31.5 56.5t60.5 22.5q33 0 53.5 -22.5t15.5 -56.5t-31 -56.5t-60 -22.5z" />
    <glyph glyph-name="j" unicode="j" horiz-adv-x="441" 
d="M-249 -500l20 140q75 0 138.5 33t106 90.5t52.5 128.5l155 1108h140l-155 -1108q-15 -108 -80.5 -197t-163.5 -142t-213 -53zM319 1175q-34 0 -54.5 22.5t-15.5 56.5t31.5 56.5t60.5 22.5q33 0 53.5 -22.5t15.5 -56.5t-31 -56.5t-60 -22.5z" />
    <glyph glyph-name="k" unicode="k" horiz-adv-x="983" 
d="M804 0h-161l-213 483l-233 -239l-34 -244h-140l210 1500h140l-146 -1038l527 538h183l-395 -403z" />
    <glyph glyph-name="l" unicode="l" horiz-adv-x="380" 
d="M23 0l210 1500h140l-210 -1500h-140z" />
    <glyph glyph-name="m" unicode="m" horiz-adv-x="1776" 
d="M22 0l140 1000h140l-19 -138q65 76 155 121t190 45q113 0 199 -55.5t126 -147.5q66 92 167 147.5t214 55.5t198 -55t127.5 -148t25.5 -206l-86 -619h-140l83 588q11 80 -18.5 148t-89.5 109.5t-140 41.5t-151 -38.5t-119 -106t-61 -154.5l-82 -588h-140l82 588
q13 87 -17 154.5t-90.5 106t-140.5 38.5q-79 0 -150.5 -41.5t-120 -109.5t-59.5 -148l-83 -588h-140z" />
    <glyph glyph-name="n" unicode="n" 
d="M980 619l-86 -619h-140l82 591q12 82 -18.5 149t-92 107t-143.5 40t-154.5 -40t-121.5 -107t-61 -149l-83 -591h-140l140 1000h140l-19 -138q64 76 155 121t191 45q113 0 198 -55t127 -148t26 -206z" />
    <glyph glyph-name="o" unicode="o" horiz-adv-x="1120" 
d="M458 -26q-138 0 -241.5 71t-154 190.5t-30.5 264.5q15 110 67.5 205.5t131.5 168t175.5 113.5t199.5 41q138 0 241.5 -71t154.5 -191t30 -266q-15 -109 -67.5 -204t-131.5 -167.5t-175 -113.5t-200 -41zM477 114q102 0 191 53.5t149.5 141.5t74.5 191q15 105 -21 193.5
t-109.5 141.5t-174.5 53q-102 0 -191 -53.5t-149 -141.5t-75 -193q-15 -108 21.5 -195.5t111 -139t172.5 -51.5z" />
    <glyph glyph-name="p" unicode="p" horiz-adv-x="1202" 
d="M91 -500h-140l211 1500h140l-26 -187q65 95 163.5 154t222.5 59q109 0 198.5 -41t152 -113.5t89.5 -167.5t12 -204t-69.5 -205t-137 -168.5t-183.5 -113.5t-210 -41q-124 0 -206 59t-120 154zM641 890q-105 0 -189.5 -52.5t-139 -140.5t-69.5 -197q-15 -107 14 -196
t98.5 -142t175.5 -53q104 0 199 52t161 140.5t81 198.5q15 107 -24.5 195.5t-119.5 141.5t-187 53z" />
    <glyph glyph-name="q" unicode="q" horiz-adv-x="1202" 
d="M484 -28q-145 0 -254.5 71t-163.5 191t-34 266q15 109 69.5 204t137 167.5t183.5 113.5t210 41q124 0 206 -59t120 -154l26 187h140l-211 -1500h-140l97 685q-65 -95 -163.5 -154t-222.5 -59zM614 890q-107 0 -201.5 -53t-158.5 -141.5t-79 -195.5q-15 -110 25 -198.5
t120 -140.5t184 -52q107 0 191 53t138.5 142t69.5 196q15 109 -15 197t-99.5 140.5t-174.5 52.5z" />
    <glyph glyph-name="r" unicode="r" horiz-adv-x="715" 
d="M22 0l140 1000h140l-19 -138q64 76 155 121t191 45q58 0 110 -15l-77 -139q-39 13 -80 13q-82 0 -154.5 -40t-121.5 -107t-61 -149l-83 -591h-140z" />
    <glyph glyph-name="s" unicode="s" horiz-adv-x="859" 
d="M328 -19q-82 2 -156 30t-125.5 76t-67.5 109l129 52q10 -39 48.5 -71.5t92 -52t108.5 -19.5q61 0 117 20t95 57.5t46 88.5q8 55 -24 86.5t-84.5 50t-107.5 35.5q-102 29 -178 64t-114 89.5t-26 140.5q13 91 74 157.5t149.5 103t183.5 36.5q122 0 215 -53t126 -141
l-123 -67q-12 41 -46.5 71t-81.5 47t-98 18q-64 1 -122 -18.5t-96.5 -57.5t-46.5 -93t21 -83.5t83 -46t121 -40.5q88 -29 162.5 -66t116 -92t28.5 -139q-13 -90 -76 -157t-154.5 -102.5t-188.5 -32.5z" />
    <glyph glyph-name="t" unicode="t" horiz-adv-x="690" 
d="M654 860h-239l-122 -860h-140l122 860h-181l19 140h181l43 314h140l-43 -314h239z" />
    <glyph glyph-name="u" unicode="u" horiz-adv-x="1032" 
d="M36 383l86 617h140l-83 -589q-11 -82 19.5 -149t92 -107t142.5 -40q82 0 155 40t122.5 107t60.5 149l82 589h140l-139 -1000h-140l18 140q-64 -76 -154.5 -121t-190.5 -45q-113 0 -198 55t-127 148t-26 206z" />
    <glyph glyph-name="v" unicode="v" horiz-adv-x="1029" 
d="M505 0h-178l-224 1003h149l187 -839l422 839h150z" />
    <glyph glyph-name="w" unicode="w" horiz-adv-x="1625" 
d="M441 0h-144l-195 1000h137l159 -806l383 806h148l157 -806l383 806h138l-475 -1000h-145l-159 814z" />
    <glyph glyph-name="x" unicode="x" horiz-adv-x="1065" 
d="M-18 0l436 502l-294 501h173l224 -381l332 381h173l-435 -501l296 -502h-173l-226 384l-333 -384h-173z" />
    <glyph glyph-name="y" unicode="y" horiz-adv-x="1033" 
d="M847 1000h148l-758 -1500h-149l253 500l-219 1000h153l162 -807z" />
    <glyph glyph-name="z" unicode="z" horiz-adv-x="1014" 
d="M957 860l-758 -720h656l-19 -140h-854l19 140l758 720h-656l19 140h854z" />
    <glyph glyph-name="braceleft" unicode="{" horiz-adv-x="803" 
d="M515 -113q-97 0 -170 47.5t-108.5 127t-22.5 175.5l34 245q3 33 -18.5 51t-50.5 31t-50 30.5t-17 48.5q5 32 31 50t58.5 31t59.5 30.5t33 49.5l34 246q14 96 72 175.5t144 127t183 47.5h74l-19 -140h-74q-57 0 -109 -28.5t-87 -76t-44 -105.5l-35 -251q-7 -39 -25 -62
t-46.5 -43t-70.5 -51q34 -33 57.5 -53t34.5 -41.5t7 -61.5l-36 -250q-8 -58 13.5 -105.5t65.5 -76t102 -28.5h74l-20 -140h-74z" />
    <glyph glyph-name="bar" unicode="|" horiz-adv-x="420" 
d="M238 1400h140l-239 -1702h-140z" />
    <glyph glyph-name="braceright" unicode="}" horiz-adv-x="803" 
d="M-14 -113l19 140h74q58 0 109.5 28.5t87 76t43.5 105.5l35 250q8 40 25 61.5t46 41.5t72 53q-33 31 -56.5 51t-34.5 43t-8 62l35 251q9 58 -13 105.5t-66 76t-101 28.5h-74l19 140h74q97 0 170 -47.5t109 -127t22 -175.5l-34 -246q-3 -32 19 -49.5t51 -30.5t50 -31
t16 -50q-4 -31 -30.5 -48.5t-59 -30.5t-59.5 -31t-33 -51l-34 -245q-13 -96 -71.5 -175.5t-144.5 -127t-183 -47.5h-74z" />
    <glyph glyph-name="asciitilde" unicode="~" horiz-adv-x="1224" 
d="M858 423q-63 0 -132.5 33t-138 76.5t-131.5 76.5t-114 33q-44 1 -79.5 -23.5t-55 -64t-16.5 -83.5l-138 -7q-7 78 33.5 149.5t111.5 117.5t154 46q61 0 125 -33.5t128.5 -77.5t126.5 -77.5t117 -33.5q45 0 81 24t56.5 63t16.5 82l137 9q8 -81 -29.5 -151.5t-104.5 -114.5
t-148 -44z" />
    <glyph glyph-name="uni00A0" unicode="&#xa0;" horiz-adv-x="480" 
 />
    <glyph glyph-name="exclamdown" unicode="&#xa1;" horiz-adv-x="333" 
d="M205 1026q34 0 53.5 -23t14.5 -58q-4 -33 -30.5 -56t-60.5 -23q-32 0 -52 23t-16 56q5 35 31.5 58t59.5 23zM204 580l-138 -980h-124l138 980h124z" />
    <glyph glyph-name="cent" unicode="&#xa2;" horiz-adv-x="1092" 
d="M428 0l28 203q-123 14 -214.5 83.5t-135.5 178t-26 237.5q19 129 93.5 237t185 177.5t237.5 82.5l28 201h107l-28 -201q118 -10 209 -74.5t137 -162.5l-131 -70q-37 78 -115 125t-170 47q-99 0 -188 -49t-149.5 -131t-75.5 -182q-14 -102 24.5 -184.5t114 -131
t172.5 -48.5q92 0 183 47t150 125l111 -70q-73 -98 -181.5 -162t-230.5 -75l-28 -203h-107z" />
    <glyph glyph-name="sterling" unicode="&#xa3;" horiz-adv-x="1161" 
d="M6 0l19 140q58 0 114.5 15.5t103 44t74 68.5t26.5 89q4 64 -14 109t-48.5 81t-64 71t-61.5 76t-41 97.5t-2 135.5q14 103 66 193t130 159t174 108t199 39q104 0 189.5 -39t144.5 -107.5t85.5 -159t12.5 -193.5h-140q14 99 -23.5 180.5t-112.5 130t-175 48.5
q-98 0 -186.5 -48.5t-149 -130t-74.5 -180.5q-11 -82 4 -136t45.5 -92t66.5 -70.5t66.5 -71t45.5 -93.5t3 -139q-6 -41 -30 -78t-56 -65t-64 -42h660l-19 -140h-968zM69 449l15 107h751l-16 -107h-750z" />
    <glyph glyph-name="currency" unicode="&#xa4;" horiz-adv-x="983" 
d="M97 288l-65 75l142 125q-37 63 -42 137t21 148.5t82 136.5l-107 128l86 74l108 -126q68 46 145 62t150 1t127 -61l143 124l64 -74l-141 -125q40 -62 45.5 -137.5t-21 -151t-82.5 -138.5l104 -123l-86 -75l-105 122q-70 -48 -147.5 -64t-150 0.5t-129.5 65.5zM458 445
q70 1 132 35t104 91t52 127q10 72 -16 128.5t-78.5 90t-122.5 33.5q-71 0 -133 -34t-103.5 -91.5t-51.5 -126.5q-10 -71 17 -128.5t80 -91t120 -33.5z" />
    <glyph glyph-name="yen" unicode="&#xa5;" horiz-adv-x="1229" 
d="M447 0l27 193h-294l14 106h294l23 160h-294l15 106h294l9 69l-364 766h165l291 -613l462 613h165l-579 -766l-9 -69h294l-15 -106h-294l-23 -160h294l-14 -106h-294l-27 -193h-140z" />
    <glyph glyph-name="brokenbar" unicode="&#xa6;" horiz-adv-x="380" 
d="M85 448h140l-106 -750h-140zM218 1400h140l-105 -750h-140z" />
    <glyph glyph-name="section" unicode="&#xa7;" horiz-adv-x="1076" 
d="M390 -401q-122 0 -214.5 53t-126.5 141l123 66q12 -40 46.5 -70t82 -47.5t97.5 -18.5q65 -1 122.5 18.5t96.5 58t46 93.5q8 56 -20 87.5t-81.5 49.5t-123.5 33q-117 23 -201 81t-122.5 148t-22.5 207q12 84 56 159t111.5 131.5t148.5 83.5q-107 26 -152.5 82.5
t-32.5 149.5q13 91 74 157.5t149.5 102.5t183.5 36q122 0 214.5 -52.5t126.5 -141.5l-123 -66q-12 40 -46.5 70t-82 47.5t-98.5 18.5q-64 1 -121.5 -18.5t-96 -58t-46.5 -93.5t19 -86t80.5 -49t123.5 -34q121 -26 205 -82.5t122 -144.5t21 -212q-12 -84 -56.5 -159
t-112 -131t-148.5 -83q107 -25 153 -82t33 -149q-13 -91 -74 -157.5t-149 -102.5t-184 -36zM473 205q79 0 149.5 40t118.5 106t59 144q13 93 -20 160.5t-95.5 103.5t-140.5 36q-76 0 -146.5 -40t-118.5 -107.5t-60 -148.5q-12 -83 20 -149.5t94.5 -105.5t139.5 -39z" />
    <glyph glyph-name="dieresis" unicode="&#xa8;" horiz-adv-x="1278" 
d="M536 1081q-34 0 -55 22.5t-16 56.5q5 33 32 57t61 24q33 0 54 -24t16 -57q-5 -34 -32 -56.5t-60 -22.5zM851 1081q-34 0 -55 22.5t-17 56.5q5 33 32.5 57t61.5 24q33 0 54 -24t16 -57q-5 -34 -32 -56.5t-60 -22.5z" />
    <glyph glyph-name="copyright" unicode="&#xa9;" horiz-adv-x="1803" 
d="M772 -217q-170 0 -310 64t-237 177t-139.5 262t-18.5 319t108.5 319t213 262t286.5 176.5t328 63.5t310 -63.5t237.5 -176.5t140.5 -262t19 -319t-109 -319t-214 -262t-287 -177t-328 -64zM792 -77q144 0 275.5 54t238 148.5t176 217.5t88.5 262q20 141 -16 265t-117 218
t-197 146.5t-256 51.5q-142 -1 -273 -54.5t-238 -147.5t-176.5 -216.5t-89.5 -262.5q-20 -144 16.5 -268t117.5 -217t197 -145t254 -52zM1120 356l115 -68q-82 -95 -194 -152t-234 -57q-138 0 -241.5 71t-154 190.5t-30.5 264.5q15 110 67.5 205.5t131.5 168t175.5 113.5
t199.5 41q122 0 218.5 -57t151.5 -153l-135 -67q-43 66 -110.5 101.5t-143.5 35.5q-102 0 -191 -53.5t-149 -141.5t-75 -193t21 -193t110.5 -140.5t173.5 -52.5q83 0 160.5 38t133.5 99z" />
    <glyph glyph-name="ordfeminine" unicode="&#xaa;" horiz-adv-x="1161" 
d="M984 1000h140l-140 -1000h-140l21 186q-62 -95 -158.5 -153.5t-218.5 -58.5q-110 0 -200.5 41.5t-153 114.5t-90 169t-11.5 206q15 108 68.5 203t135.5 167t182 112.5t208 40.5q125 0 210 -59.5t126 -155.5zM504 110q107 0 191.5 52.5t138.5 141.5t69 196
q16 110 -14 198.5t-99.5 140.5t-175.5 52t-201 -52.5t-159 -141.5t-79 -197q-15 -109 25 -197.5t120.5 -140.5t183.5 -52z" />
    <glyph glyph-name="guillemotleft" unicode="&#xab;" horiz-adv-x="1020" 
d="M358 261l-252 340l348 338h153l-347 -338l251 -340h-153zM705 261l-252 340l348 338h153l-347 -338l251 -340h-153z" />
    <glyph glyph-name="logicalnot" unicode="&#xac;" horiz-adv-x="973" 
d="M699 315l60 430h-673l20 140h813l-80 -570h-140z" />
    <glyph glyph-name="uni00AD" unicode="&#xad;" horiz-adv-x="907" 
d="M143 670h640l-20 -140h-640z" />
    <glyph glyph-name="registered" unicode="&#xae;" horiz-adv-x="995" 
d="M464 463q-91 0 -166 35t-126 95.5t-73.5 139.5t-10.5 168q13 89 58 168t113.5 139.5t152.5 95t175 34.5q93 0 167.5 -35t125.5 -96.5t73 -140t10 -165.5q-12 -90 -57 -169t-114 -139.5t-153 -95t-175 -34.5zM479 573q91 0 171.5 44.5t135.5 119t67 164.5q13 90 -21 164.5
t-102 118.5t-159 44q-90 0 -170.5 -44t-135 -118.5t-67.5 -164.5q-12 -90 21.5 -164.5t101.5 -119t158 -44.5zM377 709l56 400h150q48 0 76.5 -35.5t21.5 -85.5q-6 -39 -32 -69.5t-61 -41.5l75 -168h-89l-71 160h-27l-23 -160h-76zM486 945h74q15 0 28 13t16 30
q2 19 -7 31.5t-25 12.5h-73z" />
    <glyph glyph-name="macron" unicode="&#xaf;" horiz-adv-x="1200" 
d="M344 1283h676l-16 -113h-676z" />
    <glyph glyph-name="degree" unicode="&#xb0;" horiz-adv-x="705" 
d="M368 808q-76 0 -133 37.5t-84.5 99.5t-17.5 135q11 75 56 136.5t112.5 98.5t142.5 37q77 0 133 -37.5t83.5 -99t17.5 -135.5q-10 -76 -56 -138t-113 -98t-141 -36zM388 948q55 0 99 38.5t51 93.5q8 56 -25 94t-88 38t-99.5 -38t-52.5 -94q-7 -55 26.5 -93.5t88.5 -38.5z
" />
    <glyph glyph-name="plusminus" unicode="&#xb1;" horiz-adv-x="1160" 
d="M459 333l60 430h-430l19 140h430l61 430h140l-61 -430h430l-19 -140h-430l-60 -430h-140zM-18 0l19 140h1000l-19 -140h-1000z" />
    <glyph glyph-name="uni00B2" unicode="&#xb2;" horiz-adv-x="689" 
d="M113 818l13 98q43 26 103 65t121 84.5t107.5 94t61.5 94.5q7 50 -23 82t-80 32t-90.5 -32t-47.5 -82h-104q9 62 46 110.5t92.5 76t117.5 27.5q92 0 149 -60.5t44 -153.5q-6 -43 -37.5 -88.5t-78 -90t-98.5 -84t-98 -69.5h261l-14 -104h-445z" />
    <glyph glyph-name="uni00B3" unicode="&#xb3;" horiz-adv-x="556" 
d="M293 798q-85 0 -138.5 55t-41.5 141h104q-6 -43 20.5 -69.5t69.5 -26.5q42 0 75 26.5t39 69.5q7 49 -26 81t-103 32l11 83q65 0 100 27t41 70q5 35 -18 57.5t-58 22.5t-64 -22.5t-34 -57.5h-104q11 80 74 130t142 50q80 0 128.5 -50t37.5 -130q-6 -42 -28.5 -79.5
t-50.5 -56.5q35 -32 49.5 -68t6.5 -89q-12 -86 -80 -141t-152 -55z" />
    <glyph glyph-name="acute" unicode="&#xb4;" horiz-adv-x="753" 
d="M351 1110l120 288h140l-166 -288h-94z" />
    <glyph glyph-name="uni00B5" unicode="&#xb5;" horiz-adv-x="1057" 
d="M-79 -432l201 1432h140l-75 -532q-13 -98 16.5 -179.5t93.5 -130t152 -48.5q87 0 163 48.5t127.5 130t65.5 179.5l74 532h140l-140 -1000h-140l24 168q-70 -91 -159.5 -143t-190.5 -52q-94 0 -164 46.5t-108 119.5l-80 -571h-140z" />
    <glyph glyph-name="paragraph" unicode="&#xb6;" horiz-adv-x="857" 
d="M279 -302l144 1020q-94 0 -165 46t-106 123.5t-22 171.5q14 94 70.5 171.5t140 123.5t177.5 46h140l-239 -1702h-140zM496 -302l239 1702h140l-239 -1702h-140z" />
    <glyph glyph-name="periodcentered" unicode="&#xb7;" horiz-adv-x="320" 
d="M134 520q-33 0 -53 23.5t-15 57.5q5 32 31 55.5t59 23.5q34 0 54.5 -23.5t15.5 -55.5q-5 -34 -31.5 -57.5t-60.5 -23.5z" />
    <glyph glyph-name="cedilla" unicode="&#xb8;" horiz-adv-x="1219" 
d="M445 -367q-65 -17 -118 16t-61 96l90 23q4 -27 27 -41t51 -7q29 8 47 32.5t14 52.5t-26.5 41.5t-51.5 7.5l-97 -13l153 214l72 -45l-52 -73q37 -10 62.5 -39t30.5 -70q8 -64 -33 -121t-108 -74z" />
    <glyph glyph-name="uni00B9" unicode="&#xb9;" horiz-adv-x="423" 
d="M192 818l73 527h-78l29 104h168l-88 -631h-104z" />
    <glyph glyph-name="ordmasculine" unicode="&#xba;" horiz-adv-x="1120" 
d="M458 -26q-138 0 -241.5 71t-154 190.5t-30.5 264.5q15 110 67.5 205.5t131.5 168t175.5 113.5t199.5 41q138 0 241.5 -71t154.5 -191t30 -266q-15 -109 -67.5 -204t-131.5 -167.5t-175 -113.5t-200 -41zM477 114q102 0 191 53.5t149.5 141.5t74.5 191q15 105 -21 193.5
t-109.5 141.5t-174.5 53q-102 0 -191 -53.5t-149 -141.5t-75 -193q-15 -108 21.5 -195.5t111 -139t172.5 -51.5z" />
    <glyph glyph-name="guillemotright" unicode="&#xbb;" horiz-adv-x="1040" 
d="M385 261l347 340l-251 338h153l252 -338l-348 -340h-153zM38 261l347 340l-251 338h153l252 -338l-348 -340h-153z" />
    <glyph glyph-name="onequarter" unicode="&#xbc;" horiz-adv-x="1554" 
d="M192 818l73 527h-78l29 104h168l-88 -631h-104zM82 0l1004 1400h128l-1004 -1400h-128zM1138 0l17 121h-267l17 126l298 384h127l-57 -406h70l-14 -104h-70l-17 -121h-104zM1008 225h167l37 264z" />
    <glyph glyph-name="onehalf" unicode="&#xbd;" horiz-adv-x="1562" 
d="M192 818l73 527h-78l29 104h168l-88 -631h-104zM82 0l1004 1400h128l-1004 -1400h-128zM871 0l13 98q43 26 103 65t121 85t107.5 94.5t61.5 94.5q8 50 -22.5 81.5t-80.5 31.5t-90 -31.5t-48 -81.5h-104q9 62 46 111t92 77.5t118 28.5q62 0 108.5 -28.5t70 -77.5
t14.5 -111q-6 -43 -37.5 -89t-78 -90t-98.5 -83.5t-98 -70.5h261l-14 -104h-445z" />
    <glyph glyph-name="threequarters" unicode="&#xbe;" horiz-adv-x="1687" 
d="M293 798q-85 0 -138.5 55t-41.5 141h104q-6 -43 20.5 -69.5t69.5 -26.5q42 0 75 26.5t39 69.5q7 49 -26 81t-103 32l11 83q65 0 100 27t41 70q5 35 -18 57.5t-58 22.5t-64 -22.5t-34 -57.5h-104q11 80 74 130t142 50q80 0 128.5 -50t37.5 -130q-6 -42 -28.5 -79.5
t-50.5 -56.5q35 -32 49.5 -68t6.5 -89q-12 -86 -80 -141t-152 -55zM215 0l1004 1400h128l-1004 -1400h-128zM1271 0l17 121h-267l17 126l298 384h127l-57 -406h70l-14 -104h-70l-17 -121h-104zM1141 225h167l37 264z" />
    <glyph glyph-name="questiondown" unicode="&#xbf;" horiz-adv-x="977" 
d="M323 -427q-111 0 -194.5 54t-124.5 145.5t-26 201.5q16 113 84.5 209.5t170.5 146.5q57 29 94.5 79t45.5 111h140q-14 -97 -75 -180.5t-156 -132.5q-65 -33 -109 -95.5t-55 -137.5q-10 -72 17 -131t81.5 -94.5t126.5 -35.5t136.5 35.5t108.5 94.5t54 131h140
q-15 -110 -82.5 -201.5t-166.5 -145.5t-210 -54zM495 866q-33 0 -53 23t-16 56q5 35 31.5 58t60.5 23q33 0 52.5 -23t14.5 -58q-4 -33 -30.5 -56t-59.5 -23z" />
    <glyph glyph-name="Agrave" unicode="&#xc0;" horiz-adv-x="1353" 
d="M687 1400h174l314 -1400h-149l-68 300h-676l-151 -300h-149zM353 440h574l-177 788zM637 1798h140l40 -288h-93z" />
    <glyph glyph-name="Aacute" unicode="&#xc1;" horiz-adv-x="1353" 
d="M687 1400h174l314 -1400h-149l-68 300h-676l-151 -300h-149zM353 440h574l-177 788zM756 1510l120 288h140l-166 -288h-94z" />
    <glyph glyph-name="Acircumflex" unicode="&#xc2;" horiz-adv-x="1353" 
d="M687 1400h174l314 -1400h-149l-68 300h-676l-151 -300h-149zM353 440h574l-177 788zM907 1798l153 -288h-94l-148 203l-202 -203h-93l231 288h153z" />
    <glyph glyph-name="Atilde" unicode="&#xc3;" horiz-adv-x="1353" 
d="M687 1400h174l314 -1400h-149l-68 300h-676l-151 -300h-149zM353 440h574l-177 788zM947 1531q-37 0 -79 23.5t-83 54t-77 51.5t-62 15q-27 -6 -45.5 -33t-14.5 -65l-98 -26q-12 57 9.5 109t67.5 84.5t105 32.5q38 0 80 -22t84 -50.5t78 -50.5t61 -22q23 0 37.5 17.5
t21 40.5t2.5 40l98 30q12 -60 -11 -112t-69 -84.5t-105 -32.5z" />
    <glyph glyph-name="Adieresis" unicode="&#xc4;" horiz-adv-x="1353" 
d="M687 1400h174l314 -1400h-149l-68 300h-676l-151 -300h-149zM353 440h574l-177 788zM629 1481q-34 0 -55 22.5t-16 56.5q5 33 32 57t61 24q33 0 54 -24t16 -57q-5 -34 -32 -56.5t-60 -22.5zM944 1481q-34 0 -55 22.5t-17 56.5q5 33 32.5 57t61.5 24q33 0 54 -24t16 -57
q-5 -34 -32 -56.5t-60 -22.5z" />
    <glyph glyph-name="Aring" unicode="&#xc5;" horiz-adv-x="1353" 
d="M687 1400h174l314 -1400h-149l-68 300h-676l-151 -300h-149zM353 440h574l-177 788zM787 1495q-65 0 -105 47.5t-31 112.5q6 43 32.5 79t65.5 57.5t83 21.5q65 0 105 -46.5t31 -111.5q-9 -67 -62.5 -113.5t-118.5 -46.5zM798 1573q33 0 60 24t32 58q5 32 -15.5 55
t-54.5 23q-33 0 -59 -23t-31 -55q-5 -34 15 -58t53 -24z" />
    <glyph glyph-name="AE" unicode="&#xc6;" horiz-adv-x="1619" 
d="M-18 0l705 1400h930l-19 -140h-572l-69 -490h476l-19 -140h-476l-69 -490h572l-20 -140h-712l42 300h-469l-151 -300h-149zM353 440h418l115 820h-119z" />
    <glyph glyph-name="Ccedilla" unicode="&#xc7;" horiz-adv-x="1418" 
d="M666 -26q-142 0 -259 56.5t-197.5 156t-115.5 231.5t-14 282t93 282t180.5 231.5t241.5 156t275 56.5q170 0 301.5 -79t207.5 -210l-133 -67q-60 99 -165 157.5t-230 58.5q-115 0 -221 -46.5t-192.5 -127.5t-143.5 -187t-74 -225q-17 -121 10.5 -227t91.5 -187
t157 -126.5t206 -45.5q131 0 251 59.5t206 155.5l114 -67q-112 -131 -266 -209.5t-324 -78.5zM620 -367q-65 -17 -118 16t-61 96l90 23q4 -27 27 -41t51 -7q29 8 47 32.5t14 52.5t-26.5 41.5t-51.5 7.5l-97 -13l153 214l72 -45l-52 -73q37 -10 62.5 -39t30.5 -70
q8 -64 -33 -121t-108 -74z" />
    <glyph glyph-name="Egrave" unicode="&#xc8;" 
d="M22 0l196 1400h852l-19 -140h-712l-62 -440h589l-19 -140h-590l-76 -540h712l-19 -140h-852zM497 1798h140l40 -288h-93z" />
    <glyph glyph-name="Eacute" unicode="&#xc9;" 
d="M22 0l196 1400h852l-19 -140h-712l-62 -440h589l-19 -140h-590l-76 -540h712l-19 -140h-852zM616 1510l120 288h140l-166 -288h-94z" />
    <glyph glyph-name="Ecircumflex" unicode="&#xca;" 
d="M22 0l196 1400h852l-19 -140h-712l-62 -440h589l-19 -140h-590l-76 -540h712l-19 -140h-852zM767 1798l153 -288h-94l-148 203l-202 -203h-93l231 288h153z" />
    <glyph glyph-name="Edieresis" unicode="&#xcb;" 
d="M22 0l196 1400h852l-19 -140h-712l-62 -440h589l-19 -140h-590l-76 -540h712l-19 -140h-852zM489 1481q-34 0 -55 22.5t-16 56.5q5 33 32 57t61 24q33 0 54 -24t16 -57q-5 -34 -32 -56.5t-60 -22.5zM804 1481q-34 0 -55 22.5t-17 56.5q5 33 32.5 57t61.5 24q33 0 54 -24
t16 -57q-5 -34 -32 -56.5t-60 -22.5z" />
    <glyph glyph-name="Igrave" unicode="&#xcc;" horiz-adv-x="440" 
d="M52 0l196 1400h140l-196 -1400h-140zM181 1798h140l40 -288h-93z" />
    <glyph glyph-name="Iacute" unicode="&#xcd;" horiz-adv-x="440" 
d="M52 0l196 1400h140l-196 -1400h-140zM300 1510l120 288h140l-166 -288h-94z" />
    <glyph glyph-name="Icircumflex" unicode="&#xce;" horiz-adv-x="440" 
d="M52 0l196 1400h140l-196 -1400h-140zM451 1798l153 -288h-94l-148 203l-202 -203h-93l231 288h153z" />
    <glyph glyph-name="Idieresis" unicode="&#xcf;" horiz-adv-x="440" 
d="M52 0l196 1400h140l-196 -1400h-140zM173 1481q-34 0 -55 22.5t-16 56.5q5 33 32 57t61 24q33 0 54 -24t16 -57q-5 -34 -32 -56.5t-60 -22.5zM488 1481q-34 0 -55 22.5t-17 56.5q5 33 32.5 57t61.5 24q33 0 54 -24t16 -57q-5 -34 -32 -56.5t-60 -22.5z" />
    <glyph glyph-name="Eth" unicode="&#xd0;" horiz-adv-x="1455" 
d="M134 0l95 680h-132l20 140h132l81 580h463q145 0 264 -54.5t202 -151t119.5 -223t16.5 -271.5t-92.5 -271.5t-182 -223t-244 -151t-279.5 -54.5h-463zM293 140h324q117 0 225 44t195.5 122t144.5 179t73 215q17 117 -13 219t-97 178.5t-162 119.5t-209 43h-323l-62 -440
h344l-19 -140h-345z" />
    <glyph glyph-name="Ntilde" unicode="&#xd1;" horiz-adv-x="1271" 
d="M22 0l196 1400h152l578 -1147l161 1147h140l-196 -1400h-151l-579 1147l-161 -1147h-140zM906 1531q-37 0 -79 23.5t-83 54t-77 51.5t-62 15q-27 -6 -45.5 -33t-14.5 -65l-98 -26q-12 57 9.5 109t67.5 84.5t105 32.5q38 0 80 -22t84 -50.5t78 -50.5t61 -22
q23 0 37.5 17.5t21 40.5t2.5 40l98 30q12 -60 -11 -112t-69 -84.5t-105 -32.5z" />
    <glyph glyph-name="Ograve" unicode="&#xd2;" horiz-adv-x="1540" 
d="M668 -26q-142 0 -259.5 56.5t-198 156.5t-116 231.5t-14.5 281.5t93 281.5t181.5 231.5t242.5 156.5t275 56.5q143 0 260 -56.5t197.5 -156.5t116 -231.5t14.5 -281.5t-93 -281.5t-181.5 -231.5t-242 -156.5t-275.5 -56.5zM687 114q115 0 221 46.5t193 127.5t144.5 187
t74.5 225q17 120 -11 226.5t-92 187t-157 126.5t-207 46q-115 0 -221 -46.5t-193 -127.5t-144.5 -187t-74.5 -225q-17 -121 11 -227t92 -187t157 -126.5t207 -45.5zM731 1798h140l40 -288h-93z" />
    <glyph glyph-name="Oacute" unicode="&#xd3;" horiz-adv-x="1540" 
d="M668 -26q-142 0 -259.5 56.5t-198 156.5t-116 231.5t-14.5 281.5t93 281.5t181.5 231.5t242.5 156.5t275 56.5q143 0 260 -56.5t197.5 -156.5t116 -231.5t14.5 -281.5t-93 -281.5t-181.5 -231.5t-242 -156.5t-275.5 -56.5zM687 114q115 0 221 46.5t193 127.5t144.5 187
t74.5 225q17 120 -11 226.5t-92 187t-157 126.5t-207 46q-115 0 -221 -46.5t-193 -127.5t-144.5 -187t-74.5 -225q-17 -121 11 -227t92 -187t157 -126.5t207 -45.5zM850 1510l120 288h140l-166 -288h-94z" />
    <glyph glyph-name="Ocircumflex" unicode="&#xd4;" horiz-adv-x="1540" 
d="M668 -26q-142 0 -259.5 56.5t-198 156.5t-116 231.5t-14.5 281.5t93 281.5t181.5 231.5t242.5 156.5t275 56.5q143 0 260 -56.5t197.5 -156.5t116 -231.5t14.5 -281.5t-93 -281.5t-181.5 -231.5t-242 -156.5t-275.5 -56.5zM687 114q115 0 221 46.5t193 127.5t144.5 187
t74.5 225q17 120 -11 226.5t-92 187t-157 126.5t-207 46q-115 0 -221 -46.5t-193 -127.5t-144.5 -187t-74.5 -225q-17 -121 11 -227t92 -187t157 -126.5t207 -45.5zM1001 1798l153 -288h-94l-148 203l-202 -203h-93l231 288h153z" />
    <glyph glyph-name="Otilde" unicode="&#xd5;" horiz-adv-x="1540" 
d="M668 -26q-142 0 -259.5 56.5t-198 156.5t-116 231.5t-14.5 281.5t93 281.5t181.5 231.5t242.5 156.5t275 56.5q143 0 260 -56.5t197.5 -156.5t116 -231.5t14.5 -281.5t-93 -281.5t-181.5 -231.5t-242 -156.5t-275.5 -56.5zM687 114q115 0 221 46.5t193 127.5t144.5 187
t74.5 225q17 120 -11 226.5t-92 187t-157 126.5t-207 46q-115 0 -221 -46.5t-193 -127.5t-144.5 -187t-74.5 -225q-17 -121 11 -227t92 -187t157 -126.5t207 -45.5zM1041 1531q-37 0 -79 23.5t-83 54t-77 51.5t-62 15q-27 -6 -45.5 -33t-14.5 -65l-98 -26q-12 57 9.5 109
t67.5 84.5t105 32.5q38 0 80 -22t84 -50.5t78 -50.5t61 -22q23 0 37.5 17.5t21 40.5t2.5 40l98 30q12 -60 -11 -112t-69 -84.5t-105 -32.5z" />
    <glyph glyph-name="Odieresis" unicode="&#xd6;" horiz-adv-x="1540" 
d="M668 -26q-142 0 -259.5 56.5t-198 156.5t-116 231.5t-14.5 281.5t93 281.5t181.5 231.5t242.5 156.5t275 56.5q143 0 260 -56.5t197.5 -156.5t116 -231.5t14.5 -281.5t-93 -281.5t-181.5 -231.5t-242 -156.5t-275.5 -56.5zM687 114q115 0 221 46.5t193 127.5t144.5 187
t74.5 225q17 120 -11 226.5t-92 187t-157 126.5t-207 46q-115 0 -221 -46.5t-193 -127.5t-144.5 -187t-74.5 -225q-17 -121 11 -227t92 -187t157 -126.5t207 -45.5zM723 1481q-34 0 -55 22.5t-16 56.5q5 33 32 57t61 24q33 0 54 -24t16 -57q-5 -34 -32 -56.5t-60 -22.5z
M1038 1481q-34 0 -55 22.5t-17 56.5q5 33 32.5 57t61.5 24q33 0 54 -24t16 -57q-5 -34 -32 -56.5t-60 -22.5z" />
    <glyph glyph-name="multiply" unicode="&#xd7;" horiz-adv-x="966" 
d="M108 197l-85 99l346 304l-260 304l113 99l260 -304l347 304l86 -99l-348 -304l262 -304l-114 -99l-261 304z" />
    <glyph glyph-name="Oslash" unicode="&#xd8;" horiz-adv-x="1540" 
d="M291 -82l-112 70l96 135q-110 99 -165 250t-30 327q21 150 93 281.5t181.5 231.5t242.5 156.5t275 56.5q81 0 153 -19t134 -54l92 129l112 -70l-97 -134q111 -98 165 -249t29 -329q-21 -150 -93 -281.5t-181.5 -231.5t-242 -156.5t-275.5 -56.5q-79 0 -150.5 19.5
t-134.5 53.5zM367 251l703 978q-46 27 -101 42t-116 15q-115 0 -221 -46.5t-193 -127.5t-144.5 -187t-74.5 -225q-19 -137 21.5 -254.5t125.5 -194.5zM687 114q115 0 221 46.5t193 127.5t144.5 187t74.5 225q20 137 -20.5 254.5t-123.5 196.5l-704 -980q47 -27 101.5 -42
t113.5 -15z" />
    <glyph glyph-name="Ugrave" unicode="&#xd9;" horiz-adv-x="1326" 
d="M561 -26q-168 0 -278 82t-156.5 220.5t-22.5 307.5l114 816h140l-114 -816q-18 -128 13.5 -235t112.5 -171t211 -64q131 0 230 64.5t160 171.5t79 234l114 816h140l-114 -816q-18 -127 -71 -237.5t-135.5 -194.5t-189.5 -131t-233 -47zM624 1798h140l40 -288h-93z" />
    <glyph glyph-name="Uacute" unicode="&#xda;" horiz-adv-x="1326" 
d="M561 -26q-168 0 -278 82t-156.5 220.5t-22.5 307.5l114 816h140l-114 -816q-18 -128 13.5 -235t112.5 -171t211 -64q131 0 230 64.5t160 171.5t79 234l114 816h140l-114 -816q-18 -127 -71 -237.5t-135.5 -194.5t-189.5 -131t-233 -47zM743 1510l120 288h140l-166 -288
h-94z" />
    <glyph glyph-name="Ucircumflex" unicode="&#xdb;" horiz-adv-x="1326" 
d="M561 -26q-168 0 -278 82t-156.5 220.5t-22.5 307.5l114 816h140l-114 -816q-18 -128 13.5 -235t112.5 -171t211 -64q131 0 230 64.5t160 171.5t79 234l114 816h140l-114 -816q-18 -127 -71 -237.5t-135.5 -194.5t-189.5 -131t-233 -47zM894 1798l153 -288h-94l-148 203
l-202 -203h-93l231 288h153z" />
    <glyph glyph-name="Udieresis" unicode="&#xdc;" horiz-adv-x="1326" 
d="M561 -26q-168 0 -278 82t-156.5 220.5t-22.5 307.5l114 816h140l-114 -816q-18 -128 13.5 -235t112.5 -171t211 -64q131 0 230 64.5t160 171.5t79 234l114 816h140l-114 -816q-18 -127 -71 -237.5t-135.5 -194.5t-189.5 -131t-233 -47zM616 1481q-34 0 -55 22.5t-16 56.5
q5 33 32 57t61 24q33 0 54 -24t16 -57q-5 -34 -32 -56.5t-60 -22.5zM931 1481q-34 0 -55 22.5t-17 56.5q5 33 32.5 57t61.5 24q33 0 54 -24t16 -57q-5 -34 -32 -56.5t-60 -22.5z" />
    <glyph glyph-name="Yacute" unicode="&#xdd;" horiz-adv-x="1203" 
d="M1076 1400h165l-579 -766l-89 -634h-140l89 634l-364 766h165l290 -613zM681 1510l120 288h140l-166 -288h-94z" />
    <glyph glyph-name="Thorn" unicode="&#xde;" horiz-adv-x="1027" 
d="M22 0l196 1400h140l-41 -291h308q112 0 195 -54.5t123 -147t24 -207.5q-16 -116 -84 -208.5t-166 -146.5t-206 -54h-308l-41 -291h-140zM222 431h297q74 0 140.5 36t112 98.5t56.5 141.5t-17 141.5t-84 99t-130 36.5h-297z" />
    <glyph glyph-name="germandbls" unicode="&#xdf;" horiz-adv-x="1069" 
d="M22 0l133 953q13 92 59 173t116 142.5t155.5 96.5t178.5 35q103 0 179 -51t113.5 -137.5t22.5 -193.5q-8 -60 -35 -118.5t-70 -106t-100 -76.5q58 -14 98 -48t62.5 -81t29.5 -101.5t-1 -111.5q-15 -105 -78.5 -190t-156.5 -135t-198 -50h-74l-10 125h90q73 0 137.5 35
t108 93.5t53.5 129.5t-17 128.5t-81.5 92.5t-127.5 35l-90 2l17 120l27 2q66 2 125.5 36t100 91.5t50.5 127.5q10 71 -14.5 129t-74 93t-115.5 35q-81 0 -153.5 -40t-121.5 -107t-61 -149l-137 -979h-140z" />
    <glyph glyph-name="agrave" unicode="&#xe0;" horiz-adv-x="1161" 
d="M984 1000h140l-140 -1000h-140l21 186q-62 -95 -158.5 -153.5t-218.5 -58.5q-110 0 -200.5 41.5t-153 114.5t-90 169t-11.5 206q15 108 68.5 203t135.5 167t182 112.5t208 40.5q125 0 210 -59.5t126 -155.5zM504 110q107 0 191.5 52.5t138.5 141.5t69 196
q16 110 -14 198.5t-99.5 140.5t-175.5 52t-201 -52.5t-159 -141.5t-79 -197q-15 -109 25 -197.5t120.5 -140.5t183.5 -52zM501 1398h140l40 -288h-93z" />
    <glyph glyph-name="aacute" unicode="&#xe1;" horiz-adv-x="1161" 
d="M984 1000h140l-140 -1000h-140l21 186q-62 -95 -158.5 -153.5t-218.5 -58.5q-110 0 -200.5 41.5t-153 114.5t-90 169t-11.5 206q15 108 68.5 203t135.5 167t182 112.5t208 40.5q125 0 210 -59.5t126 -155.5zM504 110q107 0 191.5 52.5t138.5 141.5t69 196
q16 110 -14 198.5t-99.5 140.5t-175.5 52t-201 -52.5t-159 -141.5t-79 -197q-15 -109 25 -197.5t120.5 -140.5t183.5 -52zM620 1110l120 288h140l-166 -288h-94z" />
    <glyph glyph-name="acircumflex" unicode="&#xe2;" horiz-adv-x="1161" 
d="M984 1000h140l-140 -1000h-140l21 186q-62 -95 -158.5 -153.5t-218.5 -58.5q-110 0 -200.5 41.5t-153 114.5t-90 169t-11.5 206q15 108 68.5 203t135.5 167t182 112.5t208 40.5q125 0 210 -59.5t126 -155.5zM504 110q107 0 191.5 52.5t138.5 141.5t69 196
q16 110 -14 198.5t-99.5 140.5t-175.5 52t-201 -52.5t-159 -141.5t-79 -197q-15 -109 25 -197.5t120.5 -140.5t183.5 -52zM771 1398l153 -288h-94l-148 203l-202 -203h-93l231 288h153z" />
    <glyph glyph-name="atilde" unicode="&#xe3;" horiz-adv-x="1161" 
d="M984 1000h140l-140 -1000h-140l21 186q-62 -95 -158.5 -153.5t-218.5 -58.5q-110 0 -200.5 41.5t-153 114.5t-90 169t-11.5 206q15 108 68.5 203t135.5 167t182 112.5t208 40.5q125 0 210 -59.5t126 -155.5zM504 110q107 0 191.5 52.5t138.5 141.5t69 196
q16 110 -14 198.5t-99.5 140.5t-175.5 52t-201 -52.5t-159 -141.5t-79 -197q-15 -109 25 -197.5t120.5 -140.5t183.5 -52zM811 1131q-37 0 -79 23.5t-83 54t-77 51.5t-62 15q-27 -6 -45.5 -33t-14.5 -65l-98 -26q-12 57 9.5 109t67.5 84.5t105 32.5q38 0 80 -22t84 -50.5
t78 -50.5t61 -22q23 0 37.5 17.5t21 40.5t2.5 40l98 30q12 -60 -11 -112t-69 -84.5t-105 -32.5z" />
    <glyph glyph-name="adieresis" unicode="&#xe4;" horiz-adv-x="1161" 
d="M984 1000h140l-140 -1000h-140l21 186q-62 -95 -158.5 -153.5t-218.5 -58.5q-110 0 -200.5 41.5t-153 114.5t-90 169t-11.5 206q15 108 68.5 203t135.5 167t182 112.5t208 40.5q125 0 210 -59.5t126 -155.5zM504 110q107 0 191.5 52.5t138.5 141.5t69 196
q16 110 -14 198.5t-99.5 140.5t-175.5 52t-201 -52.5t-159 -141.5t-79 -197q-15 -109 25 -197.5t120.5 -140.5t183.5 -52zM493 1081q-34 0 -55 22.5t-16 56.5q5 33 32 57t61 24q33 0 54 -24t16 -57q-5 -34 -32 -56.5t-60 -22.5zM808 1081q-34 0 -55 22.5t-17 56.5
q5 33 32.5 57t61.5 24q33 0 54 -24t16 -57q-5 -34 -32 -56.5t-60 -22.5z" />
    <glyph glyph-name="aring" unicode="&#xe5;" horiz-adv-x="1161" 
d="M984 1000h140l-140 -1000h-140l21 186q-62 -95 -158.5 -153.5t-218.5 -58.5q-110 0 -200.5 41.5t-153 114.5t-90 169t-11.5 206q15 108 68.5 203t135.5 167t182 112.5t208 40.5q125 0 210 -59.5t126 -155.5zM504 110q107 0 191.5 52.5t138.5 141.5t69 196
q16 110 -14 198.5t-99.5 140.5t-175.5 52t-201 -52.5t-159 -141.5t-79 -197q-15 -109 25 -197.5t120.5 -140.5t183.5 -52zM651 1095q-65 0 -105 47.5t-31 112.5q6 43 32.5 79t65.5 57.5t83 21.5q65 0 105 -46.5t31 -111.5q-9 -67 -62.5 -113.5t-118.5 -46.5zM662 1173
q33 0 60 24t32 58q5 32 -15.5 55t-54.5 23q-33 0 -59 -23t-31 -55q-5 -34 15 -58t53 -24z" />
    <glyph glyph-name="ae" unicode="&#xe6;" horiz-adv-x="1776" 
d="M231 -25q-87 0 -150 37.5t-93.5 103.5t-18.5 150q11 79 57 146t119 108t163 41h389q12 89 -17.5 163.5t-95 119t-163.5 44.5q-75 0 -148 -32l-60 118q56 27 113.5 40.5t112.5 13.5q133 0 232 -69.5t142 -185.5q52 76 123.5 133.5t156 89.5t173.5 32q112 0 199 -44
t143 -123.5t75.5 -185t-3.5 -228.5h-848q-2 -95 36 -170.5t108 -119t162 -43.5q99 0 187.5 52t149.5 143l137 -33q-79 -133 -211.5 -217.5t-282.5 -84.5q-96 0 -176.5 36.5t-137 101.5t-82.5 150q-51 -83 -128.5 -148t-170.5 -102t-192 -37zM250 102q113 0 208.5 59.5
t153.5 149.5q44 61 67 137h-386q-78 0 -132 -50t-64 -124q-10 -67 28.5 -119.5t124.5 -52.5zM844 560h711q6 93 -32.5 170.5t-110 124t-164.5 46.5t-176.5 -45.5t-143.5 -123t-84 -172.5z" />
    <glyph glyph-name="ccedilla" unicode="&#xe7;" horiz-adv-x="1019" 
d="M771 251l115 -68q-82 -95 -194 -152t-234 -57q-138 0 -241.5 71t-154 190.5t-30.5 264.5q15 110 67.5 205.5t131.5 168t175.5 113.5t199.5 41q122 0 218.5 -57t151.5 -153l-135 -67q-43 66 -110.5 101.5t-143.5 35.5q-102 0 -191 -53.5t-149 -141.5t-75 -193t21 -193
t110.5 -140.5t173.5 -52.5q83 0 160.5 38t133.5 99zM412 -367q-65 -17 -118 16t-61 96l90 23q4 -27 27 -41t51 -7q29 8 47 32.5t14 52.5t-26.5 41.5t-51.5 7.5l-97 -13l153 214l72 -45l-52 -73q37 -10 62.5 -39t30.5 -70q8 -64 -33 -121t-108 -74z" />
    <glyph glyph-name="egrave" unicode="&#xe8;" horiz-adv-x="1116" 
d="M458 -26q-138 0 -241.5 71t-154 190.5t-30.5 264.5q15 110 67.5 205.5t131.5 168t175.5 113.5t199.5 41q111 0 198.5 -44t143.5 -123t76 -185t-4 -229h-847q-2 -95 36 -170t107 -118.5t161 -44.5q100 0 188.5 52t149.5 143l137 -33q-79 -133 -211.5 -217.5t-282.5 -84.5z
M185 560h710q6 93 -32.5 170.5t-109.5 124t-164 46.5q-94 0 -177 -45.5t-143 -123t-84 -172.5zM464 1398h140l40 -288h-93z" />
    <glyph glyph-name="eacute" unicode="&#xe9;" horiz-adv-x="1116" 
d="M458 -26q-138 0 -241.5 71t-154 190.5t-30.5 264.5q15 110 67.5 205.5t131.5 168t175.5 113.5t199.5 41q111 0 198.5 -44t143.5 -123t76 -185t-4 -229h-847q-2 -95 36 -170t107 -118.5t161 -44.5q100 0 188.5 52t149.5 143l137 -33q-79 -133 -211.5 -217.5t-282.5 -84.5z
M185 560h710q6 93 -32.5 170.5t-109.5 124t-164 46.5q-94 0 -177 -45.5t-143 -123t-84 -172.5zM583 1110l120 288h140l-166 -288h-94z" />
    <glyph glyph-name="ecircumflex" unicode="&#xea;" horiz-adv-x="1116" 
d="M458 -26q-138 0 -241.5 71t-154 190.5t-30.5 264.5q15 110 67.5 205.5t131.5 168t175.5 113.5t199.5 41q111 0 198.5 -44t143.5 -123t76 -185t-4 -229h-847q-2 -95 36 -170t107 -118.5t161 -44.5q100 0 188.5 52t149.5 143l137 -33q-79 -133 -211.5 -217.5t-282.5 -84.5z
M185 560h710q6 93 -32.5 170.5t-109.5 124t-164 46.5q-94 0 -177 -45.5t-143 -123t-84 -172.5zM734 1398l153 -288h-94l-148 203l-202 -203h-93l231 288h153z" />
    <glyph glyph-name="edieresis" unicode="&#xeb;" horiz-adv-x="1116" 
d="M458 -26q-138 0 -241.5 71t-154 190.5t-30.5 264.5q15 110 67.5 205.5t131.5 168t175.5 113.5t199.5 41q111 0 198.5 -44t143.5 -123t76 -185t-4 -229h-847q-2 -95 36 -170t107 -118.5t161 -44.5q100 0 188.5 52t149.5 143l137 -33q-79 -133 -211.5 -217.5t-282.5 -84.5z
M185 560h710q6 93 -32.5 170.5t-109.5 124t-164 46.5q-94 0 -177 -45.5t-143 -123t-84 -172.5zM456 1081q-34 0 -55 22.5t-16 56.5q5 33 32 57t61 24q33 0 54 -24t16 -57q-5 -34 -32 -56.5t-60 -22.5zM771 1081q-34 0 -55 22.5t-17 56.5q5 33 32.5 57t61.5 24q33 0 54 -24
t16 -57q-5 -34 -32 -56.5t-60 -22.5z" />
    <glyph glyph-name="igrave" unicode="&#xec;" horiz-adv-x="380" 
d="M162 1000h140l-140 -1000h-140zM95 1398h140l40 -288h-93z" />
    <glyph glyph-name="iacute" unicode="&#xed;" horiz-adv-x="380" 
d="M162 1000h140l-140 -1000h-140zM214 1110l120 288h140l-166 -288h-94z" />
    <glyph glyph-name="icircumflex" unicode="&#xee;" horiz-adv-x="380" 
d="M162 1000h140l-140 -1000h-140zM365 1398l153 -288h-94l-148 203l-202 -203h-93l231 288h153z" />
    <glyph glyph-name="idieresis" unicode="&#xef;" horiz-adv-x="380" 
d="M162 1000h140l-140 -1000h-140zM87 1081q-34 0 -55 22.5t-16 56.5q5 33 32 57t61 24q33 0 54 -24t16 -57q-5 -34 -32 -56.5t-60 -22.5zM402 1081q-34 0 -55 22.5t-17 56.5q5 33 32.5 57t61.5 24q33 0 54 -24t16 -57q-5 -34 -32 -56.5t-60 -22.5z" />
    <glyph glyph-name="eth" unicode="&#xf0;" horiz-adv-x="1125" 
d="M482 1053l-66 76l499 430l64 -76zM481 -26q-138 0 -243 68t-157 182t-32 252q15 104 66.5 195.5t130.5 160.5t175.5 108t200.5 39q95 0 169.5 -42t116.5 -113q-9 99 -41 194.5t-88.5 172.5t-139.5 122.5t-193 45.5l19 140q158 0 280 -77.5t201.5 -213.5t109.5 -313
t3 -376q-22 -160 -103 -283t-204 -192.5t-271 -69.5zM500 114q103 0 192 50t149 132.5t74 179.5q14 100 -23.5 182t-113 131.5t-176.5 49.5q-102 0 -191 -50t-148.5 -132.5t-73.5 -180.5t23 -180.5t112.5 -132t175.5 -49.5z" />
    <glyph glyph-name="ntilde" unicode="&#xf1;" 
d="M980 619l-86 -619h-140l82 591q12 82 -18.5 149t-92 107t-143.5 40t-154.5 -40t-121.5 -107t-61 -149l-83 -591h-140l140 1000h140l-19 -138q64 76 155 121t191 45q113 0 198 -55t127 -148t26 -206zM778 1131q-37 0 -79 23.5t-83 54t-77 51.5t-62 15q-27 -6 -45.5 -33
t-14.5 -65l-98 -26q-12 57 9.5 109t67.5 84.5t105 32.5q38 0 80 -22t84 -50.5t78 -50.5t61 -22q23 0 37.5 17.5t21 40.5t2.5 40l98 30q12 -60 -11 -112t-69 -84.5t-105 -32.5z" />
    <glyph glyph-name="ograve" unicode="&#xf2;" horiz-adv-x="1120" 
d="M458 -26q-138 0 -241.5 71t-154 190.5t-30.5 264.5q15 110 67.5 205.5t131.5 168t175.5 113.5t199.5 41q138 0 241.5 -71t154.5 -191t30 -266q-15 -109 -67.5 -204t-131.5 -167.5t-175 -113.5t-200 -41zM477 114q102 0 191 53.5t149.5 141.5t74.5 191q15 105 -21 193.5
t-109.5 141.5t-174.5 53q-102 0 -191 -53.5t-149 -141.5t-75 -193q-15 -108 21.5 -195.5t111 -139t172.5 -51.5zM465 1398h140l40 -288h-93z" />
    <glyph glyph-name="oacute" unicode="&#xf3;" horiz-adv-x="1120" 
d="M458 -26q-138 0 -241.5 71t-154 190.5t-30.5 264.5q15 110 67.5 205.5t131.5 168t175.5 113.5t199.5 41q138 0 241.5 -71t154.5 -191t30 -266q-15 -109 -67.5 -204t-131.5 -167.5t-175 -113.5t-200 -41zM477 114q102 0 191 53.5t149.5 141.5t74.5 191q15 105 -21 193.5
t-109.5 141.5t-174.5 53q-102 0 -191 -53.5t-149 -141.5t-75 -193q-15 -108 21.5 -195.5t111 -139t172.5 -51.5zM584 1110l120 288h140l-166 -288h-94z" />
    <glyph glyph-name="ocircumflex" unicode="&#xf4;" horiz-adv-x="1120" 
d="M458 -26q-138 0 -241.5 71t-154 190.5t-30.5 264.5q15 110 67.5 205.5t131.5 168t175.5 113.5t199.5 41q138 0 241.5 -71t154.5 -191t30 -266q-15 -109 -67.5 -204t-131.5 -167.5t-175 -113.5t-200 -41zM477 114q102 0 191 53.5t149.5 141.5t74.5 191q15 105 -21 193.5
t-109.5 141.5t-174.5 53q-102 0 -191 -53.5t-149 -141.5t-75 -193q-15 -108 21.5 -195.5t111 -139t172.5 -51.5zM735 1398l153 -288h-94l-148 203l-202 -203h-93l231 288h153z" />
    <glyph glyph-name="otilde" unicode="&#xf5;" horiz-adv-x="1120" 
d="M458 -26q-138 0 -241.5 71t-154 190.5t-30.5 264.5q15 110 67.5 205.5t131.5 168t175.5 113.5t199.5 41q138 0 241.5 -71t154.5 -191t30 -266q-15 -109 -67.5 -204t-131.5 -167.5t-175 -113.5t-200 -41zM477 114q102 0 191 53.5t149.5 141.5t74.5 191q15 105 -21 193.5
t-109.5 141.5t-174.5 53q-102 0 -191 -53.5t-149 -141.5t-75 -193q-15 -108 21.5 -195.5t111 -139t172.5 -51.5zM775 1131q-37 0 -79 23.5t-83 54t-77 51.5t-62 15q-27 -6 -45.5 -33t-14.5 -65l-98 -26q-12 57 9.5 109t67.5 84.5t105 32.5q38 0 80 -22t84 -50.5t78 -50.5
t61 -22q23 0 37.5 17.5t21 40.5t2.5 40l98 30q12 -60 -11 -112t-69 -84.5t-105 -32.5z" />
    <glyph glyph-name="odieresis" unicode="&#xf6;" horiz-adv-x="1120" 
d="M458 -26q-138 0 -241.5 71t-154 190.5t-30.5 264.5q15 110 67.5 205.5t131.5 168t175.5 113.5t199.5 41q138 0 241.5 -71t154.5 -191t30 -266q-15 -109 -67.5 -204t-131.5 -167.5t-175 -113.5t-200 -41zM477 114q102 0 191 53.5t149.5 141.5t74.5 191q15 105 -21 193.5
t-109.5 141.5t-174.5 53q-102 0 -191 -53.5t-149 -141.5t-75 -193q-15 -108 21.5 -195.5t111 -139t172.5 -51.5zM457 1081q-34 0 -55 22.5t-16 56.5q5 33 32 57t61 24q33 0 54 -24t16 -57q-5 -34 -32 -56.5t-60 -22.5zM772 1081q-34 0 -55 22.5t-17 56.5q5 33 32.5 57
t61.5 24q33 0 54 -24t16 -57q-5 -34 -32 -56.5t-60 -22.5z" />
    <glyph glyph-name="divide" unicode="&#xf7;" horiz-adv-x="1160" 
d="M56 530l20 140h1000l-20 -140h-1000zM631 1066q42 0 67.5 -32t20.5 -73q-6 -42 -40.5 -72.5t-76.5 -30.5q-45 0 -69.5 30.5t-18.5 72.5q5 41 38.5 73t78.5 32zM529 341q42 0 69 -32t22 -73q-7 -43 -42.5 -72.5t-76.5 -29.5q-45 0 -70.5 29.5t-18.5 72.5q5 41 38.5 73
t78.5 32z" />
    <glyph glyph-name="oslash" unicode="&#xf8;" horiz-adv-x="1120" 
d="M202 -55l-96 60l61 83q-77 72 -114.5 179.5t-20.5 232.5q15 110 67.5 205.5t131.5 168t175.5 113.5t199.5 41q56 0 106.5 -12.5t93.5 -35.5l58 79l95 -60l-60 -84q77 -72 113.5 -179.5t19.5 -235.5q-15 -109 -67.5 -204t-131.5 -167.5t-175 -113.5t-200 -41
q-55 0 -105.5 13.5t-94.5 35.5zM253 208l471 658q-84 41 -175.5 28t-174 -68t-139.5 -141t-72 -191q-12 -88 13 -162t77 -124zM340 137q87 -41 179 -28t173.5 68t137.5 140.5t71 188.5q12 88 -12.5 163t-75.5 126z" />
    <glyph glyph-name="ugrave" unicode="&#xf9;" horiz-adv-x="1032" 
d="M36 383l86 617h140l-83 -589q-11 -82 19.5 -149t92 -107t142.5 -40q82 0 155 40t122.5 107t60.5 149l82 589h140l-139 -1000h-140l18 140q-64 -76 -154.5 -121t-190.5 -45q-113 0 -198 55t-127 148t-26 206zM434 1399h140l40 -288h-93z" />
    <glyph glyph-name="uacute" unicode="&#xfa;" horiz-adv-x="1032" 
d="M36 383l86 617h140l-83 -589q-11 -82 19.5 -149t92 -107t142.5 -40q82 0 155 40t122.5 107t60.5 149l82 589h140l-139 -1000h-140l18 140q-64 -76 -154.5 -121t-190.5 -45q-113 0 -198 55t-127 148t-26 206zM553 1111l120 288h140l-166 -288h-94z" />
    <glyph glyph-name="ucircumflex" unicode="&#xfb;" horiz-adv-x="1032" 
d="M36 383l86 617h140l-83 -589q-11 -82 19.5 -149t92 -107t142.5 -40q82 0 155 40t122.5 107t60.5 149l82 589h140l-139 -1000h-140l18 140q-64 -76 -154.5 -121t-190.5 -45q-113 0 -198 55t-127 148t-26 206zM704 1399l153 -288h-94l-148 203l-202 -203h-93l231 288h153z
" />
    <glyph glyph-name="udieresis" unicode="&#xfc;" horiz-adv-x="1032" 
d="M36 383l86 617h140l-83 -589q-11 -82 19.5 -149t92 -107t142.5 -40q82 0 155 40t122.5 107t60.5 149l82 589h140l-139 -1000h-140l18 140q-64 -76 -154.5 -121t-190.5 -45q-113 0 -198 55t-127 148t-26 206zM426 1082q-34 0 -55 22.5t-16 56.5q5 33 32 57t61 24
q33 0 54 -24t16 -57q-5 -34 -32 -56.5t-60 -22.5zM741 1082q-34 0 -55 22.5t-17 56.5q5 33 32.5 57t61.5 24q33 0 54 -24t16 -57q-5 -34 -32 -56.5t-60 -22.5z" />
    <glyph glyph-name="yacute" unicode="&#xfd;" horiz-adv-x="1033" 
d="M847 1000h148l-758 -1500h-149l253 500l-219 1000h153l162 -807zM540 1110l120 288h140l-166 -288h-94z" />
    <glyph glyph-name="thorn" unicode="&#xfe;" horiz-adv-x="1202" 
d="M-49 -500l267 1900h140l-82 -587q65 95 163.5 154t222.5 59q109 0 198.5 -41t152 -113.5t89.5 -167.5t12 -204t-69.5 -205t-137 -168.5t-183.5 -113.5t-210 -41q-124 0 -206 59t-120 154l-97 -685h-140zM531 109q104 0 199 52t161 140.5t81 198.5q15 107 -24.5 195.5
t-119.5 141.5t-187 53q-105 0 -189.5 -52.5t-139 -140.5t-69.5 -197q-15 -107 14 -196t98.5 -142t175.5 -53z" />
    <glyph glyph-name="ydieresis" unicode="&#xff;" horiz-adv-x="1033" 
d="M847 1000h148l-758 -1500h-149l253 500l-219 1000h153l162 -807zM413 1081q-34 0 -55 22.5t-16 56.5q5 33 32 57t61 24q33 0 54 -24t16 -57q-5 -34 -32 -56.5t-60 -22.5zM728 1081q-34 0 -55 22.5t-17 56.5q5 33 32.5 57t61.5 24q33 0 54 -24t16 -57q-5 -34 -32 -56.5
t-60 -22.5z" />
    <glyph glyph-name="Amacron" unicode="&#x100;" horiz-adv-x="1353" 
d="M687 1400h174l314 -1400h-149l-68 300h-676l-151 -300h-149zM353 440h574l-177 788zM476 1683h676l-16 -113h-676z" />
    <glyph glyph-name="amacron" unicode="&#x101;" horiz-adv-x="1161" 
d="M984 1000h140l-140 -1000h-140l21 186q-62 -95 -158.5 -153.5t-218.5 -58.5q-110 0 -200.5 41.5t-153 114.5t-90 169t-11.5 206q15 108 68.5 203t135.5 167t182 112.5t208 40.5q125 0 210 -59.5t126 -155.5zM504 110q107 0 191.5 52.5t138.5 141.5t69 196
q16 110 -14 198.5t-99.5 140.5t-175.5 52t-201 -52.5t-159 -141.5t-79 -197q-15 -109 25 -197.5t120.5 -140.5t183.5 -52zM340 1283h676l-16 -113h-676z" />
    <glyph glyph-name="Abreve" unicode="&#x102;" horiz-adv-x="1353" 
d="M687 1400h174l314 -1400h-149l-68 300h-676l-151 -300h-149zM353 440h574l-177 788zM787 1488q-91 0 -160 45t-103.5 120.5t-22.5 166.5h100q-9 -65 16 -117.5t74 -83.5t110 -31q63 0 120 31t96 84t48 117h100q-13 -93 -69 -168.5t-137.5 -119.5t-171.5 -44z" />
    <glyph glyph-name="abreve" unicode="&#x103;" horiz-adv-x="1161" 
d="M984 1000h140l-140 -1000h-140l21 186q-62 -95 -158.5 -153.5t-218.5 -58.5q-110 0 -200.5 41.5t-153 114.5t-90 169t-11.5 206q15 108 68.5 203t135.5 167t182 112.5t208 40.5q125 0 210 -59.5t126 -155.5zM504 110q107 0 191.5 52.5t138.5 141.5t69 196
q16 110 -14 198.5t-99.5 140.5t-175.5 52t-201 -52.5t-159 -141.5t-79 -197q-15 -109 25 -197.5t120.5 -140.5t183.5 -52zM651 1088q-91 0 -160 45t-103.5 120.5t-22.5 166.5h100q-9 -65 16 -117.5t74 -83.5t110 -31q63 0 120 31t96 84t48 117h100q-13 -93 -69 -168.5
t-137.5 -119.5t-171.5 -44z" />
    <glyph glyph-name="Aogonek" unicode="&#x104;" horiz-adv-x="1353" 
d="M687 1400h174l314 -1400h-149l-68 300h-676l-151 -300h-149zM353 440h574l-177 788zM1001 -406q-54 1 -91 27.5t-53.5 68.5t-9.5 88q5 35 22.5 68t48.5 61l192 168l65 -75q-63 -55 -104.5 -90.5t-65 -58.5t-34 -40.5t-12.5 -36.5q-4 -28 12 -50.5t50 -24.5q38 0 74 28
t43 74h102q-8 -58 -43 -105t-86.5 -74.5t-109.5 -27.5z" />
    <glyph glyph-name="aogonek" unicode="&#x105;" horiz-adv-x="1161" 
d="M984 1000h140l-140 -1000h-140l21 186q-62 -95 -158.5 -153.5t-218.5 -58.5q-110 0 -200.5 41.5t-153 114.5t-90 169t-11.5 206q15 108 68.5 203t135.5 167t182 112.5t208 40.5q125 0 210 -59.5t126 -155.5zM504 110q107 0 191.5 52.5t138.5 141.5t69 196
q16 110 -14 198.5t-99.5 140.5t-175.5 52t-201 -52.5t-159 -141.5t-79 -197q-15 -109 25 -197.5t120.5 -140.5t183.5 -52zM810 -406q-54 1 -91 27.5t-53.5 68.5t-9.5 88q5 35 22.5 68t48.5 61l192 168l65 -75q-63 -55 -104.5 -90.5t-65 -58.5t-34 -40.5t-12.5 -36.5
q-4 -28 12 -50.5t50 -24.5q38 0 74 28t43 74h102q-8 -58 -43 -105t-86.5 -74.5t-109.5 -27.5z" />
    <glyph glyph-name="Cacute" unicode="&#x106;" horiz-adv-x="1418" 
d="M666 -26q-142 0 -259 56.5t-197.5 156t-115.5 231.5t-14 282t93 282t180.5 231.5t241.5 156t275 56.5q170 0 301.5 -79t207.5 -210l-133 -67q-60 99 -165 157.5t-230 58.5q-115 0 -221 -46.5t-192.5 -127.5t-143.5 -187t-74 -225q-17 -121 10.5 -227t91.5 -187
t157 -126.5t206 -45.5q131 0 251 59.5t206 155.5l114 -67q-112 -131 -266 -209.5t-324 -78.5zM848 1510l120 288h140l-166 -288h-94z" />
    <glyph glyph-name="cacute" unicode="&#x107;" horiz-adv-x="1019" 
d="M771 251l115 -68q-82 -95 -194 -152t-234 -57q-138 0 -241.5 71t-154 190.5t-30.5 264.5q15 110 67.5 205.5t131.5 168t175.5 113.5t199.5 41q122 0 218.5 -57t151.5 -153l-135 -67q-43 66 -110.5 101.5t-143.5 35.5q-102 0 -191 -53.5t-149 -141.5t-75 -193t21 -193
t110.5 -140.5t173.5 -52.5q83 0 160.5 38t133.5 99zM584 1110l120 288h140l-166 -288h-94z" />
    <glyph glyph-name="Ccircumflex" unicode="&#x108;" horiz-adv-x="1418" 
d="M666 -26q-142 0 -259 56.5t-197.5 156t-115.5 231.5t-14 282t93 282t180.5 231.5t241.5 156t275 56.5q170 0 301.5 -79t207.5 -210l-133 -67q-60 99 -165 157.5t-230 58.5q-115 0 -221 -46.5t-192.5 -127.5t-143.5 -187t-74 -225q-17 -121 10.5 -227t91.5 -187
t157 -126.5t206 -45.5q131 0 251 59.5t206 155.5l114 -67q-112 -131 -266 -209.5t-324 -78.5zM999 1798l153 -288h-94l-148 203l-202 -203h-93l231 288h153z" />
    <glyph glyph-name="ccircumflex" unicode="&#x109;" horiz-adv-x="1019" 
d="M771 251l115 -68q-82 -95 -194 -152t-234 -57q-138 0 -241.5 71t-154 190.5t-30.5 264.5q15 110 67.5 205.5t131.5 168t175.5 113.5t199.5 41q122 0 218.5 -57t151.5 -153l-135 -67q-43 66 -110.5 101.5t-143.5 35.5q-102 0 -191 -53.5t-149 -141.5t-75 -193t21 -193
t110.5 -140.5t173.5 -52.5q83 0 160.5 38t133.5 99zM735 1398l153 -288h-94l-148 203l-202 -203h-93l231 288h153z" />
    <glyph glyph-name="Cdotaccent" unicode="&#x10a;" horiz-adv-x="1418" 
d="M666 -26q-142 0 -259 56.5t-197.5 156t-115.5 231.5t-14 282t93 282t180.5 231.5t241.5 156t275 56.5q170 0 301.5 -79t207.5 -210l-133 -67q-60 99 -165 157.5t-230 58.5q-115 0 -221 -46.5t-192.5 -127.5t-143.5 -187t-74 -225q-17 -121 10.5 -227t91.5 -187
t157 -126.5t206 -45.5q131 0 251 59.5t206 155.5l114 -67q-112 -131 -266 -209.5t-324 -78.5zM892 1575q-34 0 -54.5 22.5t-15.5 56.5t31.5 56.5t60.5 22.5q33 0 53.5 -22.5t15.5 -56.5t-31 -56.5t-60 -22.5z" />
    <glyph glyph-name="cdotaccent" unicode="&#x10b;" horiz-adv-x="1019" 
d="M771 251l115 -68q-82 -95 -194 -152t-234 -57q-138 0 -241.5 71t-154 190.5t-30.5 264.5q15 110 67.5 205.5t131.5 168t175.5 113.5t199.5 41q122 0 218.5 -57t151.5 -153l-135 -67q-43 66 -110.5 101.5t-143.5 35.5q-102 0 -191 -53.5t-149 -141.5t-75 -193t21 -193
t110.5 -140.5t173.5 -52.5q83 0 160.5 38t133.5 99zM628 1175q-34 0 -54.5 22.5t-15.5 56.5t31.5 56.5t60.5 22.5q33 0 53.5 -22.5t15.5 -56.5t-31 -56.5t-60 -22.5z" />
    <glyph glyph-name="Ccaron" unicode="&#x10c;" horiz-adv-x="1418" 
d="M666 -26q-142 0 -259 56.5t-197.5 156t-115.5 231.5t-14 282t93 282t180.5 231.5t241.5 156t275 56.5q170 0 301.5 -79t207.5 -210l-133 -67q-60 99 -165 157.5t-230 58.5q-115 0 -221 -46.5t-192.5 -127.5t-143.5 -187t-74 -225q-17 -121 10.5 -227t91.5 -187
t157 -126.5t206 -45.5q131 0 251 59.5t206 155.5l114 -67q-112 -131 -266 -209.5t-324 -78.5zM805 1510l-153 288h93l149 -203l201 203h94l-231 -288h-153z" />
    <glyph glyph-name="ccaron" unicode="&#x10d;" horiz-adv-x="1019" 
d="M771 251l115 -68q-82 -95 -194 -152t-234 -57q-138 0 -241.5 71t-154 190.5t-30.5 264.5q15 110 67.5 205.5t131.5 168t175.5 113.5t199.5 41q122 0 218.5 -57t151.5 -153l-135 -67q-43 66 -110.5 101.5t-143.5 35.5q-102 0 -191 -53.5t-149 -141.5t-75 -193t21 -193
t110.5 -140.5t173.5 -52.5q83 0 160.5 38t133.5 99zM541 1110l-153 288h93l149 -203l201 203h94l-231 -288h-153z" />
    <glyph glyph-name="Dcaron" unicode="&#x10e;" horiz-adv-x="1343" 
d="M22 0l196 1400h463q145 0 264.5 -54.5t202 -151t119 -223t16.5 -271.5t-92 -271.5t-182 -223t-244.5 -151t-279.5 -54.5h-463zM181 140h323q116 0 223.5 43.5t195.5 120.5t146 178.5t74 217.5t-13.5 217.5t-95.5 178.5t-161.5 120.5t-211.5 43.5h-322zM689 1510l-153 288
h93l149 -203l201 203h94l-231 -288h-153z" />
    <glyph glyph-name="dcaron" unicode="&#x10f;" horiz-adv-x="1203" 
d="M1055 1500h140l-210 -1500h-140l26 187q-65 -96 -164 -154.5t-223 -58.5q-109 0 -198.5 41t-151.5 113.5t-89.5 167.5t-12.5 204t69.5 204.5t137 168t183.5 113.5t210 41q124 0 206.5 -58.5t120.5 -153.5zM504 110q107 0 191.5 52.5t138.5 141.5t69 196q16 110 -14 198.5
t-99.5 140.5t-175.5 52t-200.5 -52.5t-159 -141.5t-79.5 -197q-15 -109 25 -197.5t120.5 -140.5t183.5 -52zM1241 1212l120 288h140l-166 -288h-94z" />
    <glyph glyph-name="Emacron" unicode="&#x112;" 
d="M22 0l196 1400h852l-19 -140h-712l-62 -440h589l-19 -140h-590l-76 -540h712l-19 -140h-852zM336 1683h676l-16 -113h-676z" />
    <glyph glyph-name="emacron" unicode="&#x113;" horiz-adv-x="1116" 
d="M458 -26q-138 0 -241.5 71t-154 190.5t-30.5 264.5q15 110 67.5 205.5t131.5 168t175.5 113.5t199.5 41q111 0 198.5 -44t143.5 -123t76 -185t-4 -229h-847q-2 -95 36 -170t107 -118.5t161 -44.5q100 0 188.5 52t149.5 143l137 -33q-79 -133 -211.5 -217.5t-282.5 -84.5z
M185 560h710q6 93 -32.5 170.5t-109.5 124t-164 46.5q-94 0 -177 -45.5t-143 -123t-84 -172.5zM303 1283h676l-16 -113h-676z" />
    <glyph glyph-name="Edotaccent" unicode="&#x116;" 
d="M22 0l196 1400h852l-19 -140h-712l-62 -440h589l-19 -140h-590l-76 -540h712l-19 -140h-852zM660 1575q-34 0 -54.5 22.5t-15.5 56.5t31.5 56.5t60.5 22.5q33 0 53.5 -22.5t15.5 -56.5t-31 -56.5t-60 -22.5z" />
    <glyph glyph-name="edotaccent" unicode="&#x117;" horiz-adv-x="1116" 
d="M458 -26q-138 0 -241.5 71t-154 190.5t-30.5 264.5q15 110 67.5 205.5t131.5 168t175.5 113.5t199.5 41q111 0 198.5 -44t143.5 -123t76 -185t-4 -229h-847q-2 -95 36 -170t107 -118.5t161 -44.5q100 0 188.5 52t149.5 143l137 -33q-79 -133 -211.5 -217.5t-282.5 -84.5z
M185 560h710q6 93 -32.5 170.5t-109.5 124t-164 46.5q-94 0 -177 -45.5t-143 -123t-84 -172.5zM627 1175q-34 0 -54.5 22.5t-15.5 56.5t31.5 56.5t60.5 22.5q33 0 53.5 -22.5t15.5 -56.5t-31 -56.5t-60 -22.5z" />
    <glyph glyph-name="Eogonek" unicode="&#x118;" 
d="M22 0l196 1400h852l-19 -140h-712l-62 -440h589l-19 -140h-590l-76 -540h712l-19 -140h-852zM580 -406q-54 1 -91 27.5t-53.5 68.5t-9.5 88q5 35 22.5 68t48.5 61l192 168l65 -75q-63 -55 -104.5 -90.5t-65 -58.5t-34 -40.5t-12.5 -36.5q-4 -28 12 -50.5t50 -24.5
q38 0 74 28t43 74h102q-8 -58 -43 -105t-86.5 -74.5t-109.5 -27.5z" />
    <glyph glyph-name="eogonek" unicode="&#x119;" horiz-adv-x="1116" 
d="M458 -26q-138 0 -241.5 71t-154 190.5t-30.5 264.5q15 110 67.5 205.5t131.5 168t175.5 113.5t199.5 41q111 0 198.5 -44t143.5 -123t76 -185t-4 -229h-847q-2 -95 36 -170t107 -118.5t161 -44.5q100 0 188.5 52t149.5 143l137 -33q-79 -133 -211.5 -217.5t-282.5 -84.5z
M185 560h710q6 93 -32.5 170.5t-109.5 124t-164 46.5q-94 0 -177 -45.5t-143 -123t-84 -172.5zM444 -406q-54 1 -91 27.5t-53.5 68.5t-9.5 88q5 35 22.5 68t48.5 61l192 168l65 -75q-63 -55 -104.5 -90.5t-65 -58.5t-34 -40.5t-12.5 -36.5q-4 -28 12 -50.5t50 -24.5
q38 0 74 28t43 74h102q-8 -58 -43 -105t-86.5 -74.5t-109.5 -27.5z" />
    <glyph glyph-name="Ecaron" unicode="&#x11a;" 
d="M22 0l196 1400h852l-19 -140h-712l-62 -440h589l-19 -140h-590l-76 -540h712l-19 -140h-852zM573 1510l-153 288h93l149 -203l201 203h94l-231 -288h-153z" />
    <glyph glyph-name="ecaron" unicode="&#x11b;" horiz-adv-x="1116" 
d="M458 -26q-138 0 -241.5 71t-154 190.5t-30.5 264.5q15 110 67.5 205.5t131.5 168t175.5 113.5t199.5 41q111 0 198.5 -44t143.5 -123t76 -185t-4 -229h-847q-2 -95 36 -170t107 -118.5t161 -44.5q100 0 188.5 52t149.5 143l137 -33q-79 -133 -211.5 -217.5t-282.5 -84.5z
M185 560h710q6 93 -32.5 170.5t-109.5 124t-164 46.5q-94 0 -177 -45.5t-143 -123t-84 -172.5zM540 1110l-153 288h93l149 -203l201 203h94l-231 -288h-153z" />
    <glyph glyph-name="Gcircumflex" unicode="&#x11c;" horiz-adv-x="1536" 
d="M667 -26q-144 0 -261.5 56.5t-197.5 157t-114.5 232t-13.5 281.5q21 153 94.5 285t183.5 230.5t242.5 153.5t272.5 55q161 0 293.5 -75t214.5 -213l-135 -68q-66 105 -170 161t-223 56q-113 0 -219.5 -45.5t-193.5 -126.5t-145 -187t-75 -228q-17 -121 11 -227t92 -186.5
t157.5 -126t207.5 -45.5q94 0 183.5 32.5t167 91.5t137.5 138t95 172h-377l18 127h541q-24 -145 -97 -272t-180.5 -223.5t-238 -151t-270.5 -54.5zM1001 1798l153 -288h-94l-148 203l-202 -203h-93l231 288h153z" />
    <glyph glyph-name="gcircumflex" unicode="&#x11d;" horiz-adv-x="1175" 
d="M957 1000h140l-145 -1037q-13 -96 -66.5 -180t-133.5 -147.5t-175 -99.5t-192 -36q-104 0 -194 47.5t-150 126.5t-77 175l137 59q8 -75 52 -135.5t110.5 -96t141.5 -35.5q69 0 137 25.5t126 69.5t96.5 102.5t47.5 124.5l31 221q-65 -94 -162 -152t-214 -58
q-105 0 -191.5 41t-146.5 113.5t-86 167.5t-11 204t68 204.5t133.5 168t178.5 113.5t203 41q117 0 197.5 -57.5t119.5 -152.5zM487 110q103 0 186.5 54t137.5 143t68 193q15 107 -14 195.5t-97.5 142t-170.5 53.5q-103 0 -193.5 -52.5t-152 -141.5t-76.5 -197t22 -196.5
t113.5 -141t176.5 -52.5zM763 1398l153 -288h-94l-148 203l-202 -203h-93l231 288h153z" />
    <glyph glyph-name="Gbreve" unicode="&#x11e;" horiz-adv-x="1536" 
d="M667 -26q-144 0 -261.5 56.5t-197.5 157t-114.5 232t-13.5 281.5q21 153 94.5 285t183.5 230.5t242.5 153.5t272.5 55q161 0 293.5 -75t214.5 -213l-135 -68q-66 105 -170 161t-223 56q-113 0 -219.5 -45.5t-193.5 -126.5t-145 -187t-75 -228q-17 -121 11 -227t92 -186.5
t157.5 -126t207.5 -45.5q94 0 183.5 32.5t167 91.5t137.5 138t95 172h-377l18 127h541q-24 -145 -97 -272t-180.5 -223.5t-238 -151t-270.5 -54.5zM881 1488q-91 0 -160 45t-103.5 120.5t-22.5 166.5h100q-9 -65 16 -117.5t74 -83.5t110 -31q63 0 120 31t96 84t48 117h100
q-13 -93 -69 -168.5t-137.5 -119.5t-171.5 -44z" />
    <glyph glyph-name="gbreve" unicode="&#x11f;" horiz-adv-x="1175" 
d="M957 1000h140l-145 -1037q-13 -96 -66.5 -180t-133.5 -147.5t-175 -99.5t-192 -36q-104 0 -194 47.5t-150 126.5t-77 175l137 59q8 -75 52 -135.5t110.5 -96t141.5 -35.5q69 0 137 25.5t126 69.5t96.5 102.5t47.5 124.5l31 221q-65 -94 -162 -152t-214 -58
q-105 0 -191.5 41t-146.5 113.5t-86 167.5t-11 204t68 204.5t133.5 168t178.5 113.5t203 41q117 0 197.5 -57.5t119.5 -152.5zM487 110q103 0 186.5 54t137.5 143t68 193q15 107 -14 195.5t-97.5 142t-170.5 53.5q-103 0 -193.5 -52.5t-152 -141.5t-76.5 -197t22 -196.5
t113.5 -141t176.5 -52.5zM643 1088q-91 0 -160 45t-103.5 120.5t-22.5 166.5h100q-9 -65 16 -117.5t74 -83.5t110 -31q63 0 120 31t96 84t48 117h100q-13 -93 -69 -168.5t-137.5 -119.5t-171.5 -44z" />
    <glyph glyph-name="Gdotaccent" unicode="&#x120;" horiz-adv-x="1536" 
d="M667 -26q-144 0 -261.5 56.5t-197.5 157t-114.5 232t-13.5 281.5q21 153 94.5 285t183.5 230.5t242.5 153.5t272.5 55q161 0 293.5 -75t214.5 -213l-135 -68q-66 105 -170 161t-223 56q-113 0 -219.5 -45.5t-193.5 -126.5t-145 -187t-75 -228q-17 -121 11 -227t92 -186.5
t157.5 -126t207.5 -45.5q94 0 183.5 32.5t167 91.5t137.5 138t95 172h-377l18 127h541q-24 -145 -97 -272t-180.5 -223.5t-238 -151t-270.5 -54.5zM894 1575q-34 0 -54.5 22.5t-15.5 56.5t31.5 56.5t60.5 22.5q33 0 53.5 -22.5t15.5 -56.5t-31 -56.5t-60 -22.5z" />
    <glyph glyph-name="gdotaccent" unicode="&#x121;" horiz-adv-x="1175" 
d="M957 1000h140l-145 -1037q-13 -96 -66.5 -180t-133.5 -147.5t-175 -99.5t-192 -36q-104 0 -194 47.5t-150 126.5t-77 175l137 59q8 -75 52 -135.5t110.5 -96t141.5 -35.5q69 0 137 25.5t126 69.5t96.5 102.5t47.5 124.5l31 221q-65 -94 -162 -152t-214 -58
q-105 0 -191.5 41t-146.5 113.5t-86 167.5t-11 204t68 204.5t133.5 168t178.5 113.5t203 41q117 0 197.5 -57.5t119.5 -152.5zM487 110q103 0 186.5 54t137.5 143t68 193q15 107 -14 195.5t-97.5 142t-170.5 53.5q-103 0 -193.5 -52.5t-152 -141.5t-76.5 -197t22 -196.5
t113.5 -141t176.5 -52.5zM656 1175q-34 0 -54.5 22.5t-15.5 56.5t31.5 56.5t60.5 22.5q33 0 53.5 -22.5t15.5 -56.5t-31 -56.5t-60 -22.5z" />
    <glyph glyph-name="uni0122" unicode="&#x122;" horiz-adv-x="1536" 
d="M667 -26q-144 0 -261.5 56.5t-197.5 157t-114.5 232t-13.5 281.5q21 153 94.5 285t183.5 230.5t242.5 153.5t272.5 55q161 0 293.5 -75t214.5 -213l-135 -68q-66 105 -170 161t-223 56q-113 0 -219.5 -45.5t-193.5 -126.5t-145 -187t-75 -228q-17 -121 11 -227t92 -186.5
t157.5 -126t207.5 -45.5q94 0 183.5 32.5t167 91.5t137.5 138t95 172h-377l18 127h541q-24 -145 -97 -272t-180.5 -223.5t-238 -151t-270.5 -54.5zM476 -441l109 338h140l-156 -338h-93z" />
    <glyph glyph-name="Hcircumflex" unicode="&#x124;" horiz-adv-x="1255" 
d="M1093 1400h140l-196 -1400h-140l95 680h-735l-95 -680h-140l196 1400h140l-81 -580h734zM858 1798l153 -288h-94l-148 203l-202 -203h-93l231 288h153z" />
    <glyph glyph-name="hcircumflex" unicode="&#x125;" horiz-adv-x="1073" 
d="M981 619l-86 -619h-140l82 591q12 82 -18.5 149t-92 107t-143.5 40t-154.5 -40t-121.5 -107t-61 -149l-83 -591h-140l210 1500h140l-89 -638q64 76 155 121t191 45q113 0 198 -55t127 -148t26 -206zM805 1823l153 -288h-94l-148 203l-202 -203h-93l231 288h153z" />
    <glyph glyph-name="Itilde" unicode="&#x128;" horiz-adv-x="440" 
d="M52 0l196 1400h140l-196 -1400h-140zM491 1531q-37 0 -79 23.5t-83 54t-77 51.5t-62 15q-27 -6 -45.5 -33t-14.5 -65l-98 -26q-12 57 9.5 109t67.5 84.5t105 32.5q38 0 80 -22t84 -50.5t78 -50.5t61 -22q23 0 37.5 17.5t21 40.5t2.5 40l98 30q12 -60 -11 -112t-69 -84.5
t-105 -32.5z" />
    <glyph glyph-name="itilde" unicode="&#x129;" horiz-adv-x="380" 
d="M359 1105q-28 0 -58.5 19t-60.5 43t-56.5 41t-45.5 12q-20 -5 -33.5 -26.5t-10.5 -51.5l-72 -21q-9 45 7 86.5t49.5 68t76.5 26.5q28 0 59 -17.5t62 -40.5t57.5 -40.5t44.5 -17.5q24 0 36 29t8 49l72 24q13 -72 -29 -127.5t-106 -55.5zM162 1000h140l-140 -1000h-140z
" />
    <glyph glyph-name="Imacron" unicode="&#x12a;" horiz-adv-x="440" 
d="M52 0l196 1400h140l-196 -1400h-140zM20 1683h676l-16 -113h-676z" />
    <glyph glyph-name="imacron" unicode="&#x12b;" horiz-adv-x="380" 
d="M64 1283h380l-9 -113h-380zM162 1000h140l-140 -1000h-140z" />
    <glyph glyph-name="Iogonek" unicode="&#x12e;" horiz-adv-x="440" 
d="M52 0l196 1400h140l-196 -1400h-140zM18 -406q-54 1 -91 27.5t-53.5 68.5t-9.5 88q5 35 22.5 68t48.5 61l192 168l65 -75q-63 -55 -104.5 -90.5t-65 -58.5t-34 -40.5t-12.5 -36.5q-4 -28 12 -50.5t50 -24.5q38 0 74 28t43 74h102q-8 -58 -43 -105t-86.5 -74.5
t-109.5 -27.5z" />
    <glyph glyph-name="iogonek" unicode="&#x12f;" horiz-adv-x="380" 
d="M162 1000h140l-140 -1000h-140zM258 1175q-34 0 -54.5 22.5t-15.5 56.5t31.5 56.5t60.5 22.5q33 0 53.5 -22.5t15.5 -56.5t-31 -56.5t-60 -22.5zM-12 -406q-54 1 -91 27.5t-53.5 68.5t-9.5 88q5 35 22.5 68t48.5 61l192 168l65 -75q-63 -55 -104.5 -90.5t-65 -58.5
t-34 -40.5t-12.5 -36.5q-4 -28 12 -50.5t50 -24.5q38 0 74 28t43 74h102q-8 -58 -43 -105t-86.5 -74.5t-109.5 -27.5z" />
    <glyph glyph-name="Idotaccent" unicode="&#x130;" horiz-adv-x="440" 
d="M52 0l196 1400h140l-196 -1400h-140zM344 1575q-34 0 -54.5 22.5t-15.5 56.5t31.5 56.5t60.5 22.5q33 0 53.5 -22.5t15.5 -56.5t-31 -56.5t-60 -22.5z" />
    <glyph glyph-name="dotlessi" unicode="&#x131;" horiz-adv-x="380" 
d="M162 1000h140l-140 -1000h-140z" />
    <glyph glyph-name="IJ" unicode="&#x132;" horiz-adv-x="1243" 
d="M52 0l196 1400h140l-196 -1400h-140zM628 -26q-68 0 -129.5 22.5t-108.5 68.5l105 108q28 -27 67 -43t85 -16q70 0 133 37.5t105.5 98t52.5 129.5l143 1021h140l-143 -1021q-15 -108 -81 -200t-163 -148.5t-206 -56.5z" />
    <glyph glyph-name="ij" unicode="&#x133;" horiz-adv-x="774" 
d="M162 1000h140l-140 -1000h-140zM258 1175q-34 0 -54.5 22.5t-15.5 56.5t31.5 56.5t60.5 22.5q33 0 53.5 -22.5t15.5 -56.5t-31 -56.5t-60 -22.5zM84 -500l20 140q75 0 138.5 33t106 90.5t52.5 128.5l155 1108h140l-155 -1108q-15 -108 -80.5 -197t-163.5 -142t-213 -53z
M652 1175q-34 0 -54.5 22.5t-15.5 56.5t31.5 56.5t60.5 22.5q33 0 53.5 -22.5t15.5 -56.5t-31 -56.5t-60 -22.5z" />
    <glyph glyph-name="Jcircumflex" unicode="&#x134;" horiz-adv-x="803" 
d="M188 -26q-68 0 -129.5 22.5t-108.5 68.5l105 108q28 -27 67 -43t85 -16q70 0 133 37.5t105.5 98t52.5 129.5l143 1021h140l-143 -1021q-15 -108 -81 -200t-163 -148.5t-206 -56.5zM844 1798l153 -288h-94l-148 203l-202 -203h-93l231 288h153z" />
    <glyph glyph-name="jcircumflex" unicode="&#x135;" horiz-adv-x="441" 
d="M-249 -500l20 140q75 0 138.5 33t106 90.5t52.5 128.5l155 1108h140l-155 -1108q-15 -108 -80.5 -197t-163.5 -142t-213 -53zM426 1398l153 -288h-94l-148 203l-202 -203h-93l231 288h153z" />
    <glyph glyph-name="uni0136" unicode="&#x136;" horiz-adv-x="1066" 
d="M921 0h-181l-371 629l-139 -143l-68 -486h-140l196 1400h140l-98 -696l681 696h183l-648 -661zM241 -441l109 338h140l-156 -338h-93z" />
    <glyph glyph-name="uni0137" unicode="&#x137;" horiz-adv-x="983" 
d="M804 0h-161l-213 483l-233 -239l-34 -244h-140l210 1500h140l-146 -1038l527 538h183l-395 -403zM190 -441l109 338h140l-156 -338h-93z" />
    <glyph glyph-name="Lacute" unicode="&#x139;" horiz-adv-x="1003" 
d="M22 0l196 1400h140l-177 -1260h644l-20 -140h-783zM270 1510l120 288h140l-166 -288h-94z" />
    <glyph glyph-name="lacute" unicode="&#x13a;" horiz-adv-x="380" 
d="M23 0l210 1500h140l-210 -1500h-140zM285 1610l120 288h140l-166 -288h-94z" />
    <glyph glyph-name="uni013B" unicode="&#x13b;" horiz-adv-x="1003" 
d="M22 0l196 1400h140l-177 -1260h644l-20 -140h-783zM220 -441l109 338h140l-156 -338h-93z" />
    <glyph glyph-name="uni013C" unicode="&#x13c;" horiz-adv-x="380" 
d="M23 0l210 1500h140l-210 -1500h-140zM-101 -441l109 338h140l-156 -338h-93z" />
    <glyph glyph-name="Lcaron" unicode="&#x13d;" horiz-adv-x="1003" 
d="M22 0l196 1400h140l-177 -1260h644l-20 -140h-783zM632 1212l120 288h140l-166 -288h-94z" />
    <glyph glyph-name="lcaron" unicode="&#x13e;" horiz-adv-x="380" 
d="M23 0l210 1500h140l-210 -1500h-140zM413 1212l120 288h140l-166 -288h-94z" />
    <glyph glyph-name="Nacute" unicode="&#x143;" horiz-adv-x="1271" 
d="M22 0l196 1400h152l578 -1147l161 1147h140l-196 -1400h-151l-579 1147l-161 -1147h-140zM715 1510l120 288h140l-166 -288h-94z" />
    <glyph glyph-name="nacute" unicode="&#x144;" 
d="M980 619l-86 -619h-140l82 591q12 82 -18.5 149t-92 107t-143.5 40t-154.5 -40t-121.5 -107t-61 -149l-83 -591h-140l140 1000h140l-19 -138q64 76 155 121t191 45q113 0 198 -55t127 -148t26 -206zM587 1110l120 288h140l-166 -288h-94z" />
    <glyph glyph-name="uni0145" unicode="&#x145;" horiz-adv-x="1271" 
d="M22 0l196 1400h152l578 -1147l161 1147h140l-196 -1400h-151l-579 1147l-161 -1147h-140zM343 -441l109 338h140l-156 -338h-93z" />
    <glyph glyph-name="uni0146" unicode="&#x146;" 
d="M980 619l-86 -619h-140l82 591q12 82 -18.5 149t-92 107t-143.5 40t-154.5 -40t-121.5 -107t-61 -149l-83 -591h-140l140 1000h140l-19 -138q64 76 155 121t191 45q113 0 198 -55t127 -148t26 -206zM264 -441l109 338h140l-156 -338h-93z" />
    <glyph glyph-name="Ncaron" unicode="&#x147;" horiz-adv-x="1271" 
d="M22 0l196 1400h152l578 -1147l161 1147h140l-196 -1400h-151l-579 1147l-161 -1147h-140zM672 1510l-153 288h93l149 -203l201 203h94l-231 -288h-153z" />
    <glyph glyph-name="ncaron" unicode="&#x148;" 
d="M980 619l-86 -619h-140l82 591q12 82 -18.5 149t-92 107t-143.5 40t-154.5 -40t-121.5 -107t-61 -149l-83 -591h-140l140 1000h140l-19 -138q64 76 155 121t191 45q113 0 198 -55t127 -148t26 -206zM544 1110l-153 288h93l149 -203l201 203h94l-231 -288h-153z" />
    <glyph glyph-name="Omacron" unicode="&#x14c;" horiz-adv-x="1540" 
d="M668 -26q-142 0 -259.5 56.5t-198 156.5t-116 231.5t-14.5 281.5t93 281.5t181.5 231.5t242.5 156.5t275 56.5q143 0 260 -56.5t197.5 -156.5t116 -231.5t14.5 -281.5t-93 -281.5t-181.5 -231.5t-242 -156.5t-275.5 -56.5zM687 114q115 0 221 46.5t193 127.5t144.5 187
t74.5 225q17 120 -11 226.5t-92 187t-157 126.5t-207 46q-115 0 -221 -46.5t-193 -127.5t-144.5 -187t-74.5 -225q-17 -121 11 -227t92 -187t157 -126.5t207 -45.5zM570 1683h676l-16 -113h-676z" />
    <glyph glyph-name="omacron" unicode="&#x14d;" horiz-adv-x="1120" 
d="M458 -26q-138 0 -241.5 71t-154 190.5t-30.5 264.5q15 110 67.5 205.5t131.5 168t175.5 113.5t199.5 41q138 0 241.5 -71t154.5 -191t30 -266q-15 -109 -67.5 -204t-131.5 -167.5t-175 -113.5t-200 -41zM477 114q102 0 191 53.5t149.5 141.5t74.5 191q15 105 -21 193.5
t-109.5 141.5t-174.5 53q-102 0 -191 -53.5t-149 -141.5t-75 -193q-15 -108 21.5 -195.5t111 -139t172.5 -51.5zM304 1283h676l-16 -113h-676z" />
    <glyph glyph-name="Ohungarumlaut" unicode="&#x150;" horiz-adv-x="1540" 
d="M668 -26q-142 0 -259.5 56.5t-198 156.5t-116 231.5t-14.5 281.5t93 281.5t181.5 231.5t242.5 156.5t275 56.5q143 0 260 -56.5t197.5 -156.5t116 -231.5t14.5 -281.5t-93 -281.5t-181.5 -231.5t-242 -156.5t-275.5 -56.5zM687 114q115 0 221 46.5t193 127.5t144.5 187
t74.5 225q17 120 -11 226.5t-92 187t-157 126.5t-207 46q-115 0 -221 -46.5t-193 -127.5t-144.5 -187t-74.5 -225q-17 -121 11 -227t92 -187t157 -126.5t207 -45.5zM996 1510l120 288h140l-166 -288h-94zM722 1510l120 288h140l-166 -288h-94z" />
    <glyph glyph-name="ohungarumlaut" unicode="&#x151;" horiz-adv-x="1120" 
d="M458 -26q-138 0 -241.5 71t-154 190.5t-30.5 264.5q15 110 67.5 205.5t131.5 168t175.5 113.5t199.5 41q138 0 241.5 -71t154.5 -191t30 -266q-15 -109 -67.5 -204t-131.5 -167.5t-175 -113.5t-200 -41zM477 114q102 0 191 53.5t149.5 141.5t74.5 191q15 105 -21 193.5
t-109.5 141.5t-174.5 53q-102 0 -191 -53.5t-149 -141.5t-75 -193q-15 -108 21.5 -195.5t111 -139t172.5 -51.5zM730 1110l120 288h140l-166 -288h-94zM456 1110l120 288h140l-166 -288h-94z" />
    <glyph glyph-name="OE" unicode="&#x152;" horiz-adv-x="2169" 
d="M668 -26q-142 0 -259.5 56.5t-198 156.5t-116 231.5t-14.5 281.5t93 281.5t181.5 231.5t242.5 156.5t275 56.5q118 0 217 -42t173 -116t115 -172l42 304h748l-19 -140h-608l-69 -490h512l-19 -140h-512l-69 -490h608l-20 -140h-748l42 304q-68 -97 -162.5 -171.5
t-205.5 -116.5t-229 -42zM687 114q115 0 221 46.5t193 127.5t144.5 187t74.5 225q17 120 -11 226.5t-92 187t-157 126.5t-207 46q-115 0 -221 -46.5t-193 -127.5t-144.5 -187t-74.5 -225q-17 -121 11 -227t92 -187t157 -126.5t207 -45.5z" />
    <glyph glyph-name="oe" unicode="&#x153;" horiz-adv-x="1976" 
d="M458 -26q-138 0 -241.5 71t-154 190.5t-30.5 264.5q15 110 67.5 205.5t131.5 168t175.5 113.5t199.5 41q95 0 173.5 -35.5t134.5 -99t82 -147.5q51 84 124.5 147.5t162.5 99t183 35.5q111 0 198 -44t143.5 -123t76 -184.5t-3.5 -229.5h-847q-2 -95 36 -170t107 -118.5
t161 -44.5q100 0 188.5 52t149.5 143l137 -33q-79 -133 -211.5 -217.5t-282.5 -84.5q-94 0 -173 35.5t-134.5 99t-82.5 146.5q-50 -83 -124 -146.5t-162.5 -99t-183.5 -35.5zM477 114q102 0 191 53.5t149.5 141.5t74.5 191q15 105 -21 193.5t-109.5 141.5t-174.5 53
q-102 0 -191 -53.5t-149 -141.5t-75 -193q-15 -108 21.5 -195.5t111 -139t172.5 -51.5zM1044 561h710q6 92 -32 169.5t-109 124t-164 46.5q-94 0 -177.5 -45.5t-143.5 -122.5t-84 -172z" />
    <glyph glyph-name="Racute" unicode="&#x154;" horiz-adv-x="1115" 
d="M22 0l196 1400h475q112 0 194.5 -54.5t122.5 -147t24 -207.5q-14 -103 -68 -187t-134.5 -139t-174.5 -73l260 -592h-162l-256 581h-256l-81 -581h-140zM263 721h323q74 0 140.5 36.5t112 99t56.5 141.5q12 79 -16 141.5t-84.5 99t-130.5 36.5h-323zM517 1510l120 288h140
l-166 -288h-94z" />
    <glyph glyph-name="racute" unicode="&#x155;" horiz-adv-x="715" 
d="M22 0l140 1000h140l-19 -138q64 76 155 121t191 45q58 0 110 -15l-77 -139q-39 13 -80 13q-82 0 -154.5 -40t-121.5 -107t-61 -149l-83 -591h-140zM419 1110l120 288h140l-166 -288h-94z" />
    <glyph glyph-name="uni0156" unicode="&#x156;" horiz-adv-x="1115" 
d="M22 0l196 1400h475q112 0 194.5 -54.5t122.5 -147t24 -207.5q-14 -103 -68 -187t-134.5 -139t-174.5 -73l260 -592h-162l-256 581h-256l-81 -581h-140zM263 721h323q74 0 140.5 36.5t112 99t56.5 141.5q12 79 -16 141.5t-84.5 99t-130.5 36.5h-323zM256 -441l109 338h140
l-156 -338h-93z" />
    <glyph glyph-name="uni0157" unicode="&#x157;" horiz-adv-x="715" 
d="M22 0l140 1000h140l-19 -138q64 76 155 121t191 45q58 0 110 -15l-77 -139q-39 13 -80 13q-82 0 -154.5 -40t-121.5 -107t-61 -149l-83 -591h-140zM-102 -441l109 338h140l-156 -338h-93z" />
    <glyph glyph-name="Rcaron" unicode="&#x158;" horiz-adv-x="1115" 
d="M22 0l196 1400h475q112 0 194.5 -54.5t122.5 -147t24 -207.5q-14 -103 -68 -187t-134.5 -139t-174.5 -73l260 -592h-162l-256 581h-256l-81 -581h-140zM263 721h323q74 0 140.5 36.5t112 99t56.5 141.5q12 79 -16 141.5t-84.5 99t-130.5 36.5h-323zM474 1510l-153 288h93
l149 -203l201 203h94l-231 -288h-153z" />
    <glyph glyph-name="rcaron" unicode="&#x159;" horiz-adv-x="715" 
d="M22 0l140 1000h140l-19 -138q64 76 155 121t191 45q58 0 110 -15l-77 -139q-39 13 -80 13q-82 0 -154.5 -40t-121.5 -107t-61 -149l-83 -591h-140zM376 1110l-153 288h93l149 -203l201 203h94l-231 -288h-153z" />
    <glyph glyph-name="Sacute" unicode="&#x15a;" horiz-adv-x="1220" 
d="M507 -26q-112 0 -211.5 35t-168 100t-88.5 155l138 49q14 -62 66 -106.5t127 -68.5t157 -24q95 0 182.5 32t147 89.5t70.5 135.5q11 79 -35 130t-125 80.5t-168 45.5q-139 25 -247 68t-163 121.5t-37 207.5q17 121 100 210t204.5 138t254.5 49q109 0 208 -34t169.5 -99
t92.5 -159l-140 -48q-13 63 -65.5 107.5t-127.5 68t-157 23.5q-95 1 -182.5 -31.5t-146.5 -90t-70 -134.5q-12 -90 29 -138.5t119.5 -72.5t178.5 -43q131 -23 239 -71.5t167 -129t42 -198.5q-17 -120 -99.5 -209.5t-204 -138.5t-256.5 -49zM690 1510l120 288h140l-166 -288
h-94z" />
    <glyph glyph-name="sacute" unicode="&#x15b;" horiz-adv-x="859" 
d="M328 -19q-82 2 -156 30t-125.5 76t-67.5 109l129 52q10 -39 48.5 -71.5t92 -52t108.5 -19.5q61 0 117 20t95 57.5t46 88.5q8 55 -24 86.5t-84.5 50t-107.5 35.5q-102 29 -178 64t-114 89.5t-26 140.5q13 91 74 157.5t149.5 103t183.5 36.5q122 0 215 -53t126 -141
l-123 -67q-12 41 -46.5 71t-81.5 47t-98 18q-64 1 -122 -18.5t-96.5 -57.5t-46.5 -93t21 -83.5t83 -46t121 -40.5q88 -29 162.5 -66t116 -92t28.5 -139q-13 -90 -76 -157t-154.5 -102.5t-188.5 -32.5zM454 1110l120 288h140l-166 -288h-94z" />
    <glyph glyph-name="Scircumflex" unicode="&#x15c;" horiz-adv-x="1220" 
d="M507 -26q-112 0 -211.5 35t-168 100t-88.5 155l138 49q14 -62 66 -106.5t127 -68.5t157 -24q95 0 182.5 32t147 89.5t70.5 135.5q11 79 -35 130t-125 80.5t-168 45.5q-139 25 -247 68t-163 121.5t-37 207.5q17 121 100 210t204.5 138t254.5 49q109 0 208 -34t169.5 -99
t92.5 -159l-140 -48q-13 63 -65.5 107.5t-127.5 68t-157 23.5q-95 1 -182.5 -31.5t-146.5 -90t-70 -134.5q-12 -90 29 -138.5t119.5 -72.5t178.5 -43q131 -23 239 -71.5t167 -129t42 -198.5q-17 -120 -99.5 -209.5t-204 -138.5t-256.5 -49zM841 1798l153 -288h-94l-148 203
l-202 -203h-93l231 288h153z" />
    <glyph glyph-name="scircumflex" unicode="&#x15d;" horiz-adv-x="859" 
d="M328 -19q-82 2 -156 30t-125.5 76t-67.5 109l129 52q10 -39 48.5 -71.5t92 -52t108.5 -19.5q61 0 117 20t95 57.5t46 88.5q8 55 -24 86.5t-84.5 50t-107.5 35.5q-102 29 -178 64t-114 89.5t-26 140.5q13 91 74 157.5t149.5 103t183.5 36.5q122 0 215 -53t126 -141
l-123 -67q-12 41 -46.5 71t-81.5 47t-98 18q-64 1 -122 -18.5t-96.5 -57.5t-46.5 -93t21 -83.5t83 -46t121 -40.5q88 -29 162.5 -66t116 -92t28.5 -139q-13 -90 -76 -157t-154.5 -102.5t-188.5 -32.5zM605 1398l153 -288h-94l-148 203l-202 -203h-93l231 288h153z" />
    <glyph glyph-name="Scedilla" unicode="&#x15e;" horiz-adv-x="1220" 
d="M507 -26q-112 0 -211.5 35t-168 100t-88.5 155l138 49q14 -62 66 -106.5t127 -68.5t157 -24q95 0 182.5 32t147 89.5t70.5 135.5q11 79 -35 130t-125 80.5t-168 45.5q-139 25 -247 68t-163 121.5t-37 207.5q17 121 100 210t204.5 138t254.5 49q109 0 208 -34t169.5 -99
t92.5 -159l-140 -48q-13 63 -65.5 107.5t-127.5 68t-157 23.5q-95 1 -182.5 -31.5t-146.5 -90t-70 -134.5q-12 -90 29 -138.5t119.5 -72.5t178.5 -43q131 -23 239 -71.5t167 -129t42 -198.5q-17 -120 -99.5 -209.5t-204 -138.5t-256.5 -49zM532 -367q-65 -17 -118 16t-61 96
l90 23q4 -27 27 -41t51 -7q29 8 47 32.5t14 52.5t-26.5 41.5t-51.5 7.5l-97 -13l153 214l72 -45l-52 -73q37 -10 62.5 -39t30.5 -70q8 -64 -33 -121t-108 -74z" />
    <glyph glyph-name="scedilla" unicode="&#x15f;" horiz-adv-x="859" 
d="M328 -19q-82 2 -156 30t-125.5 76t-67.5 109l129 52q10 -39 48.5 -71.5t92 -52t108.5 -19.5q61 0 117 20t95 57.5t46 88.5q8 55 -24 86.5t-84.5 50t-107.5 35.5q-102 29 -178 64t-114 89.5t-26 140.5q13 91 74 157.5t149.5 103t183.5 36.5q122 0 215 -53t126 -141
l-123 -67q-12 41 -46.5 71t-81.5 47t-98 18q-64 1 -122 -18.5t-96.5 -57.5t-46.5 -93t21 -83.5t83 -46t121 -40.5q88 -29 162.5 -66t116 -92t28.5 -139q-13 -90 -76 -157t-154.5 -102.5t-188.5 -32.5zM342 -367q-65 -17 -118 16t-61 96l90 23q4 -27 27 -41t51 -7
q29 8 47 32.5t14 52.5t-26.5 41.5t-51.5 7.5l-97 -13l153 214l72 -45l-52 -73q37 -10 62.5 -39t30.5 -70q8 -64 -33 -121t-108 -74z" />
    <glyph glyph-name="Scaron" unicode="&#x160;" horiz-adv-x="1220" 
d="M507 -26q-112 0 -211.5 35t-168 100t-88.5 155l138 49q14 -62 66 -106.5t127 -68.5t157 -24q95 0 182.5 32t147 89.5t70.5 135.5q11 79 -35 130t-125 80.5t-168 45.5q-139 25 -247 68t-163 121.5t-37 207.5q17 121 100 210t204.5 138t254.5 49q109 0 208 -34t169.5 -99
t92.5 -159l-140 -48q-13 63 -65.5 107.5t-127.5 68t-157 23.5q-95 1 -182.5 -31.5t-146.5 -90t-70 -134.5q-12 -90 29 -138.5t119.5 -72.5t178.5 -43q131 -23 239 -71.5t167 -129t42 -198.5q-17 -120 -99.5 -209.5t-204 -138.5t-256.5 -49zM647 1510l-153 288h93l149 -203
l201 203h94l-231 -288h-153z" />
    <glyph glyph-name="scaron" unicode="&#x161;" horiz-adv-x="859" 
d="M328 -19q-82 2 -156 30t-125.5 76t-67.5 109l129 52q10 -39 48.5 -71.5t92 -52t108.5 -19.5q61 0 117 20t95 57.5t46 88.5q8 55 -24 86.5t-84.5 50t-107.5 35.5q-102 29 -178 64t-114 89.5t-26 140.5q13 91 74 157.5t149.5 103t183.5 36.5q122 0 215 -53t126 -141
l-123 -67q-12 41 -46.5 71t-81.5 47t-98 18q-64 1 -122 -18.5t-96.5 -57.5t-46.5 -93t21 -83.5t83 -46t121 -40.5q88 -29 162.5 -66t116 -92t28.5 -139q-13 -90 -76 -157t-154.5 -102.5t-188.5 -32.5zM411 1110l-153 288h93l149 -203l201 203h94l-231 -288h-153z" />
    <glyph glyph-name="uni0162" unicode="&#x162;" horiz-adv-x="1259" 
d="M1277 1400l-20 -140h-480l-176 -1260h-140l176 1260h-478l19 140h1099zM481 -367q-65 -17 -118 16t-61 96l90 23q4 -27 27 -41t51 -7q29 8 47 32.5t14 52.5t-26.5 41.5t-51.5 7.5l-97 -13l153 214l72 -45l-52 -73q37 -10 62.5 -39t30.5 -70q8 -64 -33 -121t-108 -74z" />
    <glyph glyph-name="uni0163" unicode="&#x163;" horiz-adv-x="690" 
d="M654 860h-239l-122 -860h-140l122 860h-181l19 140h181l43 314h140l-43 -314h239zM173 -367q-65 -17 -118 16t-61 96l90 23q4 -27 27 -41t51 -7q29 8 47 32.5t14 52.5t-26.5 41.5t-51.5 7.5l-97 -13l153 214l72 -45l-52 -73q37 -10 62.5 -39t30.5 -70q8 -64 -33 -121
t-108 -74z" />
    <glyph glyph-name="Tcaron" unicode="&#x164;" horiz-adv-x="1259" 
d="M1277 1400l-20 -140h-480l-176 -1260h-140l176 1260h-478l19 140h1099zM666 1510l-153 288h93l149 -203l201 203h94l-231 -288h-153z" />
    <glyph glyph-name="tcaron" unicode="&#x165;" horiz-adv-x="690" 
d="M654 860h-239l-122 -860h-140l122 860h-181l19 140h181l43 314h140l-43 -314h239zM589 1212l120 288h140l-166 -288h-94z" />
    <glyph glyph-name="Utilde" unicode="&#x168;" horiz-adv-x="1326" 
d="M561 -26q-168 0 -278 82t-156.5 220.5t-22.5 307.5l114 816h140l-114 -816q-18 -128 13.5 -235t112.5 -171t211 -64q131 0 230 64.5t160 171.5t79 234l114 816h140l-114 -816q-18 -127 -71 -237.5t-135.5 -194.5t-189.5 -131t-233 -47zM934 1531q-37 0 -79 23.5t-83 54
t-77 51.5t-62 15q-27 -6 -45.5 -33t-14.5 -65l-98 -26q-12 57 9.5 109t67.5 84.5t105 32.5q38 0 80 -22t84 -50.5t78 -50.5t61 -22q23 0 37.5 17.5t21 40.5t2.5 40l98 30q12 -60 -11 -112t-69 -84.5t-105 -32.5z" />
    <glyph glyph-name="utilde" unicode="&#x169;" horiz-adv-x="1032" 
d="M36 383l86 617h140l-83 -589q-11 -82 19.5 -149t92 -107t142.5 -40q82 0 155 40t122.5 107t60.5 149l82 589h140l-139 -1000h-140l18 140q-64 -76 -154.5 -121t-190.5 -45q-113 0 -198 55t-127 148t-26 206zM744 1132q-37 0 -79 23.5t-83 54t-77 51.5t-62 15
q-27 -6 -45.5 -33t-14.5 -65l-98 -26q-12 57 9.5 109t67.5 84.5t105 32.5q38 0 80 -22t84 -50.5t78 -50.5t61 -22q23 0 37.5 17.5t21 40.5t2.5 40l98 30q12 -60 -11 -112t-69 -84.5t-105 -32.5z" />
    <glyph glyph-name="Umacron" unicode="&#x16a;" horiz-adv-x="1326" 
d="M561 -26q-168 0 -278 82t-156.5 220.5t-22.5 307.5l114 816h140l-114 -816q-18 -128 13.5 -235t112.5 -171t211 -64q131 0 230 64.5t160 171.5t79 234l114 816h140l-114 -816q-18 -127 -71 -237.5t-135.5 -194.5t-189.5 -131t-233 -47zM463 1683h676l-16 -113h-676z" />
    <glyph glyph-name="umacron" unicode="&#x16b;" horiz-adv-x="1032" 
d="M36 383l86 617h140l-83 -589q-11 -82 19.5 -149t92 -107t142.5 -40q82 0 155 40t122.5 107t60.5 149l82 589h140l-139 -1000h-140l18 140q-64 -76 -154.5 -121t-190.5 -45q-113 0 -198 55t-127 148t-26 206zM273 1284h676l-16 -113h-676z" />
    <glyph glyph-name="Ubreve" unicode="&#x16c;" horiz-adv-x="1326" 
d="M561 -26q-168 0 -278 82t-156.5 220.5t-22.5 307.5l114 816h140l-114 -816q-18 -128 13.5 -235t112.5 -171t211 -64q131 0 230 64.5t160 171.5t79 234l114 816h140l-114 -816q-18 -127 -71 -237.5t-135.5 -194.5t-189.5 -131t-233 -47zM774 1488q-91 0 -160 45
t-103.5 120.5t-22.5 166.5h100q-9 -65 16 -117.5t74 -83.5t110 -31q63 0 120 31t96 84t48 117h100q-13 -93 -69 -168.5t-137.5 -119.5t-171.5 -44z" />
    <glyph glyph-name="ubreve" unicode="&#x16d;" horiz-adv-x="1032" 
d="M36 383l86 617h140l-83 -589q-11 -82 19.5 -149t92 -107t142.5 -40q82 0 155 40t122.5 107t60.5 149l82 589h140l-139 -1000h-140l18 140q-64 -76 -154.5 -121t-190.5 -45q-113 0 -198 55t-127 148t-26 206zM584 1089q-91 0 -160 45t-103.5 120.5t-22.5 166.5h100
q-9 -65 16 -117.5t74 -83.5t110 -31q63 0 120 31t96 84t48 117h100q-13 -93 -69 -168.5t-137.5 -119.5t-171.5 -44z" />
    <glyph glyph-name="Uring" unicode="&#x16e;" horiz-adv-x="1326" 
d="M561 -26q-168 0 -278 82t-156.5 220.5t-22.5 307.5l114 816h140l-114 -816q-18 -128 13.5 -235t112.5 -171t211 -64q131 0 230 64.5t160 171.5t79 234l114 816h140l-114 -816q-18 -127 -71 -237.5t-135.5 -194.5t-189.5 -131t-233 -47zM774 1495q-65 0 -105 47.5
t-31 112.5q6 43 32.5 79t65.5 57.5t83 21.5q65 0 105 -46.5t31 -111.5q-9 -67 -62.5 -113.5t-118.5 -46.5zM785 1573q33 0 60 24t32 58q5 32 -15.5 55t-54.5 23q-33 0 -59 -23t-31 -55q-5 -34 15 -58t53 -24z" />
    <glyph glyph-name="uring" unicode="&#x16f;" horiz-adv-x="1032" 
d="M36 383l86 617h140l-83 -589q-11 -82 19.5 -149t92 -107t142.5 -40q82 0 155 40t122.5 107t60.5 149l82 589h140l-139 -1000h-140l18 140q-64 -76 -154.5 -121t-190.5 -45q-113 0 -198 55t-127 148t-26 206zM584 1096q-65 0 -105 47.5t-31 112.5q6 43 32.5 79t65.5 57.5
t83 21.5q65 0 105 -46.5t31 -111.5q-9 -67 -62.5 -113.5t-118.5 -46.5zM595 1174q33 0 60 24t32 58q5 32 -15.5 55t-54.5 23q-33 0 -59 -23t-31 -55q-5 -34 15 -58t53 -24z" />
    <glyph glyph-name="Uhungarumlaut" unicode="&#x170;" horiz-adv-x="1326" 
d="M561 -26q-168 0 -278 82t-156.5 220.5t-22.5 307.5l114 816h140l-114 -816q-18 -128 13.5 -235t112.5 -171t211 -64q131 0 230 64.5t160 171.5t79 234l114 816h140l-114 -816q-18 -127 -71 -237.5t-135.5 -194.5t-189.5 -131t-233 -47zM889 1510l120 288h140l-166 -288
h-94zM615 1510l120 288h140l-166 -288h-94z" />
    <glyph glyph-name="uhungarumlaut" unicode="&#x171;" horiz-adv-x="1032" 
d="M36 383l86 617h140l-83 -589q-11 -82 19.5 -149t92 -107t142.5 -40q82 0 155 40t122.5 107t60.5 149l82 589h140l-139 -1000h-140l18 140q-64 -76 -154.5 -121t-190.5 -45q-113 0 -198 55t-127 148t-26 206zM699 1111l120 288h140l-166 -288h-94zM425 1111l120 288h140
l-166 -288h-94z" />
    <glyph glyph-name="Uogonek" unicode="&#x172;" horiz-adv-x="1326" 
d="M561 -26q-168 0 -278 82t-156.5 220.5t-22.5 307.5l114 816h140l-114 -816q-18 -128 13.5 -235t112.5 -171t211 -64q131 0 230 64.5t160 171.5t79 234l114 816h140l-114 -816q-18 -127 -71 -237.5t-135.5 -194.5t-189.5 -131t-233 -47zM506 -417q-54 1 -91 27.5
t-53.5 68.5t-9.5 88q5 35 22.5 68t48.5 61l192 168l65 -75q-63 -55 -104.5 -90.5t-65 -58.5t-34 -40.5t-12.5 -36.5q-4 -28 12 -50.5t50 -24.5q38 0 74 28t43 74h102q-8 -58 -43 -105t-86.5 -74.5t-109.5 -27.5z" />
    <glyph glyph-name="uogonek" unicode="&#x173;" horiz-adv-x="1032" 
d="M36 383l86 617h140l-83 -589q-11 -82 19.5 -149t92 -107t142.5 -40q82 0 155 40t122.5 107t60.5 149l82 589h140l-139 -1000h-140l18 140q-64 -76 -154.5 -121t-190.5 -45q-113 0 -198 55t-127 148t-26 206zM680 -405q-54 1 -91 27.5t-53.5 68.5t-9.5 88q5 35 22.5 68
t48.5 61l192 168l65 -75q-63 -55 -104.5 -90.5t-65 -58.5t-34 -40.5t-12.5 -36.5q-4 -28 12 -50.5t50 -24.5q38 0 74 28t43 74h102q-8 -58 -43 -105t-86.5 -74.5t-109.5 -27.5z" />
    <glyph glyph-name="Wcircumflex" unicode="&#x174;" horiz-adv-x="1688" 
d="M307 0l-162 1400h144l134 -1159l457 1159h124l134 -1159l457 1159h144l-552 -1400h-166l-124 1075l-426 -1075h-164zM1075 1798l153 -288h-94l-148 203l-202 -203h-93l231 288h153z" />
    <glyph glyph-name="wcircumflex" unicode="&#x175;" horiz-adv-x="1625" 
d="M441 0h-144l-195 1000h137l159 -806l383 806h148l157 -806l383 806h138l-475 -1000h-145l-159 814zM988 1398l153 -288h-94l-148 203l-202 -203h-93l231 288h153z" />
    <glyph glyph-name="Ycircumflex" unicode="&#x176;" horiz-adv-x="1203" 
d="M1076 1400h165l-579 -766l-89 -634h-140l89 634l-364 766h165l290 -613zM832 1798l153 -288h-94l-148 203l-202 -203h-93l231 288h153z" />
    <glyph glyph-name="ycircumflex" unicode="&#x177;" horiz-adv-x="1033" 
d="M847 1000h148l-758 -1500h-149l253 500l-219 1000h153l162 -807zM691 1398l153 -288h-94l-148 203l-202 -203h-93l231 288h153z" />
    <glyph glyph-name="Ydieresis" unicode="&#x178;" horiz-adv-x="1203" 
d="M1076 1400h165l-579 -766l-89 -634h-140l89 634l-364 766h165l290 -613zM554 1481q-34 0 -55 22.5t-16 56.5q5 33 32 57t61 24q33 0 54 -24t16 -57q-5 -34 -32 -56.5t-60 -22.5zM869 1481q-34 0 -55 22.5t-17 56.5q5 33 32.5 57t61.5 24q33 0 54 -24t16 -57
q-5 -34 -32 -56.5t-60 -22.5z" />
    <glyph glyph-name="Zacute" unicode="&#x179;" horiz-adv-x="1292" 
d="M-18 0l19 140l1102 1120h-944l19 140h1132l-19 -140l-1102 -1120h944l-19 -140h-1132zM726 1510l120 288h140l-166 -288h-94z" />
    <glyph glyph-name="zacute" unicode="&#x17a;" horiz-adv-x="1014" 
d="M957 860l-758 -720h656l-19 -140h-854l19 140l758 720h-656l19 140h854zM531 1110l120 288h140l-166 -288h-94z" />
    <glyph glyph-name="Zdotaccent" unicode="&#x17b;" horiz-adv-x="1292" 
d="M-18 0l19 140l1102 1120h-944l19 140h1132l-19 -140l-1102 -1120h944l-19 -140h-1132zM770 1575q-34 0 -54.5 22.5t-15.5 56.5t31.5 56.5t60.5 22.5q33 0 53.5 -22.5t15.5 -56.5t-31 -56.5t-60 -22.5z" />
    <glyph glyph-name="zdotaccent" unicode="&#x17c;" horiz-adv-x="1014" 
d="M957 860l-758 -720h656l-19 -140h-854l19 140l758 720h-656l19 140h854zM575 1175q-34 0 -54.5 22.5t-15.5 56.5t31.5 56.5t60.5 22.5q33 0 53.5 -22.5t15.5 -56.5t-31 -56.5t-60 -22.5z" />
    <glyph glyph-name="Zcaron" unicode="&#x17d;" horiz-adv-x="1292" 
d="M-18 0l19 140l1102 1120h-944l19 140h1132l-19 -140l-1102 -1120h944l-19 -140h-1132zM683 1510l-153 288h93l149 -203l201 203h94l-231 -288h-153z" />
    <glyph glyph-name="zcaron" unicode="&#x17e;" horiz-adv-x="1014" 
d="M957 860l-758 -720h656l-19 -140h-854l19 140l758 720h-656l19 140h854zM488 1110l-153 288h93l149 -203l201 203h94l-231 -288h-153z" />
    <glyph glyph-name="uni01CD" unicode="&#x1cd;" horiz-adv-x="1353" 
d="M687 1400h174l314 -1400h-149l-68 300h-676l-151 -300h-149zM353 440h574l-177 788zM713 1510l-153 288h93l149 -203l201 203h94l-231 -288h-153z" />
    <glyph glyph-name="uni01CE" unicode="&#x1ce;" horiz-adv-x="1161" 
d="M984 1000h140l-140 -1000h-140l21 186q-62 -95 -158.5 -153.5t-218.5 -58.5q-110 0 -200.5 41.5t-153 114.5t-90 169t-11.5 206q15 108 68.5 203t135.5 167t182 112.5t208 40.5q125 0 210 -59.5t126 -155.5zM504 110q107 0 191.5 52.5t138.5 141.5t69 196
q16 110 -14 198.5t-99.5 140.5t-175.5 52t-201 -52.5t-159 -141.5t-79 -197q-15 -109 25 -197.5t120.5 -140.5t183.5 -52zM577 1110l-153 288h93l149 -203l201 203h94l-231 -288h-153z" />
    <glyph glyph-name="uni01CF" unicode="&#x1cf;" horiz-adv-x="440" 
d="M52 0l196 1400h140l-196 -1400h-140zM257 1510l-153 288h93l149 -203l201 203h94l-231 -288h-153z" />
    <glyph glyph-name="uni01D0" unicode="&#x1d0;" horiz-adv-x="380" 
d="M162 1000h140l-140 -1000h-140zM171 1110l-153 288h93l149 -203l201 203h94l-231 -288h-153z" />
    <glyph glyph-name="uni01D1" unicode="&#x1d1;" horiz-adv-x="1540" 
d="M668 -26q-142 0 -259.5 56.5t-198 156.5t-116 231.5t-14.5 281.5t93 281.5t181.5 231.5t242.5 156.5t275 56.5q143 0 260 -56.5t197.5 -156.5t116 -231.5t14.5 -281.5t-93 -281.5t-181.5 -231.5t-242 -156.5t-275.5 -56.5zM687 114q115 0 221 46.5t193 127.5t144.5 187
t74.5 225q17 120 -11 226.5t-92 187t-157 126.5t-207 46q-115 0 -221 -46.5t-193 -127.5t-144.5 -187t-74.5 -225q-17 -121 11 -227t92 -187t157 -126.5t207 -45.5zM807 1510l-153 288h93l149 -203l201 203h94l-231 -288h-153z" />
    <glyph glyph-name="uni01D2" unicode="&#x1d2;" horiz-adv-x="1120" 
d="M458 -26q-138 0 -241.5 71t-154 190.5t-30.5 264.5q15 110 67.5 205.5t131.5 168t175.5 113.5t199.5 41q138 0 241.5 -71t154.5 -191t30 -266q-15 -109 -67.5 -204t-131.5 -167.5t-175 -113.5t-200 -41zM477 114q102 0 191 53.5t149.5 141.5t74.5 191q15 105 -21 193.5
t-109.5 141.5t-174.5 53q-102 0 -191 -53.5t-149 -141.5t-75 -193q-15 -108 21.5 -195.5t111 -139t172.5 -51.5zM541 1110l-153 288h93l149 -203l201 203h94l-231 -288h-153z" />
    <glyph glyph-name="uni01D3" unicode="&#x1d3;" horiz-adv-x="1326" 
d="M561 -26q-168 0 -278 82t-156.5 220.5t-22.5 307.5l114 816h140l-114 -816q-18 -128 13.5 -235t112.5 -171t211 -64q131 0 230 64.5t160 171.5t79 234l114 816h140l-114 -816q-18 -127 -71 -237.5t-135.5 -194.5t-189.5 -131t-233 -47zM700 1510l-153 288h93l149 -203
l201 203h94l-231 -288h-153z" />
    <glyph glyph-name="uni01D4" unicode="&#x1d4;" horiz-adv-x="1032" 
d="M36 383l86 617h140l-83 -589q-11 -82 19.5 -149t92 -107t142.5 -40q82 0 155 40t122.5 107t60.5 149l82 589h140l-139 -1000h-140l18 140q-64 -76 -154.5 -121t-190.5 -45q-113 0 -198 55t-127 148t-26 206zM510 1111l-153 288h93l149 -203l201 203h94l-231 -288h-153z
" />
    <glyph glyph-name="uni01D5" unicode="&#x1d5;" horiz-adv-x="1326" 
d="M561 -26q-168 0 -278 82t-156.5 220.5t-22.5 307.5l114 816h140l-114 -816q-18 -128 13.5 -235t112.5 -171t211 -64q131 0 230 64.5t160 171.5t79 234l114 816h140l-114 -816q-18 -127 -71 -237.5t-135.5 -194.5t-189.5 -131t-233 -47zM616 1481q-34 0 -55 22.5t-16 56.5
q5 33 32 57t61 24q33 0 54 -24t16 -57q-5 -34 -32 -56.5t-60 -22.5zM931 1481q-34 0 -55 22.5t-17 56.5q5 33 32.5 57t61.5 24q33 0 54 -24t16 -57q-5 -34 -32 -56.5t-60 -22.5zM493 1896h676l-16 -113h-676z" />
    <glyph glyph-name="uni01D6" unicode="&#x1d6;" horiz-adv-x="1032" 
d="M36 383l86 617h140l-83 -589q-11 -82 19.5 -149t92 -107t142.5 -40q82 0 155 40t122.5 107t60.5 149l82 589h140l-139 -1000h-140l18 140q-64 -76 -154.5 -121t-190.5 -45q-113 0 -198 55t-127 148t-26 206zM426 1082q-34 0 -55 22.5t-16 56.5q5 33 32 57t61 24
q33 0 54 -24t16 -57q-5 -34 -32 -56.5t-60 -22.5zM741 1082q-34 0 -55 22.5t-17 56.5q5 33 32.5 57t61.5 24q33 0 54 -24t16 -57q-5 -34 -32 -56.5t-60 -22.5zM303 1497h676l-16 -113h-676z" />
    <glyph glyph-name="uni01D7" unicode="&#x1d7;" horiz-adv-x="1326" 
d="M561 -26q-168 0 -278 82t-156.5 220.5t-22.5 307.5l114 816h140l-114 -816q-18 -128 13.5 -235t112.5 -171t211 -64q131 0 230 64.5t160 171.5t79 234l114 816h140l-114 -816q-18 -127 -71 -237.5t-135.5 -194.5t-189.5 -131t-233 -47zM616 1481q-34 0 -55 22.5t-16 56.5
q5 33 32 57t61 24q33 0 54 -24t16 -57q-5 -34 -32 -56.5t-60 -22.5zM931 1481q-34 0 -55 22.5t-17 56.5q5 33 32.5 57t61.5 24q33 0 54 -24t16 -57q-5 -34 -32 -56.5t-60 -22.5zM773 1723l120 288h140l-166 -288h-94z" />
    <glyph glyph-name="uni01D8" unicode="&#x1d8;" horiz-adv-x="1032" 
d="M36 383l86 617h140l-83 -589q-11 -82 19.5 -149t92 -107t142.5 -40q82 0 155 40t122.5 107t60.5 149l82 589h140l-139 -1000h-140l18 140q-64 -76 -154.5 -121t-190.5 -45q-113 0 -198 55t-127 148t-26 206zM426 1082q-34 0 -55 22.5t-16 56.5q5 33 32 57t61 24
q33 0 54 -24t16 -57q-5 -34 -32 -56.5t-60 -22.5zM741 1082q-34 0 -55 22.5t-17 56.5q5 33 32.5 57t61.5 24q33 0 54 -24t16 -57q-5 -34 -32 -56.5t-60 -22.5zM583 1324l120 288h140l-166 -288h-94z" />
    <glyph glyph-name="uni01D9" unicode="&#x1d9;" horiz-adv-x="1326" 
d="M561 -26q-168 0 -278 82t-156.5 220.5t-22.5 307.5l114 816h140l-114 -816q-18 -128 13.5 -235t112.5 -171t211 -64q131 0 230 64.5t160 171.5t79 234l114 816h140l-114 -816q-18 -127 -71 -237.5t-135.5 -194.5t-189.5 -131t-233 -47zM616 1481q-34 0 -55 22.5t-16 56.5
q5 33 32 57t61 24q33 0 54 -24t16 -57q-5 -34 -32 -56.5t-60 -22.5zM931 1481q-34 0 -55 22.5t-17 56.5q5 33 32.5 57t61.5 24q33 0 54 -24t16 -57q-5 -34 -32 -56.5t-60 -22.5zM730 1723l-153 288h93l149 -203l201 203h94l-231 -288h-153z" />
    <glyph glyph-name="uni01DA" unicode="&#x1da;" horiz-adv-x="1032" 
d="M36 383l86 617h140l-83 -589q-11 -82 19.5 -149t92 -107t142.5 -40q82 0 155 40t122.5 107t60.5 149l82 589h140l-139 -1000h-140l18 140q-64 -76 -154.5 -121t-190.5 -45q-113 0 -198 55t-127 148t-26 206zM426 1082q-34 0 -55 22.5t-16 56.5q5 33 32 57t61 24
q33 0 54 -24t16 -57q-5 -34 -32 -56.5t-60 -22.5zM741 1082q-34 0 -55 22.5t-17 56.5q5 33 32.5 57t61.5 24q33 0 54 -24t16 -57q-5 -34 -32 -56.5t-60 -22.5zM540 1324l-153 288h93l149 -203l201 203h94l-231 -288h-153z" />
    <glyph glyph-name="uni01DB" unicode="&#x1db;" horiz-adv-x="1326" 
d="M561 -26q-168 0 -278 82t-156.5 220.5t-22.5 307.5l114 816h140l-114 -816q-18 -128 13.5 -235t112.5 -171t211 -64q131 0 230 64.5t160 171.5t79 234l114 816h140l-114 -816q-18 -127 -71 -237.5t-135.5 -194.5t-189.5 -131t-233 -47zM616 1481q-34 0 -55 22.5t-16 56.5
q5 33 32 57t61 24q33 0 54 -24t16 -57q-5 -34 -32 -56.5t-60 -22.5zM931 1481q-34 0 -55 22.5t-17 56.5q5 33 32.5 57t61.5 24q33 0 54 -24t16 -57q-5 -34 -32 -56.5t-60 -22.5zM654 2011h140l40 -288h-93z" />
    <glyph glyph-name="uni01DC" unicode="&#x1dc;" horiz-adv-x="1032" 
d="M36 383l86 617h140l-83 -589q-11 -82 19.5 -149t92 -107t142.5 -40q82 0 155 40t122.5 107t60.5 149l82 589h140l-139 -1000h-140l18 140q-64 -76 -154.5 -121t-190.5 -45q-113 0 -198 55t-127 148t-26 206zM426 1082q-34 0 -55 22.5t-16 56.5q5 33 32 57t61 24
q33 0 54 -24t16 -57q-5 -34 -32 -56.5t-60 -22.5zM741 1082q-34 0 -55 22.5t-17 56.5q5 33 32.5 57t61.5 24q33 0 54 -24t16 -57q-5 -34 -32 -56.5t-60 -22.5zM464 1612h140l40 -288h-93z" />
    <glyph glyph-name="uni01DE" unicode="&#x1de;" horiz-adv-x="1353" 
d="M687 1400h174l314 -1400h-149l-68 300h-676l-151 -300h-149zM353 440h574l-177 788zM629 1481q-34 0 -55 22.5t-16 56.5q5 33 32 57t61 24q33 0 54 -24t16 -57q-5 -34 -32 -56.5t-60 -22.5zM944 1481q-34 0 -55 22.5t-17 56.5q5 33 32.5 57t61.5 24q33 0 54 -24t16 -57
q-5 -34 -32 -56.5t-60 -22.5zM506 1896h676l-16 -113h-676z" />
    <glyph glyph-name="uni01DF" unicode="&#x1df;" horiz-adv-x="1161" 
d="M984 1000h140l-140 -1000h-140l21 186q-62 -95 -158.5 -153.5t-218.5 -58.5q-110 0 -200.5 41.5t-153 114.5t-90 169t-11.5 206q15 108 68.5 203t135.5 167t182 112.5t208 40.5q125 0 210 -59.5t126 -155.5zM504 110q107 0 191.5 52.5t138.5 141.5t69 196
q16 110 -14 198.5t-99.5 140.5t-175.5 52t-201 -52.5t-159 -141.5t-79 -197q-15 -109 25 -197.5t120.5 -140.5t183.5 -52zM493 1081q-34 0 -55 22.5t-16 56.5q5 33 32 57t61 24q33 0 54 -24t16 -57q-5 -34 -32 -56.5t-60 -22.5zM808 1081q-34 0 -55 22.5t-17 56.5
q5 33 32.5 57t61.5 24q33 0 54 -24t16 -57q-5 -34 -32 -56.5t-60 -22.5zM370 1496h676l-16 -113h-676z" />
    <glyph glyph-name="uni01E2" unicode="&#x1e2;" horiz-adv-x="1619" 
d="M-18 0l705 1400h930l-19 -140h-572l-69 -490h476l-19 -140h-476l-69 -490h572l-20 -140h-712l42 300h-469l-151 -300h-149zM353 440h418l115 820h-119zM854 1683h676l-16 -113h-676z" />
    <glyph glyph-name="uni01E3" unicode="&#x1e3;" horiz-adv-x="1776" 
d="M231 -25q-87 0 -150 37.5t-93.5 103.5t-18.5 150q11 79 57 146t119 108t163 41h389q12 89 -17.5 163.5t-95 119t-163.5 44.5q-75 0 -148 -32l-60 118q56 27 113.5 40.5t112.5 13.5q133 0 232 -69.5t142 -185.5q52 76 123.5 133.5t156 89.5t173.5 32q112 0 199 -44
t143 -123.5t75.5 -185t-3.5 -228.5h-848q-2 -95 36 -170.5t108 -119t162 -43.5q99 0 187.5 52t149.5 143l137 -33q-79 -133 -211.5 -217.5t-282.5 -84.5q-96 0 -176.5 36.5t-137 101.5t-82.5 150q-51 -83 -128.5 -148t-170.5 -102t-192 -37zM250 102q113 0 208.5 59.5
t153.5 149.5q44 61 67 137h-386q-78 0 -132 -50t-64 -124q-10 -67 28.5 -119.5t124.5 -52.5zM844 560h711q6 93 -32.5 170.5t-110 124t-164.5 46.5t-176.5 -45.5t-143.5 -123t-84 -172.5zM547 1284h676l-16 -113h-676z" />
    <glyph glyph-name="Gcaron" unicode="&#x1e6;" horiz-adv-x="1536" 
d="M667 -26q-144 0 -261.5 56.5t-197.5 157t-114.5 232t-13.5 281.5q21 153 94.5 285t183.5 230.5t242.5 153.5t272.5 55q161 0 293.5 -75t214.5 -213l-135 -68q-66 105 -170 161t-223 56q-113 0 -219.5 -45.5t-193.5 -126.5t-145 -187t-75 -228q-17 -121 11 -227t92 -186.5
t157.5 -126t207.5 -45.5q94 0 183.5 32.5t167 91.5t137.5 138t95 172h-377l18 127h541q-24 -145 -97 -272t-180.5 -223.5t-238 -151t-270.5 -54.5zM807 1510l-153 288h93l149 -203l201 203h94l-231 -288h-153z" />
    <glyph glyph-name="gcaron" unicode="&#x1e7;" horiz-adv-x="1175" 
d="M957 1000h140l-145 -1037q-13 -96 -66.5 -180t-133.5 -147.5t-175 -99.5t-192 -36q-104 0 -194 47.5t-150 126.5t-77 175l137 59q8 -75 52 -135.5t110.5 -96t141.5 -35.5q69 0 137 25.5t126 69.5t96.5 102.5t47.5 124.5l31 221q-65 -94 -162 -152t-214 -58
q-105 0 -191.5 41t-146.5 113.5t-86 167.5t-11 204t68 204.5t133.5 168t178.5 113.5t203 41q117 0 197.5 -57.5t119.5 -152.5zM487 110q103 0 186.5 54t137.5 143t68 193q15 107 -14 195.5t-97.5 142t-170.5 53.5q-103 0 -193.5 -52.5t-152 -141.5t-76.5 -197t22 -196.5
t113.5 -141t176.5 -52.5zM569 1110l-153 288h93l149 -203l201 203h94l-231 -288h-153z" />
    <glyph glyph-name="uni01E8" unicode="&#x1e8;" horiz-adv-x="1066" 
d="M921 0h-181l-371 629l-139 -143l-68 -486h-140l196 1400h140l-98 -696l681 696h183l-648 -661zM570 1510l-153 288h93l149 -203l201 203h94l-231 -288h-153z" />
    <glyph glyph-name="uni01E9" unicode="&#x1e9;" horiz-adv-x="983" 
d="M804 0h-161l-213 483l-233 -239l-34 -244h-140l210 1500h140l-146 -1038l527 538h183l-395 -403zM579 1510l-153 288h93l149 -203l201 203h94l-231 -288h-153z" />
    <glyph glyph-name="uni0218" unicode="&#x218;" horiz-adv-x="1220" 
d="M507 -26q-112 0 -211.5 35t-168 100t-88.5 155l138 49q14 -62 66 -106.5t127 -68.5t157 -24q95 0 182.5 32t147 89.5t70.5 135.5q11 79 -35 130t-125 80.5t-168 45.5q-139 25 -247 68t-163 121.5t-37 207.5q17 121 100 210t204.5 138t254.5 49q109 0 208 -34t169.5 -99
t92.5 -159l-140 -48q-13 63 -65.5 107.5t-127.5 68t-157 23.5q-95 1 -182.5 -31.5t-146.5 -90t-70 -134.5q-12 -90 29 -138.5t119.5 -72.5t178.5 -43q131 -23 239 -71.5t167 -129t42 -198.5q-17 -120 -99.5 -209.5t-204 -138.5t-256.5 -49zM388 -441l109 338h140l-156 -338
h-93z" />
    <glyph glyph-name="uni0219" unicode="&#x219;" horiz-adv-x="859" 
d="M328 -19q-82 2 -156 30t-125.5 76t-67.5 109l129 52q10 -39 48.5 -71.5t92 -52t108.5 -19.5q61 0 117 20t95 57.5t46 88.5q8 55 -24 86.5t-84.5 50t-107.5 35.5q-102 29 -178 64t-114 89.5t-26 140.5q13 91 74 157.5t149.5 103t183.5 36.5q122 0 215 -53t126 -141
l-123 -67q-12 41 -46.5 71t-81.5 47t-98 18q-64 1 -122 -18.5t-96.5 -57.5t-46.5 -93t21 -83.5t83 -46t121 -40.5q88 -29 162.5 -66t116 -92t28.5 -139q-13 -90 -76 -157t-154.5 -102.5t-188.5 -32.5zM198 -441l109 338h140l-156 -338h-93z" />
    <glyph glyph-name="uni021A" unicode="&#x21a;" horiz-adv-x="1259" 
d="M1277 1400l-20 -140h-480l-176 -1260h-140l176 1260h-478l19 140h1099zM337 -441l109 338h140l-156 -338h-93z" />
    <glyph glyph-name="uni021B" unicode="&#x21b;" horiz-adv-x="690" 
d="M654 860h-239l-122 -860h-140l122 860h-181l19 140h181l43 314h140l-43 -314h239zM29 -441l109 338h140l-156 -338h-93z" />
    <glyph glyph-name="uni022A" unicode="&#x22a;" horiz-adv-x="1540" 
d="M668 -26q-142 0 -259.5 56.5t-198 156.5t-116 231.5t-14.5 281.5t93 281.5t181.5 231.5t242.5 156.5t275 56.5q143 0 260 -56.5t197.5 -156.5t116 -231.5t14.5 -281.5t-93 -281.5t-181.5 -231.5t-242 -156.5t-275.5 -56.5zM687 114q115 0 221 46.5t193 127.5t144.5 187
t74.5 225q17 120 -11 226.5t-92 187t-157 126.5t-207 46q-115 0 -221 -46.5t-193 -127.5t-144.5 -187t-74.5 -225q-17 -121 11 -227t92 -187t157 -126.5t207 -45.5zM723 1481q-34 0 -55 22.5t-16 56.5q5 33 32 57t61 24q33 0 54 -24t16 -57q-5 -34 -32 -56.5t-60 -22.5z
M1038 1481q-34 0 -55 22.5t-17 56.5q5 33 32.5 57t61.5 24q33 0 54 -24t16 -57q-5 -34 -32 -56.5t-60 -22.5zM600 1896h676l-16 -113h-676z" />
    <glyph glyph-name="uni022B" unicode="&#x22b;" horiz-adv-x="1120" 
d="M458 -26q-138 0 -241.5 71t-154 190.5t-30.5 264.5q15 110 67.5 205.5t131.5 168t175.5 113.5t199.5 41q138 0 241.5 -71t154.5 -191t30 -266q-15 -109 -67.5 -204t-131.5 -167.5t-175 -113.5t-200 -41zM477 114q102 0 191 53.5t149.5 141.5t74.5 191q15 105 -21 193.5
t-109.5 141.5t-174.5 53q-102 0 -191 -53.5t-149 -141.5t-75 -193q-15 -108 21.5 -195.5t111 -139t172.5 -51.5zM457 1081q-34 0 -55 22.5t-16 56.5q5 33 32 57t61 24q33 0 54 -24t16 -57q-5 -34 -32 -56.5t-60 -22.5zM772 1081q-34 0 -55 22.5t-17 56.5q5 33 32.5 57
t61.5 24q33 0 54 -24t16 -57q-5 -34 -32 -56.5t-60 -22.5zM334 1496h676l-16 -113h-676z" />
    <glyph glyph-name="uni0232" unicode="&#x232;" horiz-adv-x="1203" 
d="M1076 1400h165l-579 -766l-89 -634h-140l89 634l-364 766h165l290 -613zM401 1683h676l-16 -113h-676z" />
    <glyph glyph-name="uni0233" unicode="&#x233;" horiz-adv-x="1033" 
d="M847 1000h148l-758 -1500h-149l253 500l-219 1000h153l162 -807zM260 1283h676l-16 -113h-676z" />
    <glyph glyph-name="uni0237" unicode="&#x237;" horiz-adv-x="441" 
d="M-249 -500l20 140q75 0 138.5 33t106 90.5t52.5 128.5l155 1108h140l-155 -1108q-15 -108 -80.5 -197t-163.5 -142t-213 -53z" />
    <glyph glyph-name="quoteleft" unicode="&#x2bb;" horiz-adv-x="302" 
d="M85 878l182 522h93l-135 -522h-140z" />
    <glyph glyph-name="quoteleft" unicode="&#x2018;" horiz-adv-x="302" 
d="M85 878l182 522h93l-135 -522h-140z" />
    <glyph glyph-name="uni02BC" unicode="&#x2bc;" horiz-adv-x="402" 
d="M65 878l135 522h140l-182 -522h-93z" />
    <glyph glyph-name="circumflex" unicode="&#x2c6;" horiz-adv-x="565" 
d="M456 1398l153 -288h-94l-148 203l-202 -203h-93l231 288h153z" />
    <glyph glyph-name="caron" unicode="&#x2c7;" horiz-adv-x="529" 
d="M247 1110l-153 288h93l149 -203l201 203h94l-231 -288h-153z" />
    <glyph glyph-name="breve" unicode="&#x2d8;" horiz-adv-x="1144" 
d="M627 1088q-91 0 -160 45t-103.5 120.5t-22.5 166.5h100q-9 -65 16 -117.5t74 -83.5t110 -31q63 0 120 31t96 84t48 117h100q-13 -93 -69 -168.5t-137.5 -119.5t-171.5 -44z" />
    <glyph glyph-name="dotaccent" unicode="&#x2d9;" horiz-adv-x="961" 
d="M548 1175q-34 0 -54.5 22.5t-15.5 56.5t31.5 56.5t60.5 22.5q33 0 53.5 -22.5t15.5 -56.5t-31 -56.5t-60 -22.5z" />
    <glyph glyph-name="ring" unicode="&#x2da;" horiz-adv-x="1117" 
d="M614 1095q-65 0 -105 47.5t-31 112.5q6 43 32.5 79t65.5 57.5t83 21.5q65 0 105 -46.5t31 -111.5q-9 -67 -62.5 -113.5t-118.5 -46.5zM625 1173q33 0 60 24t32 58q5 32 -15.5 55t-54.5 23q-33 0 -59 -23t-31 -55q-5 -34 15 -58t53 -24z" />
    <glyph glyph-name="ogonek" unicode="&#x2db;" horiz-adv-x="990" 
d="M325 -406q-54 1 -91 27.5t-53.5 68.5t-9.5 88q5 35 22.5 68t48.5 61l192 168l65 -75q-63 -55 -104.5 -90.5t-65 -58.5t-34 -40.5t-12.5 -36.5q-4 -28 12 -50.5t50 -24.5q38 0 74 28t43 74h102q-8 -58 -43 -105t-86.5 -74.5t-109.5 -27.5z" />
    <glyph glyph-name="tilde" unicode="&#x2dc;" horiz-adv-x="1196" 
d="M821 1143q-37 0 -79 23.5t-83 54t-77 51.5t-62 15q-27 -6 -45.5 -33t-14.5 -65l-98 -26q-12 57 9.5 109t67.5 84.5t105 32.5q38 0 80 -22t84 -50.5t78 -50.5t61 -22q23 0 37.5 17.5t21 40.5t2.5 40l98 30q12 -60 -11 -112t-69 -84.5t-105 -32.5z" />
    <glyph glyph-name="hungarumlaut" unicode="&#x2dd;" horiz-adv-x="894" 
d="M532 1110l120 288h140l-166 -288h-94zM258 1110l120 288h140l-166 -288h-94z" />
    <glyph glyph-name="gravecomb" unicode="&#x300;" horiz-adv-x="0" 
d="M338 1398h140l40 -288h-93z" />
    <glyph glyph-name="acutecomb" unicode="&#x301;" horiz-adv-x="0" 
d="M351 1110l120 288h140l-166 -288h-94z" />
    <glyph glyph-name="uni0302" unicode="&#x302;" horiz-adv-x="0" 
d="M456 1398l153 -288h-94l-148 203l-202 -203h-93l231 288h153z" />
    <glyph glyph-name="tildecomb" unicode="&#x303;" horiz-adv-x="0" 
d="M834 1131q-37 0 -79 23.5t-83 54t-77 51.5t-62 15q-27 -6 -45.5 -33t-14.5 -65l-98 -26q-12 57 9.5 109t67.5 84.5t105 32.5q38 0 80 -22t84 -50.5t78 -50.5t61 -22q23 0 37.5 17.5t21 40.5t2.5 40l98 30q12 -60 -11 -112t-69 -84.5t-105 -32.5z" />
    <glyph glyph-name="uni0304" unicode="&#x304;" horiz-adv-x="0" 
d="M344 1283h676l-16 -113h-676z" />
    <glyph glyph-name="uni0306" unicode="&#x306;" horiz-adv-x="0" 
d="M627 1088q-91 0 -160 45t-103.5 120.5t-22.5 166.5h100q-9 -65 16 -117.5t74 -83.5t110 -31q63 0 120 31t96 84t48 117h100q-13 -93 -69 -168.5t-137.5 -119.5t-171.5 -44z" />
    <glyph glyph-name="uni0307" unicode="&#x307;" horiz-adv-x="0" 
d="M548 1175q-34 0 -54.5 22.5t-15.5 56.5t31.5 56.5t60.5 22.5q33 0 53.5 -22.5t15.5 -56.5t-31 -56.5t-60 -22.5z" />
    <glyph glyph-name="uni0308" unicode="&#x308;" horiz-adv-x="0" 
d="M536 1081q-34 0 -55 22.5t-16 56.5q5 33 32 57t61 24q33 0 54 -24t16 -57q-5 -34 -32 -56.5t-60 -22.5zM851 1081q-34 0 -55 22.5t-17 56.5q5 33 32.5 57t61.5 24q33 0 54 -24t16 -57q-5 -34 -32 -56.5t-60 -22.5z" />
    <glyph glyph-name="uni030A" unicode="&#x30a;" horiz-adv-x="0" 
d="M614 1095q-65 0 -105 47.5t-31 112.5q6 43 32.5 79t65.5 57.5t83 21.5q65 0 105 -46.5t31 -111.5q-9 -67 -62.5 -113.5t-118.5 -46.5zM625 1173q33 0 60 24t32 58q5 32 -15.5 55t-54.5 23q-33 0 -59 -23t-31 -55q-5 -34 15 -58t53 -24z" />
    <glyph glyph-name="uni030B" unicode="&#x30b;" horiz-adv-x="0" 
d="M532 1110l120 288h140l-166 -288h-94zM258 1110l120 288h140l-166 -288h-94z" />
    <glyph glyph-name="uni030C" unicode="&#x30c;" horiz-adv-x="0" 
d="M247 1110l-153 288h93l149 -203l201 203h94l-231 -288h-153z" />
    <glyph glyph-name="dotbelowcomb" unicode="&#x323;" horiz-adv-x="0" 
d="M548 -394q-34 0 -54.5 22.5t-15.5 56.5t31.5 56.5t60.5 22.5q33 0 53.5 -22.5t15.5 -56.5t-31 -56.5t-60 -22.5z" />
    <glyph glyph-name="uni0326" unicode="&#x326;" horiz-adv-x="0" 
d="M240 -441l109 338h140l-156 -338h-93z" />
    <glyph glyph-name="uni0327" unicode="&#x327;" horiz-adv-x="0" 
d="M445 -367q-65 -17 -118 16t-61 96l90 23q4 -27 27 -41t51 -7q29 8 47 32.5t14 52.5t-26.5 41.5t-51.5 7.5l-97 -13l153 214l72 -45l-52 -73q37 -10 62.5 -39t30.5 -70q8 -64 -33 -121t-108 -74z" />
    <glyph glyph-name="uni0328" unicode="&#x328;" horiz-adv-x="0" 
d="M325 -406q-54 1 -91 27.5t-53.5 68.5t-9.5 88q5 35 22.5 68t48.5 61l192 168l65 -75q-63 -55 -104.5 -90.5t-65 -58.5t-34 -40.5t-12.5 -36.5q-4 -28 12 -50.5t50 -24.5q38 0 74 28t43 74h102q-8 -58 -43 -105t-86.5 -74.5t-109.5 -27.5z" />
    <glyph glyph-name="uni03BC" unicode="&#x3bc;" horiz-adv-x="1057" 
d="M-79 -432l201 1432h140l-75 -532q-13 -98 16.5 -179.5t93.5 -130t152 -48.5q87 0 163 48.5t127.5 130t65.5 179.5l74 532h140l-140 -1000h-140l24 168q-70 -91 -159.5 -143t-190.5 -52q-94 0 -164 46.5t-108 119.5l-80 -571h-140z" />
    <glyph glyph-name="uni1E04" unicode="&#x1e04;" horiz-adv-x="1115" 
d="M22 0l196 1400h473q102 0 180 -41.5t116.5 -121t22.5 -192.5q-9 -64 -40 -122t-74 -98.5t-88 -52.5q60 -16 99.5 -55.5t61 -93t26.5 -112.5t-3 -116q-16 -118 -80 -207t-157 -138.5t-198 -49.5h-535zM179 125h384q73 0 138 38t110 104t56 149q11 74 -15.5 139.5
t-80.5 106t-127 40.5h-384zM278 825h320q99 0 178 57.5t94 163.5q16 116 -47 172.5t-162 56.5h-320zM413 -394q-34 0 -54.5 22.5t-15.5 56.5t31.5 56.5t60.5 22.5q33 0 53.5 -22.5t15.5 -56.5t-31 -56.5t-60 -22.5z" />
    <glyph glyph-name="uni1E05" unicode="&#x1e05;" horiz-adv-x="1204" 
d="M663 1028q146 0 255.5 -71t164 -190.5t33.5 -265.5q-15 -109 -69.5 -204.5t-137 -168t-184 -113.5t-210.5 -41q-124 0 -206 59t-120 154l-26 -187h-140l210 1500h140l-96 -685q65 95 163.5 154t222.5 59zM533 111q107 0 201.5 52.5t159 141.5t79.5 196
q16 110 -24.5 198.5t-121 140.5t-184.5 52q-106 0 -191 -53t-139 -142t-69 -196q-15 -109 15 -197.5t99.5 -140.5t174.5 -52zM457 -394q-34 0 -54.5 22.5t-15.5 56.5t31.5 56.5t60.5 22.5q33 0 53.5 -22.5t15.5 -56.5t-31 -56.5t-60 -22.5z" />
    <glyph glyph-name="uni1E0C" unicode="&#x1e0c;" horiz-adv-x="1343" 
d="M22 0l196 1400h463q145 0 264.5 -54.5t202 -151t119 -223t16.5 -271.5t-92 -271.5t-182 -223t-244.5 -151t-279.5 -54.5h-463zM181 140h323q116 0 223.5 43.5t195.5 120.5t146 178.5t74 217.5t-13.5 217.5t-95.5 178.5t-161.5 120.5t-211.5 43.5h-322zM520 -394
q-34 0 -54.5 22.5t-15.5 56.5t31.5 56.5t60.5 22.5q33 0 53.5 -22.5t15.5 -56.5t-31 -56.5t-60 -22.5z" />
    <glyph glyph-name="uni1E0D" unicode="&#x1e0d;" horiz-adv-x="1203" 
d="M1055 1500h140l-210 -1500h-140l26 187q-65 -96 -164 -154.5t-223 -58.5q-109 0 -198.5 41t-151.5 113.5t-89.5 167.5t-12.5 204t69.5 204.5t137 168t183.5 113.5t210 41q124 0 206.5 -58.5t120.5 -153.5zM504 110q107 0 191.5 52.5t138.5 141.5t69 196q16 110 -14 198.5
t-99.5 140.5t-175.5 52t-200.5 -52.5t-159 -141.5t-79.5 -197q-15 -109 25 -197.5t120.5 -140.5t183.5 -52zM463 -394q-34 0 -54.5 22.5t-15.5 56.5t31.5 56.5t60.5 22.5q33 0 53.5 -22.5t15.5 -56.5t-31 -56.5t-60 -22.5z" />
    <glyph glyph-name="uni1E20" unicode="&#x1e20;" horiz-adv-x="1536" 
d="M667 -26q-144 0 -261.5 56.5t-197.5 157t-114.5 232t-13.5 281.5q21 153 94.5 285t183.5 230.5t242.5 153.5t272.5 55q161 0 293.5 -75t214.5 -213l-135 -68q-66 105 -170 161t-223 56q-113 0 -219.5 -45.5t-193.5 -126.5t-145 -187t-75 -228q-17 -121 11 -227t92 -186.5
t157.5 -126t207.5 -45.5q94 0 183.5 32.5t167 91.5t137.5 138t95 172h-377l18 127h541q-24 -145 -97 -272t-180.5 -223.5t-238 -151t-270.5 -54.5zM570 1683h676l-16 -113h-676z" />
    <glyph glyph-name="uni1E21" unicode="&#x1e21;" horiz-adv-x="1175" 
d="M957 1000h140l-145 -1037q-13 -96 -66.5 -180t-133.5 -147.5t-175 -99.5t-192 -36q-104 0 -194 47.5t-150 126.5t-77 175l137 59q8 -75 52 -135.5t110.5 -96t141.5 -35.5q69 0 137 25.5t126 69.5t96.5 102.5t47.5 124.5l31 221q-65 -94 -162 -152t-214 -58
q-105 0 -191.5 41t-146.5 113.5t-86 167.5t-11 204t68 204.5t133.5 168t178.5 113.5t203 41q117 0 197.5 -57.5t119.5 -152.5zM487 110q103 0 186.5 54t137.5 143t68 193q15 107 -14 195.5t-97.5 142t-170.5 53.5q-103 0 -193.5 -52.5t-152 -141.5t-76.5 -197t22 -196.5
t113.5 -141t176.5 -52.5zM332 1283h676l-16 -113h-676z" />
    <glyph glyph-name="uni1E24" unicode="&#x1e24;" horiz-adv-x="1255" 
d="M1093 1400h140l-196 -1400h-140l95 680h-735l-95 -680h-140l196 1400h140l-81 -580h734zM482 -394q-34 0 -54.5 22.5t-15.5 56.5t31.5 56.5t60.5 22.5q33 0 53.5 -22.5t15.5 -56.5t-31 -56.5t-60 -22.5z" />
    <glyph glyph-name="uni1E25" unicode="&#x1e25;" horiz-adv-x="1073" 
d="M981 619l-86 -619h-140l82 591q12 82 -18.5 149t-92 107t-143.5 40t-154.5 -40t-121.5 -107t-61 -149l-83 -591h-140l210 1500h140l-89 -638q64 76 155 121t191 45q113 0 198 -55t127 -148t26 -206zM425 -394q-34 0 -54.5 22.5t-15.5 56.5t31.5 56.5t60.5 22.5
q33 0 53.5 -22.5t15.5 -56.5t-31 -56.5t-60 -22.5z" />
    <glyph glyph-name="uni1E2E" unicode="&#x1e2e;" horiz-adv-x="440" 
d="M52 0l196 1400h140l-196 -1400h-140zM173 1481q-34 0 -55 22.5t-16 56.5q5 33 32 57t61 24q33 0 54 -24t16 -57q-5 -34 -32 -56.5t-60 -22.5zM488 1481q-34 0 -55 22.5t-17 56.5q5 33 32.5 57t61.5 24q33 0 54 -24t16 -57q-5 -34 -32 -56.5t-60 -22.5zM330 1723l120 288
h140l-166 -288h-94z" />
    <glyph glyph-name="uni1E2F" unicode="&#x1e2f;" horiz-adv-x="380" 
d="M162 1000h140l-140 -1000h-140zM87 1081q-34 0 -55 22.5t-16 56.5q5 33 32 57t61 24q33 0 54 -24t16 -57q-5 -34 -32 -56.5t-60 -22.5zM402 1081q-34 0 -55 22.5t-17 56.5q5 33 32.5 57t61.5 24q33 0 54 -24t16 -57q-5 -34 -32 -56.5t-60 -22.5zM244 1323l120 288h140
l-166 -288h-94z" />
    <glyph glyph-name="uni1E36" unicode="&#x1e36;" horiz-adv-x="1003" 
d="M22 0l196 1400h140l-177 -1260h644l-20 -140h-783zM367 -394q-34 0 -54.5 22.5t-15.5 56.5t31.5 56.5t60.5 22.5q33 0 53.5 -22.5t15.5 -56.5t-31 -56.5t-60 -22.5z" />
    <glyph glyph-name="uni1E37" unicode="&#x1e37;" horiz-adv-x="380" 
d="M23 0l210 1500h140l-210 -1500h-140zM46 -394q-34 0 -54.5 22.5t-15.5 56.5t31.5 56.5t60.5 22.5q33 0 53.5 -22.5t15.5 -56.5t-31 -56.5t-60 -22.5z" />
    <glyph glyph-name="uni1E3E" unicode="&#x1e3e;" horiz-adv-x="1769" 
d="M22 0l467 1400h102l247 -1030l535 1030h102l76 -1400h-143l-57 1071l-508 -979h-89l-233 979l-357 -1071h-142zM965 1510l120 288h140l-166 -288h-94z" />
    <glyph glyph-name="uni1E3F" unicode="&#x1e3f;" horiz-adv-x="1776" 
d="M22 0l140 1000h140l-19 -138q65 76 155 121t190 45q113 0 199 -55.5t126 -147.5q66 92 167 147.5t214 55.5t198 -55t127.5 -148t25.5 -206l-86 -619h-140l83 588q11 80 -18.5 148t-89.5 109.5t-140 41.5t-151 -38.5t-119 -106t-61 -154.5l-82 -588h-140l82 588
q13 87 -17 154.5t-90.5 106t-140.5 38.5q-79 0 -150.5 -41.5t-120 -109.5t-59.5 -148l-83 -588h-140zM960 1110l120 288h140l-166 -288h-94z" />
    <glyph glyph-name="uni1E40" unicode="&#x1e40;" horiz-adv-x="1769" 
d="M22 0l467 1400h102l247 -1030l535 1030h102l76 -1400h-143l-57 1071l-508 -979h-89l-233 979l-357 -1071h-142zM1009 1575q-34 0 -54.5 22.5t-15.5 56.5t31.5 56.5t60.5 22.5q33 0 53.5 -22.5t15.5 -56.5t-31 -56.5t-60 -22.5z" />
    <glyph glyph-name="uni1E41" unicode="&#x1e41;" horiz-adv-x="1776" 
d="M22 0l140 1000h140l-19 -138q65 76 155 121t190 45q113 0 199 -55.5t126 -147.5q66 92 167 147.5t214 55.5t198 -55t127.5 -148t25.5 -206l-86 -619h-140l83 588q11 80 -18.5 148t-89.5 109.5t-140 41.5t-151 -38.5t-119 -106t-61 -154.5l-82 -588h-140l82 588
q13 87 -17 154.5t-90.5 106t-140.5 38.5q-79 0 -150.5 -41.5t-120 -109.5t-59.5 -148l-83 -588h-140zM1004 1175q-34 0 -54.5 22.5t-15.5 56.5t31.5 56.5t60.5 22.5q33 0 53.5 -22.5t15.5 -56.5t-31 -56.5t-60 -22.5z" />
    <glyph glyph-name="uni1E42" unicode="&#x1e42;" horiz-adv-x="1769" 
d="M22 0l467 1400h102l247 -1030l535 1030h102l76 -1400h-143l-57 1071l-508 -979h-89l-233 979l-357 -1071h-142zM740 -394q-34 0 -54.5 22.5t-15.5 56.5t31.5 56.5t60.5 22.5q33 0 53.5 -22.5t15.5 -56.5t-31 -56.5t-60 -22.5z" />
    <glyph glyph-name="uni1E43" unicode="&#x1e43;" horiz-adv-x="1776" 
d="M22 0l140 1000h140l-19 -138q65 76 155 121t190 45q113 0 199 -55.5t126 -147.5q66 92 167 147.5t214 55.5t198 -55t127.5 -148t25.5 -206l-86 -619h-140l83 588q11 80 -18.5 148t-89.5 109.5t-140 41.5t-151 -38.5t-119 -106t-61 -154.5l-82 -588h-140l82 588
q13 87 -17 154.5t-90.5 106t-140.5 38.5q-79 0 -150.5 -41.5t-120 -109.5t-59.5 -148l-83 -588h-140zM764 -394q-34 0 -54.5 22.5t-15.5 56.5t31.5 56.5t60.5 22.5q33 0 53.5 -22.5t15.5 -56.5t-31 -56.5t-60 -22.5z" />
    <glyph glyph-name="uni1E44" unicode="&#x1e44;" horiz-adv-x="1271" 
d="M22 0l196 1400h152l578 -1147l161 1147h140l-196 -1400h-151l-579 1147l-161 -1147h-140zM759 1575q-34 0 -54.5 22.5t-15.5 56.5t31.5 56.5t60.5 22.5q33 0 53.5 -22.5t15.5 -56.5t-31 -56.5t-60 -22.5z" />
    <glyph glyph-name="uni1E45" unicode="&#x1e45;" 
d="M980 619l-86 -619h-140l82 591q12 82 -18.5 149t-92 107t-143.5 40t-154.5 -40t-121.5 -107t-61 -149l-83 -591h-140l140 1000h140l-19 -138q64 76 155 121t191 45q113 0 198 -55t127 -148t26 -206zM631 1175q-34 0 -54.5 22.5t-15.5 56.5t31.5 56.5t60.5 22.5
q33 0 53.5 -22.5t15.5 -56.5t-31 -56.5t-60 -22.5z" />
    <glyph glyph-name="uni1E46" unicode="&#x1e46;" horiz-adv-x="1271" 
d="M22 0l196 1400h152l578 -1147l161 1147h140l-196 -1400h-151l-579 1147l-161 -1147h-140zM490 -394q-34 0 -54.5 22.5t-15.5 56.5t31.5 56.5t60.5 22.5q33 0 53.5 -22.5t15.5 -56.5t-31 -56.5t-60 -22.5z" />
    <glyph glyph-name="uni1E47" unicode="&#x1e47;" 
d="M980 619l-86 -619h-140l82 591q12 82 -18.5 149t-92 107t-143.5 40t-154.5 -40t-121.5 -107t-61 -149l-83 -591h-140l140 1000h140l-19 -138q64 76 155 121t191 45q113 0 198 -55t127 -148t26 -206zM411 -394q-34 0 -54.5 22.5t-15.5 56.5t31.5 56.5t60.5 22.5
q33 0 53.5 -22.5t15.5 -56.5t-31 -56.5t-60 -22.5z" />
    <glyph glyph-name="uni1E62" unicode="&#x1e62;" horiz-adv-x="1220" 
d="M507 -26q-112 0 -211.5 35t-168 100t-88.5 155l138 49q14 -62 66 -106.5t127 -68.5t157 -24q95 0 182.5 32t147 89.5t70.5 135.5q11 79 -35 130t-125 80.5t-168 45.5q-139 25 -247 68t-163 121.5t-37 207.5q17 121 100 210t204.5 138t254.5 49q109 0 208 -34t169.5 -99
t92.5 -159l-140 -48q-13 63 -65.5 107.5t-127.5 68t-157 23.5q-95 1 -182.5 -31.5t-146.5 -90t-70 -134.5q-12 -90 29 -138.5t119.5 -72.5t178.5 -43q131 -23 239 -71.5t167 -129t42 -198.5q-17 -120 -99.5 -209.5t-204 -138.5t-256.5 -49zM535 -394q-34 0 -54.5 22.5
t-15.5 56.5t31.5 56.5t60.5 22.5q33 0 53.5 -22.5t15.5 -56.5t-31 -56.5t-60 -22.5z" />
    <glyph glyph-name="uni1E63" unicode="&#x1e63;" horiz-adv-x="859" 
d="M328 -19q-82 2 -156 30t-125.5 76t-67.5 109l129 52q10 -39 48.5 -71.5t92 -52t108.5 -19.5q61 0 117 20t95 57.5t46 88.5q8 55 -24 86.5t-84.5 50t-107.5 35.5q-102 29 -178 64t-114 89.5t-26 140.5q13 91 74 157.5t149.5 103t183.5 36.5q122 0 215 -53t126 -141
l-123 -67q-12 41 -46.5 71t-81.5 47t-98 18q-64 1 -122 -18.5t-96.5 -57.5t-46.5 -93t21 -83.5t83 -46t121 -40.5q88 -29 162.5 -66t116 -92t28.5 -139q-13 -90 -76 -157t-154.5 -102.5t-188.5 -32.5zM345 -394q-34 0 -54.5 22.5t-15.5 56.5t31.5 56.5t60.5 22.5
q33 0 53.5 -22.5t15.5 -56.5t-31 -56.5t-60 -22.5z" />
    <glyph glyph-name="uni1E6C" unicode="&#x1e6c;" horiz-adv-x="1259" 
d="M1277 1400l-20 -140h-480l-176 -1260h-140l176 1260h-478l19 140h1099zM484 -394q-34 0 -54.5 22.5t-15.5 56.5t31.5 56.5t60.5 22.5q33 0 53.5 -22.5t15.5 -56.5t-31 -56.5t-60 -22.5z" />
    <glyph glyph-name="uni1E6D" unicode="&#x1e6d;" horiz-adv-x="690" 
d="M654 860h-239l-122 -860h-140l122 860h-181l19 140h181l43 314h140l-43 -314h239zM176 -394q-34 0 -54.5 22.5t-15.5 56.5t31.5 56.5t60.5 22.5q33 0 53.5 -22.5t15.5 -56.5t-31 -56.5t-60 -22.5z" />
    <glyph glyph-name="Wgrave" unicode="&#x1e80;" horiz-adv-x="1688" 
d="M307 0l-162 1400h144l134 -1159l457 1159h124l134 -1159l457 1159h144l-552 -1400h-166l-124 1075l-426 -1075h-164zM805 1798h140l40 -288h-93z" />
    <glyph glyph-name="wgrave" unicode="&#x1e81;" horiz-adv-x="1625" 
d="M441 0h-144l-195 1000h137l159 -806l383 806h148l157 -806l383 806h138l-475 -1000h-145l-159 814zM718 1398h140l40 -288h-93z" />
    <glyph glyph-name="Wacute" unicode="&#x1e82;" horiz-adv-x="1688" 
d="M307 0l-162 1400h144l134 -1159l457 1159h124l134 -1159l457 1159h144l-552 -1400h-166l-124 1075l-426 -1075h-164zM924 1510l120 288h140l-166 -288h-94z" />
    <glyph glyph-name="wacute" unicode="&#x1e83;" horiz-adv-x="1625" 
d="M441 0h-144l-195 1000h137l159 -806l383 806h148l157 -806l383 806h138l-475 -1000h-145l-159 814zM837 1110l120 288h140l-166 -288h-94z" />
    <glyph glyph-name="Wdieresis" unicode="&#x1e84;" horiz-adv-x="1688" 
d="M307 0l-162 1400h144l134 -1159l457 1159h124l134 -1159l457 1159h144l-552 -1400h-166l-124 1075l-426 -1075h-164zM797 1481q-34 0 -55 22.5t-16 56.5q5 33 32 57t61 24q33 0 54 -24t16 -57q-5 -34 -32 -56.5t-60 -22.5zM1112 1481q-34 0 -55 22.5t-17 56.5
q5 33 32.5 57t61.5 24q33 0 54 -24t16 -57q-5 -34 -32 -56.5t-60 -22.5z" />
    <glyph glyph-name="wdieresis" unicode="&#x1e85;" horiz-adv-x="1625" 
d="M441 0h-144l-195 1000h137l159 -806l383 806h148l157 -806l383 806h138l-475 -1000h-145l-159 814zM710 1081q-34 0 -55 22.5t-16 56.5q5 33 32 57t61 24q33 0 54 -24t16 -57q-5 -34 -32 -56.5t-60 -22.5zM1025 1081q-34 0 -55 22.5t-17 56.5q5 33 32.5 57t61.5 24
q33 0 54 -24t16 -57q-5 -34 -32 -56.5t-60 -22.5z" />
    <glyph glyph-name="uni1E92" unicode="&#x1e92;" horiz-adv-x="1292" 
d="M-18 0l19 140l1102 1120h-944l19 140h1132l-19 -140l-1102 -1120h944l-19 -140h-1132zM501 -394q-34 0 -54.5 22.5t-15.5 56.5t31.5 56.5t60.5 22.5q33 0 53.5 -22.5t15.5 -56.5t-31 -56.5t-60 -22.5z" />
    <glyph glyph-name="uni1E93" unicode="&#x1e93;" horiz-adv-x="1014" 
d="M957 860l-758 -720h656l-19 -140h-854l19 140l758 720h-656l19 140h854zM362 -394q-34 0 -54.5 22.5t-15.5 56.5t31.5 56.5t60.5 22.5q33 0 53.5 -22.5t15.5 -56.5t-31 -56.5t-60 -22.5z" />
    <glyph glyph-name="uni1E97" unicode="&#x1e97;" horiz-adv-x="690" 
d="M654 860h-239l-122 -860h-140l122 860h-181l19 140h181l43 314h140l-43 -314h239zM262 1395q-34 0 -55 22.5t-16 56.5q5 33 32 57t61 24q33 0 54 -24t16 -57q-5 -34 -32 -56.5t-60 -22.5zM577 1395q-34 0 -55 22.5t-17 56.5q5 33 32.5 57t61.5 24q33 0 54 -24t16 -57
q-5 -34 -32 -56.5t-60 -22.5z" />
    <glyph glyph-name="uni1E9E" unicode="&#x1e9e;" horiz-adv-x="1129" 
d="M22 0l133 951q13 93 59.5 174t116.5 142.5t156 96.5t178 35q98 0 177.5 -33t123 -94.5t31.5 -147.5q-6 -43 -40 -90t-101 -118.5t-174 -190.5q74 9 140 -14t115.5 -71t73.5 -114.5t13 -143.5q-13 -94 -62 -165.5t-120 -119.5t-152.5 -72.5t-159.5 -24.5h-67l-17 125h90
q73 0 151.5 26.5t137 84t71.5 148.5q13 90 -30 146.5t-114 82.5t-144 26h-72l6 58q2 28 33 71t75 93.5t89 101t76.5 93.5t34.5 70q7 56 -22.5 88t-83 45.5t-117.5 13.5q-78 0 -148.5 -39.5t-119 -106t-60.5 -148.5l-137 -979h-140z" />
    <glyph glyph-name="uni1EA0" unicode="&#x1ea0;" horiz-adv-x="1353" 
d="M687 1400h174l314 -1400h-149l-68 300h-676l-151 -300h-149zM353 440h574l-177 788zM531 -394q-34 0 -54.5 22.5t-15.5 56.5t31.5 56.5t60.5 22.5q33 0 53.5 -22.5t15.5 -56.5t-31 -56.5t-60 -22.5z" />
    <glyph glyph-name="uni1EA1" unicode="&#x1ea1;" horiz-adv-x="1161" 
d="M984 1000h140l-140 -1000h-140l21 186q-62 -95 -158.5 -153.5t-218.5 -58.5q-110 0 -200.5 41.5t-153 114.5t-90 169t-11.5 206q15 108 68.5 203t135.5 167t182 112.5t208 40.5q125 0 210 -59.5t126 -155.5zM504 110q107 0 191.5 52.5t138.5 141.5t69 196
q16 110 -14 198.5t-99.5 140.5t-175.5 52t-201 -52.5t-159 -141.5t-79 -197q-15 -109 25 -197.5t120.5 -140.5t183.5 -52zM451 -394q-34 0 -54.5 22.5t-15.5 56.5t31.5 56.5t60.5 22.5q33 0 53.5 -22.5t15.5 -56.5t-31 -56.5t-60 -22.5z" />
    <glyph glyph-name="uni1EAC" unicode="&#x1eac;" horiz-adv-x="1353" 
d="M687 1400h174l314 -1400h-149l-68 300h-676l-151 -300h-149zM353 440h574l-177 788zM531 -394q-34 0 -54.5 22.5t-15.5 56.5t31.5 56.5t60.5 22.5q33 0 53.5 -22.5t15.5 -56.5t-31 -56.5t-60 -22.5zM907 1798l153 -288h-94l-148 203l-202 -203h-93l231 288h153z" />
    <glyph glyph-name="uni1EAD" unicode="&#x1ead;" horiz-adv-x="1161" 
d="M984 1000h140l-140 -1000h-140l21 186q-62 -95 -158.5 -153.5t-218.5 -58.5q-110 0 -200.5 41.5t-153 114.5t-90 169t-11.5 206q15 108 68.5 203t135.5 167t182 112.5t208 40.5q125 0 210 -59.5t126 -155.5zM504 110q107 0 191.5 52.5t138.5 141.5t69 196
q16 110 -14 198.5t-99.5 140.5t-175.5 52t-201 -52.5t-159 -141.5t-79 -197q-15 -109 25 -197.5t120.5 -140.5t183.5 -52zM451 -394q-34 0 -54.5 22.5t-15.5 56.5t31.5 56.5t60.5 22.5q33 0 53.5 -22.5t15.5 -56.5t-31 -56.5t-60 -22.5zM771 1398l153 -288h-94l-148 203
l-202 -203h-93l231 288h153z" />
    <glyph glyph-name="uni1EB6" unicode="&#x1eb6;" horiz-adv-x="1353" 
d="M687 1400h174l314 -1400h-149l-68 300h-676l-151 -300h-149zM353 440h574l-177 788zM531 -394q-34 0 -54.5 22.5t-15.5 56.5t31.5 56.5t60.5 22.5q33 0 53.5 -22.5t15.5 -56.5t-31 -56.5t-60 -22.5zM787 1488q-91 0 -160 45t-103.5 120.5t-22.5 166.5h100
q-9 -65 16 -117.5t74 -83.5t110 -31q63 0 120 31t96 84t48 117h100q-13 -93 -69 -168.5t-137.5 -119.5t-171.5 -44z" />
    <glyph glyph-name="uni1EB7" unicode="&#x1eb7;" horiz-adv-x="1161" 
d="M984 1000h140l-140 -1000h-140l21 186q-62 -95 -158.5 -153.5t-218.5 -58.5q-110 0 -200.5 41.5t-153 114.5t-90 169t-11.5 206q15 108 68.5 203t135.5 167t182 112.5t208 40.5q125 0 210 -59.5t126 -155.5zM504 110q107 0 191.5 52.5t138.5 141.5t69 196
q16 110 -14 198.5t-99.5 140.5t-175.5 52t-201 -52.5t-159 -141.5t-79 -197q-15 -109 25 -197.5t120.5 -140.5t183.5 -52zM451 -394q-34 0 -54.5 22.5t-15.5 56.5t31.5 56.5t60.5 22.5q33 0 53.5 -22.5t15.5 -56.5t-31 -56.5t-60 -22.5zM651 1088q-91 0 -160 45
t-103.5 120.5t-22.5 166.5h100q-9 -65 16 -117.5t74 -83.5t110 -31q63 0 120 31t96 84t48 117h100q-13 -93 -69 -168.5t-137.5 -119.5t-171.5 -44z" />
    <glyph glyph-name="uni1EB8" unicode="&#x1eb8;" 
d="M22 0l196 1400h852l-19 -140h-712l-62 -440h589l-19 -140h-590l-76 -540h712l-19 -140h-852zM391 -394q-34 0 -54.5 22.5t-15.5 56.5t31.5 56.5t60.5 22.5q33 0 53.5 -22.5t15.5 -56.5t-31 -56.5t-60 -22.5z" />
    <glyph glyph-name="uni1EB9" unicode="&#x1eb9;" horiz-adv-x="1116" 
d="M458 -26q-138 0 -241.5 71t-154 190.5t-30.5 264.5q15 110 67.5 205.5t131.5 168t175.5 113.5t199.5 41q111 0 198.5 -44t143.5 -123t76 -185t-4 -229h-847q-2 -95 36 -170t107 -118.5t161 -44.5q100 0 188.5 52t149.5 143l137 -33q-79 -133 -211.5 -217.5t-282.5 -84.5z
M185 560h710q6 93 -32.5 170.5t-109.5 124t-164 46.5q-94 0 -177 -45.5t-143 -123t-84 -172.5zM414 -394q-34 0 -54.5 22.5t-15.5 56.5t31.5 56.5t60.5 22.5q33 0 53.5 -22.5t15.5 -56.5t-31 -56.5t-60 -22.5z" />
    <glyph glyph-name="uni1EBC" unicode="&#x1ebc;" 
d="M22 0l196 1400h852l-19 -140h-712l-62 -440h589l-19 -140h-590l-76 -540h712l-19 -140h-852zM807 1531q-37 0 -79 23.5t-83 54t-77 51.5t-62 15q-27 -6 -45.5 -33t-14.5 -65l-98 -26q-12 57 9.5 109t67.5 84.5t105 32.5q38 0 80 -22t84 -50.5t78 -50.5t61 -22
q23 0 37.5 17.5t21 40.5t2.5 40l98 30q12 -60 -11 -112t-69 -84.5t-105 -32.5z" />
    <glyph glyph-name="uni1EBD" unicode="&#x1ebd;" horiz-adv-x="1116" 
d="M458 -26q-138 0 -241.5 71t-154 190.5t-30.5 264.5q15 110 67.5 205.5t131.5 168t175.5 113.5t199.5 41q111 0 198.5 -44t143.5 -123t76 -185t-4 -229h-847q-2 -95 36 -170t107 -118.5t161 -44.5q100 0 188.5 52t149.5 143l137 -33q-79 -133 -211.5 -217.5t-282.5 -84.5z
M185 560h710q6 93 -32.5 170.5t-109.5 124t-164 46.5q-94 0 -177 -45.5t-143 -123t-84 -172.5zM774 1131q-37 0 -79 23.5t-83 54t-77 51.5t-62 15q-27 -6 -45.5 -33t-14.5 -65l-98 -26q-12 57 9.5 109t67.5 84.5t105 32.5q38 0 80 -22t84 -50.5t78 -50.5t61 -22
q23 0 37.5 17.5t21 40.5t2.5 40l98 30q12 -60 -11 -112t-69 -84.5t-105 -32.5z" />
    <glyph glyph-name="uni1EC6" unicode="&#x1ec6;" 
d="M22 0l196 1400h852l-19 -140h-712l-62 -440h589l-19 -140h-590l-76 -540h712l-19 -140h-852zM391 -394q-34 0 -54.5 22.5t-15.5 56.5t31.5 56.5t60.5 22.5q33 0 53.5 -22.5t15.5 -56.5t-31 -56.5t-60 -22.5zM767 1798l153 -288h-94l-148 203l-202 -203h-93l231 288h153z
" />
    <glyph glyph-name="uni1EC7" unicode="&#x1ec7;" horiz-adv-x="1116" 
d="M458 -26q-138 0 -241.5 71t-154 190.5t-30.5 264.5q15 110 67.5 205.5t131.5 168t175.5 113.5t199.5 41q111 0 198.5 -44t143.5 -123t76 -185t-4 -229h-847q-2 -95 36 -170t107 -118.5t161 -44.5q100 0 188.5 52t149.5 143l137 -33q-79 -133 -211.5 -217.5t-282.5 -84.5z
M185 560h710q6 93 -32.5 170.5t-109.5 124t-164 46.5q-94 0 -177 -45.5t-143 -123t-84 -172.5zM414 -394q-34 0 -54.5 22.5t-15.5 56.5t31.5 56.5t60.5 22.5q33 0 53.5 -22.5t15.5 -56.5t-31 -56.5t-60 -22.5zM734 1398l153 -288h-94l-148 203l-202 -203h-93l231 288h153z
" />
    <glyph glyph-name="uni1ECA" unicode="&#x1eca;" horiz-adv-x="440" 
d="M52 0l196 1400h140l-196 -1400h-140zM75 -394q-34 0 -54.5 22.5t-15.5 56.5t31.5 56.5t60.5 22.5q33 0 53.5 -22.5t15.5 -56.5t-31 -56.5t-60 -22.5z" />
    <glyph glyph-name="uni1ECB" unicode="&#x1ecb;" horiz-adv-x="380" 
d="M162 1000h140l-140 -1000h-140zM258 1175q-34 0 -54.5 22.5t-15.5 56.5t31.5 56.5t60.5 22.5q33 0 53.5 -22.5t15.5 -56.5t-31 -56.5t-60 -22.5zM45 -394q-34 0 -54.5 22.5t-15.5 56.5t31.5 56.5t60.5 22.5q33 0 53.5 -22.5t15.5 -56.5t-31 -56.5t-60 -22.5z" />
    <glyph glyph-name="uni1ECC" unicode="&#x1ecc;" horiz-adv-x="1540" 
d="M668 -26q-142 0 -259.5 56.5t-198 156.5t-116 231.5t-14.5 281.5t93 281.5t181.5 231.5t242.5 156.5t275 56.5q143 0 260 -56.5t197.5 -156.5t116 -231.5t14.5 -281.5t-93 -281.5t-181.5 -231.5t-242 -156.5t-275.5 -56.5zM687 114q115 0 221 46.5t193 127.5t144.5 187
t74.5 225q17 120 -11 226.5t-92 187t-157 126.5t-207 46q-115 0 -221 -46.5t-193 -127.5t-144.5 -187t-74.5 -225q-17 -121 11 -227t92 -187t157 -126.5t207 -45.5zM625 -394q-34 0 -54.5 22.5t-15.5 56.5t31.5 56.5t60.5 22.5q33 0 53.5 -22.5t15.5 -56.5t-31 -56.5
t-60 -22.5z" />
    <glyph glyph-name="uni1ECD" unicode="&#x1ecd;" horiz-adv-x="1120" 
d="M458 -26q-138 0 -241.5 71t-154 190.5t-30.5 264.5q15 110 67.5 205.5t131.5 168t175.5 113.5t199.5 41q138 0 241.5 -71t154.5 -191t30 -266q-15 -109 -67.5 -204t-131.5 -167.5t-175 -113.5t-200 -41zM477 114q102 0 191 53.5t149.5 141.5t74.5 191q15 105 -21 193.5
t-109.5 141.5t-174.5 53q-102 0 -191 -53.5t-149 -141.5t-75 -193q-15 -108 21.5 -195.5t111 -139t172.5 -51.5zM415 -394q-34 0 -54.5 22.5t-15.5 56.5t31.5 56.5t60.5 22.5q33 0 53.5 -22.5t15.5 -56.5t-31 -56.5t-60 -22.5z" />
    <glyph glyph-name="uni1ED8" unicode="&#x1ed8;" horiz-adv-x="1540" 
d="M668 -26q-142 0 -259.5 56.5t-198 156.5t-116 231.5t-14.5 281.5t93 281.5t181.5 231.5t242.5 156.5t275 56.5q143 0 260 -56.5t197.5 -156.5t116 -231.5t14.5 -281.5t-93 -281.5t-181.5 -231.5t-242 -156.5t-275.5 -56.5zM687 114q115 0 221 46.5t193 127.5t144.5 187
t74.5 225q17 120 -11 226.5t-92 187t-157 126.5t-207 46q-115 0 -221 -46.5t-193 -127.5t-144.5 -187t-74.5 -225q-17 -121 11 -227t92 -187t157 -126.5t207 -45.5zM625 -394q-34 0 -54.5 22.5t-15.5 56.5t31.5 56.5t60.5 22.5q33 0 53.5 -22.5t15.5 -56.5t-31 -56.5
t-60 -22.5zM1001 1798l153 -288h-94l-148 203l-202 -203h-93l231 288h153z" />
    <glyph glyph-name="uni1ED9" unicode="&#x1ed9;" horiz-adv-x="1120" 
d="M458 -26q-138 0 -241.5 71t-154 190.5t-30.5 264.5q15 110 67.5 205.5t131.5 168t175.5 113.5t199.5 41q138 0 241.5 -71t154.5 -191t30 -266q-15 -109 -67.5 -204t-131.5 -167.5t-175 -113.5t-200 -41zM477 114q102 0 191 53.5t149.5 141.5t74.5 191q15 105 -21 193.5
t-109.5 141.5t-174.5 53q-102 0 -191 -53.5t-149 -141.5t-75 -193q-15 -108 21.5 -195.5t111 -139t172.5 -51.5zM415 -394q-34 0 -54.5 22.5t-15.5 56.5t31.5 56.5t60.5 22.5q33 0 53.5 -22.5t15.5 -56.5t-31 -56.5t-60 -22.5zM735 1398l153 -288h-94l-148 203l-202 -203
h-93l231 288h153z" />
    <glyph glyph-name="uni1EE4" unicode="&#x1ee4;" horiz-adv-x="1326" 
d="M561 -26q-168 0 -278 82t-156.5 220.5t-22.5 307.5l114 816h140l-114 -816q-18 -128 13.5 -235t112.5 -171t211 -64q131 0 230 64.5t160 171.5t79 234l114 816h140l-114 -816q-18 -127 -71 -237.5t-135.5 -194.5t-189.5 -131t-233 -47zM518 -394q-34 0 -54.5 22.5
t-15.5 56.5t31.5 56.5t60.5 22.5q33 0 53.5 -22.5t15.5 -56.5t-31 -56.5t-60 -22.5z" />
    <glyph glyph-name="uni1EE5" unicode="&#x1ee5;" horiz-adv-x="1032" 
d="M36 383l86 617h140l-83 -589q-11 -82 19.5 -149t92 -107t142.5 -40q82 0 155 40t122.5 107t60.5 149l82 589h140l-139 -1000h-140l18 140q-64 -76 -154.5 -121t-190.5 -45q-113 0 -198 55t-127 148t-26 206zM384 -393q-34 0 -54.5 22.5t-15.5 56.5t31.5 56.5t60.5 22.5
q33 0 53.5 -22.5t15.5 -56.5t-31 -56.5t-60 -22.5z" />
    <glyph glyph-name="Ygrave" unicode="&#x1ef2;" horiz-adv-x="1203" 
d="M1076 1400h165l-579 -766l-89 -634h-140l89 634l-364 766h165l290 -613zM562 1798h140l40 -288h-93z" />
    <glyph glyph-name="ygrave" unicode="&#x1ef3;" horiz-adv-x="1033" 
d="M847 1000h148l-758 -1500h-149l253 500l-219 1000h153l162 -807zM421 1398h140l40 -288h-93z" />
    <glyph glyph-name="uni1EF4" unicode="&#x1ef4;" horiz-adv-x="1203" 
d="M1076 1400h165l-579 -766l-89 -634h-140l89 634l-364 766h165l290 -613zM456 -394q-34 0 -54.5 22.5t-15.5 56.5t31.5 56.5t60.5 22.5q33 0 53.5 -22.5t15.5 -56.5t-31 -56.5t-60 -22.5z" />
    <glyph glyph-name="uni1EF5" unicode="&#x1ef5;" horiz-adv-x="1033" 
d="M847 1000h148l-758 -1500h-149l253 500l-219 1000h153l162 -807zM563 -394q-34 0 -54.5 22.5t-15.5 56.5t31.5 56.5t60.5 22.5q33 0 53.5 -22.5t15.5 -56.5t-31 -56.5t-60 -22.5z" />
    <glyph glyph-name="uni1EF8" unicode="&#x1ef8;" horiz-adv-x="1203" 
d="M1076 1400h165l-579 -766l-89 -634h-140l89 634l-364 766h165l290 -613zM872 1531q-37 0 -79 23.5t-83 54t-77 51.5t-62 15q-27 -6 -45.5 -33t-14.5 -65l-98 -26q-12 57 9.5 109t67.5 84.5t105 32.5q38 0 80 -22t84 -50.5t78 -50.5t61 -22q23 0 37.5 17.5t21 40.5t2.5 40
l98 30q12 -60 -11 -112t-69 -84.5t-105 -32.5z" />
    <glyph glyph-name="uni1EF9" unicode="&#x1ef9;" horiz-adv-x="1033" 
d="M847 1000h148l-758 -1500h-149l253 500l-219 1000h153l162 -807zM731 1131q-37 0 -79 23.5t-83 54t-77 51.5t-62 15q-27 -6 -45.5 -33t-14.5 -65l-98 -26q-12 57 9.5 109t67.5 84.5t105 32.5q38 0 80 -22t84 -50.5t78 -50.5t61 -22q23 0 37.5 17.5t21 40.5t2.5 40l98 30
q12 -60 -11 -112t-69 -84.5t-105 -32.5z" />
    <glyph glyph-name="uni2002" unicode="&#x2002;" horiz-adv-x="1000" 
 />
    <glyph glyph-name="uni2009" unicode="&#x2009;" horiz-adv-x="400" 
 />
    <glyph glyph-name="uni200B" unicode="&#x200b;" horiz-adv-x="0" 
 />
    <glyph glyph-name="endash" unicode="&#x2013;" horiz-adv-x="1240" 
d="M116 670h1000l-20 -140h-1000z" />
    <glyph glyph-name="emdash" unicode="&#x2014;" horiz-adv-x="2040" 
d="M116 670h1800l-20 -140h-1800z" />
    <glyph glyph-name="quoteright" unicode="&#x2019;" horiz-adv-x="302" 
d="M65 878l135 522h140l-182 -522h-93z" />
    <glyph glyph-name="quoteright" unicode="&#x2032;" horiz-adv-x="302" 
d="M65 878l135 522h140l-182 -522h-93z" />
    <glyph glyph-name="quotesinglbase" unicode="&#x201a;" horiz-adv-x="335" 
d="M-61 -112l109 338h140l-156 -338h-93z" />
    <glyph glyph-name="quotedblleft" unicode="&#x201c;" horiz-adv-x="648" 
d="M145 878l182 522h93l-135 -522h-140zM431 882l182 522h93l-135 -522h-140z" />
    <glyph glyph-name="quotedblright" unicode="&#x201d;" horiz-adv-x="648" 
d="M65 878l135 522h140l-182 -522h-93zM351 878l135 522h140l-182 -522h-93z" />
    <glyph glyph-name="quotedblright" unicode="&#x2033;" horiz-adv-x="648" 
d="M65 878l135 522h140l-182 -522h-93zM351 878l135 522h140l-182 -522h-93z" />
    <glyph glyph-name="quotedblbase" unicode="&#x201e;" horiz-adv-x="609" 
d="M-61 -112l109 338h140l-156 -338h-93zM213 -112l109 338h140l-156 -338h-93z" />
    <glyph glyph-name="dagger" unicode="&#x2020;" horiz-adv-x="789" 
d="M135 1093l20 140h244l38 267h140l-38 -267h245l-19 -140h-245l-71 -506h-140l71 506h-245z" />
    <glyph glyph-name="daggerdbl" unicode="&#x2021;" horiz-adv-x="789" 
d="M91 782l20 138h244l30 207h-245l19 140h245l33 233h140l-33 -233h245l-20 -140h-244l-30 -207h245l-19 -138h-245l-31 -222h-140l31 222h-245z" />
    <glyph glyph-name="bullet" unicode="&#x2022;" horiz-adv-x="373" 
d="M157 493q-44 0 -71 31t-20 77q6 44 41 75t79 31q46 0 73 -31t20 -75q-6 -46 -41.5 -77t-80.5 -31z" />
    <glyph glyph-name="ellipsis" unicode="&#x2026;" horiz-adv-x="1027" 
d="M57 -26q-33 0 -52.5 23.5t-15.5 57.5q5 32 31.5 55.5t59.5 23.5q34 0 54 -23.5t15 -55.5q-4 -34 -31 -57.5t-61 -23.5zM390 -26q-33 0 -52.5 23.5t-15.5 57.5q5 32 31.5 55.5t59.5 23.5q34 0 54 -23.5t15 -55.5q-4 -34 -31 -57.5t-61 -23.5zM724 -26q-33 0 -52.5 23.5
t-15.5 57.5q5 32 31.5 55.5t59.5 23.5q34 0 54 -23.5t15 -55.5q-4 -34 -31 -57.5t-61 -23.5z" />
    <glyph glyph-name="perthousand" unicode="&#x2030;" horiz-adv-x="1795" 
d="M57 0l1004 1400h162l-1004 -1400h-162zM341 853q-66 0 -116 32t-75 86.5t-15 120.5q10 68 50 122t99 86t124 32q66 0 115.5 -32.5t74.5 -87t15 -120.5q-9 -67 -49.5 -121t-99 -86t-123.5 -32zM356 960q56 0 99.5 38.5t50.5 93.5q8 56 -24.5 94.5t-88.5 38.5
q-55 0 -99 -38.5t-52 -94.5q-7 -55 26 -93.5t88 -38.5zM834 67q-66 0 -116 33.5t-74.5 88t-15.5 118.5q9 67 49.5 121.5t100 86.5t123.5 32q68 0 117.5 -33t73.5 -87.5t15 -119.5q-9 -66 -49 -120.5t-99 -87t-125 -32.5zM849 174q54 0 99 39t52 94q8 55 -26 94t-88 39
q-55 0 -99.5 -39t-52.5 -94q-7 -55 26.5 -94t88.5 -39zM1387 67q-66 0 -115.5 33.5t-74.5 88t-16 118.5q10 67 50.5 121.5t99.5 86.5t124 32q67 0 116.5 -33t73.5 -87.5t15 -119.5q-9 -66 -49 -120.5t-99 -87t-125 -32.5zM1402 174q55 0 100 39t52 94q8 55 -26 94t-89 39
t-99 -39t-52 -94q-7 -55 26 -94t88 -39z" />
    <glyph glyph-name="uni2035" unicode="&#x2035;" horiz-adv-x="442" 
d="M254 878l-36 522h140l-11 -522h-93z" />
    <glyph glyph-name="guilsinglleft" unicode="&#x2039;" horiz-adv-x="673" 
d="M358 261l-252 340l348 338h153l-347 -338l251 -340h-153z" />
    <glyph glyph-name="guilsinglright" unicode="&#x203a;" horiz-adv-x="673" 
d="M38 261l347 340l-251 338h153l252 -338l-348 -340h-153z" />
    <glyph glyph-name="fraction" unicode="&#x2044;" horiz-adv-x="450" 
d="M-341 0l1004 1400h128l-1004 -1400h-128z" />
    <glyph glyph-name="fraction" unicode="&#x2215;" horiz-adv-x="450" 
d="M-341 0l1004 1400h128l-1004 -1400h-128z" />
    <glyph glyph-name="uni2070" unicode="&#x2070;" horiz-adv-x="648" 
d="M338 798q-69 0 -120.5 43.5t-74.5 119.5t-10 172q14 96 58.5 171.5t108 119.5t132.5 44q70 0 121 -44t74.5 -119.5t9.5 -171.5q-13 -96 -58 -172t-108 -119.5t-133 -43.5zM352 898q46 0 84.5 36.5t64 91t32.5 107.5q8 58 -3 112t-39.5 88.5t-72.5 34.5q-46 0 -84.5 -36
t-63.5 -90t-33 -109q-8 -58 3 -112t39.5 -88.5t72.5 -34.5z" />
    <glyph glyph-name="uni2074" unicode="&#x2074;" horiz-adv-x="681" 
d="M380 818l17 121h-267l17 125l298 385h127l-57 -406h70l-14 -104h-70l-17 -121h-104zM250 1043h167l37 264z" />
    <glyph glyph-name="uni2075" unicode="&#x2075;" horiz-adv-x="682" 
d="M325 798q-94 0 -152 60.5t-45 154.5h104q-7 -50 24.5 -82.5t82.5 -32.5q50 0 91 32.5t48 82.5q8 50 -24 85t-82 36q-29 1 -58 -1.5t-61.5 -8t-72.5 -15.5l79 340h345l-13 -96h-251l-25 -120q132 14 208 -45t59 -175q-13 -94 -88 -154.5t-169 -60.5z" />
    <glyph glyph-name="uni2076" unicode="&#x2076;" horiz-adv-x="706" 
d="M343 798q-101 0 -158 63.5t-44 157.5q4 29 16 57t39.5 70.5t79 113.5t135.5 186h121l-144 -201q71 6 123.5 -24t78.5 -84t17 -119q-9 -67 -48.5 -116.5t-96.5 -76.5t-119 -27zM357 898q55 0 97.5 35.5t48.5 90.5q6 56 -29 89.5t-82 33.5q-58 0 -100 -40.5t-47 -94.5
q-6 -53 28 -83.5t84 -30.5z" />
    <glyph glyph-name="uni2077" unicode="&#x2077;" horiz-adv-x="637" 
d="M160 818l374 526h-324l15 104h445l-15 -102l-375 -528h-120z" />
    <glyph glyph-name="uni2078" unicode="&#x2078;" horiz-adv-x="607" 
d="M316 798q-85 0 -138 54t-41 140q7 49 33.5 89.5t64.5 68.5q-24 26 -35 61.5t-6 74.5q11 81 74 132t142 51q80 0 130 -51t39 -132q-6 -39 -27.5 -74.5t-53.5 -61.5q31 -28 46.5 -68.5t7.5 -89.5q-11 -86 -80 -140t-156 -54zM330 897q44 0 78 26.5t40 68.5q6 43 -20 73
t-70 30q-42 0 -76.5 -30t-40.5 -73q-6 -42 20.5 -68.5t68.5 -26.5zM372 1199q38 0 68 26t35 61q5 38 -18 60t-61 22q-35 0 -64 -22t-34 -60q-5 -35 17 -61t57 -26z" />
    <glyph glyph-name="uni2079" unicode="&#x2079;" horiz-adv-x="659" 
d="M222 818l146 204q-65 -9 -114.5 15t-77.5 70t-28.5 103t33.5 114q32 70 96.5 107t136.5 37q61 0 106 -26t70 -69t24.5 -96t-30.5 -107q-5 -20 -20 -45l-222 -307h-120zM364 1118q41 0 75.5 22t55 58t17.5 77q-4 47 -38 70t-74 23q-41 0 -75.5 -20.5t-54 -54.5t-17.5 -74
q3 -50 38 -75.5t73 -25.5z" />
    <glyph glyph-name="uni2080" unicode="&#x2080;" horiz-adv-x="648" 
d="M221 -31q-69 0 -120 44t-74 120.5t-10 172.5q14 96 58.5 172.5t108 121.5t132.5 45q70 0 121 -45t74.5 -121.5t9.5 -172.5q-13 -96 -58 -172.5t-108.5 -120.5t-133.5 -44zM236 73q46 0 84 36t64 90t33 107q8 58 -3 112t-39.5 88.5t-72.5 34.5q-47 0 -85 -36t-63 -90
t-33 -109q-8 -57 2.5 -110.5t39.5 -88t73 -34.5z" />
    <glyph glyph-name="uni2081" unicode="&#x2081;" horiz-adv-x="423" 
d="M77 0l73 527h-78l29 104h168l-88 -631h-104z" />
    <glyph glyph-name="uni2082" unicode="&#x2082;" horiz-adv-x="689" 
d="M-2 0l13 98q43 26 103 65t121 85t107.5 94.5t61.5 94.5q8 50 -22.5 81.5t-80.5 31.5t-90 -31.5t-48 -81.5h-104q9 62 46 111t92 77.5t118 28.5q62 0 108.5 -28.5t70 -77.5t14.5 -111q-6 -43 -37.5 -89t-78 -90t-98.5 -83.5t-98 -70.5h261l-14 -104h-445z" />
    <glyph glyph-name="uni2083" unicode="&#x2083;" horiz-adv-x="556" 
d="M176 -31q-57 0 -100.5 26t-64.5 71t-13 102h104q-7 -43 19 -69t70 -26q42 0 75 26t40 69q7 49 -26.5 81t-104.5 32l13 83q65 0 99.5 27.5t40.5 70.5q5 35 -18 57t-58 22t-64 -22t-34 -57h-104q11 79 74 131t142 52q80 0 128.5 -52t37.5 -131q-6 -43 -28.5 -80t-50.5 -56
q35 -33 49.5 -69t7.5 -89q-8 -57 -42.5 -102t-85 -71t-106.5 -26z" />
    <glyph glyph-name="uni2084" unicode="&#x2084;" horiz-adv-x="681" 
d="M265 0l17 121h-267l17 126l298 384h127l-57 -406h70l-14 -104h-70l-17 -121h-104zM135 225h167l37 264z" />
    <glyph glyph-name="uni2085" unicode="&#x2085;" horiz-adv-x="682" 
d="M208 -31q-63 0 -110.5 28.5t-71 77.5t-14.5 112h104q-7 -50 24.5 -82t81.5 -32q51 0 92 32t48 82t-24.5 85.5t-82.5 35.5l-191 -23l78 337h346l-13 -97h-252l-24 -118l72 5q101 0 155 -65.5t40 -159.5q-9 -63 -46.5 -112t-93 -77.5t-118.5 -28.5z" />
    <glyph glyph-name="uni2086" unicode="&#x2086;" horiz-adv-x="682" 
d="M226 -31q-101 0 -157.5 65.5t-43.5 159.5q4 29 15.5 57t40 70.5t80 114t135.5 186.5h121l-146 -203q71 7 124 -23.5t79 -84t17 -118.5q-9 -67 -49 -117.5t-97 -78.5t-119 -28zM241 73q55 0 98 35.5t47 90.5q7 56 -28 89t-82 33q-57 0 -99.5 -40.5t-47.5 -94.5
q-6 -52 27.5 -82.5t84.5 -30.5z" />
    <glyph glyph-name="uni2087" unicode="&#x2087;" horiz-adv-x="637" 
d="M42 0l378 527h-324l14 104h445l-15 -102l-378 -529h-120z" />
    <glyph glyph-name="uni2088" unicode="&#x2088;" horiz-adv-x="607" 
d="M199 -31q-85 0 -137.5 56t-40.5 141q7 49 34 90t64 69q-23 25 -35 60.5t-6 75.5q11 81 74.5 133t142.5 52q80 0 129.5 -52t37.5 -133q-5 -40 -26.5 -75.5t-52.5 -60.5q30 -28 45 -69t9 -90q-13 -85 -82 -141t-156 -56zM214 72q44 0 78.5 26t40.5 68q5 43 -21 73t-70 30
q-42 0 -76.5 -30t-40.5 -73q-6 -42 20.5 -68t68.5 -26zM257 373q38 0 67.5 26.5t33.5 61.5q5 37 -17.5 59t-60.5 22q-35 0 -64 -22t-34 -59q-5 -35 17 -61.5t58 -26.5z" />
    <glyph glyph-name="uni2089" unicode="&#x2089;" horiz-adv-x="659" 
d="M107 0l146 204q-65 -9 -114.5 15t-77.5 70.5t-28 103.5t33 114q21 47 57.5 79.5t82 50t93.5 17.5q66 0 114 -31t71.5 -81t17 -110t-48.5 -118l-226 -314h-120zM249 301q41 0 75.5 22t55 57.5t17.5 76.5q-4 47 -38 70t-74 23q-42 0 -76 -20.5t-53.5 -54t-17.5 -73.5
q3 -51 38 -76t73 -25z" />
    <glyph glyph-name="Euro" unicode="&#x20ac;" horiz-adv-x="1167" 
d="M986 -15q-139 -25 -262 3.5t-219 101.5t-156 181.5t-75 242.5h-220l15 107h201l22 157h-201l15 107h220q53 136 145 245t209 181.5t247.5 101t260.5 3.5l-21 -143q-105 24 -208.5 5t-196 -73t-166.5 -136t-120 -184h331l-15 -107h-359l-21 -157h358l-15 -107h-331
q18 -104 70 -186t130 -135t175.5 -70.5t206.5 6.5z" />
    <glyph glyph-name="trademark" unicode="&#x2122;" horiz-adv-x="2928" 
d="M1277 1400l-20 -140h-480l-176 -1260h-140l176 1260h-478l19 140h1099zM1181 0l467 1400h102l247 -1030l535 1030h102l76 -1400h-143l-57 1071l-508 -979h-89l-233 979l-357 -1071h-142z" />
    <glyph glyph-name="oneeighth" unicode="&#x215b;" horiz-adv-x="1480" 
d="M192 818l73 527h-78l29 104h168l-88 -631h-104zM82 0l1004 1400h128l-1004 -1400h-128zM1072 -31q-85 0 -137.5 56t-40.5 141q7 49 34 90t64 69q-23 25 -35 60.5t-6 75.5q11 81 74.5 133t142.5 52q80 0 129.5 -52t37.5 -133q-5 -40 -26.5 -75.5t-52.5 -60.5
q30 -28 45 -69t9 -90q-13 -85 -82 -141t-156 -56zM1087 72q44 0 78.5 26t40.5 68q5 43 -21 73t-70 30q-42 0 -76.5 -30t-40.5 -73q-6 -42 20.5 -68t68.5 -26zM1130 373q38 0 67.5 26.5t33.5 61.5q5 37 -17.5 59t-60.5 22q-35 0 -64 -22t-34 -59q-5 -35 17 -61.5t58 -26.5z
" />
    <glyph glyph-name="threeeighths" unicode="&#x215c;" horiz-adv-x="1613" 
d="M293 798q-85 0 -138.5 55t-41.5 141h104q-6 -43 20.5 -69.5t69.5 -26.5q42 0 75 26.5t39 69.5q7 49 -26 81t-103 32l11 83q65 0 100 27t41 70q5 35 -18 57.5t-58 22.5t-64 -22.5t-34 -57.5h-104q11 80 74 130t142 50q80 0 128.5 -50t37.5 -130q-6 -42 -28.5 -79.5
t-50.5 -56.5q35 -32 49.5 -68t6.5 -89q-12 -86 -80 -141t-152 -55zM215 0l1004 1400h128l-1004 -1400h-128zM1205 -31q-85 0 -137.5 56t-40.5 141q7 49 34 90t64 69q-23 25 -35 60.5t-6 75.5q11 81 74.5 133t142.5 52q80 0 129.5 -52t37.5 -133q-5 -40 -26.5 -75.5
t-52.5 -60.5q30 -28 45 -69t9 -90q-13 -85 -82 -141t-156 -56zM1220 72q44 0 78.5 26t40.5 68q5 43 -21 73t-70 30q-42 0 -76.5 -30t-40.5 -73q-6 -42 20.5 -68t68.5 -26zM1263 373q38 0 67.5 26.5t33.5 61.5q5 37 -17.5 59t-60.5 22q-35 0 -64 -22t-34 -59q-5 -35 17 -61.5
t58 -26.5z" />
    <glyph glyph-name="fiveeighths" unicode="&#x215d;" horiz-adv-x="1739" 
d="M325 798q-94 0 -152 60.5t-45 154.5h104q-7 -50 24.5 -82.5t82.5 -32.5q50 0 91 32.5t48 82.5q8 50 -24 85t-82 36q-29 1 -58 -1.5t-61.5 -8t-72.5 -15.5l79 340h345l-13 -96h-251l-25 -120q132 14 208 -45t59 -175q-13 -94 -88 -154.5t-169 -60.5zM341 0l1004 1400h128
l-1004 -1400h-128zM1331 -31q-85 0 -137.5 56t-40.5 141q7 49 34 90t64 69q-23 25 -35 60.5t-6 75.5q11 81 74.5 133t142.5 52q80 0 129.5 -52t37.5 -133q-5 -40 -26.5 -75.5t-52.5 -60.5q30 -28 45 -69t9 -90q-13 -85 -82 -141t-156 -56zM1346 72q44 0 78.5 26t40.5 68
q5 43 -21 73t-70 30q-42 0 -76.5 -30t-40.5 -73q-6 -42 20.5 -68t68.5 -26zM1389 373q38 0 67.5 26.5t33.5 61.5q5 37 -17.5 59t-60.5 22q-35 0 -64 -22t-34 -59q-5 -35 17 -61.5t58 -26.5z" />
    <glyph glyph-name="seveneighths" unicode="&#x215e;" horiz-adv-x="1694" 
d="M160 818l374 526h-324l15 104h445l-15 -102l-375 -528h-120zM296 0l1004 1400h128l-1004 -1400h-128zM1286 -31q-85 0 -137.5 56t-40.5 141q7 49 34 90t64 69q-23 25 -35 60.5t-6 75.5q11 81 74.5 133t142.5 52q80 0 129.5 -52t37.5 -133q-5 -40 -26.5 -75.5t-52.5 -60.5
q30 -28 45 -69t9 -90q-13 -85 -82 -141t-156 -56zM1301 72q44 0 78.5 26t40.5 68q5 43 -21 73t-70 30q-42 0 -76.5 -30t-40.5 -73q-6 -42 20.5 -68t68.5 -26zM1344 373q38 0 67.5 26.5t33.5 61.5q5 37 -17.5 59t-60.5 22q-35 0 -64 -22t-34 -59q-5 -35 17 -61.5t58 -26.5z
" />
    <glyph glyph-name="arrowleft" unicode="&#x2190;" horiz-adv-x="1370" 
d="M512 255l-425 495l565 495l84 -99l-372 -326h943l-20 -140h-942l279 -326z" />
    <glyph glyph-name="arrowup" unicode="&#x2191;" horiz-adv-x="1151" 
d="M428 144l132 944l-371 -327l-86 100l565 495l426 -495l-113 -100l-281 327l-132 -944h-140z" />
    <glyph glyph-name="arrowright" unicode="&#x2192;" horiz-adv-x="1371" 
d="M732 255l-85 99l372 326h-942l20 140h941l-279 326l113 99l426 -495z" />
    <glyph glyph-name="arrowdown" unicode="&#x2193;" horiz-adv-x="1150" 
d="M496 145l-424 495l112 99l280 -326l132 942h140l-132 -942l373 326l85 -99z" />
    <glyph glyph-name="arrowboth" unicode="&#x2194;" horiz-adv-x="1684" 
d="M512 255l-425 495l565 495l84 -99l-372 -326h987l-279 326l113 99l426 -495l-565 -495l-86 99l372 326h-987l279 -326z" />
    <glyph glyph-name="arrowupdn" unicode="&#x2195;" horiz-adv-x="1151" 
d="M474 -13l-425 496l113 100l280 -328l139 990l-372 -327l-84 100l564 495l426 -495l-114 -100l-280 327l-139 -990l372 328l86 -100z" />
    <glyph glyph-name="uni2196" unicode="&#x2196;" horiz-adv-x="1066" 
d="M831 298l-574 666l-65 -462h-140l98 700h700l-19 -140h-460l572 -666z" />
    <glyph glyph-name="uni2197" unicode="&#x2197;" horiz-adv-x="1065" 
d="M122 298l-84 99l759 665h-462l19 140h701l-98 -700h-140l65 461z" />
    <glyph glyph-name="uni2198" unicode="&#x2198;" horiz-adv-x="1065" 
d="M228 298l20 140h461l-572 665l112 99l573 -665l65 461h140l-99 -700h-700z" />
    <glyph glyph-name="uni2199" unicode="&#x2199;" horiz-adv-x="1065" 
d="M24 298l98 700h140l-65 -461l759 665l85 -99l-759 -665h461l-19 -140h-700z" />
    <glyph glyph-name="partialdiff" unicode="&#x2202;" horiz-adv-x="1165" 
d="M481 -26q-138 0 -243 68t-157 182t-32 252q15 104 66.5 195.5t130.5 160.5t175.5 108t200.5 39q95 0 169.5 -42t116.5 -113q-9 99 -41 194.5t-88.5 172.5t-139.5 122.5t-193 45.5l19 140q158 0 280 -77.5t201.5 -213.5t109.5 -313t3 -376q-22 -160 -103 -283t-204 -192.5
t-271 -69.5zM500 114q103 0 192 50t149 132.5t74 179.5q14 100 -23.5 182t-113 131.5t-176.5 49.5q-102 0 -191 -50t-148.5 -132.5t-73.5 -180.5t23 -180.5t112.5 -132t175.5 -49.5z" />
    <glyph glyph-name="emptyset" unicode="&#x2205;" horiz-adv-x="1160" 
d="M222 -55l-96 60l61 83q-77 72 -114.5 179.5t-20.5 232.5q15 110 67.5 205.5t131.5 168t175.5 113.5t199.5 41q56 0 106.5 -12.5t93.5 -35.5l58 79l95 -60l-60 -84q77 -72 113.5 -179.5t19.5 -235.5q-15 -109 -67.5 -204t-131.5 -167.5t-175 -113.5t-200 -41
q-55 0 -105.5 13.5t-94.5 35.5zM273 208l471 658q-84 41 -175.5 28t-174 -68t-139.5 -141t-72 -191q-12 -88 13 -162t77 -124zM360 137q87 -41 179 -28t173.5 68t137.5 140.5t71 188.5q12 88 -12.5 163t-75.5 126z" />
    <glyph glyph-name="product" unicode="&#x220f;" horiz-adv-x="1280" 
d="M178 1400h1120l-19 -140h-1120zM355 1307h140l-183 -1307h-140zM955 1307h140l-183 -1307h-140z" />
    <glyph glyph-name="summation" unicode="&#x2211;" horiz-adv-x="955" 
d="M-18 0l19 140l364 558l-207 558l20 140h815l-20 -140h-657l207 -558l-364 -558h658l-20 -140h-815z" />
    <glyph glyph-name="minus" unicode="&#x2212;" horiz-adv-x="1160" 
d="M56 530l20 140h1000l-20 -140h-1000z" />
    <glyph glyph-name="radical" unicode="&#x221a;" horiz-adv-x="1286" 
d="M967 1400h337l-19 -140h-240l-637 -1260h-168l-159 708h149l119 -529z" />
    <glyph glyph-name="infinity" unicode="&#x221e;" horiz-adv-x="1472" 
d="M330 303q-91 10 -153.5 55.5t-90.5 115.5t-17 152q13 87 62.5 158.5t125 116t164.5 48.5q77 0 129.5 -23.5t96.5 -71t94 -121.5q69 72 126.5 120t114.5 72t122 24q103 -4 168.5 -48.5t93.5 -116t15 -158.5q-12 -86 -61 -157.5t-123.5 -115.5t-164.5 -50
q-75 0 -126.5 21.5t-96 69t-98.5 124.5q-73 -75 -131 -123.5t-116.5 -71t-133.5 -20.5zM350 433q58 0 101 21.5t87.5 64.5t106.5 107q-46 68 -79 110.5t-69 62.5t-93 19q-79 -7 -136.5 -63t-68.5 -129q-10 -79 34 -132t117 -61zM1048 433q79 8 136.5 63.5t67.5 129.5
q11 77 -31.5 131.5t-129.5 61.5q-51 0 -92 -21.5t-85.5 -64.5t-106.5 -107q38 -55 66 -92.5t53 -59.5t54 -31.5t68 -9.5z" />
    <glyph glyph-name="integral" unicode="&#x222b;" horiz-adv-x="878" 
d="M165 -26q-55 1 -95 28t-57.5 73.5t-4.5 103.5l100 -8q-5 -31 6 -52.5t42 -25.5q30 -2 54.5 16t32.5 48l257 1114q13 47 47.5 82.5t79.5 55t90 17.5q54 -2 93 -31t55.5 -75t4.5 -100l-92 9q4 38 -15 58t-48 19q-30 2 -53 -18.5t-29 -47.5l-256 -1110q-25 -80 -82 -117.5
t-130 -38.5z" />
    <glyph glyph-name="approxequal" unicode="&#x2248;" horiz-adv-x="1224" 
d="M818 721q-63 0 -132.5 33t-138 76.5t-131.5 76.5t-114 33q-44 1 -79.5 -23.5t-55 -64t-16.5 -83.5l-138 -7q-7 78 33.5 149.5t111.5 117.5t154 46q61 0 125 -33.5t128.5 -77.5t126.5 -77.5t117 -33.5q45 0 81 24t56.5 63t16.5 82l137 9q8 -81 -29.5 -151.5t-104.5 -114.5
t-148 -44zM818 173q-63 0 -132.5 33t-138 76.5t-131.5 76.5t-114 33q-44 1 -79.5 -23.5t-55 -64t-16.5 -83.5l-138 -7q-7 78 33.5 149.5t111.5 117.5t154 46q61 0 125 -33.5t128.5 -77.5t126.5 -77.5t117 -33.5q45 0 81 24t56.5 63t16.5 82l137 9q8 -81 -29.5 -151.5
t-104.5 -114.5t-148 -44z" />
    <glyph glyph-name="notequal" unicode="&#x2260;" horiz-adv-x="1160" 
d="M890 1182l-134 -310h348l-19 -140h-390l-114 -264h466l-19 -140h-507l-136 -310h-145l135 310h-347l19 140h388l115 264h-465l19 140h507l134 310h145z" />
    <glyph glyph-name="lessequal" unicode="&#x2264;" horiz-adv-x="1160" 
d="M1030 341l-961 284l33 230l1040 286l-20 -146l-929 -254l857 -254zM-18 0l19 140h1000l-19 -140h-1000z" />
    <glyph glyph-name="greaterequal" unicode="&#x2265;" horiz-adv-x="1160" 
d="M31 349l20 146l928 250l-857 250l20 146l961 -282l-33 -230zM-18 0l19 140h1000l-19 -140h-1000z" />
    <glyph glyph-name="lozenge" unicode="&#x25ca;" horiz-adv-x="864" 
d="M230 0l-170 702l364 698h212l168 -698l-366 -702h-208zM352 134l306 568l-146 568l-304 -568z" />
    <glyph glyph-name="uniFFFD" unicode="&#xfffd;" horiz-adv-x="1630" 
d="M714 -26q-54 0 -103 20t-86 62l-355 414q-36 42 -48.5 94t-5.5 106q8 54 36 106t74 92l472 414q48 42 102.5 62t108.5 20t102.5 -20t84.5 -62l356 -414q36 -42 49 -93t5 -105q-7 -54 -34.5 -106t-75.5 -94l-473 -414q-46 -40 -100.5 -61t-108.5 -21zM768 310
q23 0 40.5 16t20.5 38t-10 37.5t-36 15.5q-22 0 -40 -15.5t-21 -37.5t10.5 -38t35.5 -16zM741 517h106v2q8 52 59 78q56 29 94 81t47 115q9 61 -14 111t-69 79.5t-107 29.5t-115.5 -29.5t-91.5 -79.5t-46 -111h107q7 48 45.5 81t85.5 33t76 -33t22 -81q-4 -33 -23.5 -60.5
t-47.5 -41.5q-52 -25 -86 -71.5t-42 -100.5v-2z" />
    </font>
</defs>
</svg>
