<?xml version="1.0" standalone="no"?>
<!DOCTYPE svg PUBLIC "-//W3C//DTD SVG 1.1//EN" "http://www.w3.org/Graphics/SVG/1.1/DTD/svg11.dtd" >
<svg xmlns="http://www.w3.org/2000/svg" xmlns:xlink="http://www.w3.org/1999/xlink" version="1.1">
<metadata>
Created by FontForge 20201107 at Wed Oct 27 17:11:08 2021
 By 
Copyright 2021 The Urbanist Project Authors (https://github.com/coreyhu/Urbanist)
</metadata>
<defs>
<font id="Urbanist-ExtraLightItalic" horiz-adv-x="1143" >
  <font-face 
    font-family="Urbanist ExtraLight"
    font-weight="250"
    font-style="italic"
    font-stretch="normal"
    units-per-em="2000"
    panose-1="2 11 10 4 4 2 0 0 2 3"
    ascent="1600"
    descent="-400"
    x-height="1000"
    cap-height="1400"
    bbox="-321 -500 2658 1975"
    underline-thickness="50"
    underline-position="-125"
    unicode-range="U+000D-FFFD"
  />
<missing-glyph horiz-adv-x="1000" 
d="M100 -500v2400h800v-2400h-800zM200 -400h600v2200h-600v-2200z" />
    <glyph glyph-name=".notdef" horiz-adv-x="1000" 
d="M100 -500v2400h800v-2400h-800zM200 -400h600v2200h-600v-2200z" />
    <glyph glyph-name=".null" horiz-adv-x="1200" 
 />
    <glyph glyph-name=".null" horiz-adv-x="1200" 
 />
    <glyph glyph-name="nonmarkingreturn" unicode="&#xd;" horiz-adv-x="1200" 
 />
    <glyph glyph-name="nonmarkingreturn" unicode="&#xfeff;" horiz-adv-x="1200" 
 />
    <glyph glyph-name="space" unicode=" " horiz-adv-x="480" 
 />
    <glyph glyph-name="exclam" unicode="!" horiz-adv-x="312" 
d="M58 420l137 980h80l-137 -980h-80zM35 -26q-23 0 -37.5 17t-11.5 40t22 39.5t43 16.5q23 0 37 -16.5t10 -39.5q-3 -23 -21.5 -40t-41.5 -17z" />
    <glyph glyph-name="quotedbl" unicode="&#x22;" horiz-adv-x="483" 
d="M103 878l73 522h75l-73 -522h-75zM356 878l73 522h75l-73 -522h-75z" />
    <glyph glyph-name="numbersign" unicode="#" horiz-adv-x="1479" 
d="M1413 955h-219l-209 -508h221l-35 -84h-219l-149 -363h-86l149 363h-527l-148 -363h-86l148 363h-221l35 84h220l209 508h-222l34 83h222l146 362h86l-146 -362h526l146 362h86l-146 -362h219zM899 447l209 508h-526l-209 -508h526z" />
    <glyph glyph-name="dollar" unicode="$" horiz-adv-x="1165" 
d="M670 1333q-107 0 -205 -37t-164 -104t-79 -156q-14 -102 31.5 -158t133.5 -84.5t201 -50.5q127 -24 233 -70.5t164.5 -124t42.5 -191.5q-15 -111 -89.5 -194t-185 -132t-234.5 -56l-28 -199h-75l28 199q-103 5 -194 40t-152.5 96.5t-79.5 144.5l84 31q16 -74 75.5 -124.5
t142.5 -76.5t171 -26q108 0 206 36.5t165.5 103.5t79.5 157q13 92 -38.5 150.5t-140 93t-188.5 52.5q-136 26 -242 66.5t-160 115t-37 201.5q16 111 90.5 194t185.5 131.5t235 54.5l29 208h75l-29 -208q99 -5 188 -39t152.5 -95t84.5 -147l-87 -29q-16 74 -75.5 124.5
t-143 76.5t-171.5 26z" />
    <glyph glyph-name="percent" unicode="%" horiz-adv-x="1165" 
d="M29 0l1004 1400h100l-1004 -1400h-100zM313 885q-57 0 -100 28t-64.5 75t-13.5 104q9 58 43.5 105t85.5 75.5t108 28.5t100 -28.5t64.5 -75.5t13.5 -105t-43 -104.5t-86 -74.5t-108 -28zM324 960q56 0 99.5 39t50.5 93q8 56 -24.5 95t-88.5 39q-55 0 -99 -39t-52 -95
q-7 -54 26 -93t88 -39zM793 99q-57 0 -100.5 28.5t-65 76t-14.5 104.5q9 57 44 104t86.5 75t107.5 28q58 0 101 -28t64.5 -75t13.5 -104q-8 -58 -43 -105t-86 -75.5t-108 -28.5zM803 174q54 0 99 39.5t52 94.5q8 54 -26 93t-88 39q-55 0 -99.5 -39t-52.5 -93
q-7 -55 26.5 -94.5t88.5 -39.5z" />
    <glyph glyph-name="ampersand" unicode="&#x26;" horiz-adv-x="1410" 
d="M370 -26q-117 0 -197 56t-116.5 146.5t-23.5 191.5q9 66 30 113.5t64 96t117 114t190 167.5q-53 63 -86.5 103.5t-50.5 71t-21 61t2 72.5q11 72 54.5 131.5t107.5 94.5t135 35t125.5 -35t82 -94.5t17.5 -131.5q-6 -43 -20 -75t-40 -62.5t-70.5 -70.5t-112.5 -100
l369 -431l233 203l-16 -121l-166 -145l263 -304l-69 -61l-262 302q-117 -102 -192 -167t-127.5 -100t-102 -48t-117.5 -13zM382 60q58 0 99.5 12.5t87.5 45t113.5 92.5l175.5 156l-372 433q-111 -99 -179.5 -159t-106.5 -101t-55 -80t-24 -94q-12 -85 19 -154.5t94 -110
t148 -40.5zM503 914q85 75 129 114t62 67.5t24 71.5q11 76 -34.5 128t-119.5 52q-77 0 -135.5 -54.5t-68.5 -125.5q-6 -44 4.5 -73t43.5 -68t95 -112z" />
    <glyph glyph-name="quotesingle" unicode="'" horiz-adv-x="231" 
d="M103 878l73 522h75l-73 -522h-75z" />
    <glyph glyph-name="parenleft" unicode="(" horiz-adv-x="583" 
d="M283 -112q-87 91 -130.5 213.5t-51.5 261.5t11 281q12 84 34.5 170.5t55.5 170t77 160.5t98 142t118 113h86q-63 -59 -115.5 -125t-95 -139t-75.5 -152t-57 -164t-40 -176q-17 -158 -4.5 -293.5t56 -250.5t119.5 -212h-86z" />
    <glyph glyph-name="parenright" unicode=")" horiz-adv-x="583" 
d="M-14 -112q104 97 179.5 212t126 250.5t77.5 293.5q10 91 9.5 176t-11 164t-32 152t-56 139t-81.5 125h86q51 -48 87 -113t58 -142t32 -160.5t8 -170t-14 -170.5q-19 -142 -66.5 -281t-125.5 -261.5t-191 -213.5h-86z" />
    <glyph glyph-name="asterisk" unicode="*" horiz-adv-x="695" 
d="M217 862l-54 45l163 187l-210 73l32 70l212 -70l33 233h75l-33 -233l232 70l14 -70l-233 -73l111 -187l-68 -45l-109 189z" />
    <glyph glyph-name="plus" unicode="+" horiz-adv-x="1160" 
d="M453 100l64 457h-457l12 86h457l64 457h86l-64 -457h457l-12 -86h-457l-64 -457h-86z" />
    <glyph glyph-name="comma" unicode="," horiz-adv-x="348" 
d="M-34 -112l109 338h86l-138 -338h-57z" />
    <glyph glyph-name="hyphen" unicode="-" horiz-adv-x="880" 
d="M112 643h640l-12 -86h-640z" />
    <glyph glyph-name="period" unicode="." horiz-adv-x="313" 
d="M33 -26q-22 0 -36 17t-11 40t22 39.5t42 16.5q24 0 38 -16.5t10 -39.5q-2 -23 -21 -40t-44 -17z" />
    <glyph glyph-name="slash" unicode="/" horiz-adv-x="650" 
d="M668 1400l-616 -1512h-86l616 1512h86z" />
    <glyph glyph-name="zero" unicode="0" horiz-adv-x="1182" 
d="M490 -26q-127 0 -218 56.5t-145.5 156.5t-71 231.5t4.5 281.5q21 151 74.5 282.5t136 231t189.5 156t234 56.5t217.5 -56.5t144.5 -156t70.5 -231t-4.5 -282.5q-21 -150 -74.5 -281.5t-135.5 -231.5t-188.5 -156.5t-233.5 -56.5zM502 60q146 0 257.5 87.5t183 233
t95.5 319.5q27 183 -5 327.5t-120 228.5t-231 84q-112 0 -203.5 -51t-160 -140t-112.5 -205t-62 -244q-25 -176 6 -321t118.5 -232t233.5 -87z" />
    <glyph glyph-name="one" unicode="1" horiz-adv-x="463" 
d="M119 0l184 1314h-137l39 86h196l-196 -1400h-86z" />
    <glyph glyph-name="two" unicode="2" horiz-adv-x="1061" 
d="M-18 0l10 75q104 90 221 190t229.5 203t206 201.5t153.5 187.5t70 160q12 88 -21 161.5t-99 117.5t-154 44q-89 0 -168.5 -44t-133 -117.5t-66.5 -161.5h-86q17 113 85 206t168 148t212 55t196.5 -55.5t126.5 -148.5t26 -205q-10 -73 -67.5 -165.5t-145.5 -194
t-192.5 -204t-211 -197t-200.5 -170.5h714l-12 -86h-861z" />
    <glyph glyph-name="three" unicode="3" horiz-adv-x="962" 
d="M379 -26q-129 0 -215.5 54.5t-125 146t-23.5 202.5h86q-12 -87 17.5 -159t98 -115t174.5 -43q87 0 169 43t140.5 115t70.5 159q15 107 -28 177.5t-129.5 106.5t-202.5 36l11 78q162 0 272 72t129 212q11 77 -23 140.5t-96.5 102t-139.5 38.5q-78 0 -153.5 -38.5
t-128 -102t-63.5 -140.5h-86q11 75 52 142t103 117.5t136 79t151 28.5q101 0 182 -50t123.5 -133t28.5 -184q-16 -115 -89 -200.5t-178 -119.5q83 -29 134.5 -82t72 -124t8.5 -156q-15 -111 -87.5 -202.5t-176 -146t-214.5 -54.5z" />
    <glyph glyph-name="four" unicode="4" horiz-adv-x="1057" 
d="M590 0l59 421h-608l13 89l707 890h111l-125 -893h163l-12 -86h-163l-59 -421h-86zM159 510l502 -3l104 762z" />
    <glyph glyph-name="five" unicode="5" horiz-adv-x="1085" 
d="M416 -26q-125 0 -218 60.5t-138.5 162t-28.5 224.5h86q-14 -99 23 -181t112 -131t175 -49t188.5 49t149.5 131t74 181q15 100 -22 182t-113.5 131t-180.5 49h-331l210 617h639l-12 -86h-569l-150 -445h196q143 -1 243.5 -57.5t147.5 -156.5t28 -234q-13 -92 -59 -173
t-116.5 -142.5t-156 -96.5t-177.5 -35z" />
    <glyph glyph-name="six" unicode="6" horiz-adv-x="1066" 
d="M425 -26q-131 0 -230 65t-148.5 173.5t-31.5 240.5q11 81 37.5 132.5t71.5 120.5l496 694h100l-379 -530q98 49 195.5 54t182.5 -27.5t146.5 -96t91 -152t14.5 -195.5q-14 -99 -63.5 -186t-125 -152.5t-167.5 -103t-190 -37.5zM436 60q114 0 210.5 55.5t160 145.5
t78.5 193q15 108 -25.5 196t-122 141t-188.5 53q-112 0 -208 -54.5t-160.5 -143t-79.5 -192.5q-15 -111 26 -200t123 -141.5t186 -52.5z" />
    <glyph glyph-name="seven" unicode="7" horiz-adv-x="1053" 
d="M59 0l941 1314h-874l12 86h973l-11 -86l-944 -1314h-97z" />
    <glyph glyph-name="eight" unicode="8" horiz-adv-x="1033" 
d="M415 -26q-121 0 -212.5 54.5t-137.5 145.5t-30 202q16 121 101.5 218t203.5 144q-88 43 -137.5 129.5t-35.5 191.5q14 101 80 184t164 133t208 50q109 0 192.5 -50t126 -133t28.5 -184q-14 -105 -87.5 -191.5t-175.5 -129.5q107 -47 164.5 -144t40.5 -218
q-15 -110 -87.5 -201.5t-179 -146t-226.5 -54.5zM426 60q96 0 180 42.5t140.5 114.5t68.5 159q12 88 -24 159.5t-108 114t-167 42.5q-94 0 -178 -42.5t-141 -114t-69 -159.5q-13 -87 23.5 -159t108.5 -114.5t166 -42.5zM527 778q85 0 160 38t125.5 101.5t60.5 141.5
q11 78 -21 141.5t-96 101.5t-149 38t-160 -38t-125.5 -101.5t-61.5 -141.5q-10 -78 22 -141.5t96 -101.5t149 -38z" />
    <glyph glyph-name="nine" unicode="9" horiz-adv-x="1031" 
d="M286 0l410 571q-117 -58 -231 -51.5t-203.5 65t-135.5 157.5t-28 227q13 94 60 177t118.5 145.5t159 98.5t182.5 36q124 0 218.5 -62t142 -166t30.5 -229q-11 -77 -36.5 -125.5t-68.5 -115.5l-519 -728h-99zM499 598q106 0 198 51t153 135.5t74 182.5q15 106 -24.5 191
t-117 134.5t-176.5 49.5q-109 0 -200.5 -52t-151.5 -138t-74 -185q-14 -102 24 -186t115 -133.5t180 -49.5z" />
    <glyph glyph-name="colon" unicode=":" horiz-adv-x="313" 
d="M162 887q-23 0 -37 17t-11 41q3 22 22 38.5t41 16.5q25 0 39 -16.5t11 -38.5q-4 -24 -22 -41t-43 -17zM33 -26q-22 0 -36 17t-11 40t22 39.5t42 16.5q24 0 38 -16.5t10 -39.5q-2 -23 -21 -40t-44 -17z" />
    <glyph glyph-name="semicolon" unicode=";" horiz-adv-x="359" 
d="M-34 -112l109 338h86l-138 -338h-57zM210 887q-24 0 -38.5 16.5t-11.5 39.5q3 24 22 40.5t43 16.5q23 0 37 -16.5t11 -40.5q-4 -23 -22 -39.5t-41 -16.5z" />
    <glyph glyph-name="less" unicode="&#x3c;" horiz-adv-x="1160" 
d="M1016 246l-960 284l19 138l1041 286l-13 -91l-966 -263l892 -265z" />
    <glyph glyph-name="equal" unicode="=" horiz-adv-x="1160" 
d="M33 362l11 86h1000l-11 -86h-1000zM88 752l11 86h1000l-11 -86h-1000z" />
    <glyph glyph-name="greater" unicode="&#x3e;" horiz-adv-x="1160" 
d="M16 247l13 89l966 264l-892 262l13 91l959 -285l-19 -138z" />
    <glyph glyph-name="question" unicode="?" horiz-adv-x="948" 
d="M397 509q13 91 70 167.5t144 121.5q72 36 120.5 104.5t59.5 150.5q12 80 -18 145.5t-90 104.5t-140 39q-79 0 -149.5 -39t-118.5 -104.5t-60 -145.5h-86q16 104 78 188.5t154 135.5t194 51q104 0 182 -51t117 -135.5t23 -188.5q-14 -106 -77.5 -194.5t-159.5 -137.5
q-64 -32 -105.5 -88.5t-51.5 -123.5h-86zM355 -26q-23 0 -37 17.5t-11 39.5q3 23 22 39.5t42 16.5q24 0 38 -16.5t10 -39.5q-2 -22 -21 -39.5t-43 -17.5z" />
    <glyph glyph-name="at" unicode="@" horiz-adv-x="1677" 
d="M719 -152q-156 0 -286.5 51t-222 144.5t-132.5 222t-19 285.5t100.5 294t197.5 241.5t265 163.5t303 59q158 0 287.5 -59t218.5 -164t128 -242t17 -293q-11 -75 -40.5 -151.5t-73.5 -141t-101.5 -103.5t-123.5 -39q-56 0 -103.5 26.5t-74 73t-20.5 104.5
q-53 -76 -133 -121.5t-179 -45.5q-109 0 -192 53.5t-123.5 144t-25.5 200.5q16 110 82 200t164 143.5t207 53.5q99 0 167.5 -45.5t99.5 -120.5l20 146l77 -6l-84 -592q-7 -53 34 -90.5t94 -37.5q67 0 117 52.5t82.5 133t43.5 163.5q20 139 -15.5 261t-115 214t-194 144.5
t-253.5 52.5q-138 0 -267 -52t-235 -144t-175.5 -214t-89.5 -262q-20 -139 17 -252.5t117.5 -195t196.5 -125.5t255 -44zM741 230q89 0 159 49.5t114.5 127t55.5 160.5q11 78 -10 147.5t-77.5 113t-152.5 43.5q-89 0 -167.5 -43t-131.5 -115.5t-65 -161.5q-13 -90 21 -163
t101 -115.5t153 -42.5z" />
    <glyph glyph-name="A" unicode="A" horiz-adv-x="1298" 
d="M688 1400h118l314 -1400h-91l-74 327h-717l-164 -327h-92zM282 413h654l-202 897z" />
    <glyph glyph-name="B" unicode="B" horiz-adv-x="1085" 
d="M22 0l196 1400h453q98 0 173 -39.5t112.5 -116.5t21.5 -188q-9 -71 -45.5 -132t-82 -101t-86.5 -48q58 -17 99.5 -55t66.5 -90t33 -111t-1 -119q-16 -123 -78.5 -212.5t-152.5 -138.5t-191 -49h-518zM119 81h428q80 0 151.5 42.5t121 116t61.5 167.5q13 83 -16 156.5
t-88 119t-138 45.5h-429zM221 808h364q112 0 201 64t106 184q19 134 -52 198.5t-184 64.5h-363z" />
    <glyph glyph-name="C" unicode="C" horiz-adv-x="1418" 
d="M666 -26q-142 0 -259 56.5t-197.5 156t-115.5 231t-14 282.5q21 150 93 281.5t180.5 231.5t241.5 156.5t275 56.5q170 0 301.5 -79t207.5 -211l-81 -40q-65 112 -182.5 178t-257.5 66q-126 0 -242.5 -51t-211.5 -139.5t-157.5 -204.5t-80.5 -245q-18 -132 12 -248
t100.5 -204.5t172.5 -138t227 -49.5q145 0 279.5 67.5t229.5 175.5l69 -41q-112 -132 -266 -210t-324 -78z" />
    <glyph glyph-name="D" unicode="D" horiz-adv-x="1342" 
d="M22 0l196 1400h462q146 0 265 -54.5t201.5 -151t119 -223t16.5 -271.5t-92 -271.5t-181.5 -223t-244 -151t-280.5 -54.5h-462zM120 86h376q128 0 246 47.5t214 132t159 196t81 238.5t-14 238.5t-104.5 196t-177 132t-232.5 47.5h-376z" />
    <glyph glyph-name="E" unicode="E" horiz-adv-x="1059" 
d="M22 0l196 1400h839l-12 -86h-753l-73 -521h634l-11 -86h-635l-87 -621h752l-11 -86h-839z" />
    <glyph glyph-name="F" unicode="F" horiz-adv-x="954" 
d="M22 0l196 1400h814l-12 -86h-728l-73 -521h632l-12 -86h-632l-99 -707h-86z" />
    <glyph glyph-name="G" unicode="G" horiz-adv-x="1536" 
d="M668 -26q-144 0 -261.5 56.5t-197.5 156.5t-115 231.5t-14 281.5q21 151 93.5 283t182 231.5t242 155.5t274.5 56q166 0 299 -77.5t211 -210.5l-84 -43q-71 117 -186.5 181t-251.5 64q-125 0 -242 -50.5t-212.5 -139.5t-158.5 -204.5t-81 -245.5q-18 -131 12.5 -247
t101 -204.5t173 -138.5t227.5 -50q110 0 213.5 39.5t192 109.5t154 163t98.5 199h-441l12 82h541q-27 -141 -101 -264t-181 -216t-235.5 -146t-264.5 -53z" />
    <glyph glyph-name="H" unicode="H" horiz-adv-x="1227" 
d="M1119 1400h86l-196 -1400h-86l99 707h-815l-99 -707h-86l196 1400h86l-85 -607h815z" />
    <glyph glyph-name="I" unicode="I" horiz-adv-x="386" 
d="M52 0l196 1400h86l-196 -1400h-86z" />
    <glyph glyph-name="J" unicode="J" horiz-adv-x="759" 
d="M170 -26q-63 0 -119.5 21t-101.5 64l65 66q33 -31 76 -48t92 -17q77 0 147 42t117.5 110t58.5 145l146 1043h86l-146 -1043q-14 -101 -76 -188t-152.5 -141t-192.5 -54z" />
    <glyph glyph-name="K" unicode="K" horiz-adv-x="1011" 
d="M857 0h-110l-400 670l-170 -175l-69 -495h-86l196 1400h86l-108 -770l754 770h112l-649 -662z" />
    <glyph glyph-name="L" unicode="L" horiz-adv-x="981" 
d="M22 0l196 1400h86l-184 -1314h675l-12 -86h-761z" />
    <glyph glyph-name="M" unicode="M" horiz-adv-x="1717" 
d="M22 0l466 1400h51l263 -1099l570 1099h51l76 -1400h-88l-63 1177l-547 -1054h-49l-251 1054l-392 -1177h-87z" />
    <glyph glyph-name="N" unicode="N" horiz-adv-x="1235" 
d="M22 0l196 1400h94l641 -1245l174 1245h86l-196 -1400h-92l-642 1245l-175 -1245h-86z" />
    <glyph glyph-name="O" unicode="O" horiz-adv-x="1540" 
d="M668 -26q-142 0 -259.5 56.5t-198 156.5t-116 231.5t-14.5 281.5t93 281.5t181.5 231.5t242.5 156.5t275 56.5q143 0 260 -56.5t197.5 -156.5t116 -231.5t14.5 -281.5t-93 -281.5t-181.5 -231.5t-242 -156.5t-275.5 -56.5zM680 60q126 0 243 51t212 139.5t158 204
t81 245.5q18 131 -12.5 247t-101 204.5t-172.5 138.5t-228 50t-243 -51t-212 -139.5t-158 -204t-81 -245.5q-18 -132 12.5 -247.5t101 -204t173 -138.5t227.5 -50z" />
    <glyph glyph-name="P" unicode="P" horiz-adv-x="1015" 
d="M22 0l196 1400h421q111 0 192.5 -53t121.5 -144.5t24 -205.5q-16 -115 -82.5 -206.5t-163.5 -144t-205 -52.5h-335l-83 -594h-86zM203 680h331q86 0 162.5 41.5t129.5 114t65 163.5q13 92 -19 164.5t-97 114t-151 41.5h-331z" />
    <glyph glyph-name="Q" unicode="Q" horiz-adv-x="1543" 
d="M1298 -15l-148 174q-104 -87 -227.5 -135.5t-254.5 -48.5q-143 0 -260.5 56.5t-198 156.5t-115.5 231.5t-14 281.5t93 281.5t181 231.5t242 156.5t276 56.5t259.5 -56.5t197 -156.5t115.5 -231.5t14 -281.5q-19 -139 -82.5 -262t-158.5 -220l150 -173zM680 61
q107 0 217.5 42t198.5 117l-213 248l69 62l212 -247q84 87 138.5 195t69.5 223q19 132 -12 247.5t-101.5 204t-172.5 138.5t-226 50q-126 0 -243 -51t-212.5 -140t-158 -204.5t-80.5 -244.5q-18 -132 12.5 -247.5t101.5 -204t173 -138.5t227 -50z" />
    <glyph glyph-name="R" unicode="R" horiz-adv-x="1064" 
d="M22 0l196 1400h443q111 0 193 -53t121.5 -144.5t23.5 -205.5q-15 -107 -73.5 -193t-144.5 -140t-184 -65l263 -599h-100l-262 594h-307l-83 -594h-86zM203 680h353q86 0 163 41.5t129.5 114t64.5 163.5q14 92 -18.5 164.5t-97.5 114t-151 41.5h-353z" />
    <glyph glyph-name="S" unicode="S" horiz-adv-x="1205" 
d="M500 -26q-110 0 -208.5 34t-167 97t-86.5 151l84 31q16 -74 75.5 -124.5t142.5 -76.5t171 -26q108 0 206 36.5t165.5 103.5t79.5 157q13 92 -38.5 150.5t-140 93t-188.5 52.5q-136 26 -242 66.5t-160 115t-37 201.5q16 117 97 203t200.5 133t249.5 47q106 0 203.5 -32.5
t168 -96t92.5 -155.5l-87 -29q-16 74 -75.5 124.5t-143 76.5t-171.5 26q-107 0 -205 -37t-164 -104t-79 -156q-14 -102 31.5 -158t133.5 -84.5t201 -50.5q127 -24 233 -70.5t164.5 -124t42.5 -191.5q-16 -117 -97.5 -203t-200.5 -133t-250 -47z" />
    <glyph glyph-name="T" unicode="T" horiz-adv-x="1258" 
d="M1276 1400l-12 -86h-507l-184 -1314h-86l184 1314h-505l12 86h1098z" />
    <glyph glyph-name="U" unicode="U" horiz-adv-x="1308" 
d="M552 -26q-168 0 -276 82t-152 220.5t-20 307.5l114 816h86l-114 -816q-20 -143 15 -262t124.5 -190.5t234.5 -71.5q147 0 257 72.5t177.5 191.5t87.5 260l114 816h86l-114 -816q-18 -127 -69.5 -237.5t-132 -194.5t-186.5 -131t-232 -47z" />
    <glyph glyph-name="V" unicode="V" horiz-adv-x="1171" 
d="M439 0l-312 1400h91l285 -1281l646 1281h91l-706 -1400h-95z" />
    <glyph glyph-name="W" unicode="W" horiz-adv-x="1596" 
d="M289 0l-162 1400h88l147 -1264l498 1264h72l147 -1264l498 1264h88l-552 -1400h-108l-138 1193l-472 -1193h-106z" />
    <glyph glyph-name="X" unicode="X" horiz-adv-x="1252" 
d="M-38 0l613 704l-411 696h106l367 -624l541 624h106l-603 -696l413 -704h-106l-372 630l-546 -630h-108z" />
    <glyph glyph-name="Y" unicode="Y" horiz-adv-x="1139" 
d="M1076 1400h101l-574 -765l-89 -635h-86l89 635l-359 765h101l314 -670z" />
    <glyph glyph-name="Z" unicode="Z" horiz-adv-x="1292" 
d="M-18 0l12 86l1191 1228h-1019l12 86h1132l-12 -86l-1191 -1228h1019l-12 -86h-1132z" />
    <glyph glyph-name="bracketleft" unicode="[" horiz-adv-x="486" 
d="M283 -26l-11 -86h-266l212 1512h266l-12 -86h-180l-188 -1340h179z" />
    <glyph glyph-name="backslash" unicode="\" horiz-adv-x="652" 
d="M372 -112l-194 1512h86l194 -1512h-86z" />
    <glyph glyph-name="bracketright" unicode="]" horiz-adv-x="486" 
d="M-14 -112l12 86h180l188 1340h-180l12 86h266l-212 -1512h-266z" />
    <glyph glyph-name="asciicircum" unicode="^" horiz-adv-x="695" 
d="M122 1000l328 650h63l144 -650h-91l-108 485l-246 -485h-90z" />
    <glyph glyph-name="underscore" unicode="_" horiz-adv-x="1240" 
d="M18 -26h1000l-12 -86h-1000z" />
    <glyph glyph-name="grave" unicode="`" horiz-adv-x="609" 
d="M311 1398h86l40 -288h-57z" />
    <glyph glyph-name="a" unicode="a" 
d="M1019 1000h86l-140 -1000h-86l29 218q-67 -109 -176 -176.5t-247 -67.5q-109 0 -199 41t-152 114t-89.5 168t-12.5 205q15 109 69.5 204.5t136.5 167.5t183 113t209 41q140 0 231 -67.5t130 -177.5zM496 59q122 0 216 59.5t154 160t77 221.5q18 124 -14.5 224.5
t-110 159.5t-197.5 59q-122 0 -230 -59.5t-181.5 -160.5t-90.5 -223q-17 -124 29 -224t138 -158.5t210 -58.5z" />
    <glyph glyph-name="b" unicode="b" horiz-adv-x="1184" 
d="M644 1028q145 0 254.5 -71t164 -191t33.5 -266q-15 -109 -69.5 -204t-137 -167.5t-183.5 -113.5t-210 -41q-138 0 -228 67.5t-128 177.5l-31 -219h-86l210 1500h86l-100 -717q68 110 177.5 177.5t247.5 67.5zM507 59q122 0 230.5 59.5t181.5 160t90 221.5
q18 125 -28.5 225.5t-138.5 159t-210 58.5q-121 0 -215.5 -60t-154.5 -161t-77 -222q-17 -123 15 -223t110 -159t197 -59z" />
    <glyph glyph-name="c" unicode="c" horiz-adv-x="1018" 
d="M816 225l69 -41q-81 -96 -193 -153t-234 -57q-138 0 -241.5 71t-154 190.5t-30.5 264.5q15 110 67.5 205.5t131.5 168t175.5 113.5t199.5 41q122 0 218.5 -57t150.5 -153l-81 -41q-49 80 -129.5 122.5t-170.5 42.5q-116 0 -218.5 -60.5t-171.5 -161t-86 -220.5
q-17 -121 24.5 -221t127.5 -159.5t200 -59.5q97 0 189 46t157 119z" />
    <glyph glyph-name="d" unicode="d" horiz-adv-x="1183" 
d="M1089 1500h86l-210 -1500h-86l31 219q-68 -110 -177.5 -177.5t-248.5 -67.5q-109 0 -198.5 41t-151.5 113.5t-89.5 167.5t-12.5 204q15 110 69.5 205.5t137 168t183.5 113.5t210 41q139 0 229 -67.5t128 -177.5zM496 59q122 0 216 59.5t154 160t77 221.5
q18 124 -14.5 224.5t-110 159.5t-197.5 59q-121 0 -229.5 -59.5t-182 -160.5t-90.5 -223q-17 -124 29 -224t138 -158.5t210 -58.5z" />
    <glyph glyph-name="e" unicode="e" horiz-adv-x="1117" 
d="M458 -26q-138 0 -241.5 71t-154 190.5t-30.5 264.5q15 110 67.5 205.5t131.5 168t175.5 113.5t199.5 41q108 0 193.5 -41.5t142 -117t78.5 -179t4 -227.5h-908q-6 -116 38 -206.5t126 -143.5t190 -53q118 0 222.5 63t175.5 173l84 -20q-79 -133 -211.5 -217.5
t-282.5 -84.5zM125 540h823q11 109 -32.5 201.5t-127 148.5t-193.5 56q-111 0 -208.5 -54.5t-167 -147t-94.5 -204.5z" />
    <glyph glyph-name="f" unicode="f" horiz-adv-x="635" 
d="M369 1287l-40 -287h315l-12 -86h-315l-128 -914h-86l128 914h-151l12 86h151l40 287q10 66 49.5 119.5t98 85.5t123.5 32q48 0 88.5 -18.5t70.5 -53.5l-70 -60q-17 22 -44 34t-57 12q-62 0 -112.5 -44t-60.5 -107z" />
    <glyph glyph-name="g" unicode="g" horiz-adv-x="1149" 
d="M985 1000h86l-147 -1046q-12 -90 -64 -171.5t-129 -145.5t-167.5 -100.5t-182.5 -36.5q-104 0 -193.5 49.5t-147.5 131t-70 178.5l84 37q6 -85 55.5 -155.5t124.5 -112.5t160 -42q74 0 148.5 30.5t138 82t105.5 117.5t52 138l37 262q-69 -108 -176.5 -175t-237.5 -67
q-104 0 -189.5 41t-144.5 113.5t-84.5 167.5t-10.5 204q15 110 67.5 205.5t132 168t176.5 113.5t201 41q130 0 218 -67t128 -176zM473 59q117 0 210 61.5t152.5 162t75.5 217.5q17 120 -14.5 221t-107.5 161.5t-191 60.5q-117 0 -220 -59.5t-172.5 -160.5t-86.5 -223
q-17 -123 25.5 -223t128.5 -159t200 -59z" />
    <glyph glyph-name="h" unicode="h" horiz-adv-x="1050" 
d="M957 612l-85 -612h-86l84 603q13 94 -21.5 170.5t-105 122.5t-163.5 46q-94 0 -177 -46t-139.5 -122.5t-70.5 -170.5l-84 -603h-86l210 1500h86l-92 -663q66 87 165 139t208 52q115 0 201.5 -56t129.5 -150.5t26 -209.5z" />
    <glyph glyph-name="i" unicode="i" horiz-adv-x="326" 
d="M162 1000h86l-140 -1000h-86zM235 1199q-24 0 -39 15.5t-11 39.5q4 25 22.5 40t42.5 15q23 0 37.5 -15t10.5 -39q-4 -25 -22 -40.5t-41 -15.5z" />
    <glyph glyph-name="j" unicode="j" horiz-adv-x="417" 
d="M-249 -500l13 86q83 0 154 36.5t118 100t58 142.5l159 1135h86l-159 -1135q-14 -101 -75 -184t-153 -132t-201 -49zM326 1199q-24 0 -39 15.5t-11 39.5q4 25 22.5 40t42.5 15q23 0 37.5 -15t10.5 -39q-4 -25 -22 -40.5t-41 -15.5z" />
    <glyph glyph-name="k" unicode="k" horiz-adv-x="937" 
d="M745 0h-98l-233 530l-270 -277l-35 -253h-86l210 1500h86l-156 -1112l600 612h112l-393 -400z" />
    <glyph glyph-name="l" unicode="l" horiz-adv-x="327" 
d="M23 0l210 1500h86l-210 -1500h-86z" />
    <glyph glyph-name="m" unicode="m" horiz-adv-x="1777" 
d="M22 0l140 1000h86l-22 -163q67 87 165.5 139t207.5 52q118 0 206.5 -59t127.5 -156q67 97 172 156t222 59q115 0 201.5 -56t129.5 -150.5t26 -209.5l-85 -612h-86l84 599q13 92 -20.5 170t-101.5 125.5t-159 47.5t-172 -44t-136.5 -121t-69.5 -178l-84 -599h-86l84 599
q14 101 -20 178t-102.5 121t-159.5 44t-172.5 -47.5t-137 -125.5t-68.5 -170l-84 -599h-86z" />
    <glyph glyph-name="n" unicode="n" horiz-adv-x="1049" 
d="M956 612l-85 -612h-86l84 603q13 94 -21.5 170.5t-105 122.5t-163.5 46q-94 0 -177 -46t-139.5 -122.5t-70.5 -170.5l-84 -603h-86l140 1000h86l-22 -163q66 87 165 139t208 52q115 0 201.5 -56t129.5 -150.5t26 -209.5z" />
    <glyph glyph-name="o" unicode="o" horiz-adv-x="1120" 
d="M458 -26q-138 0 -241.5 71t-154 190.5t-30.5 264.5q15 110 67.5 205.5t131.5 168t175.5 113.5t199.5 41q138 0 241.5 -71t154.5 -191t30 -266q-15 -109 -67.5 -204t-131.5 -167.5t-175 -113.5t-200 -41zM470 60q116 0 218.5 61t172 161t85.5 218q17 119 -24 219.5
t-126 161.5t-202 61t-219.5 -61t-171 -161.5t-85.5 -219.5q-17 -123 25 -222.5t128 -158.5t199 -59z" />
    <glyph glyph-name="p" unicode="p" horiz-adv-x="1183" 
d="M37 -500h-86l211 1500h86l-31 -219q69 110 178.5 177.5t247.5 67.5q109 0 198.5 -41t151.5 -113.5t89.5 -167.5t12.5 -204t-69.5 -205t-137 -168.5t-183.5 -113.5t-210 -41q-138 0 -228.5 67.5t-128.5 177.5zM630 941q-120 0 -214 -59t-154.5 -159t-77.5 -223
q-17 -121 14.5 -222t109 -161t198.5 -60q118 0 226.5 59t183.5 159t92 225q17 121 -28 221.5t-136.5 160t-213.5 59.5z" />
    <glyph glyph-name="q" unicode="q" horiz-adv-x="1183" 
d="M484 -28q-145 0 -254.5 71t-163.5 191t-34 266q15 109 69.5 204t137 167.5t183.5 113.5t210 41q139 0 229 -67.5t127 -177.5l31 219h86l-211 -1500h-86l101 717q-68 -110 -177 -177.5t-248 -67.5zM620 941q-122 0 -230 -59.5t-181 -160t-90 -221.5q-17 -125 29 -225
t138 -159t210 -59q122 0 216 60t154 161t77 222q17 123 -15.5 223t-110 159t-197.5 59z" />
    <glyph glyph-name="r" unicode="r" horiz-adv-x="686" 
d="M22 0l140 1000h86l-22 -163q66 87 165 139t208 52q59 0 111 -15l-48 -83q-41 12 -83 12q-94 0 -177 -46t-139.5 -122.5t-70.5 -170.5l-84 -603h-86z" />
    <glyph glyph-name="s" unicode="s" horiz-adv-x="854" 
d="M335 -20q-84 1 -160.5 29.5t-129 77.5t-66.5 109l82 33q11 -49 57.5 -87t109 -59.5t122.5 -21.5q73 0 139.5 25t112.5 70.5t54 105.5q10 64 -26.5 101t-97 60t-126.5 44q-108 33 -184 66t-112 83t-24 134q12 87 72 150.5t147.5 98.5t181.5 35q124 0 217 -54.5t120 -142.5
l-78 -42q-13 49 -54 84t-97.5 54.5t-115.5 19.5q-74 0 -141.5 -24t-113 -69.5t-54.5 -108.5q-10 -65 20 -98.5t91 -55t143 -49.5q90 -29 166 -63.5t119 -86.5t31 -135q-13 -87 -73.5 -151t-148.5 -98.5t-183 -33.5z" />
    <glyph glyph-name="t" unicode="t" horiz-adv-x="677" 
d="M649 914h-263l-130 -914h-86l130 914h-198l12 86h198l42 314h86l-42 -314h262z" />
    <glyph glyph-name="u" unicode="u" horiz-adv-x="1009" 
d="M37 390l85 610h86l-84 -601q-13 -94 21.5 -170.5t105 -122.5t163.5 -46q94 0 177 46t140 122.5t70 170.5l84 601h86l-140 -1000h-86l22 165q-66 -86 -165 -138.5t-208 -52.5q-115 0 -201.5 56t-129 150.5t-26.5 209.5z" />
    <glyph glyph-name="v" unicode="v" horiz-adv-x="958" 
d="M434 0h-106l-225 1004h92l200 -901l454 901h92z" />
    <glyph glyph-name="w" unicode="w" horiz-adv-x="1584" 
d="M390 0h-92l-196 1000h84l176 -888l422 888h100l174 -888l422 888h86l-476 -1000h-94l-177 899z" />
    <glyph glyph-name="x" unicode="x" horiz-adv-x="998" 
d="M-18 0l436 502l-295 502h107l252 -428l372 428h107l-437 -502l296 -502h-106l-252 430l-374 -430h-106z" />
    <glyph glyph-name="y" unicode="y" horiz-adv-x="974" 
d="M846 1000h90l-757 -1500h-92l253 500l-218 1000h94l183 -881z" />
    <glyph glyph-name="z" unicode="z" horiz-adv-x="1014" 
d="M964 914l-852 -828h736l-12 -86h-854l12 86l852 828h-736l12 86h854z" />
    <glyph glyph-name="braceleft" unicode="{" horiz-adv-x="794" 
d="M524 -114q-97 0 -170 47.5t-108.5 127t-22.5 175.5l34 246q3 36 -20 54t-54 30.5t-53 28.5t-18 47q5 34 32 51t61 28.5t62.5 29.5t35.5 53l34 246q14 96 72 175.5t144 127t183 47.5h56l-11 -86h-57q-72 0 -137 -35.5t-109 -95.5t-55 -133l-35 -249q-8 -42 -23.5 -64.5
t-46.5 -42t-86 -52.5q47 -33 73 -52.5t34.5 -41t4.5 -63.5l-35 -249q-10 -73 17 -132.5t82 -95.5t128 -36h56l-12 -86h-56z" />
    <glyph glyph-name="bar" unicode="|" horiz-adv-x="366" 
d="M238 1400h86l-239 -1702h-86z" />
    <glyph glyph-name="braceright" unicode="}" horiz-adv-x="794" 
d="M-14 -114l12 86h56q73 0 138 36t109 95.5t54 132.5l35 249q8 42 23 63.5t46 41t87 52.5q-45 33 -71 52.5t-35 42t-6 64.5l35 249q11 73 -16.5 133t-82.5 95.5t-127 35.5h-57l12 86h56q97 0 170 -47.5t109 -127t22 -175.5l-34 -246q-3 -35 20.5 -53t54.5 -29.5t53 -28.5
t17 -51q-4 -31 -31 -47t-61.5 -28.5t-62.5 -30.5t-36 -54l-34 -246q-13 -96 -71.5 -175.5t-144.5 -127t-183 -47.5h-56z" />
    <glyph glyph-name="asciitilde" unicode="~" horiz-adv-x="1181" 
d="M826 436q-61 0 -129.5 37t-136 85t-129.5 84t-112 36q-51 1 -93.5 -27.5t-66.5 -74.5t-19 -98l-85 -12q-10 72 26.5 140t103 113t145.5 45q59 0 123 -37t129.5 -85t128.5 -84.5t120 -36.5q52 0 95 28t67.5 73t17.5 95l85 15q12 -77 -25.5 -144.5t-103 -109.5t-141.5 -42z
" />
    <glyph glyph-name="uni00A0" unicode="&#xa0;" horiz-adv-x="480" 
 />
    <glyph glyph-name="exclamdown" unicode="&#xa1;" horiz-adv-x="277" 
d="M181 1026q25 0 38.5 -16.5t10.5 -40.5q-3 -23 -21.5 -39.5t-43.5 -16.5q-22 0 -36 16.5t-12 39.5q4 24 23 40.5t41 16.5zM159 580l-138 -980h-81l138 980h81z" />
    <glyph glyph-name="cent" unicode="&#xa2;" horiz-adv-x="1092" 
d="M443 0l28 201q-128 11 -223 80.5t-140.5 179t-27.5 241.5q19 132 96 241t190.5 178.5t245.5 79.5l27 199h75l-27 -199q123 -7 218.5 -72t143.5 -167l-80 -43q-43 90 -132.5 144.5t-196.5 54.5q-113 0 -215.5 -56t-172 -150.5t-86.5 -209.5q-16 -118 28 -212.5t131 -150
t199 -55.5q106 0 210.5 54.5t172.5 144.5l68 -43q-76 -101 -189.5 -166t-239.5 -73l-28 -201h-75z" />
    <glyph glyph-name="sterling" unicode="&#xa3;" 
d="M6 0l12 86q61 0 119 16.5t105 47.5t77 73.5t34 95.5q10 77 -7.5 127.5t-49.5 87.5t-68.5 70.5t-67.5 75.5t-45.5 103t-1.5 153q14 101 65 190t128 156t171 105.5t195 38.5q102 0 186 -38.5t142 -105.5t84 -156t12 -190h-86q16 111 -26 202.5t-126.5 146.5t-196.5 55
q-111 0 -210.5 -55t-167.5 -146.5t-84 -202.5q-13 -92 3 -150t47.5 -96t69.5 -69.5t69.5 -69t47.5 -94.5t3 -149q-7 -50 -37.5 -94t-72 -77.5t-83.5 -50.5h727l-11 -86h-956zM69 451l11 75h741l-11 -75h-741z" />
    <glyph glyph-name="currency" unicode="&#xa4;" horiz-adv-x="961" 
d="M76 299l-45 53l138 123q-43 65 -49 144.5t23 159t91 144.5l-105 126l61 52l106 -124q72 52 154.5 70t160.5 1t134 -69l140 122l45 -52l-138 -123q45 -66 51.5 -146.5t-22.5 -161t-91 -145.5l102 -121l-61 -53l-103 120q-74 -54 -156.5 -72t-160.5 0.5t-137 73.5zM442 413
q78 1 147.5 39t117.5 102.5t59 143.5q12 79 -17 143t-88.5 102t-138.5 38q-80 0 -149.5 -38t-116 -102.5t-58.5 -142.5q-11 -80 19.5 -145t90 -102.5t134.5 -37.5z" />
    <glyph glyph-name="yen" unicode="&#xa5;" horiz-adv-x="1174" 
d="M446 0l31 216h-321l10 75h321l27 191h-321l10 75h321l11 78l-359 765h101l314 -670l503 670h101l-574 -765l-11 -78h321l-10 -75h-321l-27 -191h321l-10 -75h-321l-31 -216h-86z" />
    <glyph glyph-name="brokenbar" unicode="&#xa6;" horiz-adv-x="326" 
d="M85 448h86l-106 -750h-86zM218 1400h86l-105 -750h-86z" />
    <glyph glyph-name="section" unicode="&#xa7;" horiz-adv-x="1063" 
d="M389 -417q-124 0 -216.5 55t-120.5 142l78 42q14 -49 54.5 -84t97 -54t115.5 -20q74 0 141.5 24t113.5 70t54 109q10 64 -19 101.5t-89.5 59.5t-146.5 41q-122 27 -209 81.5t-127 140.5t-23 207q13 90 62.5 169t126.5 136.5t169 79.5q-135 22 -192 83t-42 167
q13 87 73 150.5t147.5 98.5t181.5 35q124 0 216.5 -55t119.5 -142l-78 -42q-12 49 -53.5 84t-98 54t-115.5 20q-74 0 -141.5 -24t-112.5 -70t-55 -109q-9 -64 19.5 -101t88.5 -59t146 -42q125 -28 212 -81.5t126.5 -139.5t22.5 -212q-13 -89 -64 -168.5t-127.5 -136
t-167.5 -78.5q134 -21 191.5 -82t42.5 -166q-12 -87 -72 -150.5t-147.5 -98.5t-181.5 -35zM459 172q90 0 171 43.5t135 117t67 160.5q15 105 -23.5 180t-109 115t-152.5 40q-90 0 -170.5 -43.5t-135 -118.5t-67.5 -168q-14 -92 23.5 -166t107.5 -117t154 -43z" />
    <glyph glyph-name="dieresis" unicode="&#xa8;" horiz-adv-x="1189" 
d="M514 1086q-24 0 -39.5 16t-12.5 40q3 23 23 40t44 17q23 0 38 -17t12 -40q-4 -24 -23 -40t-42 -16zM786 1086q-24 0 -39.5 16t-12.5 40q3 23 23.5 40t43.5 17t38 -17t12 -40q-3 -24 -22.5 -40t-42.5 -16z" />
    <glyph glyph-name="copyright" unicode="&#xa9;" horiz-adv-x="1750" 
d="M753 -164q-164 0 -299.5 62t-229.5 171.5t-135.5 253.5t-18.5 308q24 165 105.5 309t206 253.5t277.5 171t318 61.5q164 0 299.5 -61.5t229.5 -171t135.5 -253.5t18.5 -309q-23 -164 -105 -308t-206.5 -253.5t-277.5 -171.5t-318 -62zM766 -78q149 0 285.5 56t247 154.5
t183 226.5t92.5 272q21 148 -17 277t-122 227t-204.5 152.5t-265.5 52.5q-147 -1 -283 -57t-247.5 -153t-184.5 -225t-94 -274q-20 -149 17.5 -278t122 -226t205.5 -151t265 -54zM1141 356l70 -41q-82 -96 -194 -153t-234 -57q-138 0 -241.5 71t-154 190.5t-30.5 264.5
q15 110 67.5 205.5t131.5 168t175.5 113.5t199.5 41q122 0 218.5 -57t151.5 -153l-82 -40q-49 79 -129.5 121.5t-169.5 42.5q-117 0 -219 -60.5t-171.5 -161t-86.5 -220.5q-17 -121 25 -220.5t127.5 -159.5t199.5 -60q98 0 189.5 46.5t156.5 118.5z" />
    <glyph glyph-name="ordfeminine" unicode="&#xaa;" 
d="M1019 1000h86l-140 -1000h-86l29 218q-67 -109 -176 -176.5t-247 -67.5q-109 0 -199 41t-152 114t-89.5 168t-12.5 205q15 109 69.5 204.5t136.5 167.5t183 113t209 41q140 0 231 -67.5t130 -177.5zM496 59q122 0 216 59.5t154 160t77 221.5q18 124 -14.5 224.5
t-110 159.5t-197.5 59q-122 0 -230 -59.5t-181.5 -160.5t-90.5 -223q-17 -124 29 -224t138 -158.5t210 -58.5z" />
    <glyph glyph-name="guillemotleft" unicode="&#xab;" horiz-adv-x="939" 
d="M358 261l-252 340l348 338h104l-348 -338l252 -340h-104zM673 261l-252 340l348 338h104l-348 -338l252 -340h-104z" />
    <glyph glyph-name="logicalnot" unicode="&#xac;" horiz-adv-x="947" 
d="M729 328l64 457h-701l12 87h787l-76 -544h-86z" />
    <glyph glyph-name="uni00AD" unicode="&#xad;" horiz-adv-x="916" 
d="M148 643h640l-12 -86h-640z" />
    <glyph glyph-name="registered" unicode="&#xae;" horiz-adv-x="928" 
d="M436 496q-85 1 -154 33t-116.5 88.5t-68 129t-9.5 153.5q12 83 53.5 155.5t105 129t141 88t161.5 31.5q86 0 155 -32.5t116 -89.5t67.5 -129t8.5 -153q-11 -82 -52.5 -154.5t-105 -128.5t-141 -88t-161.5 -33zM446 572q90 0 171 44.5t136 119t67 164.5q13 90 -21.5 164.5
t-102.5 119t-158 44.5t-171 -44.5t-135.5 -119t-67.5 -164.5q-12 -90 22 -164.5t102 -119t158 -44.5zM352 712l54 387h142q45 0 72 -33t20 -81q-5 -39 -32.5 -68.5t-63.5 -38.5l74 -166h-76l-71 162h-31l-23 -162h-65zM449 939h77q17 0 31 14t17 32q3 21 -7.5 34.5
t-27.5 13.5h-76z" />
    <glyph glyph-name="macron" unicode="&#xaf;" horiz-adv-x="1200" 
d="M341 1261h676l-11 -78h-676z" />
    <glyph glyph-name="degree" unicode="&#xb0;" horiz-adv-x="596" 
d="M321 862q-61 0 -106 29.5t-67.5 79t-14.5 109.5q9 60 45 109.5t90 79t114 29.5q61 0 106 -29.5t67.5 -79t13.5 -109.5q-8 -60 -44.5 -110t-90 -79t-113.5 -29zM333 948q56 0 99.5 38.5t50.5 93.5q8 56 -24.5 94t-88.5 38q-55 0 -99 -38t-52 -94q-7 -55 26 -93.5t88 -38.5
z" />
    <glyph glyph-name="plusminus" unicode="&#xb1;" horiz-adv-x="1160" 
d="M483 311l64 457h-457l11 86h457l65 457h86l-65 -457h457l-11 -86h-457l-64 -457h-86zM-18 0l12 86h1000l-12 -86h-1000z" />
    <glyph glyph-name="uni00B2" unicode="&#xb2;" horiz-adv-x="676" 
d="M113 818l11 82q41 24 104.5 67t129.5 94t114 103.5t56 96.5q8 56 -26 91t-90 35t-101.5 -35t-53.5 -91h-82q9 60 45 106.5t89.5 73.5t113.5 27q90 0 145.5 -58.5t42.5 -148.5q-6 -45 -41.5 -94.5t-87.5 -99t-109 -92.5t-107 -75h293l-11 -82h-435z" />
    <glyph glyph-name="uni00B3" unicode="&#xb3;" horiz-adv-x="545" 
d="M288 798q-83 0 -135 53.5t-41 137.5h83q-7 -49 23 -79.5t81 -30.5q49 0 87 30.5t45 79.5q8 55 -28.5 88.5t-111.5 33.5l11 76q67 0 107 27.5t46 77.5q6 42 -21 67.5t-69 25.5q-41 0 -75.5 -25.5t-39.5 -67.5h-83q11 78 72 126t138 48t124.5 -48t36.5 -126
q-7 -44 -33 -84.5t-56 -56.5q39 -33 56 -68.5t9 -93.5q-12 -84 -78 -137.5t-148 -53.5z" />
    <glyph glyph-name="acute" unicode="&#xb4;" horiz-adv-x="609" 
d="M288 1110l120 288h86l-148 -288h-58z" />
    <glyph glyph-name="uni00B5" unicode="&#xb5;" horiz-adv-x="1017" 
d="M-79 -432l201 1432h86l-76 -543q-15 -109 18.5 -199.5t104 -144.5t165.5 -54q94 0 179.5 54t144 144.5t73.5 199.5l76 543h86l-140 -1000h-86l28 194q-75 -104 -172.5 -162t-205.5 -58q-110 0 -190.5 59t-118.5 153l-87 -618h-86z" />
    <glyph glyph-name="paragraph" unicode="&#xb6;" horiz-adv-x="752" 
d="M279 -302l144 1020q-94 0 -165 46t-106 123t-22 171q14 94 70.5 171.5t140 124t177.5 46.5h86l-239 -1702h-86zM445 -302l239 1702h86l-239 -1702h-86z" />
    <glyph glyph-name="periodcentered" unicode="&#xb7;" horiz-adv-x="273" 
d="M114 544q-23 0 -37.5 16.5t-10.5 40.5q3 23 21.5 39t41.5 16q25 0 39 -16t11 -39q-4 -24 -22.5 -40.5t-42.5 -16.5z" />
    <glyph glyph-name="cedilla" unicode="&#xb8;" horiz-adv-x="1189" 
d="M433 -362q-61 -17 -110.5 14t-57.5 91l70 18q5 -31 31 -47.5t59 -8.5q33 9 53.5 37t15.5 60q-4 32 -30 48.5t-59 8.5l-81 -17l142 196l55 -35l-54 -76q38 -8 65 -36.5t32 -69.5q8 -60 -30.5 -114t-100.5 -69z" />
    <glyph glyph-name="uni00B9" unicode="&#xb9;" horiz-adv-x="408" 
d="M199 818l76 549h-85l23 82h156l-88 -631h-82z" />
    <glyph glyph-name="ordmasculine" unicode="&#xba;" horiz-adv-x="1120" 
d="M458 -26q-138 0 -241.5 71t-154 190.5t-30.5 264.5q15 110 67.5 205.5t131.5 168t175.5 113.5t199.5 41q138 0 241.5 -71t154.5 -191t30 -266q-15 -109 -67.5 -204t-131.5 -167.5t-175 -113.5t-200 -41zM470 60q116 0 218.5 61t172 161t85.5 218q17 119 -24 219.5
t-126 161.5t-202 61t-219.5 -61t-171 -161.5t-85.5 -219.5q-17 -123 25 -222.5t128 -158.5t199 -59z" />
    <glyph glyph-name="guillemotright" unicode="&#xbb;" horiz-adv-x="959" 
d="M353 261l348 340l-252 338h104l252 -338l-348 -340h-104zM38 261l348 340l-252 338h104l252 -338l-348 -340h-104z" />
    <glyph glyph-name="onequarter" unicode="&#xbc;" horiz-adv-x="1534" 
d="M199 818l76 549h-85l23 82h156l-88 -631h-82zM87 0l1004 1400h88l-1004 -1400h-88zM1134 0l18 133h-278l14 100l309 398h107l-58 -415h76l-11 -83h-76l-19 -133h-82zM972 216h193l43 304z" />
    <glyph glyph-name="onehalf" unicode="&#xbd;" horiz-adv-x="1534" 
d="M199 818l76 549h-85l23 82h156l-88 -631h-82zM87 0l1004 1400h88l-1004 -1400h-88zM856 0l11 82q41 24 104.5 67t129.5 94.5t114 103.5t56 96q9 57 -25.5 91.5t-90.5 34.5t-101 -34.5t-54 -91.5h-82q9 60 45 107t89 74t114 27q60 0 105.5 -27t68.5 -74t14 -107
q-6 -44 -41.5 -94t-87.5 -99t-109 -92.5t-107 -75.5h293l-11 -82h-435z" />
    <glyph glyph-name="threequarters" unicode="&#xbe;" horiz-adv-x="1671" 
d="M288 798q-83 0 -135 53.5t-41 137.5h83q-7 -49 23 -79.5t81 -30.5q49 0 87 30.5t45 79.5q8 55 -28.5 88.5t-111.5 33.5l11 76q67 0 107 27.5t46 77.5q6 42 -21 67.5t-69 25.5q-41 0 -75.5 -25.5t-39.5 -67.5h-83q11 78 72 126t138 48t124.5 -48t36.5 -126
q-7 -44 -33 -84.5t-56 -56.5q39 -33 56 -68.5t9 -93.5q-12 -84 -78 -137.5t-148 -53.5zM224 0l1004 1400h88l-1004 -1400h-88zM1271 0l18 133h-278l14 100l309 398h107l-58 -415h76l-11 -83h-76l-19 -133h-82zM1109 216h193l43 304z" />
    <glyph glyph-name="questiondown" unicode="&#xbf;" horiz-adv-x="914" 
d="M296 -428q-104 0 -181.5 51t-116 136t-24.5 188q15 106 79 195.5t158 136.5q65 32 107 89t51 125h86q-13 -90 -69.5 -167t-143.5 -122q-73 -37 -121.5 -106t-60.5 -151q-11 -79 19 -144.5t90 -105t140 -39.5q79 0 150.5 39.5t119.5 105t59 144.5h86q-14 -103 -77 -188
t-155 -136t-196 -51zM482 913q-24 0 -38.5 16.5t-11.5 39.5q4 24 23 40.5t43 16.5q23 0 36.5 -16.5t10.5 -40.5q-3 -23 -22 -39.5t-41 -16.5z" />
    <glyph glyph-name="Agrave" unicode="&#xc0;" horiz-adv-x="1298" 
d="M688 1400h118l314 -1400h-91l-74 327h-717l-164 -327h-92zM282 413h654l-202 897zM646 1798h86l40 -288h-57z" />
    <glyph glyph-name="Aacute" unicode="&#xc1;" horiz-adv-x="1298" 
d="M688 1400h118l314 -1400h-91l-74 327h-717l-164 -327h-92zM282 413h654l-202 897zM745 1510l120 288h86l-148 -288h-58z" />
    <glyph glyph-name="Acircumflex" unicode="&#xc2;" horiz-adv-x="1298" 
d="M688 1400h118l314 -1400h-91l-74 327h-717l-164 -327h-92zM282 413h654l-202 897zM849 1798l152 -288h-58l-152 208l-206 -208h-58l231 288h91z" />
    <glyph glyph-name="Atilde" unicode="&#xc3;" horiz-adv-x="1298" 
d="M688 1400h118l314 -1400h-91l-74 327h-717l-164 -327h-92zM282 413h654l-202 897zM922 1544q-37 0 -76.5 22.5t-78.5 52t-75 51.5t-68 20q-33 -2 -58.5 -32.5t-21.5 -71.5l-72 -19q-10 46 11.5 91.5t63.5 75.5t94 30q38 0 79 -22t82 -51t78 -51t67 -22q24 0 42 19
t28 43.5t6 40.5l71 22q9 -48 -13 -94t-64.5 -75.5t-94.5 -29.5z" />
    <glyph glyph-name="Adieresis" unicode="&#xc4;" horiz-adv-x="1298" 
d="M688 1400h118l314 -1400h-91l-74 327h-717l-164 -327h-92zM282 413h654l-202 897zM625 1486q-24 0 -39.5 16t-12.5 40q3 23 23 40t44 17q23 0 38 -17t12 -40q-4 -24 -23 -40t-42 -16zM897 1486q-24 0 -39.5 16t-12.5 40q3 23 23.5 40t43.5 17t38 -17t12 -40
q-3 -24 -22.5 -40t-42.5 -16z" />
    <glyph glyph-name="Aring" unicode="&#xc5;" horiz-adv-x="1298" 
d="M688 1400h118l314 -1400h-91l-74 327h-717l-164 -327h-92zM282 413h654l-202 897zM762 1508q-60 0 -96 43.5t-28 103.5q5 39 29.5 72t60 53t75.5 20q59 0 96 -43t28 -102q-8 -61 -57 -104t-108 -43zM770 1566q37 0 66 26t34 63q5 35 -17 60t-59 25q-36 0 -64.5 -25
t-33.5 -60q-5 -37 16.5 -63t57.5 -26z" />
    <glyph glyph-name="AE" unicode="&#xc6;" horiz-adv-x="1589" 
d="M-18 0l706 1400h899l-12 -86h-612l-81 -571h517l-12 -86h-516l-81 -571h613l-12 -86h-699l46 327h-500l-164 -327h-92zM282 413h468l127 901h-139z" />
    <glyph glyph-name="Ccedilla" unicode="&#xc7;" horiz-adv-x="1418" 
d="M666 -26q-142 0 -259 56.5t-197.5 156t-115.5 231t-14 282.5q21 150 93 281.5t180.5 231.5t241.5 156.5t275 56.5q170 0 301.5 -79t207.5 -211l-81 -40q-65 112 -182.5 178t-257.5 66q-126 0 -242.5 -51t-211.5 -139.5t-157.5 -204.5t-80.5 -245q-18 -132 12 -248
t100.5 -204.5t172.5 -138t227 -49.5q145 0 279.5 67.5t229.5 175.5l69 -41q-112 -132 -266 -210t-324 -78zM618 -362q-61 -17 -110.5 14t-57.5 91l70 18q5 -31 31 -47.5t59 -8.5q33 9 53.5 37t15.5 60q-4 32 -30 48.5t-59 8.5l-81 -17l142 196l55 -35l-54 -76
q38 -8 65 -36.5t32 -69.5q8 -60 -30.5 -114t-100.5 -69z" />
    <glyph glyph-name="Egrave" unicode="&#xc8;" horiz-adv-x="1059" 
d="M22 0l196 1400h839l-12 -86h-753l-73 -521h634l-11 -86h-635l-87 -621h752l-11 -86h-839zM526 1798h86l40 -288h-57z" />
    <glyph glyph-name="Eacute" unicode="&#xc9;" horiz-adv-x="1059" 
d="M22 0l196 1400h839l-12 -86h-753l-73 -521h634l-11 -86h-635l-87 -621h752l-11 -86h-839zM625 1510l120 288h86l-148 -288h-58z" />
    <glyph glyph-name="Ecircumflex" unicode="&#xca;" horiz-adv-x="1059" 
d="M22 0l196 1400h839l-12 -86h-753l-73 -521h634l-11 -86h-635l-87 -621h752l-11 -86h-839zM730 1798l152 -288h-58l-152 208l-206 -208h-58l231 288h91z" />
    <glyph glyph-name="Edieresis" unicode="&#xcb;" horiz-adv-x="1059" 
d="M22 0l196 1400h839l-12 -86h-753l-73 -521h634l-11 -86h-635l-87 -621h752l-11 -86h-839zM505 1486q-24 0 -39.5 16t-12.5 40q3 23 23 40t44 17q23 0 38 -17t12 -40q-4 -24 -23 -40t-42 -16zM777 1486q-24 0 -39.5 16t-12.5 40q3 23 23.5 40t43.5 17t38 -17t12 -40
q-3 -24 -22.5 -40t-42.5 -16z" />
    <glyph glyph-name="Igrave" unicode="&#xcc;" horiz-adv-x="386" 
d="M52 0l196 1400h86l-196 -1400h-86zM190 1798h86l40 -288h-57z" />
    <glyph glyph-name="Iacute" unicode="&#xcd;" horiz-adv-x="386" 
d="M52 0l196 1400h86l-196 -1400h-86zM289 1510l120 288h86l-148 -288h-58z" />
    <glyph glyph-name="Icircumflex" unicode="&#xce;" horiz-adv-x="386" 
d="M52 0l196 1400h86l-196 -1400h-86zM393 1798l152 -288h-58l-152 208l-206 -208h-58l231 288h91z" />
    <glyph glyph-name="Idieresis" unicode="&#xcf;" horiz-adv-x="386" 
d="M52 0l196 1400h86l-196 -1400h-86zM169 1486q-24 0 -39.5 16t-12.5 40q3 23 23 40t44 17q23 0 38 -17t12 -40q-4 -24 -23 -40t-42 -16zM441 1486q-24 0 -39.5 16t-12.5 40q3 23 23.5 40t43.5 17t38 -17t12 -40q-3 -24 -22.5 -40t-42.5 -16z" />
    <glyph glyph-name="Eth" unicode="&#xd0;" horiz-adv-x="1453" 
d="M131 0l99 707h-129l12 86h129l85 607h464q145 0 264 -54.5t202 -151t119.5 -223t16.5 -271.5t-92.5 -271.5t-182 -223t-244 -151t-279.5 -54.5h-464zM229 86h378q129 0 247.5 48.5t214 134t158.5 196t80 235.5q18 129 -15 241t-106.5 195.5t-177.5 130.5t-229 47h-377
l-74 -521h381l-12 -86h-381z" />
    <glyph glyph-name="Ntilde" unicode="&#xd1;" horiz-adv-x="1235" 
d="M22 0l196 1400h94l641 -1245l174 1245h86l-196 -1400h-92l-642 1245l-175 -1245h-86zM891 1544q-37 0 -76.5 22.5t-78.5 52t-75 51.5t-68 20q-33 -2 -58.5 -32.5t-21.5 -71.5l-72 -19q-10 46 11.5 91.5t63.5 75.5t94 30q38 0 79 -22t82 -51t78 -51t67 -22q24 0 42 19
t28 43.5t6 40.5l71 22q9 -48 -13 -94t-64.5 -75.5t-94.5 -29.5z" />
    <glyph glyph-name="Ograve" unicode="&#xd2;" horiz-adv-x="1540" 
d="M668 -26q-142 0 -259.5 56.5t-198 156.5t-116 231.5t-14.5 281.5t93 281.5t181.5 231.5t242.5 156.5t275 56.5q143 0 260 -56.5t197.5 -156.5t116 -231.5t14.5 -281.5t-93 -281.5t-181.5 -231.5t-242 -156.5t-275.5 -56.5zM680 60q126 0 243 51t212 139.5t158 204
t81 245.5q18 131 -12.5 247t-101 204.5t-172.5 138.5t-228 50t-243 -51t-212 -139.5t-158 -204t-81 -245.5q-18 -132 12.5 -247.5t101 -204t173 -138.5t227.5 -50zM767 1798h86l40 -288h-57z" />
    <glyph glyph-name="Oacute" unicode="&#xd3;" horiz-adv-x="1540" 
d="M668 -26q-142 0 -259.5 56.5t-198 156.5t-116 231.5t-14.5 281.5t93 281.5t181.5 231.5t242.5 156.5t275 56.5q143 0 260 -56.5t197.5 -156.5t116 -231.5t14.5 -281.5t-93 -281.5t-181.5 -231.5t-242 -156.5t-275.5 -56.5zM680 60q126 0 243 51t212 139.5t158 204
t81 245.5q18 131 -12.5 247t-101 204.5t-172.5 138.5t-228 50t-243 -51t-212 -139.5t-158 -204t-81 -245.5q-18 -132 12.5 -247.5t101 -204t173 -138.5t227.5 -50zM866 1510l120 288h86l-148 -288h-58z" />
    <glyph glyph-name="Ocircumflex" unicode="&#xd4;" horiz-adv-x="1540" 
d="M668 -26q-142 0 -259.5 56.5t-198 156.5t-116 231.5t-14.5 281.5t93 281.5t181.5 231.5t242.5 156.5t275 56.5q143 0 260 -56.5t197.5 -156.5t116 -231.5t14.5 -281.5t-93 -281.5t-181.5 -231.5t-242 -156.5t-275.5 -56.5zM680 60q126 0 243 51t212 139.5t158 204
t81 245.5q18 131 -12.5 247t-101 204.5t-172.5 138.5t-228 50t-243 -51t-212 -139.5t-158 -204t-81 -245.5q-18 -132 12.5 -247.5t101 -204t173 -138.5t227.5 -50zM970 1798l152 -288h-58l-152 208l-206 -208h-58l231 288h91z" />
    <glyph glyph-name="Otilde" unicode="&#xd5;" horiz-adv-x="1540" 
d="M668 -26q-142 0 -259.5 56.5t-198 156.5t-116 231.5t-14.5 281.5t93 281.5t181.5 231.5t242.5 156.5t275 56.5q143 0 260 -56.5t197.5 -156.5t116 -231.5t14.5 -281.5t-93 -281.5t-181.5 -231.5t-242 -156.5t-275.5 -56.5zM680 60q126 0 243 51t212 139.5t158 204
t81 245.5q18 131 -12.5 247t-101 204.5t-172.5 138.5t-228 50t-243 -51t-212 -139.5t-158 -204t-81 -245.5q-18 -132 12.5 -247.5t101 -204t173 -138.5t227.5 -50zM1043 1544q-37 0 -76.5 22.5t-78.5 52t-75 51.5t-68 20q-33 -2 -58.5 -32.5t-21.5 -71.5l-72 -19
q-10 46 11.5 91.5t63.5 75.5t94 30q38 0 79 -22t82 -51t78 -51t67 -22q24 0 42 19t28 43.5t6 40.5l71 22q9 -48 -13 -94t-64.5 -75.5t-94.5 -29.5z" />
    <glyph glyph-name="Odieresis" unicode="&#xd6;" horiz-adv-x="1540" 
d="M668 -26q-142 0 -259.5 56.5t-198 156.5t-116 231.5t-14.5 281.5t93 281.5t181.5 231.5t242.5 156.5t275 56.5q143 0 260 -56.5t197.5 -156.5t116 -231.5t14.5 -281.5t-93 -281.5t-181.5 -231.5t-242 -156.5t-275.5 -56.5zM680 60q126 0 243 51t212 139.5t158 204
t81 245.5q18 131 -12.5 247t-101 204.5t-172.5 138.5t-228 50t-243 -51t-212 -139.5t-158 -204t-81 -245.5q-18 -132 12.5 -247.5t101 -204t173 -138.5t227.5 -50zM746 1486q-24 0 -39.5 16t-12.5 40q3 23 23 40t44 17q23 0 38 -17t12 -40q-4 -24 -23 -40t-42 -16z
M1018 1486q-24 0 -39.5 16t-12.5 40q3 23 23.5 40t43.5 17t38 -17t12 -40q-3 -24 -22.5 -40t-42.5 -16z" />
    <glyph glyph-name="multiply" unicode="&#xd7;" horiz-adv-x="928" 
d="M72 217l-52 60l369 323l-277 323l69 60l277 -322l368 322l54 -60l-370 -323l279 -323l-71 -60l-277 322z" />
    <glyph glyph-name="Oslash" unicode="&#xd8;" horiz-adv-x="1540" 
d="M269 -69l-68 44l93 130q-120 99 -180 255.5t-34 339.5q21 150 93 281.5t181.5 231.5t242.5 156.5t275 56.5q88 0 166 -21.5t144 -62.5l91 127l68 -44l-93 -129q120 -98 179 -254.5t33 -341.5q-21 -150 -93 -281.5t-181.5 -231.5t-242 -156.5t-275.5 -56.5
q-86 0 -163.5 22.5t-144.5 61.5zM349 183l779 1083q-57 35 -124.5 54.5t-143.5 19.5q-126 0 -243 -51t-212 -139.5t-158 -204t-81 -245.5q-22 -160 29 -295.5t154 -221.5zM680 60q126 0 243 51t212 139.5t158 204t81 245.5q23 160 -28 296t-152 223l-780 -1085
q57 -35 124.5 -54.5t141.5 -19.5z" />
    <glyph glyph-name="Ugrave" unicode="&#xd9;" horiz-adv-x="1308" 
d="M552 -26q-168 0 -276 82t-152 220.5t-20 307.5l114 816h86l-114 -816q-20 -143 15 -262t124.5 -190.5t234.5 -71.5q147 0 257 72.5t177.5 191.5t87.5 260l114 816h86l-114 -816q-18 -127 -69.5 -237.5t-132 -194.5t-186.5 -131t-232 -47zM651 1798h86l40 -288h-57z" />
    <glyph glyph-name="Uacute" unicode="&#xda;" horiz-adv-x="1308" 
d="M552 -26q-168 0 -276 82t-152 220.5t-20 307.5l114 816h86l-114 -816q-20 -143 15 -262t124.5 -190.5t234.5 -71.5q147 0 257 72.5t177.5 191.5t87.5 260l114 816h86l-114 -816q-18 -127 -69.5 -237.5t-132 -194.5t-186.5 -131t-232 -47zM750 1510l120 288h86l-148 -288
h-58z" />
    <glyph glyph-name="Ucircumflex" unicode="&#xdb;" horiz-adv-x="1308" 
d="M552 -26q-168 0 -276 82t-152 220.5t-20 307.5l114 816h86l-114 -816q-20 -143 15 -262t124.5 -190.5t234.5 -71.5q147 0 257 72.5t177.5 191.5t87.5 260l114 816h86l-114 -816q-18 -127 -69.5 -237.5t-132 -194.5t-186.5 -131t-232 -47zM855 1798l152 -288h-58l-152 208
l-206 -208h-58l231 288h91z" />
    <glyph glyph-name="Udieresis" unicode="&#xdc;" horiz-adv-x="1308" 
d="M552 -26q-168 0 -276 82t-152 220.5t-20 307.5l114 816h86l-114 -816q-20 -143 15 -262t124.5 -190.5t234.5 -71.5q147 0 257 72.5t177.5 191.5t87.5 260l114 816h86l-114 -816q-18 -127 -69.5 -237.5t-132 -194.5t-186.5 -131t-232 -47zM630 1486q-24 0 -39.5 16
t-12.5 40q3 23 23 40t44 17q23 0 38 -17t12 -40q-4 -24 -23 -40t-42 -16zM902 1486q-24 0 -39.5 16t-12.5 40q3 23 23.5 40t43.5 17t38 -17t12 -40q-3 -24 -22.5 -40t-42.5 -16z" />
    <glyph glyph-name="Yacute" unicode="&#xdd;" horiz-adv-x="1139" 
d="M1076 1400h101l-574 -765l-89 -635h-86l89 635l-359 765h101l314 -670zM665 1510l120 288h86l-148 -288h-58z" />
    <glyph glyph-name="Thorn" unicode="&#xde;" horiz-adv-x="995" 
d="M22 0l196 1400h86l-42 -297h335q111 0 193 -53t121.5 -144.5t23.5 -205.5q-16 -115 -82.5 -206.5t-163.5 -144t-204 -52.5h-335l-42 -297h-86zM161 383h332q85 0 161.5 41.5t129.5 113.5t66 164t-19 164.5t-97.5 114t-150.5 41.5h-332z" />
    <glyph glyph-name="germandbls" unicode="&#xdf;" horiz-adv-x="1029" 
d="M22 0l137 981q12 86 55 161.5t109 133.5t146 91t167 33q98 0 171.5 -50.5t109.5 -135.5t21 -188q-9 -66 -39.5 -127t-76 -109.5t-103.5 -78.5q56 -15 97.5 -48.5t68 -80t36.5 -101t1 -115.5q-14 -101 -75.5 -184t-151.5 -132.5t-191 -49.5h-74l-11 81h93q79 0 150 39
t119 104.5t59 144.5t-18.5 143.5t-89 103.5t-139.5 39h-93l11 80h28q74 1 141.5 40t113.5 105t58 146q11 81 -16.5 147t-83.5 106t-131 40q-91 0 -171.5 -45t-135 -119.5t-68.5 -165.5l-138 -989h-86z" />
    <glyph glyph-name="agrave" unicode="&#xe0;" 
d="M1019 1000h86l-140 -1000h-86l29 218q-67 -109 -176 -176.5t-247 -67.5q-109 0 -199 41t-152 114t-89.5 168t-12.5 205q15 109 69.5 204.5t136.5 167.5t183 113t209 41q140 0 231 -67.5t130 -177.5zM496 59q122 0 216 59.5t154 160t77 221.5q18 124 -14.5 224.5
t-110 159.5t-197.5 59q-122 0 -230 -59.5t-181.5 -160.5t-90.5 -223q-17 -124 29 -224t138 -158.5t210 -58.5zM527 1398h86l40 -288h-57z" />
    <glyph glyph-name="aacute" unicode="&#xe1;" 
d="M1019 1000h86l-140 -1000h-86l29 218q-67 -109 -176 -176.5t-247 -67.5q-109 0 -199 41t-152 114t-89.5 168t-12.5 205q15 109 69.5 204.5t136.5 167.5t183 113t209 41q140 0 231 -67.5t130 -177.5zM496 59q122 0 216 59.5t154 160t77 221.5q18 124 -14.5 224.5
t-110 159.5t-197.5 59q-122 0 -230 -59.5t-181.5 -160.5t-90.5 -223q-17 -124 29 -224t138 -158.5t210 -58.5zM627 1110l120 288h86l-148 -288h-58z" />
    <glyph glyph-name="acircumflex" unicode="&#xe2;" 
d="M1019 1000h86l-140 -1000h-86l29 218q-67 -109 -176 -176.5t-247 -67.5q-109 0 -199 41t-152 114t-89.5 168t-12.5 205q15 109 69.5 204.5t136.5 167.5t183 113t209 41q140 0 231 -67.5t130 -177.5zM496 59q122 0 216 59.5t154 160t77 221.5q18 124 -14.5 224.5
t-110 159.5t-197.5 59q-122 0 -230 -59.5t-181.5 -160.5t-90.5 -223q-17 -124 29 -224t138 -158.5t210 -58.5zM731 1398l152 -288h-58l-152 208l-206 -208h-58l231 288h91z" />
    <glyph glyph-name="atilde" unicode="&#xe3;" 
d="M1019 1000h86l-140 -1000h-86l29 218q-67 -109 -176 -176.5t-247 -67.5q-109 0 -199 41t-152 114t-89.5 168t-12.5 205q15 109 69.5 204.5t136.5 167.5t183 113t209 41q140 0 231 -67.5t130 -177.5zM496 59q122 0 216 59.5t154 160t77 221.5q18 124 -14.5 224.5
t-110 159.5t-197.5 59q-122 0 -230 -59.5t-181.5 -160.5t-90.5 -223q-17 -124 29 -224t138 -158.5t210 -58.5zM804 1144q-37 0 -76.5 22.5t-78.5 52t-75 51.5t-68 20q-33 -2 -58.5 -32.5t-21.5 -71.5l-72 -19q-10 46 11.5 91.5t63.5 75.5t94 30q38 0 79 -22t82 -51t78 -51
t67 -22q24 0 42 19t28 43.5t6 40.5l71 22q9 -48 -13 -94t-64.5 -75.5t-94.5 -29.5z" />
    <glyph glyph-name="adieresis" unicode="&#xe4;" 
d="M1019 1000h86l-140 -1000h-86l29 218q-67 -109 -176 -176.5t-247 -67.5q-109 0 -199 41t-152 114t-89.5 168t-12.5 205q15 109 69.5 204.5t136.5 167.5t183 113t209 41q140 0 231 -67.5t130 -177.5zM496 59q122 0 216 59.5t154 160t77 221.5q18 124 -14.5 224.5
t-110 159.5t-197.5 59q-122 0 -230 -59.5t-181.5 -160.5t-90.5 -223q-17 -124 29 -224t138 -158.5t210 -58.5zM506 1086q-24 0 -39.5 16t-12.5 40q3 23 23 40t44 17q23 0 38 -17t12 -40q-4 -24 -23 -40t-42 -16zM778 1086q-24 0 -39.5 16t-12.5 40q3 23 23.5 40t43.5 17
t38 -17t12 -40q-3 -24 -22.5 -40t-42.5 -16z" />
    <glyph glyph-name="aring" unicode="&#xe5;" 
d="M1019 1000h86l-140 -1000h-86l29 218q-67 -109 -176 -176.5t-247 -67.5q-109 0 -199 41t-152 114t-89.5 168t-12.5 205q15 109 69.5 204.5t136.5 167.5t183 113t209 41q140 0 231 -67.5t130 -177.5zM496 59q122 0 216 59.5t154 160t77 221.5q18 124 -14.5 224.5
t-110 159.5t-197.5 59q-122 0 -230 -59.5t-181.5 -160.5t-90.5 -223q-17 -124 29 -224t138 -158.5t210 -58.5zM644 1108q-60 0 -96 43.5t-28 103.5q5 39 29.5 72t60 53t75.5 20q59 0 96 -43t28 -102q-8 -61 -57 -104t-108 -43zM652 1166q37 0 66 26t34 63q5 35 -17 60
t-59 25q-36 0 -64.5 -25t-33.5 -60q-5 -37 16.5 -63t57.5 -26z" />
    <glyph glyph-name="ae" unicode="&#xe6;" horiz-adv-x="1803" 
d="M219 -24q-84 0 -144.5 34.5t-89.5 98t-17 146.5q11 77 53.5 141.5t111.5 104.5t158 40h432q18 109 -15 200t-111.5 146t-196.5 55q-74 0 -148 -29l-36 74q50 21 99 31t96 10q146 0 251 -81.5t144 -213.5q52 88 128 154t168 103.5t190 37.5q108 0 193.5 -41.5t142 -117
t78 -179t4.5 -227.5h-909q-5 -116 39 -207t126 -143.5t190 -52.5q118 0 222.5 63t175.5 173l84 -20q-79 -133 -211.5 -217.5t-282.5 -84.5q-104 0 -190 42t-143.5 116t-79.5 170q-55 -97 -135.5 -170.5t-177 -114.5t-199.5 -41zM231 57q132 0 243 73.5t175 182.5
q42 69 61 151h-429q-93 0 -156 -59.5t-75 -146.5q-12 -79 33 -140t148 -61zM810 540h824q11 109 -32.5 201.5t-127.5 148.5t-194 56t-208 -54.5t-167.5 -147t-94.5 -204.5z" />
    <glyph glyph-name="ccedilla" unicode="&#xe7;" horiz-adv-x="1019" 
d="M816 225l69 -41q-81 -96 -193 -153t-234 -57q-138 0 -241.5 71t-154 190.5t-30.5 264.5q15 110 67.5 205.5t131.5 168t175.5 113.5t199.5 41q122 0 218.5 -57t150.5 -153l-81 -41q-49 80 -129.5 122.5t-170.5 42.5q-116 0 -218.5 -60.5t-171.5 -161t-86 -220.5
q-17 -121 24.5 -221t127.5 -159.5t200 -59.5q97 0 189 46t157 119zM410 -362q-61 -17 -110.5 14t-57.5 91l70 18q5 -31 31 -47.5t59 -8.5q33 9 53.5 37t15.5 60q-4 32 -30 48.5t-59 8.5l-81 -17l142 196l55 -35l-54 -76q38 -8 65 -36.5t32 -69.5q8 -60 -30.5 -114
t-100.5 -69z" />
    <glyph glyph-name="egrave" unicode="&#xe8;" horiz-adv-x="1117" 
d="M458 -26q-138 0 -241.5 71t-154 190.5t-30.5 264.5q15 110 67.5 205.5t131.5 168t175.5 113.5t199.5 41q108 0 193.5 -41.5t142 -117t78.5 -179t4 -227.5h-908q-6 -116 38 -206.5t126 -143.5t190 -53q118 0 222.5 63t175.5 173l84 -20q-79 -133 -211.5 -217.5
t-282.5 -84.5zM125 540h823q11 109 -32.5 201.5t-127 148.5t-193.5 56q-111 0 -208.5 -54.5t-167 -147t-94.5 -204.5zM500 1398h86l40 -288h-57z" />
    <glyph glyph-name="eacute" unicode="&#xe9;" horiz-adv-x="1117" 
d="M458 -26q-138 0 -241.5 71t-154 190.5t-30.5 264.5q15 110 67.5 205.5t131.5 168t175.5 113.5t199.5 41q108 0 193.5 -41.5t142 -117t78.5 -179t4 -227.5h-908q-6 -116 38 -206.5t126 -143.5t190 -53q118 0 222.5 63t175.5 173l84 -20q-79 -133 -211.5 -217.5
t-282.5 -84.5zM125 540h823q11 109 -32.5 201.5t-127 148.5t-193.5 56q-111 0 -208.5 -54.5t-167 -147t-94.5 -204.5zM599 1110l120 288h86l-148 -288h-58z" />
    <glyph glyph-name="ecircumflex" unicode="&#xea;" horiz-adv-x="1117" 
d="M458 -26q-138 0 -241.5 71t-154 190.5t-30.5 264.5q15 110 67.5 205.5t131.5 168t175.5 113.5t199.5 41q108 0 193.5 -41.5t142 -117t78.5 -179t4 -227.5h-908q-6 -116 38 -206.5t126 -143.5t190 -53q118 0 222.5 63t175.5 173l84 -20q-79 -133 -211.5 -217.5
t-282.5 -84.5zM125 540h823q11 109 -32.5 201.5t-127 148.5t-193.5 56q-111 0 -208.5 -54.5t-167 -147t-94.5 -204.5zM703 1398l152 -288h-58l-152 208l-206 -208h-58l231 288h91z" />
    <glyph glyph-name="edieresis" unicode="&#xeb;" horiz-adv-x="1117" 
d="M458 -26q-138 0 -241.5 71t-154 190.5t-30.5 264.5q15 110 67.5 205.5t131.5 168t175.5 113.5t199.5 41q108 0 193.5 -41.5t142 -117t78.5 -179t4 -227.5h-908q-6 -116 38 -206.5t126 -143.5t190 -53q118 0 222.5 63t175.5 173l84 -20q-79 -133 -211.5 -217.5
t-282.5 -84.5zM125 540h823q11 109 -32.5 201.5t-127 148.5t-193.5 56q-111 0 -208.5 -54.5t-167 -147t-94.5 -204.5zM479 1086q-24 0 -39.5 16t-12.5 40q3 23 23 40t44 17q23 0 38 -17t12 -40q-4 -24 -23 -40t-42 -16zM751 1086q-24 0 -39.5 16t-12.5 40q3 23 23.5 40
t43.5 17t38 -17t12 -40q-3 -24 -22.5 -40t-42.5 -16z" />
    <glyph glyph-name="igrave" unicode="&#xec;" horiz-adv-x="326" 
d="M162 1000h86l-140 -1000h-86zM104 1398h86l40 -288h-57z" />
    <glyph glyph-name="iacute" unicode="&#xed;" horiz-adv-x="326" 
d="M162 1000h86l-140 -1000h-86zM203 1110l120 288h86l-148 -288h-58z" />
    <glyph glyph-name="icircumflex" unicode="&#xee;" horiz-adv-x="326" 
d="M162 1000h86l-140 -1000h-86zM307 1398l152 -288h-58l-152 208l-206 -208h-58l231 288h91z" />
    <glyph glyph-name="idieresis" unicode="&#xef;" horiz-adv-x="326" 
d="M162 1000h86l-140 -1000h-86zM83 1086q-24 0 -39.5 16t-12.5 40q3 23 23 40t44 17q23 0 38 -17t12 -40q-4 -24 -23 -40t-42 -16zM355 1086q-24 0 -39.5 16t-12.5 40q3 23 23.5 40t43.5 17t38 -17t12 -40q-3 -24 -22.5 -40t-42.5 -16z" />
    <glyph glyph-name="eth" unicode="&#xf0;" horiz-adv-x="1124" 
d="M481 1064l-47 55l499 429l45 -54zM480 -26q-138 0 -242.5 67.5t-156.5 181.5t-32 253q15 104 66.5 195t130.5 160t175.5 108t199.5 39q122 0 214.5 -55.5t142.5 -148.5q-7 119 -44.5 231t-103.5 201t-160 141t-214 52l12 86q152 0 273 -75t201.5 -208t111.5 -307.5
t5 -373.5q-23 -161 -103.5 -284.5t-203 -193t-272.5 -69.5zM492 60q118 0 220.5 58t171.5 152.5t85 205.5q16 114 -27 208.5t-129.5 151t-203.5 56.5t-219 -57.5t-170.5 -152t-84.5 -206.5q-16 -113 26.5 -207.5t128.5 -151.5t202 -57z" />
    <glyph glyph-name="ntilde" unicode="&#xf1;" horiz-adv-x="1049" 
d="M956 612l-85 -612h-86l84 603q13 94 -21.5 170.5t-105 122.5t-163.5 46q-94 0 -177 -46t-139.5 -122.5t-70.5 -170.5l-84 -603h-86l140 1000h86l-22 -163q66 87 165 139t208 52q115 0 201.5 -56t129.5 -150.5t26 -209.5zM764 1144q-37 0 -76.5 22.5t-78.5 52t-75 51.5
t-68 20q-33 -2 -58.5 -32.5t-21.5 -71.5l-72 -19q-10 46 11.5 91.5t63.5 75.5t94 30q38 0 79 -22t82 -51t78 -51t67 -22q24 0 42 19t28 43.5t6 40.5l71 22q9 -48 -13 -94t-64.5 -75.5t-94.5 -29.5z" />
    <glyph glyph-name="ograve" unicode="&#xf2;" horiz-adv-x="1120" 
d="M458 -26q-138 0 -241.5 71t-154 190.5t-30.5 264.5q15 110 67.5 205.5t131.5 168t175.5 113.5t199.5 41q138 0 241.5 -71t154.5 -191t30 -266q-15 -109 -67.5 -204t-131.5 -167.5t-175 -113.5t-200 -41zM470 60q116 0 218.5 61t172 161t85.5 218q17 119 -24 219.5
t-126 161.5t-202 61t-219.5 -61t-171 -161.5t-85.5 -219.5q-17 -123 25 -222.5t128 -158.5t199 -59zM501 1398h86l40 -288h-57z" />
    <glyph glyph-name="oacute" unicode="&#xf3;" horiz-adv-x="1120" 
d="M458 -26q-138 0 -241.5 71t-154 190.5t-30.5 264.5q15 110 67.5 205.5t131.5 168t175.5 113.5t199.5 41q138 0 241.5 -71t154.5 -191t30 -266q-15 -109 -67.5 -204t-131.5 -167.5t-175 -113.5t-200 -41zM470 60q116 0 218.5 61t172 161t85.5 218q17 119 -24 219.5
t-126 161.5t-202 61t-219.5 -61t-171 -161.5t-85.5 -219.5q-17 -123 25 -222.5t128 -158.5t199 -59zM600 1110l120 288h86l-148 -288h-58z" />
    <glyph glyph-name="ocircumflex" unicode="&#xf4;" horiz-adv-x="1120" 
d="M458 -26q-138 0 -241.5 71t-154 190.5t-30.5 264.5q15 110 67.5 205.5t131.5 168t175.5 113.5t199.5 41q138 0 241.5 -71t154.5 -191t30 -266q-15 -109 -67.5 -204t-131.5 -167.5t-175 -113.5t-200 -41zM470 60q116 0 218.5 61t172 161t85.5 218q17 119 -24 219.5
t-126 161.5t-202 61t-219.5 -61t-171 -161.5t-85.5 -219.5q-17 -123 25 -222.5t128 -158.5t199 -59zM704 1398l152 -288h-58l-152 208l-206 -208h-58l231 288h91z" />
    <glyph glyph-name="otilde" unicode="&#xf5;" horiz-adv-x="1120" 
d="M458 -26q-138 0 -241.5 71t-154 190.5t-30.5 264.5q15 110 67.5 205.5t131.5 168t175.5 113.5t199.5 41q138 0 241.5 -71t154.5 -191t30 -266q-15 -109 -67.5 -204t-131.5 -167.5t-175 -113.5t-200 -41zM470 60q116 0 218.5 61t172 161t85.5 218q17 119 -24 219.5
t-126 161.5t-202 61t-219.5 -61t-171 -161.5t-85.5 -219.5q-17 -123 25 -222.5t128 -158.5t199 -59zM777 1144q-37 0 -76.5 22.5t-78.5 52t-75 51.5t-68 20q-33 -2 -58.5 -32.5t-21.5 -71.5l-72 -19q-10 46 11.5 91.5t63.5 75.5t94 30q38 0 79 -22t82 -51t78 -51t67 -22
q24 0 42 19t28 43.5t6 40.5l71 22q9 -48 -13 -94t-64.5 -75.5t-94.5 -29.5z" />
    <glyph glyph-name="odieresis" unicode="&#xf6;" horiz-adv-x="1120" 
d="M458 -26q-138 0 -241.5 71t-154 190.5t-30.5 264.5q15 110 67.5 205.5t131.5 168t175.5 113.5t199.5 41q138 0 241.5 -71t154.5 -191t30 -266q-15 -109 -67.5 -204t-131.5 -167.5t-175 -113.5t-200 -41zM470 60q116 0 218.5 61t172 161t85.5 218q17 119 -24 219.5
t-126 161.5t-202 61t-219.5 -61t-171 -161.5t-85.5 -219.5q-17 -123 25 -222.5t128 -158.5t199 -59zM480 1086q-24 0 -39.5 16t-12.5 40q3 23 23 40t44 17q23 0 38 -17t12 -40q-4 -24 -23 -40t-42 -16zM752 1086q-24 0 -39.5 16t-12.5 40q3 23 23.5 40t43.5 17t38 -17
t12 -40q-3 -24 -22.5 -40t-42.5 -16z" />
    <glyph glyph-name="divide" unicode="&#xf7;" horiz-adv-x="1160" 
d="M60 557l12 86h1000l-12 -86h-1000zM629 1051q35 0 56.5 -28t17.5 -61q-5 -36 -34 -62t-64 -26q-39 0 -59.5 26t-15.5 62q4 33 32 61t67 28zM527 324q35 0 58.5 -27t18.5 -62q-5 -37 -35.5 -61.5t-65.5 -24.5q-39 0 -60 24.5t-15 61.5q4 35 32 62t67 27z" />
    <glyph glyph-name="oslash" unicode="&#xf8;" horiz-adv-x="1120" 
d="M186 -45l-64 40l58 80q-83 72 -124.5 183.5t-23.5 241.5q15 110 67.5 205.5t131.5 168t175.5 113.5t199.5 41q62 0 117 -14.5t101 -41.5l56 77l63 -40l-57 -80q84 -72 124 -183.5t22 -245.5q-15 -109 -67.5 -204t-131.5 -167.5t-175 -113.5t-200 -41q-60 0 -115.5 16
t-101.5 42zM234 150l537 750q-95 55 -202 45.5t-204 -69.5t-165 -158t-85 -220q-15 -108 18.5 -198.5t100.5 -149.5zM293 104q99 -56 206.5 -46.5t203.5 70t162.5 158t83.5 216.5q15 108 -17.5 200t-98.5 152z" />
    <glyph glyph-name="ugrave" unicode="&#xf9;" horiz-adv-x="1009" 
d="M37 390l85 610h86l-84 -601q-13 -94 21.5 -170.5t105 -122.5t163.5 -46q94 0 177 46t140 122.5t70 170.5l84 601h86l-140 -1000h-86l22 165q-66 -86 -165 -138.5t-208 -52.5q-115 0 -201.5 56t-129 150.5t-26.5 209.5zM450 1398h86l40 -288h-57z" />
    <glyph glyph-name="uacute" unicode="&#xfa;" horiz-adv-x="1009" 
d="M37 390l85 610h86l-84 -601q-13 -94 21.5 -170.5t105 -122.5t163.5 -46q94 0 177 46t140 122.5t70 170.5l84 601h86l-140 -1000h-86l22 165q-66 -86 -165 -138.5t-208 -52.5q-115 0 -201.5 56t-129 150.5t-26.5 209.5zM549 1110l120 288h86l-148 -288h-58z" />
    <glyph glyph-name="ucircumflex" unicode="&#xfb;" horiz-adv-x="1009" 
d="M37 390l85 610h86l-84 -601q-13 -94 21.5 -170.5t105 -122.5t163.5 -46q94 0 177 46t140 122.5t70 170.5l84 601h86l-140 -1000h-86l22 165q-66 -86 -165 -138.5t-208 -52.5q-115 0 -201.5 56t-129 150.5t-26.5 209.5zM653 1398l152 -288h-58l-152 208l-206 -208h-58
l231 288h91z" />
    <glyph glyph-name="udieresis" unicode="&#xfc;" horiz-adv-x="1009" 
d="M37 390l85 610h86l-84 -601q-13 -94 21.5 -170.5t105 -122.5t163.5 -46q94 0 177 46t140 122.5t70 170.5l84 601h86l-140 -1000h-86l22 165q-66 -86 -165 -138.5t-208 -52.5q-115 0 -201.5 56t-129 150.5t-26.5 209.5zM428 1086q-24 0 -39.5 16t-12.5 40q3 23 23 40
t44 17q23 0 38 -17t12 -40q-4 -24 -23 -40t-42 -16zM700 1086q-24 0 -39.5 16t-12.5 40q3 23 23.5 40t43.5 17t38 -17t12 -40q-3 -24 -22.5 -40t-42.5 -16z" />
    <glyph glyph-name="yacute" unicode="&#xfd;" horiz-adv-x="974" 
d="M846 1000h90l-757 -1500h-92l253 500l-218 1000h94l183 -881zM527 1110l120 288h86l-148 -288h-58z" />
    <glyph glyph-name="thorn" unicode="&#xfe;" horiz-adv-x="1183" 
d="M-49 -500l267 1900h86l-87 -619q69 110 178.5 177.5t247.5 67.5q109 0 198.5 -41t151.5 -113.5t89.5 -167.5t12.5 -204t-69.5 -205t-137 -168.5t-183.5 -113.5t-210 -41q-138 0 -228.5 67.5t-128.5 177.5l-101 -717h-86zM506 57q118 0 226.5 59t183.5 159t92 225
q17 121 -28 221.5t-136.5 160t-213.5 59.5q-120 0 -214 -59t-154.5 -159t-77.5 -223q-17 -121 14.5 -222t109 -161t198.5 -60z" />
    <glyph glyph-name="ydieresis" unicode="&#xff;" horiz-adv-x="974" 
d="M846 1000h90l-757 -1500h-92l253 500l-218 1000h94l183 -881zM407 1086q-24 0 -39.5 16t-12.5 40q3 23 23 40t44 17q23 0 38 -17t12 -40q-4 -24 -23 -40t-42 -16zM679 1086q-24 0 -39.5 16t-12.5 40q3 23 23.5 40t43.5 17t38 -17t12 -40q-3 -24 -22.5 -40t-42.5 -16z" />
    <glyph glyph-name="Amacron" unicode="&#x100;" horiz-adv-x="1298" 
d="M688 1400h118l314 -1400h-91l-74 327h-717l-164 -327h-92zM282 413h654l-202 897zM446 1661h676l-11 -78h-676z" />
    <glyph glyph-name="amacron" unicode="&#x101;" 
d="M1019 1000h86l-140 -1000h-86l29 218q-67 -109 -176 -176.5t-247 -67.5q-109 0 -199 41t-152 114t-89.5 168t-12.5 205q15 109 69.5 204.5t136.5 167.5t183 113t209 41q140 0 231 -67.5t130 -177.5zM496 59q122 0 216 59.5t154 160t77 221.5q18 124 -14.5 224.5
t-110 159.5t-197.5 59q-122 0 -230 -59.5t-181.5 -160.5t-90.5 -223q-17 -124 29 -224t138 -158.5t210 -58.5zM328 1261h676l-11 -78h-676z" />
    <glyph glyph-name="Abreve" unicode="&#x102;" horiz-adv-x="1298" 
d="M688 1400h118l314 -1400h-91l-74 327h-717l-164 -327h-92zM282 413h654l-202 897zM760 1488q-91 0 -160 45t-103.5 120.5t-22.5 166.5h73q-10 -73 18 -131.5t82.5 -93t122.5 -34.5q70 0 134 35t107.5 94t53.5 130h73q-13 -94 -69.5 -169t-138 -119t-170.5 -44z" />
    <glyph glyph-name="abreve" unicode="&#x103;" 
d="M1019 1000h86l-140 -1000h-86l29 218q-67 -109 -176 -176.5t-247 -67.5q-109 0 -199 41t-152 114t-89.5 168t-12.5 205q15 109 69.5 204.5t136.5 167.5t183 113t209 41q140 0 231 -67.5t130 -177.5zM496 59q122 0 216 59.5t154 160t77 221.5q18 124 -14.5 224.5
t-110 159.5t-197.5 59q-122 0 -230 -59.5t-181.5 -160.5t-90.5 -223q-17 -124 29 -224t138 -158.5t210 -58.5zM642 1088q-91 0 -160 45t-103.5 120.5t-22.5 166.5h73q-10 -73 18 -131.5t82.5 -93t122.5 -34.5q70 0 134 35t107.5 94t53.5 130h73q-13 -94 -69.5 -169
t-138 -119t-170.5 -44z" />
    <glyph glyph-name="Aogonek" unicode="&#x104;" horiz-adv-x="1298" 
d="M688 1400h118l314 -1400h-91l-74 327h-717l-164 -327h-92zM282 413h654l-202 897zM953 -382q-46 1 -77.5 23.5t-45 58t-8.5 75.5q5 29 19.5 57.5t41.5 52.5l192 168l46 -53q-75 -65 -119 -103t-65 -59t-28.5 -34.5t-9.5 -30.5q-4 -30 13 -54.5t54 -26.5q39 0 77 28t45 78
h73q-7 -52 -37.5 -92.5t-75.5 -64t-95 -23.5z" />
    <glyph glyph-name="aogonek" unicode="&#x105;" 
d="M1019 1000h86l-140 -1000h-86l29 218q-67 -109 -176 -176.5t-247 -67.5q-109 0 -199 41t-152 114t-89.5 168t-12.5 205q15 109 69.5 204.5t136.5 167.5t183 113t209 41q140 0 231 -67.5t130 -177.5zM496 59q122 0 216 59.5t154 160t77 221.5q18 124 -14.5 224.5
t-110 159.5t-197.5 59q-122 0 -230 -59.5t-181.5 -160.5t-90.5 -223q-17 -124 29 -224t138 -158.5t210 -58.5zM797 -382q-46 1 -77.5 23.5t-45 58t-8.5 75.5q5 29 19.5 57.5t41.5 52.5l192 168l46 -53q-75 -65 -119 -103t-65 -59t-28.5 -34.5t-9.5 -30.5q-4 -30 13 -54.5
t54 -26.5q39 0 77 28t45 78h73q-7 -52 -37.5 -92.5t-75.5 -64t-95 -23.5z" />
    <glyph glyph-name="Cacute" unicode="&#x106;" horiz-adv-x="1418" 
d="M666 -26q-142 0 -259 56.5t-197.5 156t-115.5 231t-14 282.5q21 150 93 281.5t180.5 231.5t241.5 156.5t275 56.5q170 0 301.5 -79t207.5 -211l-81 -40q-65 112 -182.5 178t-257.5 66q-126 0 -242.5 -51t-211.5 -139.5t-157.5 -204.5t-80.5 -245q-18 -132 12 -248
t100.5 -204.5t172.5 -138t227 -49.5q145 0 279.5 67.5t229.5 175.5l69 -41q-112 -132 -266 -210t-324 -78zM864 1510l120 288h86l-148 -288h-58z" />
    <glyph glyph-name="cacute" unicode="&#x107;" horiz-adv-x="1019" 
d="M816 225l69 -41q-81 -96 -193 -153t-234 -57q-138 0 -241.5 71t-154 190.5t-30.5 264.5q15 110 67.5 205.5t131.5 168t175.5 113.5t199.5 41q122 0 218.5 -57t150.5 -153l-81 -41q-49 80 -129.5 122.5t-170.5 42.5q-116 0 -218.5 -60.5t-171.5 -161t-86 -220.5
q-17 -121 24.5 -221t127.5 -159.5t200 -59.5q97 0 189 46t157 119zM600 1110l120 288h86l-148 -288h-58z" />
    <glyph glyph-name="Ccircumflex" unicode="&#x108;" horiz-adv-x="1418" 
d="M666 -26q-142 0 -259 56.5t-197.5 156t-115.5 231t-14 282.5q21 150 93 281.5t180.5 231.5t241.5 156.5t275 56.5q170 0 301.5 -79t207.5 -211l-81 -40q-65 112 -182.5 178t-257.5 66q-126 0 -242.5 -51t-211.5 -139.5t-157.5 -204.5t-80.5 -245q-18 -132 12 -248
t100.5 -204.5t172.5 -138t227 -49.5q145 0 279.5 67.5t229.5 175.5l69 -41q-112 -132 -266 -210t-324 -78zM968 1798l152 -288h-58l-152 208l-206 -208h-58l231 288h91z" />
    <glyph glyph-name="ccircumflex" unicode="&#x109;" horiz-adv-x="1019" 
d="M816 225l69 -41q-81 -96 -193 -153t-234 -57q-138 0 -241.5 71t-154 190.5t-30.5 264.5q15 110 67.5 205.5t131.5 168t175.5 113.5t199.5 41q122 0 218.5 -57t150.5 -153l-81 -41q-49 80 -129.5 122.5t-170.5 42.5q-116 0 -218.5 -60.5t-171.5 -161t-86 -220.5
q-17 -121 24.5 -221t127.5 -159.5t200 -59.5q97 0 189 46t157 119zM704 1398l152 -288h-58l-152 208l-206 -208h-58l231 288h91z" />
    <glyph glyph-name="Cdotaccent" unicode="&#x10a;" horiz-adv-x="1418" 
d="M666 -26q-142 0 -259 56.5t-197.5 156t-115.5 231t-14 282.5q21 150 93 281.5t180.5 231.5t241.5 156.5t275 56.5q170 0 301.5 -79t207.5 -211l-81 -40q-65 112 -182.5 178t-257.5 66q-126 0 -242.5 -51t-211.5 -139.5t-157.5 -204.5t-80.5 -245q-18 -132 12 -248
t100.5 -204.5t172.5 -138t227 -49.5q145 0 279.5 67.5t229.5 175.5l69 -41q-112 -132 -266 -210t-324 -78zM896 1599q-24 0 -39 15.5t-11 39.5q4 25 22.5 40t42.5 15q23 0 37.5 -15t10.5 -39q-4 -25 -22 -40.5t-41 -15.5z" />
    <glyph glyph-name="cdotaccent" unicode="&#x10b;" horiz-adv-x="1019" 
d="M816 225l69 -41q-81 -96 -193 -153t-234 -57q-138 0 -241.5 71t-154 190.5t-30.5 264.5q15 110 67.5 205.5t131.5 168t175.5 113.5t199.5 41q122 0 218.5 -57t150.5 -153l-81 -41q-49 80 -129.5 122.5t-170.5 42.5q-116 0 -218.5 -60.5t-171.5 -161t-86 -220.5
q-17 -121 24.5 -221t127.5 -159.5t200 -59.5q97 0 189 46t157 119zM632 1199q-24 0 -39 15.5t-11 39.5q4 25 22.5 40t42.5 15q23 0 37.5 -15t10.5 -39q-4 -25 -22 -40.5t-41 -15.5z" />
    <glyph glyph-name="Ccaron" unicode="&#x10c;" horiz-adv-x="1418" 
d="M666 -26q-142 0 -259 56.5t-197.5 156t-115.5 231t-14 282.5q21 150 93 281.5t180.5 231.5t241.5 156.5t275 56.5q170 0 301.5 -79t207.5 -211l-81 -40q-65 112 -182.5 178t-257.5 66q-126 0 -242.5 -51t-211.5 -139.5t-157.5 -204.5t-80.5 -245q-18 -132 12 -248
t100.5 -204.5t172.5 -138t227 -49.5q145 0 279.5 67.5t229.5 175.5l69 -41q-112 -132 -266 -210t-324 -78zM836 1510l-152 288h57l153 -208l206 208h58l-231 -288h-91z" />
    <glyph glyph-name="ccaron" unicode="&#x10d;" horiz-adv-x="1019" 
d="M816 225l69 -41q-81 -96 -193 -153t-234 -57q-138 0 -241.5 71t-154 190.5t-30.5 264.5q15 110 67.5 205.5t131.5 168t175.5 113.5t199.5 41q122 0 218.5 -57t150.5 -153l-81 -41q-49 80 -129.5 122.5t-170.5 42.5q-116 0 -218.5 -60.5t-171.5 -161t-86 -220.5
q-17 -121 24.5 -221t127.5 -159.5t200 -59.5q97 0 189 46t157 119zM572 1110l-152 288h57l153 -208l206 208h58l-231 -288h-91z" />
    <glyph glyph-name="Dcaron" unicode="&#x10e;" horiz-adv-x="1343" 
d="M22 0l196 1400h462q146 0 265 -54.5t201.5 -151t119 -223t16.5 -271.5t-92 -271.5t-181.5 -223t-244 -151t-280.5 -54.5h-462zM120 86h376q128 0 246 47.5t214 132t159 196t81 238.5t-14 238.5t-104.5 196t-177 132t-232.5 47.5h-376zM720 1510l-152 288h57l153 -208
l206 208h58l-231 -288h-91z" />
    <glyph glyph-name="dcaron" unicode="&#x10f;" horiz-adv-x="1183" 
d="M1089 1500h86l-210 -1500h-86l31 219q-68 -110 -177.5 -177.5t-248.5 -67.5q-109 0 -198.5 41t-151.5 113.5t-89.5 167.5t-12.5 204q15 110 69.5 205.5t137 168t183.5 113.5t210 41q139 0 229 -67.5t128 -177.5zM496 59q122 0 216 59.5t154 160t77 221.5
q18 124 -14.5 224.5t-110 159.5t-197.5 59q-121 0 -229.5 -59.5t-182 -160.5t-90.5 -223q-17 -124 29 -224t138 -158.5t210 -58.5zM1237 1212l120 288h86l-148 -288h-58z" />
    <glyph glyph-name="Emacron" unicode="&#x112;" horiz-adv-x="1059" 
d="M22 0l196 1400h839l-12 -86h-753l-73 -521h634l-11 -86h-635l-87 -621h752l-11 -86h-839zM326 1661h676l-11 -78h-676z" />
    <glyph glyph-name="emacron" unicode="&#x113;" horiz-adv-x="1117" 
d="M458 -26q-138 0 -241.5 71t-154 190.5t-30.5 264.5q15 110 67.5 205.5t131.5 168t175.5 113.5t199.5 41q108 0 193.5 -41.5t142 -117t78.5 -179t4 -227.5h-908q-6 -116 38 -206.5t126 -143.5t190 -53q118 0 222.5 63t175.5 173l84 -20q-79 -133 -211.5 -217.5
t-282.5 -84.5zM125 540h823q11 109 -32.5 201.5t-127 148.5t-193.5 56q-111 0 -208.5 -54.5t-167 -147t-94.5 -204.5zM300 1261h676l-11 -78h-676z" />
    <glyph glyph-name="Edotaccent" unicode="&#x116;" horiz-adv-x="1059" 
d="M22 0l196 1400h839l-12 -86h-753l-73 -521h634l-11 -86h-635l-87 -621h752l-11 -86h-839zM657 1599q-24 0 -39 15.5t-11 39.5q4 25 22.5 40t42.5 15q23 0 37.5 -15t10.5 -39q-4 -25 -22 -40.5t-41 -15.5z" />
    <glyph glyph-name="edotaccent" unicode="&#x117;" horiz-adv-x="1117" 
d="M458 -26q-138 0 -241.5 71t-154 190.5t-30.5 264.5q15 110 67.5 205.5t131.5 168t175.5 113.5t199.5 41q108 0 193.5 -41.5t142 -117t78.5 -179t4 -227.5h-908q-6 -116 38 -206.5t126 -143.5t190 -53q118 0 222.5 63t175.5 173l84 -20q-79 -133 -211.5 -217.5
t-282.5 -84.5zM125 540h823q11 109 -32.5 201.5t-127 148.5t-193.5 56q-111 0 -208.5 -54.5t-167 -147t-94.5 -204.5zM631 1199q-24 0 -39 15.5t-11 39.5q4 25 22.5 40t42.5 15q23 0 37.5 -15t10.5 -39q-4 -25 -22 -40.5t-41 -15.5z" />
    <glyph glyph-name="Eogonek" unicode="&#x118;" horiz-adv-x="1059" 
d="M22 0l196 1400h839l-12 -86h-753l-73 -521h634l-11 -86h-635l-87 -621h752l-11 -86h-839zM567 -382q-46 1 -77.5 23.5t-45 58t-8.5 75.5q5 29 19.5 57.5t41.5 52.5l192 168l46 -53q-75 -65 -119 -103t-65 -59t-28.5 -34.5t-9.5 -30.5q-4 -30 13 -54.5t54 -26.5
q39 0 77 28t45 78h73q-7 -52 -37.5 -92.5t-75.5 -64t-95 -23.5z" />
    <glyph glyph-name="eogonek" unicode="&#x119;" horiz-adv-x="1117" 
d="M458 -26q-138 0 -241.5 71t-154 190.5t-30.5 264.5q15 110 67.5 205.5t131.5 168t175.5 113.5t199.5 41q108 0 193.5 -41.5t142 -117t78.5 -179t4 -227.5h-908q-6 -116 38 -206.5t126 -143.5t190 -53q118 0 222.5 63t175.5 173l84 -20q-79 -133 -211.5 -217.5
t-282.5 -84.5zM125 540h823q11 109 -32.5 201.5t-127 148.5t-193.5 56q-111 0 -208.5 -54.5t-167 -147t-94.5 -204.5zM450 -382q-46 1 -77.5 23.5t-45 58t-8.5 75.5q5 29 19.5 57.5t41.5 52.5l192 168l46 -53q-75 -65 -119 -103t-65 -59t-28.5 -34.5t-9.5 -30.5
q-4 -30 13 -54.5t54 -26.5q39 0 77 28t45 78h73q-7 -52 -37.5 -92.5t-75.5 -64t-95 -23.5z" />
    <glyph glyph-name="Ecaron" unicode="&#x11a;" horiz-adv-x="1059" 
d="M22 0l196 1400h839l-12 -86h-753l-73 -521h634l-11 -86h-635l-87 -621h752l-11 -86h-839zM597 1510l-152 288h57l153 -208l206 208h58l-231 -288h-91z" />
    <glyph glyph-name="ecaron" unicode="&#x11b;" horiz-adv-x="1117" 
d="M458 -26q-138 0 -241.5 71t-154 190.5t-30.5 264.5q15 110 67.5 205.5t131.5 168t175.5 113.5t199.5 41q108 0 193.5 -41.5t142 -117t78.5 -179t4 -227.5h-908q-6 -116 38 -206.5t126 -143.5t190 -53q118 0 222.5 63t175.5 173l84 -20q-79 -133 -211.5 -217.5
t-282.5 -84.5zM125 540h823q11 109 -32.5 201.5t-127 148.5t-193.5 56q-111 0 -208.5 -54.5t-167 -147t-94.5 -204.5zM571 1110l-152 288h57l153 -208l206 208h58l-231 -288h-91z" />
    <glyph glyph-name="Gcircumflex" unicode="&#x11c;" horiz-adv-x="1536" 
d="M668 -26q-144 0 -261.5 56.5t-197.5 156.5t-115 231.5t-14 281.5q21 151 93.5 283t182 231.5t242 155.5t274.5 56q166 0 299 -77.5t211 -210.5l-84 -43q-71 117 -186.5 181t-251.5 64q-125 0 -242 -50.5t-212.5 -139.5t-158.5 -204.5t-81 -245.5q-18 -131 12.5 -247
t101 -204.5t173 -138.5t227.5 -50q110 0 213.5 39.5t192 109.5t154 163t98.5 199h-441l12 82h541q-27 -141 -101 -264t-181 -216t-235.5 -146t-264.5 -53zM970 1798l152 -288h-58l-152 208l-206 -208h-58l231 288h91z" />
    <glyph glyph-name="gcircumflex" unicode="&#x11d;" horiz-adv-x="1149" 
d="M985 1000h86l-147 -1046q-12 -90 -64 -171.5t-129 -145.5t-167.5 -100.5t-182.5 -36.5q-104 0 -193.5 49.5t-147.5 131t-70 178.5l84 37q6 -85 55.5 -155.5t124.5 -112.5t160 -42q74 0 148.5 30.5t138 82t105.5 117.5t52 138l37 262q-69 -108 -176.5 -175t-237.5 -67
q-104 0 -189.5 41t-144.5 113.5t-84.5 167.5t-10.5 204q15 110 67.5 205.5t132 168t176.5 113.5t201 41q130 0 218 -67t128 -176zM473 59q117 0 210 61.5t152.5 162t75.5 217.5q17 120 -14.5 221t-107.5 161.5t-191 60.5q-117 0 -220 -59.5t-172.5 -160.5t-86.5 -223
q-17 -123 25.5 -223t128.5 -159t200 -59zM719 1398l152 -288h-58l-152 208l-206 -208h-58l231 288h91z" />
    <glyph glyph-name="Gbreve" unicode="&#x11e;" horiz-adv-x="1536" 
d="M668 -26q-144 0 -261.5 56.5t-197.5 156.5t-115 231.5t-14 281.5q21 151 93.5 283t182 231.5t242 155.5t274.5 56q166 0 299 -77.5t211 -210.5l-84 -43q-71 117 -186.5 181t-251.5 64q-125 0 -242 -50.5t-212.5 -139.5t-158.5 -204.5t-81 -245.5q-18 -131 12.5 -247
t101 -204.5t173 -138.5t227.5 -50q110 0 213.5 39.5t192 109.5t154 163t98.5 199h-441l12 82h541q-27 -141 -101 -264t-181 -216t-235.5 -146t-264.5 -53zM881 1488q-91 0 -160 45t-103.5 120.5t-22.5 166.5h73q-10 -73 18 -131.5t82.5 -93t122.5 -34.5q70 0 134 35
t107.5 94t53.5 130h73q-13 -94 -69.5 -169t-138 -119t-170.5 -44z" />
    <glyph glyph-name="gbreve" unicode="&#x11f;" horiz-adv-x="1149" 
d="M985 1000h86l-147 -1046q-12 -90 -64 -171.5t-129 -145.5t-167.5 -100.5t-182.5 -36.5q-104 0 -193.5 49.5t-147.5 131t-70 178.5l84 37q6 -85 55.5 -155.5t124.5 -112.5t160 -42q74 0 148.5 30.5t138 82t105.5 117.5t52 138l37 262q-69 -108 -176.5 -175t-237.5 -67
q-104 0 -189.5 41t-144.5 113.5t-84.5 167.5t-10.5 204q15 110 67.5 205.5t132 168t176.5 113.5t201 41q130 0 218 -67t128 -176zM473 59q117 0 210 61.5t152.5 162t75.5 217.5q17 120 -14.5 221t-107.5 161.5t-191 60.5q-117 0 -220 -59.5t-172.5 -160.5t-86.5 -223
q-17 -123 25.5 -223t128.5 -159t200 -59zM630 1088q-91 0 -160 45t-103.5 120.5t-22.5 166.5h73q-10 -73 18 -131.5t82.5 -93t122.5 -34.5q70 0 134 35t107.5 94t53.5 130h73q-13 -94 -69.5 -169t-138 -119t-170.5 -44z" />
    <glyph glyph-name="Gdotaccent" unicode="&#x120;" horiz-adv-x="1536" 
d="M668 -26q-144 0 -261.5 56.5t-197.5 156.5t-115 231.5t-14 281.5q21 151 93.5 283t182 231.5t242 155.5t274.5 56q166 0 299 -77.5t211 -210.5l-84 -43q-71 117 -186.5 181t-251.5 64q-125 0 -242 -50.5t-212.5 -139.5t-158.5 -204.5t-81 -245.5q-18 -131 12.5 -247
t101 -204.5t173 -138.5t227.5 -50q110 0 213.5 39.5t192 109.5t154 163t98.5 199h-441l12 82h541q-27 -141 -101 -264t-181 -216t-235.5 -146t-264.5 -53zM898 1599q-24 0 -39 15.5t-11 39.5q4 25 22.5 40t42.5 15q23 0 37.5 -15t10.5 -39q-4 -25 -22 -40.5t-41 -15.5z" />
    <glyph glyph-name="gdotaccent" unicode="&#x121;" horiz-adv-x="1149" 
d="M985 1000h86l-147 -1046q-12 -90 -64 -171.5t-129 -145.5t-167.5 -100.5t-182.5 -36.5q-104 0 -193.5 49.5t-147.5 131t-70 178.5l84 37q6 -85 55.5 -155.5t124.5 -112.5t160 -42q74 0 148.5 30.5t138 82t105.5 117.5t52 138l37 262q-69 -108 -176.5 -175t-237.5 -67
q-104 0 -189.5 41t-144.5 113.5t-84.5 167.5t-10.5 204q15 110 67.5 205.5t132 168t176.5 113.5t201 41q130 0 218 -67t128 -176zM473 59q117 0 210 61.5t152.5 162t75.5 217.5q17 120 -14.5 221t-107.5 161.5t-191 60.5q-117 0 -220 -59.5t-172.5 -160.5t-86.5 -223
q-17 -123 25.5 -223t128.5 -159t200 -59zM646 1199q-24 0 -39 15.5t-11 39.5q4 25 22.5 40t42.5 15q23 0 37.5 -15t10.5 -39q-4 -25 -22 -40.5t-41 -15.5z" />
    <glyph glyph-name="uni0122" unicode="&#x122;" horiz-adv-x="1536" 
d="M668 -26q-144 0 -261.5 56.5t-197.5 156.5t-115 231.5t-14 281.5q21 151 93.5 283t182 231.5t242 155.5t274.5 56q166 0 299 -77.5t211 -210.5l-84 -43q-71 117 -186.5 181t-251.5 64q-125 0 -242 -50.5t-212.5 -139.5t-158.5 -204.5t-81 -245.5q-18 -131 12.5 -247
t101 -204.5t173 -138.5t227.5 -50q110 0 213.5 39.5t192 109.5t154 163t98.5 199h-441l12 82h541q-27 -141 -101 -264t-181 -216t-235.5 -146t-264.5 -53zM503 -441l109 338h86l-138 -338h-57z" />
    <glyph glyph-name="Hcircumflex" unicode="&#x124;" horiz-adv-x="1227" 
d="M1119 1400h86l-196 -1400h-86l99 707h-815l-99 -707h-86l196 1400h86l-85 -607h815zM814 1798l152 -288h-58l-152 208l-206 -208h-58l231 288h91z" />
    <glyph glyph-name="hcircumflex" unicode="&#x125;" horiz-adv-x="1050" 
d="M957 612l-85 -612h-86l84 603q13 94 -21.5 170.5t-105 122.5t-163.5 46q-94 0 -177 -46t-139.5 -122.5t-70.5 -170.5l-84 -603h-86l210 1500h86l-92 -663q66 87 165 139t208 52q115 0 201.5 -56t129.5 -150.5t26 -209.5zM754 1823l152 -288h-58l-152 208l-206 -208h-58
l231 288h91z" />
    <glyph glyph-name="Itilde" unicode="&#x128;" horiz-adv-x="386" 
d="M52 0l196 1400h86l-196 -1400h-86zM466 1544q-37 0 -76.5 22.5t-78.5 52t-75 51.5t-68 20q-33 -2 -58.5 -32.5t-21.5 -71.5l-72 -19q-10 46 11.5 91.5t63.5 75.5t94 30q38 0 79 -22t82 -51t78 -51t67 -22q24 0 42 19t28 43.5t6 40.5l71 22q9 -48 -13 -94t-64.5 -75.5
t-94.5 -29.5z" />
    <glyph glyph-name="itilde" unicode="&#x129;" horiz-adv-x="326" 
d="M329 1116q-26 0 -54 18t-55.5 41t-53.5 41t-49 16q-23 -1 -41 -26t-15 -57l-52 -15q-7 37 8.5 73t45.5 60t66 24q28 0 57 -17.5t58 -40.5t55.5 -40.5t48.5 -17.5q24 0 40.5 31t12.5 51l51 18q10 -59 -28.5 -109t-94.5 -50zM162 1000h86l-140 -1000h-86z" />
    <glyph glyph-name="Imacron" unicode="&#x12a;" horiz-adv-x="386" 
d="M52 0l196 1400h86l-196 -1400h-86zM-10 1661h676l-11 -78h-676z" />
    <glyph glyph-name="imacron" unicode="&#x12b;" horiz-adv-x="326" 
d="M59 1261h326l-5 -78h-326zM162 1000h86l-140 -1000h-86z" />
    <glyph glyph-name="Iogonek" unicode="&#x12e;" horiz-adv-x="386" 
d="M52 0l196 1400h86l-196 -1400h-86zM-30 -382q-46 1 -77.5 23.5t-45 58t-8.5 75.5q5 29 19.5 57.5t41.5 52.5l192 168l46 -53q-75 -65 -119 -103t-65 -59t-28.5 -34.5t-9.5 -30.5q-4 -30 13 -54.5t54 -26.5q39 0 77 28t45 78h73q-7 -52 -37.5 -92.5t-75.5 -64t-95 -23.5z
" />
    <glyph glyph-name="iogonek" unicode="&#x12f;" horiz-adv-x="326" 
d="M162 1000h86l-140 -1000h-86zM235 1199q-24 0 -39 15.5t-11 39.5q4 25 22.5 40t42.5 15q23 0 37.5 -15t10.5 -39q-4 -25 -22 -40.5t-41 -15.5zM-60 -382q-46 1 -77.5 23.5t-45 58t-8.5 75.5q5 29 19.5 57.5t41.5 52.5l192 168l46 -53q-75 -65 -119 -103t-65 -59
t-28.5 -34.5t-9.5 -30.5q-4 -30 13 -54.5t54 -26.5q39 0 77 28t45 78h73q-7 -52 -37.5 -92.5t-75.5 -64t-95 -23.5z" />
    <glyph glyph-name="Idotaccent" unicode="&#x130;" horiz-adv-x="386" 
d="M52 0l196 1400h86l-196 -1400h-86zM321 1599q-24 0 -39 15.5t-11 39.5q4 25 22.5 40t42.5 15q23 0 37.5 -15t10.5 -39q-4 -25 -22 -40.5t-41 -15.5z" />
    <glyph glyph-name="dotlessi" unicode="&#x131;" horiz-adv-x="326" 
d="M162 1000h86l-140 -1000h-86z" />
    <glyph glyph-name="IJ" unicode="&#x132;" horiz-adv-x="1145" 
d="M52 0l196 1400h86l-196 -1400h-86zM556 -26q-63 0 -119.5 21t-101.5 64l65 66q33 -31 76 -48t92 -17q77 0 147 42t117.5 110t58.5 145l146 1043h86l-146 -1043q-14 -101 -76 -188t-152.5 -141t-192.5 -54z" />
    <glyph glyph-name="ij" unicode="&#x133;" horiz-adv-x="674" 
d="M162 1000h86l-140 -1000h-86zM235 1199q-24 0 -39 15.5t-11 39.5q4 25 22.5 40t42.5 15q23 0 37.5 -15t10.5 -39q-4 -25 -22 -40.5t-41 -15.5zM8 -500l13 86q83 0 154 36.5t118 100t58 142.5l159 1135h86l-159 -1135q-14 -101 -75 -184t-153 -132t-201 -49zM583 1199
q-24 0 -39 15.5t-11 39.5q4 25 22.5 40t42.5 15q23 0 37.5 -15t10.5 -39q-4 -25 -22 -40.5t-41 -15.5z" />
    <glyph glyph-name="Jcircumflex" unicode="&#x134;" horiz-adv-x="759" 
d="M170 -26q-63 0 -119.5 21t-101.5 64l65 66q33 -31 76 -48t92 -17q77 0 147 42t117.5 110t58.5 145l146 1043h86l-146 -1043q-14 -101 -76 -188t-152.5 -141t-192.5 -54zM797 1798l152 -288h-58l-152 208l-206 -208h-58l231 288h91z" />
    <glyph glyph-name="jcircumflex" unicode="&#x135;" horiz-adv-x="417" 
d="M-249 -500l13 86q83 0 154 36.5t118 100t58 142.5l159 1135h86l-159 -1135q-14 -101 -75 -184t-153 -132t-201 -49zM399 1398l152 -288h-58l-152 208l-206 -208h-58l231 288h91z" />
    <glyph glyph-name="uni0136" unicode="&#x136;" horiz-adv-x="1011" 
d="M857 0h-110l-400 670l-170 -175l-69 -495h-86l196 1400h86l-108 -770l754 770h112l-649 -662zM241 -441l109 338h86l-138 -338h-57z" />
    <glyph glyph-name="uni0137" unicode="&#x137;" horiz-adv-x="937" 
d="M745 0h-98l-233 530l-270 -277l-35 -253h-86l210 1500h86l-156 -1112l600 612h112l-393 -400zM190 -441l109 338h86l-138 -338h-57z" />
    <glyph glyph-name="Lacute" unicode="&#x139;" horiz-adv-x="981" 
d="M22 0l196 1400h86l-184 -1314h675l-12 -86h-761zM259 1510l120 288h86l-148 -288h-58z" />
    <glyph glyph-name="lacute" unicode="&#x13a;" horiz-adv-x="327" 
d="M23 0l210 1500h86l-210 -1500h-86zM274 1610l120 288h86l-148 -288h-58z" />
    <glyph glyph-name="uni013B" unicode="&#x13b;" horiz-adv-x="981" 
d="M22 0l196 1400h86l-184 -1314h675l-12 -86h-761zM236 -441l109 338h86l-138 -338h-57z" />
    <glyph glyph-name="uni013C" unicode="&#x13c;" horiz-adv-x="327" 
d="M23 0l210 1500h86l-210 -1500h-86zM-101 -441l109 338h86l-138 -338h-57z" />
    <glyph glyph-name="Lcaron" unicode="&#x13d;" horiz-adv-x="981" 
d="M22 0l196 1400h86l-184 -1314h675l-12 -86h-761zM621 1212l120 288h86l-148 -288h-58z" />
    <glyph glyph-name="lcaron" unicode="&#x13e;" horiz-adv-x="327" 
d="M23 0l210 1500h86l-210 -1500h-86zM373 1212l120 288h86l-148 -288h-58z" />
    <glyph glyph-name="Nacute" unicode="&#x143;" horiz-adv-x="1235" 
d="M22 0l196 1400h94l641 -1245l174 1245h86l-196 -1400h-92l-642 1245l-175 -1245h-86zM713 1510l120 288h86l-148 -288h-58z" />
    <glyph glyph-name="nacute" unicode="&#x144;" horiz-adv-x="1049" 
d="M956 612l-85 -612h-86l84 603q13 94 -21.5 170.5t-105 122.5t-163.5 46q-94 0 -177 -46t-139.5 -122.5t-70.5 -170.5l-84 -603h-86l140 1000h86l-22 -163q66 87 165 139t208 52q115 0 201.5 -56t129.5 -150.5t26 -209.5zM587 1110l120 288h86l-148 -288h-58z" />
    <glyph glyph-name="uni0145" unicode="&#x145;" horiz-adv-x="1235" 
d="M22 0l196 1400h94l641 -1245l174 1245h86l-196 -1400h-92l-642 1245l-175 -1245h-86zM352 -441l109 338h86l-138 -338h-57z" />
    <glyph glyph-name="uni0146" unicode="&#x146;" horiz-adv-x="1049" 
d="M956 612l-85 -612h-86l84 603q13 94 -21.5 170.5t-105 122.5t-163.5 46q-94 0 -177 -46t-139.5 -122.5t-70.5 -170.5l-84 -603h-86l140 1000h86l-22 -163q66 87 165 139t208 52q115 0 201.5 -56t129.5 -150.5t26 -209.5zM280 -441l109 338h86l-138 -338h-57z" />
    <glyph glyph-name="Ncaron" unicode="&#x147;" horiz-adv-x="1235" 
d="M22 0l196 1400h94l641 -1245l174 1245h86l-196 -1400h-92l-642 1245l-175 -1245h-86zM685 1510l-152 288h57l153 -208l206 208h58l-231 -288h-91z" />
    <glyph glyph-name="ncaron" unicode="&#x148;" horiz-adv-x="1049" 
d="M956 612l-85 -612h-86l84 603q13 94 -21.5 170.5t-105 122.5t-163.5 46q-94 0 -177 -46t-139.5 -122.5t-70.5 -170.5l-84 -603h-86l140 1000h86l-22 -163q66 87 165 139t208 52q115 0 201.5 -56t129.5 -150.5t26 -209.5zM559 1110l-152 288h57l153 -208l206 208h58
l-231 -288h-91z" />
    <glyph glyph-name="Omacron" unicode="&#x14c;" horiz-adv-x="1540" 
d="M668 -26q-142 0 -259.5 56.5t-198 156.5t-116 231.5t-14.5 281.5t93 281.5t181.5 231.5t242.5 156.5t275 56.5q143 0 260 -56.5t197.5 -156.5t116 -231.5t14.5 -281.5t-93 -281.5t-181.5 -231.5t-242 -156.5t-275.5 -56.5zM680 60q126 0 243 51t212 139.5t158 204
t81 245.5q18 131 -12.5 247t-101 204.5t-172.5 138.5t-228 50t-243 -51t-212 -139.5t-158 -204t-81 -245.5q-18 -132 12.5 -247.5t101 -204t173 -138.5t227.5 -50zM567 1661h676l-11 -78h-676z" />
    <glyph glyph-name="omacron" unicode="&#x14d;" horiz-adv-x="1120" 
d="M458 -26q-138 0 -241.5 71t-154 190.5t-30.5 264.5q15 110 67.5 205.5t131.5 168t175.5 113.5t199.5 41q138 0 241.5 -71t154.5 -191t30 -266q-15 -109 -67.5 -204t-131.5 -167.5t-175 -113.5t-200 -41zM470 60q116 0 218.5 61t172 161t85.5 218q17 119 -24 219.5
t-126 161.5t-202 61t-219.5 -61t-171 -161.5t-85.5 -219.5q-17 -123 25 -222.5t128 -158.5t199 -59zM301 1261h676l-11 -78h-676z" />
    <glyph glyph-name="Ohungarumlaut" unicode="&#x150;" horiz-adv-x="1540" 
d="M668 -26q-142 0 -259.5 56.5t-198 156.5t-116 231.5t-14.5 281.5t93 281.5t181.5 231.5t242.5 156.5t275 56.5q143 0 260 -56.5t197.5 -156.5t116 -231.5t14.5 -281.5t-93 -281.5t-181.5 -231.5t-242 -156.5t-275.5 -56.5zM680 60q126 0 243 51t212 139.5t158 204
t81 245.5q18 131 -12.5 247t-101 204.5t-172.5 138.5t-228 50t-243 -51t-212 -139.5t-158 -204t-81 -245.5q-18 -132 12.5 -247.5t101 -204t173 -138.5t227.5 -50zM995 1510l120 288h86l-148 -288h-58zM753 1510l120 288h86l-148 -288h-58z" />
    <glyph glyph-name="ohungarumlaut" unicode="&#x151;" horiz-adv-x="1120" 
d="M458 -26q-138 0 -241.5 71t-154 190.5t-30.5 264.5q15 110 67.5 205.5t131.5 168t175.5 113.5t199.5 41q138 0 241.5 -71t154.5 -191t30 -266q-15 -109 -67.5 -204t-131.5 -167.5t-175 -113.5t-200 -41zM470 60q116 0 218.5 61t172 161t85.5 218q17 119 -24 219.5
t-126 161.5t-202 61t-219.5 -61t-171 -161.5t-85.5 -219.5q-17 -123 25 -222.5t128 -158.5t199 -59zM729 1110l120 288h86l-148 -288h-58zM487 1110l120 288h86l-148 -288h-58z" />
    <glyph glyph-name="OE" unicode="&#x152;" horiz-adv-x="2194" 
d="M668 -26q-142 0 -259.5 56.5t-198 156.5t-116 231.5t-14.5 281.5t93 281.5t181.5 231.5t242.5 156.5t275 56.5q133 0 243 -51t189 -140.5t117 -205.5l51 371h720l-12 -86h-633l-81 -571h538l-12 -86h-537l-81 -571h634l-12 -86h-720l52 371q-70 -116 -174 -205.5
t-228.5 -140.5t-257.5 -51zM680 60q126 0 243 51t212 139.5t158 204t81 245.5q18 131 -12.5 247t-101 204.5t-172.5 138.5t-228 50t-243 -51t-212 -139.5t-158 -204t-81 -245.5q-18 -132 12.5 -247.5t101 -204t173 -138.5t227.5 -50z" />
    <glyph glyph-name="oe" unicode="&#x153;" horiz-adv-x="2031" 
d="M458 -26q-138 0 -241.5 71t-154 190.5t-30.5 264.5q15 110 67.5 205.5t131.5 168t175.5 113.5t199.5 41q104 0 188.5 -41.5t142.5 -115t80 -170.5q50 97 128.5 170.5t175 115t199.5 41.5q108 0 193.5 -41.5t142 -117t78.5 -179t4 -227.5h-908q-6 -116 38 -206.5
t126 -143.5t190 -53q118 0 222.5 63t175.5 173l84 -20q-79 -133 -211.5 -217.5t-282.5 -84.5q-103 0 -188 41.5t-142.5 115t-80.5 168.5q-49 -95 -128 -168.5t-175 -115t-200 -41.5zM470 60q116 0 218.5 61t172 161t85.5 218q17 119 -24 219.5t-126 161.5t-202 61
t-219.5 -61t-171 -161.5t-85.5 -219.5q-17 -123 25 -222.5t128 -158.5t199 -59zM1039 540h823q11 109 -32.5 201.5t-127 148.5t-193.5 56q-111 0 -209 -54.5t-167.5 -146.5t-93.5 -205z" />
    <glyph glyph-name="Racute" unicode="&#x154;" horiz-adv-x="1064" 
d="M22 0l196 1400h443q111 0 193 -53t121.5 -144.5t23.5 -205.5q-15 -107 -73.5 -193t-144.5 -140t-184 -65l263 -599h-100l-262 594h-307l-83 -594h-86zM203 680h353q86 0 163 41.5t129.5 114t64.5 163.5q14 92 -18.5 164.5t-97.5 114t-151 41.5h-353zM504 1510l120 288h86
l-148 -288h-58z" />
    <glyph glyph-name="racute" unicode="&#x155;" horiz-adv-x="686" 
d="M22 0l140 1000h86l-22 -163q66 87 165 139t208 52q59 0 111 -15l-48 -83q-41 12 -83 12q-94 0 -177 -46t-139.5 -122.5t-70.5 -170.5l-84 -603h-86zM411 1110l120 288h86l-148 -288h-58z" />
    <glyph glyph-name="uni0156" unicode="&#x156;" horiz-adv-x="1064" 
d="M22 0l196 1400h443q111 0 193 -53t121.5 -144.5t23.5 -205.5q-15 -107 -73.5 -193t-144.5 -140t-184 -65l263 -599h-100l-262 594h-307l-83 -594h-86zM203 680h353q86 0 163 41.5t129.5 114t64.5 163.5q14 92 -18.5 164.5t-97.5 114t-151 41.5h-353zM254 -441l109 338h86
l-138 -338h-57z" />
    <glyph glyph-name="uni0157" unicode="&#x157;" horiz-adv-x="686" 
d="M22 0l140 1000h86l-22 -163q66 87 165 139t208 52q59 0 111 -15l-48 -83q-41 12 -83 12q-94 0 -177 -46t-139.5 -122.5t-70.5 -170.5l-84 -603h-86zM-102 -441l109 338h86l-138 -338h-57z" />
    <glyph glyph-name="Rcaron" unicode="&#x158;" horiz-adv-x="1064" 
d="M22 0l196 1400h443q111 0 193 -53t121.5 -144.5t23.5 -205.5q-15 -107 -73.5 -193t-144.5 -140t-184 -65l263 -599h-100l-262 594h-307l-83 -594h-86zM203 680h353q86 0 163 41.5t129.5 114t64.5 163.5q14 92 -18.5 164.5t-97.5 114t-151 41.5h-353zM476 1510l-152 288
h57l153 -208l206 208h58l-231 -288h-91z" />
    <glyph glyph-name="rcaron" unicode="&#x159;" horiz-adv-x="686" 
d="M22 0l140 1000h86l-22 -163q66 87 165 139t208 52q59 0 111 -15l-48 -83q-41 12 -83 12q-94 0 -177 -46t-139.5 -122.5t-70.5 -170.5l-84 -603h-86zM383 1110l-152 288h57l153 -208l206 208h58l-231 -288h-91z" />
    <glyph glyph-name="Sacute" unicode="&#x15a;" horiz-adv-x="1205" 
d="M500 -26q-110 0 -208.5 34t-167 97t-86.5 151l84 31q16 -74 75.5 -124.5t142.5 -76.5t171 -26q108 0 206 36.5t165.5 103.5t79.5 157q13 92 -38.5 150.5t-140 93t-188.5 52.5q-136 26 -242 66.5t-160 115t-37 201.5q16 117 97 203t200.5 133t249.5 47q106 0 203.5 -32.5
t168 -96t92.5 -155.5l-87 -29q-16 74 -75.5 124.5t-143 76.5t-171.5 26q-107 0 -205 -37t-164 -104t-79 -156q-14 -102 31.5 -158t133.5 -84.5t201 -50.5q127 -24 233 -70.5t164.5 -124t42.5 -191.5q-16 -117 -97.5 -203t-200.5 -133t-250 -47zM699 1510l120 288h86
l-148 -288h-58z" />
    <glyph glyph-name="sacute" unicode="&#x15b;" horiz-adv-x="854" 
d="M335 -20q-84 1 -160.5 29.5t-129 77.5t-66.5 109l82 33q11 -49 57.5 -87t109 -59.5t122.5 -21.5q73 0 139.5 25t112.5 70.5t54 105.5q10 64 -26.5 101t-97 60t-126.5 44q-108 33 -184 66t-112 83t-24 134q12 87 72 150.5t147.5 98.5t181.5 35q124 0 217 -54.5t120 -142.5
l-78 -42q-13 49 -54 84t-97.5 54.5t-115.5 19.5q-74 0 -141.5 -24t-113 -69.5t-54.5 -108.5q-10 -65 20 -98.5t91 -55t143 -49.5q90 -29 166 -63.5t119 -86.5t31 -135q-13 -87 -73.5 -151t-148.5 -98.5t-183 -33.5zM467 1110l120 288h86l-148 -288h-58z" />
    <glyph glyph-name="Scircumflex" unicode="&#x15c;" horiz-adv-x="1205" 
d="M500 -26q-110 0 -208.5 34t-167 97t-86.5 151l84 31q16 -74 75.5 -124.5t142.5 -76.5t171 -26q108 0 206 36.5t165.5 103.5t79.5 157q13 92 -38.5 150.5t-140 93t-188.5 52.5q-136 26 -242 66.5t-160 115t-37 201.5q16 117 97 203t200.5 133t249.5 47q106 0 203.5 -32.5
t168 -96t92.5 -155.5l-87 -29q-16 74 -75.5 124.5t-143 76.5t-171.5 26q-107 0 -205 -37t-164 -104t-79 -156q-14 -102 31.5 -158t133.5 -84.5t201 -50.5q127 -24 233 -70.5t164.5 -124t42.5 -191.5q-16 -117 -97.5 -203t-200.5 -133t-250 -47zM803 1798l152 -288h-58
l-152 208l-206 -208h-58l231 288h91z" />
    <glyph glyph-name="scircumflex" unicode="&#x15d;" horiz-adv-x="854" 
d="M335 -20q-84 1 -160.5 29.5t-129 77.5t-66.5 109l82 33q11 -49 57.5 -87t109 -59.5t122.5 -21.5q73 0 139.5 25t112.5 70.5t54 105.5q10 64 -26.5 101t-97 60t-126.5 44q-108 33 -184 66t-112 83t-24 134q12 87 72 150.5t147.5 98.5t181.5 35q124 0 217 -54.5t120 -142.5
l-78 -42q-13 49 -54 84t-97.5 54.5t-115.5 19.5q-74 0 -141.5 -24t-113 -69.5t-54.5 -108.5q-10 -65 20 -98.5t91 -55t143 -49.5q90 -29 166 -63.5t119 -86.5t31 -135q-13 -87 -73.5 -151t-148.5 -98.5t-183 -33.5zM572 1398l152 -288h-58l-152 208l-206 -208h-58l231 288
h91z" />
    <glyph glyph-name="Scedilla" unicode="&#x15e;" horiz-adv-x="1205" 
d="M500 -26q-110 0 -208.5 34t-167 97t-86.5 151l84 31q16 -74 75.5 -124.5t142.5 -76.5t171 -26q108 0 206 36.5t165.5 103.5t79.5 157q13 92 -38.5 150.5t-140 93t-188.5 52.5q-136 26 -242 66.5t-160 115t-37 201.5q16 117 97 203t200.5 133t249.5 47q106 0 203.5 -32.5
t168 -96t92.5 -155.5l-87 -29q-16 74 -75.5 124.5t-143 76.5t-171.5 26q-107 0 -205 -37t-164 -104t-79 -156q-14 -102 31.5 -158t133.5 -84.5t201 -50.5q127 -24 233 -70.5t164.5 -124t42.5 -191.5q-16 -117 -97.5 -203t-200.5 -133t-250 -47zM519 -362q-61 -17 -110.5 14
t-57.5 91l70 18q5 -31 31 -47.5t59 -8.5q33 9 53.5 37t15.5 60q-4 32 -30 48.5t-59 8.5l-81 -17l142 196l55 -35l-54 -76q38 -8 65 -36.5t32 -69.5q8 -60 -30.5 -114t-100.5 -69z" />
    <glyph glyph-name="scedilla" unicode="&#x15f;" horiz-adv-x="854" 
d="M335 -20q-84 1 -160.5 29.5t-129 77.5t-66.5 109l82 33q11 -49 57.5 -87t109 -59.5t122.5 -21.5q73 0 139.5 25t112.5 70.5t54 105.5q10 64 -26.5 101t-97 60t-126.5 44q-108 33 -184 66t-112 83t-24 134q12 87 72 150.5t147.5 98.5t181.5 35q124 0 217 -54.5t120 -142.5
l-78 -42q-13 49 -54 84t-97.5 54.5t-115.5 19.5q-74 0 -141.5 -24t-113 -69.5t-54.5 -108.5q-10 -65 20 -98.5t91 -55t143 -49.5q90 -29 166 -63.5t119 -86.5t31 -135q-13 -87 -73.5 -151t-148.5 -98.5t-183 -33.5zM339 -362q-61 -17 -110.5 14t-57.5 91l70 18
q5 -31 31 -47.5t59 -8.5q33 9 53.5 37t15.5 60q-4 32 -30 48.5t-59 8.5l-81 -17l142 196l55 -35l-54 -76q38 -8 65 -36.5t32 -69.5q8 -60 -30.5 -114t-100.5 -69z" />
    <glyph glyph-name="Scaron" unicode="&#x160;" horiz-adv-x="1205" 
d="M500 -26q-110 0 -208.5 34t-167 97t-86.5 151l84 31q16 -74 75.5 -124.5t142.5 -76.5t171 -26q108 0 206 36.5t165.5 103.5t79.5 157q13 92 -38.5 150.5t-140 93t-188.5 52.5q-136 26 -242 66.5t-160 115t-37 201.5q16 117 97 203t200.5 133t249.5 47q106 0 203.5 -32.5
t168 -96t92.5 -155.5l-87 -29q-16 74 -75.5 124.5t-143 76.5t-171.5 26q-107 0 -205 -37t-164 -104t-79 -156q-14 -102 31.5 -158t133.5 -84.5t201 -50.5q127 -24 233 -70.5t164.5 -124t42.5 -191.5q-16 -117 -97.5 -203t-200.5 -133t-250 -47zM670 1510l-152 288h57
l153 -208l206 208h58l-231 -288h-91z" />
    <glyph glyph-name="scaron" unicode="&#x161;" horiz-adv-x="854" 
d="M335 -20q-84 1 -160.5 29.5t-129 77.5t-66.5 109l82 33q11 -49 57.5 -87t109 -59.5t122.5 -21.5q73 0 139.5 25t112.5 70.5t54 105.5q10 64 -26.5 101t-97 60t-126.5 44q-108 33 -184 66t-112 83t-24 134q12 87 72 150.5t147.5 98.5t181.5 35q124 0 217 -54.5t120 -142.5
l-78 -42q-13 49 -54 84t-97.5 54.5t-115.5 19.5q-74 0 -141.5 -24t-113 -69.5t-54.5 -108.5q-10 -65 20 -98.5t91 -55t143 -49.5q90 -29 166 -63.5t119 -86.5t31 -135q-13 -87 -73.5 -151t-148.5 -98.5t-183 -33.5zM439 1110l-152 288h57l153 -208l206 208h58l-231 -288h-91
z" />
    <glyph glyph-name="uni0162" unicode="&#x162;" horiz-adv-x="1259" 
d="M1276 1400l-12 -86h-507l-184 -1314h-86l184 1314h-505l12 86h1098zM478 -362q-61 -17 -110.5 14t-57.5 91l70 18q5 -31 31 -47.5t59 -8.5q33 9 53.5 37t15.5 60q-4 32 -30 48.5t-59 8.5l-81 -17l142 196l55 -35l-54 -76q38 -8 65 -36.5t32 -69.5q8 -60 -30.5 -114
t-100.5 -69z" />
    <glyph glyph-name="uni0163" unicode="&#x163;" horiz-adv-x="677" 
d="M649 914h-263l-130 -914h-86l130 914h-198l12 86h198l42 314h86l-42 -314h262zM161 -362q-61 -17 -110.5 14t-57.5 91l70 18q5 -31 31 -47.5t59 -8.5q33 9 53.5 37t15.5 60q-4 32 -30 48.5t-59 8.5l-81 -17l142 196l55 -35l-54 -76q38 -8 65 -36.5t32 -69.5
q8 -60 -30.5 -114t-100.5 -69z" />
    <glyph glyph-name="Tcaron" unicode="&#x164;" horiz-adv-x="1259" 
d="M1276 1400l-12 -86h-507l-184 -1314h-86l184 1314h-505l12 86h1098zM697 1510l-152 288h57l153 -208l206 208h58l-231 -288h-91z" />
    <glyph glyph-name="tcaron" unicode="&#x165;" horiz-adv-x="677" 
d="M649 914h-263l-130 -914h-86l130 914h-198l12 86h198l42 314h86l-42 -314h262zM583 1212l120 288h86l-148 -288h-58z" />
    <glyph glyph-name="Utilde" unicode="&#x168;" horiz-adv-x="1308" 
d="M552 -26q-168 0 -276 82t-152 220.5t-20 307.5l114 816h86l-114 -816q-20 -143 15 -262t124.5 -190.5t234.5 -71.5q147 0 257 72.5t177.5 191.5t87.5 260l114 816h86l-114 -816q-18 -127 -69.5 -237.5t-132 -194.5t-186.5 -131t-232 -47zM927 1544q-37 0 -76.5 22.5
t-78.5 52t-75 51.5t-68 20q-33 -2 -58.5 -32.5t-21.5 -71.5l-72 -19q-10 46 11.5 91.5t63.5 75.5t94 30q38 0 79 -22t82 -51t78 -51t67 -22q24 0 42 19t28 43.5t6 40.5l71 22q9 -48 -13 -94t-64.5 -75.5t-94.5 -29.5z" />
    <glyph glyph-name="utilde" unicode="&#x169;" horiz-adv-x="1009" 
d="M37 390l85 610h86l-84 -601q-13 -94 21.5 -170.5t105 -122.5t163.5 -46q94 0 177 46t140 122.5t70 170.5l84 601h86l-140 -1000h-86l22 165q-66 -86 -165 -138.5t-208 -52.5q-115 0 -201.5 56t-129 150.5t-26.5 209.5zM726 1144q-37 0 -76.5 22.5t-78.5 52t-75 51.5
t-68 20q-33 -2 -58.5 -32.5t-21.5 -71.5l-72 -19q-10 46 11.5 91.5t63.5 75.5t94 30q38 0 79 -22t82 -51t78 -51t67 -22q24 0 42 19t28 43.5t6 40.5l71 22q9 -48 -13 -94t-64.5 -75.5t-94.5 -29.5z" />
    <glyph glyph-name="Umacron" unicode="&#x16a;" horiz-adv-x="1308" 
d="M552 -26q-168 0 -276 82t-152 220.5t-20 307.5l114 816h86l-114 -816q-20 -143 15 -262t124.5 -190.5t234.5 -71.5q147 0 257 72.5t177.5 191.5t87.5 260l114 816h86l-114 -816q-18 -127 -69.5 -237.5t-132 -194.5t-186.5 -131t-232 -47zM451 1661h676l-11 -78h-676z" />
    <glyph glyph-name="umacron" unicode="&#x16b;" horiz-adv-x="1009" 
d="M37 390l85 610h86l-84 -601q-13 -94 21.5 -170.5t105 -122.5t163.5 -46q94 0 177 46t140 122.5t70 170.5l84 601h86l-140 -1000h-86l22 165q-66 -86 -165 -138.5t-208 -52.5q-115 0 -201.5 56t-129 150.5t-26.5 209.5zM250 1261h676l-11 -78h-676z" />
    <glyph glyph-name="Ubreve" unicode="&#x16c;" horiz-adv-x="1308" 
d="M552 -26q-168 0 -276 82t-152 220.5t-20 307.5l114 816h86l-114 -816q-20 -143 15 -262t124.5 -190.5t234.5 -71.5q147 0 257 72.5t177.5 191.5t87.5 260l114 816h86l-114 -816q-18 -127 -69.5 -237.5t-132 -194.5t-186.5 -131t-232 -47zM765 1488q-91 0 -160 45
t-103.5 120.5t-22.5 166.5h73q-10 -73 18 -131.5t82.5 -93t122.5 -34.5q70 0 134 35t107.5 94t53.5 130h73q-13 -94 -69.5 -169t-138 -119t-170.5 -44z" />
    <glyph glyph-name="ubreve" unicode="&#x16d;" horiz-adv-x="1009" 
d="M37 390l85 610h86l-84 -601q-13 -94 21.5 -170.5t105 -122.5t163.5 -46q94 0 177 46t140 122.5t70 170.5l84 601h86l-140 -1000h-86l22 165q-66 -86 -165 -138.5t-208 -52.5q-115 0 -201.5 56t-129 150.5t-26.5 209.5zM564 1088q-91 0 -160 45t-103.5 120.5t-22.5 166.5
h73q-10 -73 18 -131.5t82.5 -93t122.5 -34.5q70 0 134 35t107.5 94t53.5 130h73q-13 -94 -69.5 -169t-138 -119t-170.5 -44z" />
    <glyph glyph-name="Uring" unicode="&#x16e;" horiz-adv-x="1308" 
d="M552 -26q-168 0 -276 82t-152 220.5t-20 307.5l114 816h86l-114 -816q-20 -143 15 -262t124.5 -190.5t234.5 -71.5q147 0 257 72.5t177.5 191.5t87.5 260l114 816h86l-114 -816q-18 -127 -69.5 -237.5t-132 -194.5t-186.5 -131t-232 -47zM767 1508q-60 0 -96 43.5
t-28 103.5q5 39 29.5 72t60 53t75.5 20q59 0 96 -43t28 -102q-8 -61 -57 -104t-108 -43zM775 1566q37 0 66 26t34 63q5 35 -17 60t-59 25q-36 0 -64.5 -25t-33.5 -60q-5 -37 16.5 -63t57.5 -26z" />
    <glyph glyph-name="uring" unicode="&#x16f;" horiz-adv-x="1009" 
d="M37 390l85 610h86l-84 -601q-13 -94 21.5 -170.5t105 -122.5t163.5 -46q94 0 177 46t140 122.5t70 170.5l84 601h86l-140 -1000h-86l22 165q-66 -86 -165 -138.5t-208 -52.5q-115 0 -201.5 56t-129 150.5t-26.5 209.5zM566 1108q-60 0 -96 43.5t-28 103.5q5 39 29.5 72
t60 53t75.5 20q59 0 96 -43t28 -102q-8 -61 -57 -104t-108 -43zM574 1166q37 0 66 26t34 63q5 35 -17 60t-59 25q-36 0 -64.5 -25t-33.5 -60q-5 -37 16.5 -63t57.5 -26z" />
    <glyph glyph-name="Uhungarumlaut" unicode="&#x170;" horiz-adv-x="1308" 
d="M552 -26q-168 0 -276 82t-152 220.5t-20 307.5l114 816h86l-114 -816q-20 -143 15 -262t124.5 -190.5t234.5 -71.5q147 0 257 72.5t177.5 191.5t87.5 260l114 816h86l-114 -816q-18 -127 -69.5 -237.5t-132 -194.5t-186.5 -131t-232 -47zM879 1510l120 288h86l-148 -288
h-58zM637 1510l120 288h86l-148 -288h-58z" />
    <glyph glyph-name="uhungarumlaut" unicode="&#x171;" horiz-adv-x="1009" 
d="M37 390l85 610h86l-84 -601q-13 -94 21.5 -170.5t105 -122.5t163.5 -46q94 0 177 46t140 122.5t70 170.5l84 601h86l-140 -1000h-86l22 165q-66 -86 -165 -138.5t-208 -52.5q-115 0 -201.5 56t-129 150.5t-26.5 209.5zM678 1110l120 288h86l-148 -288h-58zM436 1110
l120 288h86l-148 -288h-58z" />
    <glyph glyph-name="Uogonek" unicode="&#x172;" horiz-adv-x="1308" 
d="M552 -26q-168 0 -276 82t-152 220.5t-20 307.5l114 816h86l-114 -816q-20 -143 15 -262t124.5 -190.5t234.5 -71.5q147 0 257 72.5t177.5 191.5t87.5 260l114 816h86l-114 -816q-18 -127 -69.5 -237.5t-132 -194.5t-186.5 -131t-232 -47zM484 -396q-46 1 -77.5 23.5
t-45 58t-8.5 75.5q5 29 19.5 57.5t41.5 52.5l192 168l46 -53q-75 -65 -119 -103t-65 -59t-28.5 -34.5t-9.5 -30.5q-4 -30 13 -54.5t54 -26.5q39 0 77 28t45 78h73q-7 -52 -37.5 -92.5t-75.5 -64t-95 -23.5z" />
    <glyph glyph-name="uogonek" unicode="&#x173;" horiz-adv-x="1009" 
d="M37 390l85 610h86l-84 -601q-13 -94 21.5 -170.5t105 -122.5t163.5 -46q94 0 177 46t140 122.5t70 170.5l84 601h86l-140 -1000h-86l22 165q-66 -86 -165 -138.5t-208 -52.5q-115 0 -201.5 56t-129 150.5t-26.5 209.5zM663 -382q-46 1 -77.5 23.5t-45 58t-8.5 75.5
q5 29 19.5 57.5t41.5 52.5l192 168l46 -53q-75 -65 -119 -103t-65 -59t-28.5 -34.5t-9.5 -30.5q-4 -30 13 -54.5t54 -26.5q39 0 77 28t45 78h73q-7 -52 -37.5 -92.5t-75.5 -64t-95 -23.5z" />
    <glyph glyph-name="Wcircumflex" unicode="&#x174;" horiz-adv-x="1596" 
d="M289 0l-162 1400h88l147 -1264l498 1264h72l147 -1264l498 1264h88l-552 -1400h-108l-138 1193l-472 -1193h-106zM999 1798l152 -288h-58l-152 208l-206 -208h-58l231 288h91z" />
    <glyph glyph-name="wcircumflex" unicode="&#x175;" horiz-adv-x="1584" 
d="M390 0h-92l-196 1000h84l176 -888l422 888h100l174 -888l422 888h86l-476 -1000h-94l-177 899zM936 1398l152 -288h-58l-152 208l-206 -208h-58l231 288h91z" />
    <glyph glyph-name="Ycircumflex" unicode="&#x176;" horiz-adv-x="1139" 
d="M1076 1400h101l-574 -765l-89 -635h-86l89 635l-359 765h101l314 -670zM769 1798l152 -288h-58l-152 208l-206 -208h-58l231 288h91z" />
    <glyph glyph-name="ycircumflex" unicode="&#x177;" horiz-adv-x="974" 
d="M846 1000h90l-757 -1500h-92l253 500l-218 1000h94l183 -881zM631 1398l152 -288h-58l-152 208l-206 -208h-58l231 288h91z" />
    <glyph glyph-name="Ydieresis" unicode="&#x178;" horiz-adv-x="1139" 
d="M1076 1400h101l-574 -765l-89 -635h-86l89 635l-359 765h101l314 -670zM545 1486q-24 0 -39.5 16t-12.5 40q3 23 23 40t44 17q23 0 38 -17t12 -40q-4 -24 -23 -40t-42 -16zM817 1486q-24 0 -39.5 16t-12.5 40q3 23 23.5 40t43.5 17t38 -17t12 -40q-3 -24 -22.5 -40
t-42.5 -16z" />
    <glyph glyph-name="Zacute" unicode="&#x179;" horiz-adv-x="1292" 
d="M-18 0l12 86l1191 1228h-1019l12 86h1132l-12 -86l-1191 -1228h1019l-12 -86h-1132zM742 1510l120 288h86l-148 -288h-58z" />
    <glyph glyph-name="zacute" unicode="&#x17a;" horiz-adv-x="1014" 
d="M964 914l-852 -828h736l-12 -86h-854l12 86l852 828h-736l12 86h854zM547 1110l120 288h86l-148 -288h-58z" />
    <glyph glyph-name="Zdotaccent" unicode="&#x17b;" horiz-adv-x="1292" 
d="M-18 0l12 86l1191 1228h-1019l12 86h1132l-12 -86l-1191 -1228h1019l-12 -86h-1132zM774 1599q-24 0 -39 15.5t-11 39.5q4 25 22.5 40t42.5 15q23 0 37.5 -15t10.5 -39q-4 -25 -22 -40.5t-41 -15.5z" />
    <glyph glyph-name="zdotaccent" unicode="&#x17c;" horiz-adv-x="1014" 
d="M964 914l-852 -828h736l-12 -86h-854l12 86l852 828h-736l12 86h854zM579 1199q-24 0 -39 15.5t-11 39.5q4 25 22.5 40t42.5 15q23 0 37.5 -15t10.5 -39q-4 -25 -22 -40.5t-41 -15.5z" />
    <glyph glyph-name="Zcaron" unicode="&#x17d;" horiz-adv-x="1292" 
d="M-18 0l12 86l1191 1228h-1019l12 86h1132l-12 -86l-1191 -1228h1019l-12 -86h-1132zM714 1510l-152 288h57l153 -208l206 208h58l-231 -288h-91z" />
    <glyph glyph-name="zcaron" unicode="&#x17e;" horiz-adv-x="1014" 
d="M964 914l-852 -828h736l-12 -86h-854l12 86l852 828h-736l12 86h854zM519 1110l-152 288h57l153 -208l206 208h58l-231 -288h-91z" />
    <glyph glyph-name="uni01CD" unicode="&#x1cd;" horiz-adv-x="1298" 
d="M688 1400h118l314 -1400h-91l-74 327h-717l-164 -327h-92zM282 413h654l-202 897zM717 1510l-152 288h57l153 -208l206 208h58l-231 -288h-91z" />
    <glyph glyph-name="uni01CE" unicode="&#x1ce;" 
d="M1019 1000h86l-140 -1000h-86l29 218q-67 -109 -176 -176.5t-247 -67.5q-109 0 -199 41t-152 114t-89.5 168t-12.5 205q15 109 69.5 204.5t136.5 167.5t183 113t209 41q140 0 231 -67.5t130 -177.5zM496 59q122 0 216 59.5t154 160t77 221.5q18 124 -14.5 224.5
t-110 159.5t-197.5 59q-122 0 -230 -59.5t-181.5 -160.5t-90.5 -223q-17 -124 29 -224t138 -158.5t210 -58.5zM598 1110l-152 288h57l153 -208l206 208h58l-231 -288h-91z" />
    <glyph glyph-name="uni01CF" unicode="&#x1cf;" horiz-adv-x="386" 
d="M52 0l196 1400h86l-196 -1400h-86zM261 1510l-152 288h57l153 -208l206 208h58l-231 -288h-91z" />
    <glyph glyph-name="uni01D0" unicode="&#x1d0;" horiz-adv-x="326" 
d="M162 1000h86l-140 -1000h-86zM175 1110l-152 288h57l153 -208l206 208h58l-231 -288h-91z" />
    <glyph glyph-name="uni01D1" unicode="&#x1d1;" horiz-adv-x="1540" 
d="M668 -26q-142 0 -259.5 56.5t-198 156.5t-116 231.5t-14.5 281.5t93 281.5t181.5 231.5t242.5 156.5t275 56.5q143 0 260 -56.5t197.5 -156.5t116 -231.5t14.5 -281.5t-93 -281.5t-181.5 -231.5t-242 -156.5t-275.5 -56.5zM680 60q126 0 243 51t212 139.5t158 204
t81 245.5q18 131 -12.5 247t-101 204.5t-172.5 138.5t-228 50t-243 -51t-212 -139.5t-158 -204t-81 -245.5q-18 -132 12.5 -247.5t101 -204t173 -138.5t227.5 -50zM838 1510l-152 288h57l153 -208l206 208h58l-231 -288h-91z" />
    <glyph glyph-name="uni01D2" unicode="&#x1d2;" horiz-adv-x="1120" 
d="M458 -26q-138 0 -241.5 71t-154 190.5t-30.5 264.5q15 110 67.5 205.5t131.5 168t175.5 113.5t199.5 41q138 0 241.5 -71t154.5 -191t30 -266q-15 -109 -67.5 -204t-131.5 -167.5t-175 -113.5t-200 -41zM470 60q116 0 218.5 61t172 161t85.5 218q17 119 -24 219.5
t-126 161.5t-202 61t-219.5 -61t-171 -161.5t-85.5 -219.5q-17 -123 25 -222.5t128 -158.5t199 -59zM572 1110l-152 288h57l153 -208l206 208h58l-231 -288h-91z" />
    <glyph glyph-name="uni01D3" unicode="&#x1d3;" horiz-adv-x="1308" 
d="M552 -26q-168 0 -276 82t-152 220.5t-20 307.5l114 816h86l-114 -816q-20 -143 15 -262t124.5 -190.5t234.5 -71.5q147 0 257 72.5t177.5 191.5t87.5 260l114 816h86l-114 -816q-18 -127 -69.5 -237.5t-132 -194.5t-186.5 -131t-232 -47zM722 1510l-152 288h57l153 -208
l206 208h58l-231 -288h-91z" />
    <glyph glyph-name="uni01D4" unicode="&#x1d4;" horiz-adv-x="1009" 
d="M37 390l85 610h86l-84 -601q-13 -94 21.5 -170.5t105 -122.5t163.5 -46q94 0 177 46t140 122.5t70 170.5l84 601h86l-140 -1000h-86l22 165q-66 -86 -165 -138.5t-208 -52.5q-115 0 -201.5 56t-129 150.5t-26.5 209.5zM520 1110l-152 288h57l153 -208l206 208h58
l-231 -288h-91z" />
    <glyph glyph-name="uni01D5" unicode="&#x1d5;" horiz-adv-x="1308" 
d="M552 -26q-168 0 -276 82t-152 220.5t-20 307.5l114 816h86l-114 -816q-20 -143 15 -262t124.5 -190.5t234.5 -71.5q147 0 257 72.5t177.5 191.5t87.5 260l114 816h86l-114 -816q-18 -127 -69.5 -237.5t-132 -194.5t-186.5 -131t-232 -47zM630 1486q-24 0 -39.5 16
t-12.5 40q3 23 23 40t44 17q23 0 38 -17t12 -40q-4 -24 -23 -40t-42 -16zM902 1486q-24 0 -39.5 16t-12.5 40q3 23 23.5 40t43.5 17t38 -17t12 -40q-3 -24 -22.5 -40t-42.5 -16zM477 1838h676l-11 -78h-676z" />
    <glyph glyph-name="uni01D6" unicode="&#x1d6;" horiz-adv-x="1009" 
d="M37 390l85 610h86l-84 -601q-13 -94 21.5 -170.5t105 -122.5t163.5 -46q94 0 177 46t140 122.5t70 170.5l84 601h86l-140 -1000h-86l22 165q-66 -86 -165 -138.5t-208 -52.5q-115 0 -201.5 56t-129 150.5t-26.5 209.5zM428 1086q-24 0 -39.5 16t-12.5 40q3 23 23 40
t44 17q23 0 38 -17t12 -40q-4 -24 -23 -40t-42 -16zM700 1086q-24 0 -39.5 16t-12.5 40q3 23 23.5 40t43.5 17t38 -17t12 -40q-3 -24 -22.5 -40t-42.5 -16zM275 1439h676l-11 -78h-676z" />
    <glyph glyph-name="uni01D7" unicode="&#x1d7;" horiz-adv-x="1308" 
d="M552 -26q-168 0 -276 82t-152 220.5t-20 307.5l114 816h86l-114 -816q-20 -143 15 -262t124.5 -190.5t234.5 -71.5q147 0 257 72.5t177.5 191.5t87.5 260l114 816h86l-114 -816q-18 -127 -69.5 -237.5t-132 -194.5t-186.5 -131t-232 -47zM630 1486q-24 0 -39.5 16
t-12.5 40q3 23 23 40t44 17q23 0 38 -17t12 -40q-4 -24 -23 -40t-42 -16zM902 1486q-24 0 -39.5 16t-12.5 40q3 23 23.5 40t43.5 17t38 -17t12 -40q-3 -24 -22.5 -40t-42.5 -16zM775 1687l120 288h86l-148 -288h-58z" />
    <glyph glyph-name="uni01D8" unicode="&#x1d8;" horiz-adv-x="1009" 
d="M37 390l85 610h86l-84 -601q-13 -94 21.5 -170.5t105 -122.5t163.5 -46q94 0 177 46t140 122.5t70 170.5l84 601h86l-140 -1000h-86l22 165q-66 -86 -165 -138.5t-208 -52.5q-115 0 -201.5 56t-129 150.5t-26.5 209.5zM428 1086q-24 0 -39.5 16t-12.5 40q3 23 23 40
t44 17q23 0 38 -17t12 -40q-4 -24 -23 -40t-42 -16zM700 1086q-24 0 -39.5 16t-12.5 40q3 23 23.5 40t43.5 17t38 -17t12 -40q-3 -24 -22.5 -40t-42.5 -16zM574 1288l120 288h86l-148 -288h-58z" />
    <glyph glyph-name="uni01D9" unicode="&#x1d9;" horiz-adv-x="1308" 
d="M552 -26q-168 0 -276 82t-152 220.5t-20 307.5l114 816h86l-114 -816q-20 -143 15 -262t124.5 -190.5t234.5 -71.5q147 0 257 72.5t177.5 191.5t87.5 260l114 816h86l-114 -816q-18 -127 -69.5 -237.5t-132 -194.5t-186.5 -131t-232 -47zM630 1486q-24 0 -39.5 16
t-12.5 40q3 23 23 40t44 17q23 0 38 -17t12 -40q-4 -24 -23 -40t-42 -16zM902 1486q-24 0 -39.5 16t-12.5 40q3 23 23.5 40t43.5 17t38 -17t12 -40q-3 -24 -22.5 -40t-42.5 -16zM747 1687l-152 288h57l153 -208l206 208h58l-231 -288h-91z" />
    <glyph glyph-name="uni01DA" unicode="&#x1da;" horiz-adv-x="1009" 
d="M37 390l85 610h86l-84 -601q-13 -94 21.5 -170.5t105 -122.5t163.5 -46q94 0 177 46t140 122.5t70 170.5l84 601h86l-140 -1000h-86l22 165q-66 -86 -165 -138.5t-208 -52.5q-115 0 -201.5 56t-129 150.5t-26.5 209.5zM428 1086q-24 0 -39.5 16t-12.5 40q3 23 23 40
t44 17q23 0 38 -17t12 -40q-4 -24 -23 -40t-42 -16zM700 1086q-24 0 -39.5 16t-12.5 40q3 23 23.5 40t43.5 17t38 -17t12 -40q-3 -24 -22.5 -40t-42.5 -16zM546 1288l-152 288h57l153 -208l206 208h58l-231 -288h-91z" />
    <glyph glyph-name="uni01DB" unicode="&#x1db;" horiz-adv-x="1308" 
d="M552 -26q-168 0 -276 82t-152 220.5t-20 307.5l114 816h86l-114 -816q-20 -143 15 -262t124.5 -190.5t234.5 -71.5q147 0 257 72.5t177.5 191.5t87.5 260l114 816h86l-114 -816q-18 -127 -69.5 -237.5t-132 -194.5t-186.5 -131t-232 -47zM630 1486q-24 0 -39.5 16
t-12.5 40q3 23 23 40t44 17q23 0 38 -17t12 -40q-4 -24 -23 -40t-42 -16zM902 1486q-24 0 -39.5 16t-12.5 40q3 23 23.5 40t43.5 17t38 -17t12 -40q-3 -24 -22.5 -40t-42.5 -16zM676 1975h86l40 -288h-57z" />
    <glyph glyph-name="uni01DC" unicode="&#x1dc;" horiz-adv-x="1009" 
d="M37 390l85 610h86l-84 -601q-13 -94 21.5 -170.5t105 -122.5t163.5 -46q94 0 177 46t140 122.5t70 170.5l84 601h86l-140 -1000h-86l22 165q-66 -86 -165 -138.5t-208 -52.5q-115 0 -201.5 56t-129 150.5t-26.5 209.5zM428 1086q-24 0 -39.5 16t-12.5 40q3 23 23 40
t44 17q23 0 38 -17t12 -40q-4 -24 -23 -40t-42 -16zM700 1086q-24 0 -39.5 16t-12.5 40q3 23 23.5 40t43.5 17t38 -17t12 -40q-3 -24 -22.5 -40t-42.5 -16zM475 1576h86l40 -288h-57z" />
    <glyph glyph-name="uni01DE" unicode="&#x1de;" horiz-adv-x="1298" 
d="M688 1400h118l314 -1400h-91l-74 327h-717l-164 -327h-92zM282 413h654l-202 897zM625 1486q-24 0 -39.5 16t-12.5 40q3 23 23 40t44 17q23 0 38 -17t12 -40q-4 -24 -23 -40t-42 -16zM897 1486q-24 0 -39.5 16t-12.5 40q3 23 23.5 40t43.5 17t38 -17t12 -40
q-3 -24 -22.5 -40t-42.5 -16zM471 1838h676l-11 -78h-676z" />
    <glyph glyph-name="uni01DF" unicode="&#x1df;" 
d="M1019 1000h86l-140 -1000h-86l29 218q-67 -109 -176 -176.5t-247 -67.5q-109 0 -199 41t-152 114t-89.5 168t-12.5 205q15 109 69.5 204.5t136.5 167.5t183 113t209 41q140 0 231 -67.5t130 -177.5zM496 59q122 0 216 59.5t154 160t77 221.5q18 124 -14.5 224.5
t-110 159.5t-197.5 59q-122 0 -230 -59.5t-181.5 -160.5t-90.5 -223q-17 -124 29 -224t138 -158.5t210 -58.5zM506 1086q-24 0 -39.5 16t-12.5 40q3 23 23 40t44 17q23 0 38 -17t12 -40q-4 -24 -23 -40t-42 -16zM778 1086q-24 0 -39.5 16t-12.5 40q3 23 23.5 40t43.5 17
t38 -17t12 -40q-3 -24 -22.5 -40t-42.5 -16zM353 1438h676l-11 -78h-676z" />
    <glyph glyph-name="uni01E2" unicode="&#x1e2;" horiz-adv-x="1589" 
d="M-18 0l706 1400h899l-12 -86h-612l-81 -571h517l-12 -86h-516l-81 -571h613l-12 -86h-699l46 327h-500l-164 -327h-92zM282 413h468l127 901h-139zM836 1661h676l-11 -78h-676z" />
    <glyph glyph-name="uni01E3" unicode="&#x1e3;" horiz-adv-x="1803" 
d="M219 -24q-84 0 -144.5 34.5t-89.5 98t-17 146.5q11 77 53.5 141.5t111.5 104.5t158 40h432q18 109 -15 200t-111.5 146t-196.5 55q-74 0 -148 -29l-36 74q50 21 99 31t96 10q146 0 251 -81.5t144 -213.5q52 88 128 154t168 103.5t190 37.5q108 0 193.5 -41.5t142 -117
t78 -179t4.5 -227.5h-909q-5 -116 39 -207t126 -143.5t190 -52.5q118 0 222.5 63t175.5 173l84 -20q-79 -133 -211.5 -217.5t-282.5 -84.5q-104 0 -190 42t-143.5 116t-79.5 170q-55 -97 -135.5 -170.5t-177 -114.5t-199.5 -41zM231 57q132 0 243 73.5t175 182.5
q42 69 61 151h-429q-93 0 -156 -59.5t-75 -146.5q-12 -79 33 -140t148 -61zM810 540h824q11 109 -32.5 201.5t-127.5 148.5t-194 56t-208 -54.5t-167.5 -147t-94.5 -204.5zM543 1261h676l-11 -78h-676z" />
    <glyph glyph-name="Gcaron" unicode="&#x1e6;" horiz-adv-x="1536" 
d="M668 -26q-144 0 -261.5 56.5t-197.5 156.5t-115 231.5t-14 281.5q21 151 93.5 283t182 231.5t242 155.5t274.5 56q166 0 299 -77.5t211 -210.5l-84 -43q-71 117 -186.5 181t-251.5 64q-125 0 -242 -50.5t-212.5 -139.5t-158.5 -204.5t-81 -245.5q-18 -131 12.5 -247
t101 -204.5t173 -138.5t227.5 -50q110 0 213.5 39.5t192 109.5t154 163t98.5 199h-441l12 82h541q-27 -141 -101 -264t-181 -216t-235.5 -146t-264.5 -53zM838 1510l-152 288h57l153 -208l206 208h58l-231 -288h-91z" />
    <glyph glyph-name="gcaron" unicode="&#x1e7;" horiz-adv-x="1149" 
d="M985 1000h86l-147 -1046q-12 -90 -64 -171.5t-129 -145.5t-167.5 -100.5t-182.5 -36.5q-104 0 -193.5 49.5t-147.5 131t-70 178.5l84 37q6 -85 55.5 -155.5t124.5 -112.5t160 -42q74 0 148.5 30.5t138 82t105.5 117.5t52 138l37 262q-69 -108 -176.5 -175t-237.5 -67
q-104 0 -189.5 41t-144.5 113.5t-84.5 167.5t-10.5 204q15 110 67.5 205.5t132 168t176.5 113.5t201 41q130 0 218 -67t128 -176zM473 59q117 0 210 61.5t152.5 162t75.5 217.5q17 120 -14.5 221t-107.5 161.5t-191 60.5q-117 0 -220 -59.5t-172.5 -160.5t-86.5 -223
q-17 -123 25.5 -223t128.5 -159t200 -59zM586 1110l-152 288h57l153 -208l206 208h58l-231 -288h-91z" />
    <glyph glyph-name="uni01E8" unicode="&#x1e8;" horiz-adv-x="1011" 
d="M857 0h-110l-400 670l-170 -175l-69 -495h-86l196 1400h86l-108 -770l754 770h112l-649 -662zM573 1510l-152 288h57l153 -208l206 208h58l-231 -288h-91z" />
    <glyph glyph-name="uni01E9" unicode="&#x1e9;" horiz-adv-x="937" 
d="M745 0h-98l-233 530l-270 -277l-35 -253h-86l210 1500h86l-156 -1112l600 612h112l-393 -400zM559 1510l-152 288h57l153 -208l206 208h58l-231 -288h-91z" />
    <glyph glyph-name="uni0218" unicode="&#x218;" horiz-adv-x="1205" 
d="M500 -26q-110 0 -208.5 34t-167 97t-86.5 151l84 31q16 -74 75.5 -124.5t142.5 -76.5t171 -26q108 0 206 36.5t165.5 103.5t79.5 157q13 92 -38.5 150.5t-140 93t-188.5 52.5q-136 26 -242 66.5t-160 115t-37 201.5q16 117 97 203t200.5 133t249.5 47q106 0 203.5 -32.5
t168 -96t92.5 -155.5l-87 -29q-16 74 -75.5 124.5t-143 76.5t-171.5 26q-107 0 -205 -37t-164 -104t-79 -156q-14 -102 31.5 -158t133.5 -84.5t201 -50.5q127 -24 233 -70.5t164.5 -124t42.5 -191.5q-16 -117 -97.5 -203t-200.5 -133t-250 -47zM404 -441l109 338h86
l-138 -338h-57z" />
    <glyph glyph-name="uni0219" unicode="&#x219;" horiz-adv-x="854" 
d="M335 -20q-84 1 -160.5 29.5t-129 77.5t-66.5 109l82 33q11 -49 57.5 -87t109 -59.5t122.5 -21.5q73 0 139.5 25t112.5 70.5t54 105.5q10 64 -26.5 101t-97 60t-126.5 44q-108 33 -184 66t-112 83t-24 134q12 87 72 150.5t147.5 98.5t181.5 35q124 0 217 -54.5t120 -142.5
l-78 -42q-13 49 -54 84t-97.5 54.5t-115.5 19.5q-74 0 -141.5 -24t-113 -69.5t-54.5 -108.5q-10 -65 20 -98.5t91 -55t143 -49.5q90 -29 166 -63.5t119 -86.5t31 -135q-13 -87 -73.5 -151t-148.5 -98.5t-183 -33.5zM224 -441l109 338h86l-138 -338h-57z" />
    <glyph glyph-name="uni021A" unicode="&#x21a;" horiz-adv-x="1259" 
d="M1276 1400l-12 -86h-507l-184 -1314h-86l184 1314h-505l12 86h1098zM363 -441l109 338h86l-138 -338h-57z" />
    <glyph glyph-name="uni021B" unicode="&#x21b;" horiz-adv-x="677" 
d="M649 914h-263l-130 -914h-86l130 914h-198l12 86h198l42 314h86l-42 -314h262zM46 -441l109 338h86l-138 -338h-57z" />
    <glyph glyph-name="uni022A" unicode="&#x22a;" horiz-adv-x="1540" 
d="M668 -26q-142 0 -259.5 56.5t-198 156.5t-116 231.5t-14.5 281.5t93 281.5t181.5 231.5t242.5 156.5t275 56.5q143 0 260 -56.5t197.5 -156.5t116 -231.5t14.5 -281.5t-93 -281.5t-181.5 -231.5t-242 -156.5t-275.5 -56.5zM680 60q126 0 243 51t212 139.5t158 204
t81 245.5q18 131 -12.5 247t-101 204.5t-172.5 138.5t-228 50t-243 -51t-212 -139.5t-158 -204t-81 -245.5q-18 -132 12.5 -247.5t101 -204t173 -138.5t227.5 -50zM746 1486q-24 0 -39.5 16t-12.5 40q3 23 23 40t44 17q23 0 38 -17t12 -40q-4 -24 -23 -40t-42 -16z
M1018 1486q-24 0 -39.5 16t-12.5 40q3 23 23.5 40t43.5 17t38 -17t12 -40q-3 -24 -22.5 -40t-42.5 -16zM592 1838h676l-11 -78h-676z" />
    <glyph glyph-name="uni022B" unicode="&#x22b;" horiz-adv-x="1120" 
d="M458 -26q-138 0 -241.5 71t-154 190.5t-30.5 264.5q15 110 67.5 205.5t131.5 168t175.5 113.5t199.5 41q138 0 241.5 -71t154.5 -191t30 -266q-15 -109 -67.5 -204t-131.5 -167.5t-175 -113.5t-200 -41zM470 60q116 0 218.5 61t172 161t85.5 218q17 119 -24 219.5
t-126 161.5t-202 61t-219.5 -61t-171 -161.5t-85.5 -219.5q-17 -123 25 -222.5t128 -158.5t199 -59zM480 1086q-24 0 -39.5 16t-12.5 40q3 23 23 40t44 17q23 0 38 -17t12 -40q-4 -24 -23 -40t-42 -16zM752 1086q-24 0 -39.5 16t-12.5 40q3 23 23.5 40t43.5 17t38 -17
t12 -40q-3 -24 -22.5 -40t-42.5 -16zM326 1438h676l-11 -78h-676z" />
    <glyph glyph-name="uni0232" unicode="&#x232;" horiz-adv-x="1139" 
d="M1076 1400h101l-574 -765l-89 -635h-86l89 635l-359 765h101l314 -670zM366 1661h676l-11 -78h-676z" />
    <glyph glyph-name="uni0233" unicode="&#x233;" horiz-adv-x="974" 
d="M846 1000h90l-757 -1500h-92l253 500l-218 1000h94l183 -881zM228 1261h676l-11 -78h-676z" />
    <glyph glyph-name="uni0237" unicode="&#x237;" horiz-adv-x="417" 
d="M-249 -500l13 86q83 0 154 36.5t118 100t58 142.5l159 1135h86l-159 -1135q-14 -101 -75 -184t-153 -132t-201 -49z" />
    <glyph glyph-name="quoteleft" unicode="&#x2bb;" horiz-adv-x="248" 
d="M85 878l164 522h57l-135 -522h-86z" />
    <glyph glyph-name="quoteleft" unicode="&#x2018;" horiz-adv-x="248" 
d="M85 878l164 522h57l-135 -522h-86z" />
    <glyph glyph-name="uni02BC" unicode="&#x2bc;" horiz-adv-x="335" 
d="M65 878l135 522h86l-164 -522h-57z" />
    <glyph glyph-name="circumflex" unicode="&#x2c6;" horiz-adv-x="500" 
d="M393 1398l152 -288h-58l-152 208l-206 -208h-58l231 288h91z" />
    <glyph glyph-name="caron" unicode="&#x2c7;" horiz-adv-x="466" 
d="M246 1110l-152 288h57l153 -208l206 208h58l-231 -288h-91z" />
    <glyph glyph-name="breve" unicode="&#x2d8;" horiz-adv-x="1144" 
d="M627 1088q-91 0 -160 45t-103.5 120.5t-22.5 166.5h73q-10 -73 18 -131.5t82.5 -93t122.5 -34.5q70 0 134 35t107.5 94t53.5 130h73q-13 -94 -69.5 -169t-138 -119t-170.5 -44z" />
    <glyph glyph-name="dotaccent" unicode="&#x2d9;" horiz-adv-x="913" 
d="M528 1199q-24 0 -39 15.5t-11 39.5q4 25 22.5 40t42.5 15q23 0 37.5 -15t10.5 -39q-4 -25 -22 -40.5t-41 -15.5z" />
    <glyph glyph-name="ring" unicode="&#x2da;" horiz-adv-x="1089" 
d="M602 1108q-60 0 -96 43.5t-28 103.5q5 39 29.5 72t60 53t75.5 20q59 0 96 -43t28 -102q-8 -61 -57 -104t-108 -43zM610 1166q37 0 66 26t34 63q5 35 -17 60t-59 25q-36 0 -64.5 -25t-33.5 -60q-5 -37 16.5 -63t57.5 -26z" />
    <glyph glyph-name="ogonek" unicode="&#x2db;" horiz-adv-x="936" 
d="M301 -382q-46 1 -77.5 23.5t-45 58t-8.5 75.5q5 29 19.5 57.5t41.5 52.5l192 168l46 -53q-75 -65 -119 -103t-65 -59t-28.5 -34.5t-9.5 -30.5q-4 -30 13 -54.5t54 -26.5q39 0 77 28t45 78h73q-7 -52 -37.5 -92.5t-75.5 -64t-95 -23.5z" />
    <glyph glyph-name="tilde" unicode="&#x2dc;" horiz-adv-x="1168" 
d="M806 1160q-37 0 -76.5 22.5t-78.5 52t-75 51.5t-68 20q-33 -2 -58.5 -32.5t-21.5 -71.5l-72 -19q-10 46 11.5 91.5t63.5 75.5t94 30q38 0 79 -22t82 -51t78 -51t67 -22q24 0 42 19t28 43.5t6 40.5l71 22q9 -48 -13 -94t-64.5 -75.5t-94.5 -29.5z" />
    <glyph glyph-name="hungarumlaut" unicode="&#x2dd;" horiz-adv-x="808" 
d="M500 1110l120 288h86l-148 -288h-58zM258 1110l120 288h86l-148 -288h-58z" />
    <glyph glyph-name="gravecomb" unicode="&#x300;" horiz-adv-x="0" 
d="M311 1398h86l40 -288h-57z" />
    <glyph glyph-name="acutecomb" unicode="&#x301;" horiz-adv-x="0" 
d="M288 1110l120 288h86l-148 -288h-58z" />
    <glyph glyph-name="uni0302" unicode="&#x302;" horiz-adv-x="0" 
d="M393 1398l152 -288h-58l-152 208l-206 -208h-58l231 288h91z" />
    <glyph glyph-name="tildecomb" unicode="&#x303;" horiz-adv-x="0" 
d="M824 1144q-37 0 -76.5 22.5t-78.5 52t-75 51.5t-68 20q-33 -2 -58.5 -32.5t-21.5 -71.5l-72 -19q-10 46 11.5 91.5t63.5 75.5t94 30q38 0 79 -22t82 -51t78 -51t67 -22q24 0 42 19t28 43.5t6 40.5l71 22q9 -48 -13 -94t-64.5 -75.5t-94.5 -29.5z" />
    <glyph glyph-name="uni0304" unicode="&#x304;" horiz-adv-x="0" 
d="M341 1261h676l-11 -78h-676z" />
    <glyph glyph-name="uni0306" unicode="&#x306;" horiz-adv-x="0" 
d="M627 1088q-91 0 -160 45t-103.5 120.5t-22.5 166.5h73q-10 -73 18 -131.5t82.5 -93t122.5 -34.5q70 0 134 35t107.5 94t53.5 130h73q-13 -94 -69.5 -169t-138 -119t-170.5 -44z" />
    <glyph glyph-name="uni0307" unicode="&#x307;" horiz-adv-x="0" 
d="M528 1199q-24 0 -39 15.5t-11 39.5q4 25 22.5 40t42.5 15q23 0 37.5 -15t10.5 -39q-4 -25 -22 -40.5t-41 -15.5z" />
    <glyph glyph-name="uni0308" unicode="&#x308;" horiz-adv-x="0" 
d="M514 1086q-24 0 -39.5 16t-12.5 40q3 23 23 40t44 17q23 0 38 -17t12 -40q-4 -24 -23 -40t-42 -16zM786 1086q-24 0 -39.5 16t-12.5 40q3 23 23.5 40t43.5 17t38 -17t12 -40q-3 -24 -22.5 -40t-42.5 -16z" />
    <glyph glyph-name="uni030A" unicode="&#x30a;" horiz-adv-x="0" 
d="M602 1108q-60 0 -96 43.5t-28 103.5q5 39 29.5 72t60 53t75.5 20q59 0 96 -43t28 -102q-8 -61 -57 -104t-108 -43zM610 1166q37 0 66 26t34 63q5 35 -17 60t-59 25q-36 0 -64.5 -25t-33.5 -60q-5 -37 16.5 -63t57.5 -26z" />
    <glyph glyph-name="uni030B" unicode="&#x30b;" horiz-adv-x="0" 
d="M500 1110l120 288h86l-148 -288h-58zM258 1110l120 288h86l-148 -288h-58z" />
    <glyph glyph-name="uni030C" unicode="&#x30c;" horiz-adv-x="0" 
d="M246 1110l-152 288h57l153 -208l206 208h58l-231 -288h-91z" />
    <glyph glyph-name="dotbelowcomb" unicode="&#x323;" horiz-adv-x="0" 
d="M528 -370q-24 0 -39 15.5t-11 39.5q4 25 22.5 40t42.5 15q23 0 37.5 -15t10.5 -39q-4 -25 -22 -40.5t-41 -15.5z" />
    <glyph glyph-name="uni0326" unicode="&#x326;" horiz-adv-x="0" 
d="M240 -441l109 338h86l-138 -338h-57z" />
    <glyph glyph-name="uni0327" unicode="&#x327;" horiz-adv-x="0" 
d="M433 -362q-61 -17 -110.5 14t-57.5 91l70 18q5 -31 31 -47.5t59 -8.5q33 9 53.5 37t15.5 60q-4 32 -30 48.5t-59 8.5l-81 -17l142 196l55 -35l-54 -76q38 -8 65 -36.5t32 -69.5q8 -60 -30.5 -114t-100.5 -69z" />
    <glyph glyph-name="uni0328" unicode="&#x328;" horiz-adv-x="0" 
d="M301 -382q-46 1 -77.5 23.5t-45 58t-8.5 75.5q5 29 19.5 57.5t41.5 52.5l192 168l46 -53q-75 -65 -119 -103t-65 -59t-28.5 -34.5t-9.5 -30.5q-4 -30 13 -54.5t54 -26.5q39 0 77 28t45 78h73q-7 -52 -37.5 -92.5t-75.5 -64t-95 -23.5z" />
    <glyph glyph-name="uni03BC" unicode="&#x3bc;" horiz-adv-x="1017" 
d="M-79 -432l201 1432h86l-76 -543q-15 -109 18.5 -199.5t104 -144.5t165.5 -54q94 0 179.5 54t144 144.5t73.5 199.5l76 543h86l-140 -1000h-86l28 194q-75 -104 -172.5 -162t-205.5 -58q-110 0 -190.5 59t-118.5 153l-87 -618h-86z" />
    <glyph glyph-name="uni1E04" unicode="&#x1e04;" horiz-adv-x="1085" 
d="M22 0l196 1400h453q98 0 173 -39.5t112.5 -116.5t21.5 -188q-9 -71 -45.5 -132t-82 -101t-86.5 -48q58 -17 99.5 -55t66.5 -90t33 -111t-1 -119q-16 -123 -78.5 -212.5t-152.5 -138.5t-191 -49h-518zM119 81h428q80 0 151.5 42.5t121 116t61.5 167.5q13 83 -16 156.5
t-88 119t-138 45.5h-429zM221 808h364q112 0 201 64t106 184q19 134 -52 198.5t-184 64.5h-363zM404 -370q-24 0 -39 15.5t-11 39.5q4 25 22.5 40t42.5 15q23 0 37.5 -15t10.5 -39q-4 -25 -22 -40.5t-41 -15.5z" />
    <glyph glyph-name="uni1E05" unicode="&#x1e05;" horiz-adv-x="1184" 
d="M644 1028q145 0 254.5 -71t164 -191t33.5 -266q-15 -109 -69.5 -204t-137 -167.5t-183.5 -113.5t-210 -41q-138 0 -228 67.5t-128 177.5l-31 -219h-86l210 1500h86l-100 -717q68 110 177.5 177.5t247.5 67.5zM507 59q122 0 230.5 59.5t181.5 160t90 221.5
q18 125 -28.5 225.5t-138.5 159t-210 58.5q-121 0 -215.5 -60t-154.5 -161t-77 -222q-17 -123 15 -223t110 -159t197 -59zM455 -370q-24 0 -39 15.5t-11 39.5q4 25 22.5 40t42.5 15q23 0 37.5 -15t10.5 -39q-4 -25 -22 -40.5t-41 -15.5z" />
    <glyph glyph-name="uni1E0C" unicode="&#x1e0c;" horiz-adv-x="1343" 
d="M22 0l196 1400h462q146 0 265 -54.5t201.5 -151t119 -223t16.5 -271.5t-92 -271.5t-181.5 -223t-244 -151t-280.5 -54.5h-462zM120 86h376q128 0 246 47.5t214 132t159 196t81 238.5t-14 238.5t-104.5 196t-177 132t-232.5 47.5h-376zM532 -370q-24 0 -39 15.5t-11 39.5
q4 25 22.5 40t42.5 15q23 0 37.5 -15t10.5 -39q-4 -25 -22 -40.5t-41 -15.5z" />
    <glyph glyph-name="uni1E0D" unicode="&#x1e0d;" horiz-adv-x="1183" 
d="M1089 1500h86l-210 -1500h-86l31 219q-68 -110 -177.5 -177.5t-248.5 -67.5q-109 0 -198.5 41t-151.5 113.5t-89.5 167.5t-12.5 204q15 110 69.5 205.5t137 168t183.5 113.5t210 41q139 0 229 -67.5t128 -177.5zM496 59q122 0 216 59.5t154 160t77 221.5
q18 124 -14.5 224.5t-110 159.5t-197.5 59q-121 0 -229.5 -59.5t-182 -160.5t-90.5 -223q-17 -124 29 -224t138 -158.5t210 -58.5zM466 -370q-24 0 -39 15.5t-11 39.5q4 25 22.5 40t42.5 15q23 0 37.5 -15t10.5 -39q-4 -25 -22 -40.5t-41 -15.5z" />
    <glyph glyph-name="uni1E20" unicode="&#x1e20;" horiz-adv-x="1536" 
d="M668 -26q-144 0 -261.5 56.5t-197.5 156.5t-115 231.5t-14 281.5q21 151 93.5 283t182 231.5t242 155.5t274.5 56q166 0 299 -77.5t211 -210.5l-84 -43q-71 117 -186.5 181t-251.5 64q-125 0 -242 -50.5t-212.5 -139.5t-158.5 -204.5t-81 -245.5q-18 -131 12.5 -247
t101 -204.5t173 -138.5t227.5 -50q110 0 213.5 39.5t192 109.5t154 163t98.5 199h-441l12 82h541q-27 -141 -101 -264t-181 -216t-235.5 -146t-264.5 -53zM567 1661h676l-11 -78h-676z" />
    <glyph glyph-name="uni1E21" unicode="&#x1e21;" horiz-adv-x="1149" 
d="M985 1000h86l-147 -1046q-12 -90 -64 -171.5t-129 -145.5t-167.5 -100.5t-182.5 -36.5q-104 0 -193.5 49.5t-147.5 131t-70 178.5l84 37q6 -85 55.5 -155.5t124.5 -112.5t160 -42q74 0 148.5 30.5t138 82t105.5 117.5t52 138l37 262q-69 -108 -176.5 -175t-237.5 -67
q-104 0 -189.5 41t-144.5 113.5t-84.5 167.5t-10.5 204q15 110 67.5 205.5t132 168t176.5 113.5t201 41q130 0 218 -67t128 -176zM473 59q117 0 210 61.5t152.5 162t75.5 217.5q17 120 -14.5 221t-107.5 161.5t-191 60.5q-117 0 -220 -59.5t-172.5 -160.5t-86.5 -223
q-17 -123 25.5 -223t128.5 -159t200 -59zM316 1261h676l-11 -78h-676z" />
    <glyph glyph-name="uni1E24" unicode="&#x1e24;" horiz-adv-x="1227" 
d="M1119 1400h86l-196 -1400h-86l99 707h-815l-99 -707h-86l196 1400h86l-85 -607h815zM475 -370q-24 0 -39 15.5t-11 39.5q4 25 22.5 40t42.5 15q23 0 37.5 -15t10.5 -39q-4 -25 -22 -40.5t-41 -15.5z" />
    <glyph glyph-name="uni1E25" unicode="&#x1e25;" horiz-adv-x="1050" 
d="M957 612l-85 -612h-86l84 603q13 94 -21.5 170.5t-105 122.5t-163.5 46q-94 0 -177 -46t-139.5 -122.5t-70.5 -170.5l-84 -603h-86l210 1500h86l-92 -663q66 87 165 139t208 52q115 0 201.5 -56t129.5 -150.5t26 -209.5zM412 -370q-24 0 -39 15.5t-11 39.5q4 25 22.5 40
t42.5 15q23 0 37.5 -15t10.5 -39q-4 -25 -22 -40.5t-41 -15.5z" />
    <glyph glyph-name="uni1E2E" unicode="&#x1e2e;" horiz-adv-x="386" 
d="M52 0l196 1400h86l-196 -1400h-86zM169 1486q-24 0 -39.5 16t-12.5 40q3 23 23 40t44 17q23 0 38 -17t12 -40q-4 -24 -23 -40t-42 -16zM441 1486q-24 0 -39.5 16t-12.5 40q3 23 23.5 40t43.5 17t38 -17t12 -40q-3 -24 -22.5 -40t-42.5 -16zM314 1687l120 288h86
l-148 -288h-58z" />
    <glyph glyph-name="uni1E2F" unicode="&#x1e2f;" horiz-adv-x="326" 
d="M162 1000h86l-140 -1000h-86zM83 1086q-24 0 -39.5 16t-12.5 40q3 23 23 40t44 17q23 0 38 -17t12 -40q-4 -24 -23 -40t-42 -16zM355 1086q-24 0 -39.5 16t-12.5 40q3 23 23.5 40t43.5 17t38 -17t12 -40q-3 -24 -22.5 -40t-42.5 -16zM228 1287l120 288h86l-148 -288h-58z
" />
    <glyph glyph-name="uni1E36" unicode="&#x1e36;" horiz-adv-x="981" 
d="M22 0l196 1400h86l-184 -1314h675l-12 -86h-761zM363 -370q-24 0 -39 15.5t-11 39.5q4 25 22.5 40t42.5 15q23 0 37.5 -15t10.5 -39q-4 -25 -22 -40.5t-41 -15.5z" />
    <glyph glyph-name="uni1E37" unicode="&#x1e37;" horiz-adv-x="327" 
d="M23 0l210 1500h86l-210 -1500h-86zM26 -370q-24 0 -39 15.5t-11 39.5q4 25 22.5 40t42.5 15q23 0 37.5 -15t10.5 -39q-4 -25 -22 -40.5t-41 -15.5z" />
    <glyph glyph-name="uni1E3E" unicode="&#x1e3e;" horiz-adv-x="1717" 
d="M22 0l466 1400h51l263 -1099l570 1099h51l76 -1400h-88l-63 1177l-547 -1054h-49l-251 1054l-392 -1177h-87zM955 1510l120 288h86l-148 -288h-58z" />
    <glyph glyph-name="uni1E3F" unicode="&#x1e3f;" horiz-adv-x="1776" 
d="M22 0l140 1000h86l-22 -163q67 87 165.5 139t207.5 52q118 0 206.5 -59t127.5 -156q67 97 172 156t222 59q115 0 201.5 -56t129.5 -150.5t26 -209.5l-85 -612h-86l84 599q13 92 -20.5 170t-101.5 125.5t-159 47.5t-172 -44t-136.5 -121t-69.5 -178l-84 -599h-86l84 599
q14 101 -20 178t-102.5 121t-159.5 44t-172.5 -47.5t-137 -125.5t-68.5 -170l-84 -599h-86zM958 1110l120 288h86l-148 -288h-58z" />
    <glyph glyph-name="uni1E40" unicode="&#x1e40;" horiz-adv-x="1717" 
d="M22 0l466 1400h51l263 -1099l570 1099h51l76 -1400h-88l-63 1177l-547 -1054h-49l-251 1054l-392 -1177h-87zM986 1599q-24 0 -39 15.5t-11 39.5q4 25 22.5 40t42.5 15q23 0 37.5 -15t10.5 -39q-4 -25 -22 -40.5t-41 -15.5z" />
    <glyph glyph-name="uni1E41" unicode="&#x1e41;" horiz-adv-x="1776" 
d="M22 0l140 1000h86l-22 -163q67 87 165.5 139t207.5 52q118 0 206.5 -59t127.5 -156q67 97 172 156t222 59q115 0 201.5 -56t129.5 -150.5t26 -209.5l-85 -612h-86l84 599q13 92 -20.5 170t-101.5 125.5t-159 47.5t-172 -44t-136.5 -121t-69.5 -178l-84 -599h-86l84 599
q14 101 -20 178t-102.5 121t-159.5 44t-172.5 -47.5t-137 -125.5t-68.5 -170l-84 -599h-86zM989 1199q-24 0 -39 15.5t-11 39.5q4 25 22.5 40t42.5 15q23 0 37.5 -15t10.5 -39q-4 -25 -22 -40.5t-41 -15.5z" />
    <glyph glyph-name="uni1E42" unicode="&#x1e42;" horiz-adv-x="1717" 
d="M22 0l466 1400h51l263 -1099l570 1099h51l76 -1400h-88l-63 1177l-547 -1054h-49l-251 1054l-392 -1177h-87zM720 -370q-24 0 -39 15.5t-11 39.5q4 25 22.5 40t42.5 15q23 0 37.5 -15t10.5 -39q-4 -25 -22 -40.5t-41 -15.5z" />
    <glyph glyph-name="uni1E43" unicode="&#x1e43;" horiz-adv-x="1776" 
d="M22 0l140 1000h86l-22 -163q67 87 165.5 139t207.5 52q118 0 206.5 -59t127.5 -156q67 97 172 156t222 59q115 0 201.5 -56t129.5 -150.5t26 -209.5l-85 -612h-86l84 599q13 92 -20.5 170t-101.5 125.5t-159 47.5t-172 -44t-136.5 -121t-69.5 -178l-84 -599h-86l84 599
q14 101 -20 178t-102.5 121t-159.5 44t-172.5 -47.5t-137 -125.5t-68.5 -170l-84 -599h-86zM771 -370q-24 0 -39 15.5t-11 39.5q4 25 22.5 40t42.5 15q23 0 37.5 -15t10.5 -39q-4 -25 -22 -40.5t-41 -15.5z" />
    <glyph glyph-name="uni1E44" unicode="&#x1e44;" horiz-adv-x="1235" 
d="M22 0l196 1400h94l641 -1245l174 1245h86l-196 -1400h-92l-642 1245l-175 -1245h-86zM745 1599q-24 0 -39 15.5t-11 39.5q4 25 22.5 40t42.5 15q23 0 37.5 -15t10.5 -39q-4 -25 -22 -40.5t-41 -15.5z" />
    <glyph glyph-name="uni1E45" unicode="&#x1e45;" horiz-adv-x="1049" 
d="M956 612l-85 -612h-86l84 603q13 94 -21.5 170.5t-105 122.5t-163.5 46q-94 0 -177 -46t-139.5 -122.5t-70.5 -170.5l-84 -603h-86l140 1000h86l-22 -163q66 87 165 139t208 52q115 0 201.5 -56t129.5 -150.5t26 -209.5zM618 1199q-24 0 -39 15.5t-11 39.5q4 25 22.5 40
t42.5 15q23 0 37.5 -15t10.5 -39q-4 -25 -22 -40.5t-41 -15.5z" />
    <glyph glyph-name="uni1E46" unicode="&#x1e46;" horiz-adv-x="1235" 
d="M22 0l196 1400h94l641 -1245l174 1245h86l-196 -1400h-92l-642 1245l-175 -1245h-86zM479 -370q-24 0 -39 15.5t-11 39.5q4 25 22.5 40t42.5 15q23 0 37.5 -15t10.5 -39q-4 -25 -22 -40.5t-41 -15.5z" />
    <glyph glyph-name="uni1E47" unicode="&#x1e47;" horiz-adv-x="1049" 
d="M956 612l-85 -612h-86l84 603q13 94 -21.5 170.5t-105 122.5t-163.5 46q-94 0 -177 -46t-139.5 -122.5t-70.5 -170.5l-84 -603h-86l140 1000h86l-22 -163q66 87 165 139t208 52q115 0 201.5 -56t129.5 -150.5t26 -209.5zM407 -370q-24 0 -39 15.5t-11 39.5q4 25 22.5 40
t42.5 15q23 0 37.5 -15t10.5 -39q-4 -25 -22 -40.5t-41 -15.5z" />
    <glyph glyph-name="uni1E62" unicode="&#x1e62;" horiz-adv-x="1205" 
d="M500 -26q-110 0 -208.5 34t-167 97t-86.5 151l84 31q16 -74 75.5 -124.5t142.5 -76.5t171 -26q108 0 206 36.5t165.5 103.5t79.5 157q13 92 -38.5 150.5t-140 93t-188.5 52.5q-136 26 -242 66.5t-160 115t-37 201.5q16 117 97 203t200.5 133t249.5 47q106 0 203.5 -32.5
t168 -96t92.5 -155.5l-87 -29q-16 74 -75.5 124.5t-143 76.5t-171.5 26q-107 0 -205 -37t-164 -104t-79 -156q-14 -102 31.5 -158t133.5 -84.5t201 -50.5q127 -24 233 -70.5t164.5 -124t42.5 -191.5q-16 -117 -97.5 -203t-200.5 -133t-250 -47zM531 -370q-24 0 -39 15.5
t-11 39.5q4 25 22.5 40t42.5 15q23 0 37.5 -15t10.5 -39q-4 -25 -22 -40.5t-41 -15.5z" />
    <glyph glyph-name="uni1E63" unicode="&#x1e63;" horiz-adv-x="854" 
d="M335 -20q-84 1 -160.5 29.5t-129 77.5t-66.5 109l82 33q11 -49 57.5 -87t109 -59.5t122.5 -21.5q73 0 139.5 25t112.5 70.5t54 105.5q10 64 -26.5 101t-97 60t-126.5 44q-108 33 -184 66t-112 83t-24 134q12 87 72 150.5t147.5 98.5t181.5 35q124 0 217 -54.5t120 -142.5
l-78 -42q-13 49 -54 84t-97.5 54.5t-115.5 19.5q-74 0 -141.5 -24t-113 -69.5t-54.5 -108.5q-10 -65 20 -98.5t91 -55t143 -49.5q90 -29 166 -63.5t119 -86.5t31 -135q-13 -87 -73.5 -151t-148.5 -98.5t-183 -33.5zM351 -370q-24 0 -39 15.5t-11 39.5q4 25 22.5 40t42.5 15
q23 0 37.5 -15t10.5 -39q-4 -25 -22 -40.5t-41 -15.5z" />
    <glyph glyph-name="uni1E6C" unicode="&#x1e6c;" horiz-adv-x="1259" 
d="M1276 1400l-12 -86h-507l-184 -1314h-86l184 1314h-505l12 86h1098zM490 -370q-24 0 -39 15.5t-11 39.5q4 25 22.5 40t42.5 15q23 0 37.5 -15t10.5 -39q-4 -25 -22 -40.5t-41 -15.5z" />
    <glyph glyph-name="uni1E6D" unicode="&#x1e6d;" horiz-adv-x="677" 
d="M649 914h-263l-130 -914h-86l130 914h-198l12 86h198l42 314h86l-42 -314h262zM173 -370q-24 0 -39 15.5t-11 39.5q4 25 22.5 40t42.5 15q23 0 37.5 -15t10.5 -39q-4 -25 -22 -40.5t-41 -15.5z" />
    <glyph glyph-name="Wgrave" unicode="&#x1e80;" horiz-adv-x="1596" 
d="M289 0l-162 1400h88l147 -1264l498 1264h72l147 -1264l498 1264h88l-552 -1400h-108l-138 1193l-472 -1193h-106zM795 1798h86l40 -288h-57z" />
    <glyph glyph-name="wgrave" unicode="&#x1e81;" horiz-adv-x="1584" 
d="M390 0h-92l-196 1000h84l176 -888l422 888h100l174 -888l422 888h86l-476 -1000h-94l-177 899zM733 1398h86l40 -288h-57z" />
    <glyph glyph-name="Wacute" unicode="&#x1e82;" horiz-adv-x="1596" 
d="M289 0l-162 1400h88l147 -1264l498 1264h72l147 -1264l498 1264h88l-552 -1400h-108l-138 1193l-472 -1193h-106zM894 1510l120 288h86l-148 -288h-58z" />
    <glyph glyph-name="wacute" unicode="&#x1e83;" horiz-adv-x="1584" 
d="M390 0h-92l-196 1000h84l176 -888l422 888h100l174 -888l422 888h86l-476 -1000h-94l-177 899zM832 1110l120 288h86l-148 -288h-58z" />
    <glyph glyph-name="Wdieresis" unicode="&#x1e84;" horiz-adv-x="1596" 
d="M289 0l-162 1400h88l147 -1264l498 1264h72l147 -1264l498 1264h88l-552 -1400h-108l-138 1193l-472 -1193h-106zM774 1486q-24 0 -39.5 16t-12.5 40q3 23 23 40t44 17q23 0 38 -17t12 -40q-4 -24 -23 -40t-42 -16zM1046 1486q-24 0 -39.5 16t-12.5 40q3 23 23.5 40
t43.5 17t38 -17t12 -40q-3 -24 -22.5 -40t-42.5 -16z" />
    <glyph glyph-name="wdieresis" unicode="&#x1e85;" horiz-adv-x="1584" 
d="M390 0h-92l-196 1000h84l176 -888l422 888h100l174 -888l422 888h86l-476 -1000h-94l-177 899zM712 1086q-24 0 -39.5 16t-12.5 40q3 23 23 40t44 17q23 0 38 -17t12 -40q-4 -24 -23 -40t-42 -16zM984 1086q-24 0 -39.5 16t-12.5 40q3 23 23.5 40t43.5 17t38 -17t12 -40
q-3 -24 -22.5 -40t-42.5 -16z" />
    <glyph glyph-name="uni1E92" unicode="&#x1e92;" horiz-adv-x="1292" 
d="M-18 0l12 86l1191 1228h-1019l12 86h1132l-12 -86l-1191 -1228h1019l-12 -86h-1132zM508 -370q-24 0 -39 15.5t-11 39.5q4 25 22.5 40t42.5 15q23 0 37.5 -15t10.5 -39q-4 -25 -22 -40.5t-41 -15.5z" />
    <glyph glyph-name="uni1E93" unicode="&#x1e93;" horiz-adv-x="1014" 
d="M964 914l-852 -828h736l-12 -86h-854l12 86l852 828h-736l12 86h854zM369 -370q-24 0 -39 15.5t-11 39.5q4 25 22.5 40t42.5 15q23 0 37.5 -15t10.5 -39q-4 -25 -22 -40.5t-41 -15.5z" />
    <glyph glyph-name="uni1E97" unicode="&#x1e97;" horiz-adv-x="677" 
d="M649 914h-263l-130 -914h-86l130 914h-198l12 86h198l42 314h86l-42 -314h262zM274 1400q-24 0 -39.5 16t-12.5 40q3 23 23 40t44 17q23 0 38 -17t12 -40q-4 -24 -23 -40t-42 -16zM546 1400q-24 0 -39.5 16t-12.5 40q3 23 23.5 40t43.5 17t38 -17t12 -40
q-3 -24 -22.5 -40t-42.5 -16z" />
    <glyph glyph-name="uni1E9E" unicode="&#x1e9e;" horiz-adv-x="1089" 
d="M22 0l137 979q12 87 55.5 162.5t109.5 133.5t146.5 90.5t166.5 32.5q96 0 173.5 -28.5t119 -85t29.5 -141.5q-6 -42 -40 -89.5t-104.5 -124.5t-184.5 -207q75 8 143.5 -15t119.5 -71.5t76 -116.5t13 -150q-12 -92 -59.5 -161t-116.5 -115t-147.5 -69.5t-154.5 -23.5h-71
l-14 81h93q79 0 164 30.5t148 95t77 164.5q13 98 -32 160.5t-121.5 93t-156.5 30.5h-68l2 40q1 21 34.5 62.5t82 94t98 107t85 103t38.5 82.5q8 62 -24.5 100t-91.5 55.5t-130 17.5q-90 0 -169.5 -44.5t-133.5 -118.5t-68 -165l-138 -989h-86z" />
    <glyph glyph-name="uni1EA0" unicode="&#x1ea0;" horiz-adv-x="1298" 
d="M688 1400h118l314 -1400h-91l-74 327h-717l-164 -327h-92zM282 413h654l-202 897zM511 -370q-24 0 -39 15.5t-11 39.5q4 25 22.5 40t42.5 15q23 0 37.5 -15t10.5 -39q-4 -25 -22 -40.5t-41 -15.5z" />
    <glyph glyph-name="uni1EA1" unicode="&#x1ea1;" 
d="M1019 1000h86l-140 -1000h-86l29 218q-67 -109 -176 -176.5t-247 -67.5q-109 0 -199 41t-152 114t-89.5 168t-12.5 205q15 109 69.5 204.5t136.5 167.5t183 113t209 41q140 0 231 -67.5t130 -177.5zM496 59q122 0 216 59.5t154 160t77 221.5q18 124 -14.5 224.5
t-110 159.5t-197.5 59q-122 0 -230 -59.5t-181.5 -160.5t-90.5 -223q-17 -124 29 -224t138 -158.5t210 -58.5zM449 -370q-24 0 -39 15.5t-11 39.5q4 25 22.5 40t42.5 15q23 0 37.5 -15t10.5 -39q-4 -25 -22 -40.5t-41 -15.5z" />
    <glyph glyph-name="uni1EAC" unicode="&#x1eac;" horiz-adv-x="1298" 
d="M688 1400h118l314 -1400h-91l-74 327h-717l-164 -327h-92zM282 413h654l-202 897zM511 -370q-24 0 -39 15.5t-11 39.5q4 25 22.5 40t42.5 15q23 0 37.5 -15t10.5 -39q-4 -25 -22 -40.5t-41 -15.5zM849 1798l152 -288h-58l-152 208l-206 -208h-58l231 288h91z" />
    <glyph glyph-name="uni1EAD" unicode="&#x1ead;" 
d="M1019 1000h86l-140 -1000h-86l29 218q-67 -109 -176 -176.5t-247 -67.5q-109 0 -199 41t-152 114t-89.5 168t-12.5 205q15 109 69.5 204.5t136.5 167.5t183 113t209 41q140 0 231 -67.5t130 -177.5zM496 59q122 0 216 59.5t154 160t77 221.5q18 124 -14.5 224.5
t-110 159.5t-197.5 59q-122 0 -230 -59.5t-181.5 -160.5t-90.5 -223q-17 -124 29 -224t138 -158.5t210 -58.5zM449 -370q-24 0 -39 15.5t-11 39.5q4 25 22.5 40t42.5 15q23 0 37.5 -15t10.5 -39q-4 -25 -22 -40.5t-41 -15.5zM731 1398l152 -288h-58l-152 208l-206 -208h-58
l231 288h91z" />
    <glyph glyph-name="uni1EB6" unicode="&#x1eb6;" horiz-adv-x="1298" 
d="M688 1400h118l314 -1400h-91l-74 327h-717l-164 -327h-92zM282 413h654l-202 897zM511 -370q-24 0 -39 15.5t-11 39.5q4 25 22.5 40t42.5 15q23 0 37.5 -15t10.5 -39q-4 -25 -22 -40.5t-41 -15.5zM760 1488q-91 0 -160 45t-103.5 120.5t-22.5 166.5h73q-10 -73 18 -131.5
t82.5 -93t122.5 -34.5q70 0 134 35t107.5 94t53.5 130h73q-13 -94 -69.5 -169t-138 -119t-170.5 -44z" />
    <glyph glyph-name="uni1EB7" unicode="&#x1eb7;" 
d="M1019 1000h86l-140 -1000h-86l29 218q-67 -109 -176 -176.5t-247 -67.5q-109 0 -199 41t-152 114t-89.5 168t-12.5 205q15 109 69.5 204.5t136.5 167.5t183 113t209 41q140 0 231 -67.5t130 -177.5zM496 59q122 0 216 59.5t154 160t77 221.5q18 124 -14.5 224.5
t-110 159.5t-197.5 59q-122 0 -230 -59.5t-181.5 -160.5t-90.5 -223q-17 -124 29 -224t138 -158.5t210 -58.5zM449 -370q-24 0 -39 15.5t-11 39.5q4 25 22.5 40t42.5 15q23 0 37.5 -15t10.5 -39q-4 -25 -22 -40.5t-41 -15.5zM642 1088q-91 0 -160 45t-103.5 120.5
t-22.5 166.5h73q-10 -73 18 -131.5t82.5 -93t122.5 -34.5q70 0 134 35t107.5 94t53.5 130h73q-13 -94 -69.5 -169t-138 -119t-170.5 -44z" />
    <glyph glyph-name="uni1EB8" unicode="&#x1eb8;" horiz-adv-x="1059" 
d="M22 0l196 1400h839l-12 -86h-753l-73 -521h634l-11 -86h-635l-87 -621h752l-11 -86h-839zM391 -370q-24 0 -39 15.5t-11 39.5q4 25 22.5 40t42.5 15q23 0 37.5 -15t10.5 -39q-4 -25 -22 -40.5t-41 -15.5z" />
    <glyph glyph-name="uni1EB9" unicode="&#x1eb9;" horiz-adv-x="1117" 
d="M458 -26q-138 0 -241.5 71t-154 190.5t-30.5 264.5q15 110 67.5 205.5t131.5 168t175.5 113.5t199.5 41q108 0 193.5 -41.5t142 -117t78.5 -179t4 -227.5h-908q-6 -116 38 -206.5t126 -143.5t190 -53q118 0 222.5 63t175.5 173l84 -20q-79 -133 -211.5 -217.5
t-282.5 -84.5zM125 540h823q11 109 -32.5 201.5t-127 148.5t-193.5 56q-111 0 -208.5 -54.5t-167 -147t-94.5 -204.5zM421 -370q-24 0 -39 15.5t-11 39.5q4 25 22.5 40t42.5 15q23 0 37.5 -15t10.5 -39q-4 -25 -22 -40.5t-41 -15.5z" />
    <glyph glyph-name="uni1EBC" unicode="&#x1ebc;" horiz-adv-x="1059" 
d="M22 0l196 1400h839l-12 -86h-753l-73 -521h634l-11 -86h-635l-87 -621h752l-11 -86h-839zM802 1544q-37 0 -76.5 22.5t-78.5 52t-75 51.5t-68 20q-33 -2 -58.5 -32.5t-21.5 -71.5l-72 -19q-10 46 11.5 91.5t63.5 75.5t94 30q38 0 79 -22t82 -51t78 -51t67 -22q24 0 42 19
t28 43.5t6 40.5l71 22q9 -48 -13 -94t-64.5 -75.5t-94.5 -29.5z" />
    <glyph glyph-name="uni1EBD" unicode="&#x1ebd;" horiz-adv-x="1117" 
d="M458 -26q-138 0 -241.5 71t-154 190.5t-30.5 264.5q15 110 67.5 205.5t131.5 168t175.5 113.5t199.5 41q108 0 193.5 -41.5t142 -117t78.5 -179t4 -227.5h-908q-6 -116 38 -206.5t126 -143.5t190 -53q118 0 222.5 63t175.5 173l84 -20q-79 -133 -211.5 -217.5
t-282.5 -84.5zM125 540h823q11 109 -32.5 201.5t-127 148.5t-193.5 56q-111 0 -208.5 -54.5t-167 -147t-94.5 -204.5zM776 1144q-37 0 -76.5 22.5t-78.5 52t-75 51.5t-68 20q-33 -2 -58.5 -32.5t-21.5 -71.5l-72 -19q-10 46 11.5 91.5t63.5 75.5t94 30q38 0 79 -22t82 -51
t78 -51t67 -22q24 0 42 19t28 43.5t6 40.5l71 22q9 -48 -13 -94t-64.5 -75.5t-94.5 -29.5z" />
    <glyph glyph-name="uni1EC6" unicode="&#x1ec6;" horiz-adv-x="1059" 
d="M22 0l196 1400h839l-12 -86h-753l-73 -521h634l-11 -86h-635l-87 -621h752l-11 -86h-839zM391 -370q-24 0 -39 15.5t-11 39.5q4 25 22.5 40t42.5 15q23 0 37.5 -15t10.5 -39q-4 -25 -22 -40.5t-41 -15.5zM730 1798l152 -288h-58l-152 208l-206 -208h-58l231 288h91z" />
    <glyph glyph-name="uni1EC7" unicode="&#x1ec7;" horiz-adv-x="1117" 
d="M458 -26q-138 0 -241.5 71t-154 190.5t-30.5 264.5q15 110 67.5 205.5t131.5 168t175.5 113.5t199.5 41q108 0 193.5 -41.5t142 -117t78.5 -179t4 -227.5h-908q-6 -116 38 -206.5t126 -143.5t190 -53q118 0 222.5 63t175.5 173l84 -20q-79 -133 -211.5 -217.5
t-282.5 -84.5zM125 540h823q11 109 -32.5 201.5t-127 148.5t-193.5 56q-111 0 -208.5 -54.5t-167 -147t-94.5 -204.5zM421 -370q-24 0 -39 15.5t-11 39.5q4 25 22.5 40t42.5 15q23 0 37.5 -15t10.5 -39q-4 -25 -22 -40.5t-41 -15.5zM703 1398l152 -288h-58l-152 208
l-206 -208h-58l231 288h91z" />
    <glyph glyph-name="uni1ECA" unicode="&#x1eca;" horiz-adv-x="386" 
d="M52 0l196 1400h86l-196 -1400h-86zM55 -370q-24 0 -39 15.5t-11 39.5q4 25 22.5 40t42.5 15q23 0 37.5 -15t10.5 -39q-4 -25 -22 -40.5t-41 -15.5z" />
    <glyph glyph-name="uni1ECB" unicode="&#x1ecb;" horiz-adv-x="326" 
d="M162 1000h86l-140 -1000h-86zM235 1199q-24 0 -39 15.5t-11 39.5q4 25 22.5 40t42.5 15q23 0 37.5 -15t10.5 -39q-4 -25 -22 -40.5t-41 -15.5zM25 -370q-24 0 -39 15.5t-11 39.5q4 25 22.5 40t42.5 15q23 0 37.5 -15t10.5 -39q-4 -25 -22 -40.5t-41 -15.5z" />
    <glyph glyph-name="uni1ECC" unicode="&#x1ecc;" horiz-adv-x="1540" 
d="M668 -26q-142 0 -259.5 56.5t-198 156.5t-116 231.5t-14.5 281.5t93 281.5t181.5 231.5t242.5 156.5t275 56.5q143 0 260 -56.5t197.5 -156.5t116 -231.5t14.5 -281.5t-93 -281.5t-181.5 -231.5t-242 -156.5t-275.5 -56.5zM680 60q126 0 243 51t212 139.5t158 204
t81 245.5q18 131 -12.5 247t-101 204.5t-172.5 138.5t-228 50t-243 -51t-212 -139.5t-158 -204t-81 -245.5q-18 -132 12.5 -247.5t101 -204t173 -138.5t227.5 -50zM632 -370q-24 0 -39 15.5t-11 39.5q4 25 22.5 40t42.5 15q23 0 37.5 -15t10.5 -39q-4 -25 -22 -40.5
t-41 -15.5z" />
    <glyph glyph-name="uni1ECD" unicode="&#x1ecd;" horiz-adv-x="1120" 
d="M458 -26q-138 0 -241.5 71t-154 190.5t-30.5 264.5q15 110 67.5 205.5t131.5 168t175.5 113.5t199.5 41q138 0 241.5 -71t154.5 -191t30 -266q-15 -109 -67.5 -204t-131.5 -167.5t-175 -113.5t-200 -41zM470 60q116 0 218.5 61t172 161t85.5 218q17 119 -24 219.5
t-126 161.5t-202 61t-219.5 -61t-171 -161.5t-85.5 -219.5q-17 -123 25 -222.5t128 -158.5t199 -59zM422 -370q-24 0 -39 15.5t-11 39.5q4 25 22.5 40t42.5 15q23 0 37.5 -15t10.5 -39q-4 -25 -22 -40.5t-41 -15.5z" />
    <glyph glyph-name="uni1ED8" unicode="&#x1ed8;" horiz-adv-x="1540" 
d="M668 -26q-142 0 -259.5 56.5t-198 156.5t-116 231.5t-14.5 281.5t93 281.5t181.5 231.5t242.5 156.5t275 56.5q143 0 260 -56.5t197.5 -156.5t116 -231.5t14.5 -281.5t-93 -281.5t-181.5 -231.5t-242 -156.5t-275.5 -56.5zM680 60q126 0 243 51t212 139.5t158 204
t81 245.5q18 131 -12.5 247t-101 204.5t-172.5 138.5t-228 50t-243 -51t-212 -139.5t-158 -204t-81 -245.5q-18 -132 12.5 -247.5t101 -204t173 -138.5t227.5 -50zM632 -370q-24 0 -39 15.5t-11 39.5q4 25 22.5 40t42.5 15q23 0 37.5 -15t10.5 -39q-4 -25 -22 -40.5
t-41 -15.5zM970 1798l152 -288h-58l-152 208l-206 -208h-58l231 288h91z" />
    <glyph glyph-name="uni1ED9" unicode="&#x1ed9;" horiz-adv-x="1120" 
d="M458 -26q-138 0 -241.5 71t-154 190.5t-30.5 264.5q15 110 67.5 205.5t131.5 168t175.5 113.5t199.5 41q138 0 241.5 -71t154.5 -191t30 -266q-15 -109 -67.5 -204t-131.5 -167.5t-175 -113.5t-200 -41zM470 60q116 0 218.5 61t172 161t85.5 218q17 119 -24 219.5
t-126 161.5t-202 61t-219.5 -61t-171 -161.5t-85.5 -219.5q-17 -123 25 -222.5t128 -158.5t199 -59zM422 -370q-24 0 -39 15.5t-11 39.5q4 25 22.5 40t42.5 15q23 0 37.5 -15t10.5 -39q-4 -25 -22 -40.5t-41 -15.5zM704 1398l152 -288h-58l-152 208l-206 -208h-58l231 288
h91z" />
    <glyph glyph-name="uni1EE4" unicode="&#x1ee4;" horiz-adv-x="1308" 
d="M552 -26q-168 0 -276 82t-152 220.5t-20 307.5l114 816h86l-114 -816q-20 -143 15 -262t124.5 -190.5t234.5 -71.5q147 0 257 72.5t177.5 191.5t87.5 260l114 816h86l-114 -816q-18 -127 -69.5 -237.5t-132 -194.5t-186.5 -131t-232 -47zM516 -370q-24 0 -39 15.5
t-11 39.5q4 25 22.5 40t42.5 15q23 0 37.5 -15t10.5 -39q-4 -25 -22 -40.5t-41 -15.5z" />
    <glyph glyph-name="uni1EE5" unicode="&#x1ee5;" horiz-adv-x="1009" 
d="M37 390l85 610h86l-84 -601q-13 -94 21.5 -170.5t105 -122.5t163.5 -46q94 0 177 46t140 122.5t70 170.5l84 601h86l-140 -1000h-86l22 165q-66 -86 -165 -138.5t-208 -52.5q-115 0 -201.5 56t-129 150.5t-26.5 209.5zM371 -370q-24 0 -39 15.5t-11 39.5q4 25 22.5 40
t42.5 15q23 0 37.5 -15t10.5 -39q-4 -25 -22 -40.5t-41 -15.5z" />
    <glyph glyph-name="Ygrave" unicode="&#x1ef2;" horiz-adv-x="1139" 
d="M1076 1400h101l-574 -765l-89 -635h-86l89 635l-359 765h101l314 -670zM566 1798h86l40 -288h-57z" />
    <glyph glyph-name="ygrave" unicode="&#x1ef3;" horiz-adv-x="974" 
d="M846 1000h90l-757 -1500h-92l253 500l-218 1000h94l183 -881zM428 1398h86l40 -288h-57z" />
    <glyph glyph-name="uni1EF4" unicode="&#x1ef4;" horiz-adv-x="1139" 
d="M1076 1400h101l-574 -765l-89 -635h-86l89 635l-359 765h101l314 -670zM431 -370q-24 0 -39 15.5t-11 39.5q4 25 22.5 40t42.5 15q23 0 37.5 -15t10.5 -39q-4 -25 -22 -40.5t-41 -15.5z" />
    <glyph glyph-name="uni1EF5" unicode="&#x1ef5;" horiz-adv-x="974" 
d="M846 1000h90l-757 -1500h-92l253 500l-218 1000h94l183 -881zM517 -370q-24 0 -39 15.5t-11 39.5q4 25 22.5 40t42.5 15q23 0 37.5 -15t10.5 -39q-4 -25 -22 -40.5t-41 -15.5z" />
    <glyph glyph-name="uni1EF8" unicode="&#x1ef8;" horiz-adv-x="1139" 
d="M1076 1400h101l-574 -765l-89 -635h-86l89 635l-359 765h101l314 -670zM842 1544q-37 0 -76.5 22.5t-78.5 52t-75 51.5t-68 20q-33 -2 -58.5 -32.5t-21.5 -71.5l-72 -19q-10 46 11.5 91.5t63.5 75.5t94 30q38 0 79 -22t82 -51t78 -51t67 -22q24 0 42 19t28 43.5t6 40.5
l71 22q9 -48 -13 -94t-64.5 -75.5t-94.5 -29.5z" />
    <glyph glyph-name="uni1EF9" unicode="&#x1ef9;" horiz-adv-x="974" 
d="M846 1000h90l-757 -1500h-92l253 500l-218 1000h94l183 -881zM704 1144q-37 0 -76.5 22.5t-78.5 52t-75 51.5t-68 20q-33 -2 -58.5 -32.5t-21.5 -71.5l-72 -19q-10 46 11.5 91.5t63.5 75.5t94 30q38 0 79 -22t82 -51t78 -51t67 -22q24 0 42 19t28 43.5t6 40.5l71 22
q9 -48 -13 -94t-64.5 -75.5t-94.5 -29.5z" />
    <glyph glyph-name="uni2002" unicode="&#x2002;" horiz-adv-x="1000" 
 />
    <glyph glyph-name="uni2009" unicode="&#x2009;" horiz-adv-x="400" 
 />
    <glyph glyph-name="uni200B" unicode="&#x200b;" horiz-adv-x="0" 
 />
    <glyph glyph-name="endash" unicode="&#x2013;" horiz-adv-x="1240" 
d="M112 643h1000l-12 -86h-1000z" />
    <glyph glyph-name="emdash" unicode="&#x2014;" horiz-adv-x="2040" 
d="M112 643h1800l-12 -86h-1800z" />
    <glyph glyph-name="quoteright" unicode="&#x2019;" horiz-adv-x="248" 
d="M65 878l135 522h86l-164 -522h-57z" />
    <glyph glyph-name="quoteright" unicode="&#x2032;" horiz-adv-x="248" 
d="M65 878l135 522h86l-164 -522h-57z" />
    <glyph glyph-name="quotesinglbase" unicode="&#x201a;" horiz-adv-x="272" 
d="M-70 -112l109 338h86l-138 -338h-57z" />
    <glyph glyph-name="quotedblleft" unicode="&#x201c;" horiz-adv-x="567" 
d="M145 878l164 522h57l-135 -522h-86zM404 882l164 522h57l-135 -522h-86z" />
    <glyph glyph-name="quotedblright" unicode="&#x201d;" horiz-adv-x="567" 
d="M65 878l135 522h86l-164 -522h-57zM324 878l135 522h86l-164 -522h-57z" />
    <glyph glyph-name="quotedblright" unicode="&#x2033;" horiz-adv-x="567" 
d="M65 878l135 522h86l-164 -522h-57zM324 878l135 522h86l-164 -522h-57z" />
    <glyph glyph-name="quotedblbase" unicode="&#x201e;" horiz-adv-x="496" 
d="M-70 -112l109 338h86l-138 -338h-57zM154 -112l109 338h86l-138 -338h-57z" />
    <glyph glyph-name="dagger" unicode="&#x2020;" horiz-adv-x="753" 
d="M140 1125l12 86h253l41 289h86l-41 -289h254l-12 -86h-253l-75 -529h-86l74 529h-253z" />
    <glyph glyph-name="daggerdbl" unicode="&#x2021;" horiz-adv-x="753" 
d="M95 809l12 84h253l35 243h-254l12 86h254l39 278h86l-39 -278h253l-11 -86h-254l-35 -243h254l-11 -84h-254l-35 -249h-86l35 249h-254z" />
    <glyph glyph-name="bullet" unicode="&#x2022;" horiz-adv-x="310" 
d="M129 525q-30 0 -49 21.5t-14 55.5q5 30 29 51.5t55 21.5q33 0 52 -21.5t14 -51.5q-4 -34 -29 -55.5t-58 -21.5z" />
    <glyph glyph-name="ellipsis" unicode="&#x2026;" horiz-adv-x="908" 
d="M33 -26q-22 0 -36 17t-11 40t22 39.5t42 16.5q24 0 38 -16.5t10 -39.5q-2 -23 -21 -40t-44 -17zM330 -26q-22 0 -36 17t-11 40t22 39.5t42 16.5q24 0 38 -16.5t10 -39.5q-2 -23 -21 -40t-44 -17zM628 -26q-22 0 -36 17t-11 40t22 39.5t42 16.5q24 0 38 -16.5t10 -39.5
q-2 -23 -21 -40t-44 -17z" />
    <glyph glyph-name="perthousand" unicode="&#x2030;" horiz-adv-x="1608" 
d="M29 0l1004 1400h100l-1004 -1400h-100zM313 885q-57 0 -100 28t-64.5 75t-13.5 104q9 58 43.5 105t85.5 75.5t108 28.5t100 -28.5t64.5 -76t13.5 -104.5q-8 -58 -43 -104.5t-86 -74.5t-108 -28zM324 960q56 0 99.5 39t50.5 93q8 56 -24.5 95t-88.5 39q-55 0 -99 -39
t-52 -95q-7 -54 26 -93t88 -39zM740 99q-58 0 -101.5 28.5t-65 76t-13.5 104.5t43 104t86.5 75t108.5 28q58 0 101 -28t64 -75t13 -104q-8 -58 -42.5 -105t-85.5 -75.5t-108 -28.5zM750 174q54 0 99 39.5t52 94.5q8 54 -26 93t-88 39q-55 0 -99.5 -39t-52.5 -93
q-7 -55 26.5 -94.5t88.5 -39.5zM1236 99q-57 0 -100.5 28.5t-65 76t-13.5 104.5t43.5 104t86.5 75t108 28q58 0 101 -28t64 -75t13 -104q-8 -58 -42.5 -105t-85.5 -75.5t-109 -28.5zM1247 174q54 0 99 39.5t52 94.5q8 54 -26 93t-88 39q-55 0 -99.5 -39t-52.5 -93
q-7 -55 26.5 -94.5t88.5 -39.5z" />
    <glyph glyph-name="uni2035" unicode="&#x2035;" horiz-adv-x="388" 
d="M236 878l-18 522h86l-11 -522h-57z" />
    <glyph glyph-name="guilsinglleft" unicode="&#x2039;" horiz-adv-x="624" 
d="M358 261l-252 340l348 338h104l-348 -338l252 -340h-104z" />
    <glyph glyph-name="guilsinglright" unicode="&#x203a;" horiz-adv-x="624" 
d="M38 261l348 340l-252 338h104l252 -338l-348 -340h-104z" />
    <glyph glyph-name="fraction" unicode="&#x2044;" horiz-adv-x="450" 
d="M-321 0l1004 1400h88l-1004 -1400h-88z" />
    <glyph glyph-name="fraction" unicode="&#x2215;" horiz-adv-x="450" 
d="M-321 0l1004 1400h88l-1004 -1400h-88z" />
    <glyph glyph-name="uni2070" unicode="&#x2070;" horiz-adv-x="648" 
d="M338 798q-69 0 -120.5 43.5t-74.5 119t-10 171.5q14 96 58.5 172t108 120t132.5 44q70 0 121 -44t74.5 -120t9.5 -172q-13 -96 -58 -171.5t-108 -119t-133 -43.5zM349 879q52 0 95.5 38t72.5 97t38 118q9 66 -4.5 124t-46.5 94.5t-83 36.5q-52 0 -95.5 -38t-72.5 -96.5
t-38 -120.5q-8 -64 5 -122t46 -94.5t83 -36.5z" />
    <glyph glyph-name="uni2074" unicode="&#x2074;" horiz-adv-x="676" 
d="M391 818l18 133h-278l14 99l309 399h107l-58 -415h76l-11 -83h-76l-19 -133h-82zM229 1034h193l43 304z" />
    <glyph glyph-name="uni2075" unicode="&#x2075;" horiz-adv-x="674" 
d="M321 798q-93 0 -150 59.5t-44 151.5h83q-8 -57 28.5 -93.5t93.5 -36.5q58 0 104.5 36.5t54.5 93.5q8 58 -28 98t-93 40q-34 1 -60 -2t-55 -10t-71 -19l76 333h347l-11 -80h-272l-31 -146q135 19 216 -37.5t64 -176.5q-13 -92 -86 -151.5t-166 -59.5z" />
    <glyph glyph-name="uni2076" unicode="&#x2076;" horiz-adv-x="706" 
d="M343 798q-102 0 -158.5 64.5t-43.5 156.5q4 30 16.5 59t41 72.5t80 114t132.5 181.5h96l-144 -201q76 15 134.5 -14t89 -86t20.5 -126q-9 -68 -49 -118t-97 -76.5t-118 -26.5zM354 879q63 0 112.5 39.5t58.5 102.5q9 68 -33 108t-97 40q-64 0 -114 -45t-58 -109
q-8 -61 31 -98.5t100 -37.5z" />
    <glyph glyph-name="uni2077" unicode="&#x2077;" horiz-adv-x="620" 
d="M155 818l390 548h-332l12 83h428l-11 -82l-391 -549h-96z" />
    <glyph glyph-name="uni2078" unicode="&#x2078;" horiz-adv-x="598" 
d="M311 798q-82 0 -134 53t-41 137q8 51 37 93t71 70q-27 26 -40.5 62.5t-7.5 78.5q11 78 71.5 127t137.5 49q78 0 126.5 -49t37.5 -127q-6 -42 -30.5 -78.5t-58.5 -62.5q34 -28 52 -70t10 -93q-11 -84 -78.5 -137t-152.5 -53zM323 879q50 0 90 30t46 79q8 49 -23 84t-81 35
q-49 0 -89 -35t-47 -84t24 -79t80 -30zM366 1190q44 0 79 30t41 72q6 44 -21 69.5t-71 25.5q-42 0 -76 -25.5t-40 -69.5q-6 -42 20 -72t68 -30z" />
    <glyph glyph-name="uni2079" unicode="&#x2079;" horiz-adv-x="659" 
d="M248 818l146 204q-73 -16 -130 9t-88 76t-29.5 115.5t45.5 127.5q38 62 98.5 90t123.5 28q64 0 111 -29t71 -76.5t19.5 -104.5t-42.5 -114q-5 -13 -10 -21l-221 -305h-94zM361 1096q49 0 89.5 26.5t64.5 69.5t19 92q-7 54 -46 78.5t-85 24.5q-48 0 -88.5 -24.5
t-63.5 -64.5t-20 -88q7 -54 46 -84t84 -30z" />
    <glyph glyph-name="uni2080" unicode="&#x2080;" horiz-adv-x="648" 
d="M221 -31q-69 0 -120.5 43.5t-74.5 119t-10 171.5q14 96 58.5 172t108 120t132.5 44q70 0 121 -44t74.5 -120t9.5 -172q-13 -96 -58 -171.5t-108 -119t-133 -43.5zM233 51q52 0 95 38t72.5 96t37.5 118q9 65 -4 123t-46.5 94.5t-83.5 36.5q-52 0 -95.5 -38t-72.5 -96.5
t-37 -119.5q-9 -64 4 -121.5t46.5 -94t83.5 -36.5z" />
    <glyph glyph-name="uni2081" unicode="&#x2081;" horiz-adv-x="408" 
d="M84 0l76 549h-85l23 82h156l-88 -631h-82z" />
    <glyph glyph-name="uni2082" unicode="&#x2082;" horiz-adv-x="676" 
d="M-2 0l11 82q41 24 104.5 67t129.5 94.5t114 103.5t56 96q9 57 -25.5 91.5t-90.5 34.5t-101 -34.5t-54 -91.5h-82q9 60 45 107t89 74t114 27q60 0 105.5 -27t68.5 -74t14 -107q-6 -44 -41.5 -94t-87.5 -99t-109 -92.5t-107 -75.5h293l-11 -82h-435z" />
    <glyph glyph-name="uni2083" unicode="&#x2083;" horiz-adv-x="545" 
d="M171 -31q-56 0 -98 24.5t-63 67.5t-13 99h82q-7 -49 22.5 -79t80.5 -30q50 0 88 30t45 79q8 56 -29 89t-112 33l12 76q67 0 106.5 28t46.5 79q6 41 -21.5 66.5t-68.5 25.5q-42 0 -76 -25.5t-40 -66.5h-82q11 76 72 125t137 49q77 0 124.5 -49t36.5 -125q-6 -46 -32 -86
t-56 -56q39 -33 56 -68.5t9 -94.5q-8 -56 -41.5 -99t-82.5 -67.5t-103 -24.5z" />
    <glyph glyph-name="uni2084" unicode="&#x2084;" horiz-adv-x="676" 
d="M276 0l18 133h-278l14 100l309 398h107l-58 -415h76l-11 -83h-76l-19 -133h-82zM114 216h193l43 304z" />
    <glyph glyph-name="uni2085" unicode="&#x2085;" horiz-adv-x="674" 
d="M204 -31q-62 0 -108.5 27t-70 75t-14.5 110h83q-9 -57 27.5 -93.5t93.5 -36.5q58 0 104.5 36.5t55.5 93.5q7 57 -28.5 97.5t-93.5 40.5l-186 -31l76 331h348l-11 -81h-273l-31 -143l89 6q95 0 150.5 -64.5t41.5 -155.5q-9 -62 -45.5 -110t-91 -75t-116.5 -27z" />
    <glyph glyph-name="uni2086" unicode="&#x2086;" horiz-adv-x="682" 
d="M226 -31q-102 0 -158.5 65t-43.5 157q4 30 16.5 59.5t42 73t80.5 114t133 182.5h96l-146 -204q76 16 134.5 -13.5t89 -86t20.5 -125.5q-9 -68 -49 -118t-97 -77t-118 -27zM238 51q63 0 112.5 39.5t57.5 102.5q9 68 -32.5 108t-96.5 40q-64 0 -114 -45.5t-58 -108.5
q-8 -60 30.5 -98t100.5 -38z" />
    <glyph glyph-name="uni2087" unicode="&#x2087;" horiz-adv-x="620" 
d="M38 0l393 549h-332l11 82h428l-11 -82l-393 -549h-96z" />
    <glyph glyph-name="uni2088" unicode="&#x2088;" horiz-adv-x="598" 
d="M194 -31q-82 0 -134 53.5t-40 136.5q7 52 37 94.5t71 69.5q-27 25 -41 62t-8 79q11 79 72 128t138 49q78 0 126 -49t37 -128q-6 -42 -30 -79t-58 -62q34 -27 51.5 -69.5t10.5 -94.5q-12 -83 -79.5 -136.5t-152.5 -53.5zM206 51q51 0 91 30t47 78q6 50 -24.5 84.5
t-81.5 34.5q-49 0 -89 -34.5t-46 -84.5q-7 -48 23.5 -78t79.5 -30zM250 361q44 0 79 31t40 72q7 44 -20.5 69t-71.5 25q-41 0 -75 -25t-40 -69q-6 -41 20 -72t68 -31z" />
    <glyph glyph-name="uni2089" unicode="&#x2089;" horiz-adv-x="660" 
d="M133 0l146 204q-73 -16 -130 9t-88 76.5t-29 116t45 127.5q25 41 60.5 67t77.5 38.5t84 12.5q66 0 114 -30.5t71.5 -80t17 -109t-48.5 -117.5l-226 -314h-94zM246 279q49 0 89.5 26.5t64.5 69t19 91.5q-7 54 -46 78.5t-85 24.5q-48 0 -88.5 -24.5t-63.5 -64t-20 -87.5
q7 -55 46 -84.5t84 -29.5z" />
    <glyph glyph-name="Euro" unicode="&#x20ac;" horiz-adv-x="1191" 
d="M1010 -14q-140 -27 -264.5 2.5t-221.5 105t-157 187.5t-72 249h-239l11 75h226l26 189h-226l11 75h239q52 140 144.5 252.5t211 187t251 104t262.5 3.5l-13 -87q-118 25 -234.5 1t-219.5 -88.5t-183.5 -159.5t-128.5 -213h363l-11 -75h-378l-26 -189h378l-11 -75h-362
q14 -119 69 -214.5t141 -158.5t195 -86t231 2z" />
    <glyph glyph-name="trademark" unicode="&#x2122;" horiz-adv-x="2875" 
d="M1276 1400l-12 -86h-507l-184 -1314h-86l184 1314h-505l12 86h1098zM1181 0l466 1400h51l263 -1099l570 1099h51l76 -1400h-88l-63 1177l-547 -1054h-49l-251 1054l-392 -1177h-87z" />
    <glyph glyph-name="oneeighth" unicode="&#x215b;" horiz-adv-x="1456" 
d="M199 818l76 549h-85l23 82h156l-88 -631h-82zM87 0l1004 1400h88l-1004 -1400h-88zM1052 -31q-82 0 -134 53.5t-40 136.5q7 52 37 94.5t71 69.5q-27 25 -41 62t-8 79q11 79 72 128t138 49q78 0 126 -49t37 -128q-6 -42 -30 -79t-58 -62q34 -27 51.5 -69.5t10.5 -94.5
q-12 -83 -79.5 -136.5t-152.5 -53.5zM1064 51q51 0 91 30t47 78q6 50 -24.5 84.5t-81.5 34.5q-49 0 -89 -34.5t-46 -84.5q-7 -48 23.5 -78t79.5 -30zM1108 361q44 0 79 31t40 72q7 44 -20.5 69t-71.5 25q-41 0 -75 -25t-40 -69q-6 -41 20 -72t68 -31z" />
    <glyph glyph-name="threeeighths" unicode="&#x215c;" horiz-adv-x="1593" 
d="M288 798q-83 0 -135 53.5t-41 137.5h83q-7 -49 23 -79.5t81 -30.5q49 0 87 30.5t45 79.5q8 55 -28.5 88.5t-111.5 33.5l11 76q67 0 107 27.5t46 77.5q6 42 -21 67.5t-69 25.5q-41 0 -75.5 -25.5t-39.5 -67.5h-83q11 78 72 126t138 48t124.5 -48t36.5 -126
q-7 -44 -33 -84.5t-56 -56.5q39 -33 56 -68.5t9 -93.5q-12 -84 -78 -137.5t-148 -53.5zM224 0l1004 1400h88l-1004 -1400h-88zM1189 -31q-82 0 -134 53.5t-40 136.5q7 52 37 94.5t71 69.5q-27 25 -41 62t-8 79q11 79 72 128t138 49q78 0 126 -49t37 -128q-6 -42 -30 -79
t-58 -62q34 -27 51.5 -69.5t10.5 -94.5q-12 -83 -79.5 -136.5t-152.5 -53.5zM1201 51q51 0 91 30t47 78q6 50 -24.5 84.5t-81.5 34.5q-49 0 -89 -34.5t-46 -84.5q-7 -48 23.5 -78t79.5 -30zM1245 361q44 0 79 31t40 72q7 44 -20.5 69t-71.5 25q-41 0 -75 -25t-40 -69
q-6 -41 20 -72t68 -31z" />
    <glyph glyph-name="fiveeighths" unicode="&#x215d;" horiz-adv-x="1721" 
d="M321 798q-93 0 -150 59.5t-44 151.5h83q-8 -57 28.5 -93.5t93.5 -36.5q58 0 104.5 36.5t54.5 93.5q8 58 -28 98t-93 40q-34 1 -60 -2t-55 -10t-71 -19l76 333h347l-11 -80h-272l-31 -146q135 19 216 -37.5t64 -176.5q-13 -92 -86 -151.5t-166 -59.5zM353 0l1004 1400h88
l-1004 -1400h-88zM1318 -31q-82 0 -134 53.5t-40 136.5q7 52 37 94.5t71 69.5q-27 25 -41 62t-8 79q11 79 72 128t138 49q78 0 126 -49t37 -128q-6 -42 -30 -79t-58 -62q34 -27 51.5 -69.5t10.5 -94.5q-12 -83 -79.5 -136.5t-152.5 -53.5zM1330 51q51 0 91 30t47 78
q6 50 -24.5 84.5t-81.5 34.5q-49 0 -89 -34.5t-46 -84.5q-7 -48 23.5 -78t79.5 -30zM1374 361q44 0 79 31t40 72q7 44 -20.5 69t-71.5 25q-41 0 -75 -25t-40 -69q-6 -41 20 -72t68 -31z" />
    <glyph glyph-name="seveneighths" unicode="&#x215e;" horiz-adv-x="1668" 
d="M155 818l390 548h-332l12 83h428l-11 -82l-391 -549h-96zM299 0l1004 1400h88l-1004 -1400h-88zM1264 -31q-82 0 -134 53.5t-40 136.5q7 52 37 94.5t71 69.5q-27 25 -41 62t-8 79q11 79 72 128t138 49q78 0 126 -49t37 -128q-6 -42 -30 -79t-58 -62q34 -27 51.5 -69.5
t10.5 -94.5q-12 -83 -79.5 -136.5t-152.5 -53.5zM1276 51q51 0 91 30t47 78q6 50 -24.5 84.5t-81.5 34.5q-49 0 -89 -34.5t-46 -84.5q-7 -48 23.5 -78t79.5 -30zM1320 361q44 0 79 31t40 72q7 44 -20.5 69t-71.5 25q-41 0 -75 -25t-40 -69q-6 -41 20 -72t68 -31z" />
    <glyph glyph-name="arrowleft" unicode="&#x2190;" horiz-adv-x="1351" 
d="M496 275l-409 475l543 475l51 -60l-424 -372h1027l-12 -86h-1027l319 -372z" />
    <glyph glyph-name="arrowup" unicode="&#x2191;" horiz-adv-x="1113" 
d="M437 153l145 1029l-424 -373l-54 62l544 476l409 -476l-69 -62l-320 373l-145 -1029h-86z" />
    <glyph glyph-name="arrowright" unicode="&#x2192;" horiz-adv-x="1351" 
d="M735 275l-53 60l425 372h-1026l12 86h1025l-319 372l70 60l409 -475z" />
    <glyph glyph-name="arrowdown" unicode="&#x2193;" horiz-adv-x="1112" 
d="M478 155l-407 476l68 60l320 -372l144 1026h86l-144 -1026l426 372l52 -60z" />
    <glyph glyph-name="arrowboth" unicode="&#x2194;" horiz-adv-x="1602" 
d="M496 275l-409 475l543 475l51 -60l-424 -372h1112l-319 372l69 60l410 -475l-544 -475l-53 60l425 372h-1112l319 -372z" />
    <glyph glyph-name="arrowupdn" unicode="&#x2195;" horiz-adv-x="1113" 
d="M461 28l-409 477l70 62l319 -375l157 1116l-425 -374l-51 62l542 476l410 -476l-71 -62l-319 374l-157 -1116l424 375l54 -62z" />
    <glyph glyph-name="uni2196" unicode="&#x2196;" horiz-adv-x="1034" 
d="M839 314l-625 726l-75 -527h-86l95 673h673l-12 -86h-524l623 -726z" />
    <glyph glyph-name="uni2197" unicode="&#x2197;" horiz-adv-x="1032" 
d="M86 314l-51 61l827 725h-527l12 86h673l-95 -673h-86l75 526z" />
    <glyph glyph-name="uni2198" unicode="&#x2198;" horiz-adv-x="1032" 
d="M225 314l12 86h526l-623 725l69 61l623 -725l75 526h86l-95 -673h-673z" />
    <glyph glyph-name="uni2199" unicode="&#x2199;" horiz-adv-x="1032" 
d="M26 314l95 673h86l-75 -526l827 725l52 -61l-827 -725h527l-12 -86h-673z" />
    <glyph glyph-name="partialdiff" unicode="&#x2202;" horiz-adv-x="1164" 
d="M480 -26q-138 0 -242.5 67.5t-156.5 181.5t-32 253q15 104 66.5 195t130.5 160t175.5 108t199.5 39q122 0 214.5 -55.5t142.5 -148.5q-7 119 -44.5 231t-103.5 201t-160 141t-214 52l12 86q152 0 273 -75t201.5 -208t111.5 -307.5t5 -373.5q-23 -161 -103.5 -284.5
t-203 -193t-272.5 -69.5zM492 60q118 0 220.5 58t171.5 152.5t85 205.5q16 114 -27 208.5t-129.5 151t-203.5 56.5t-219 -57.5t-170.5 -152t-84.5 -206.5q-16 -113 26.5 -207.5t128.5 -151.5t202 -57z" />
    <glyph glyph-name="emptyset" unicode="&#x2205;" horiz-adv-x="1160" 
d="M206 -45l-64 40l58 80q-83 72 -124.5 183.5t-23.5 241.5q15 110 67.5 205.5t131.5 168t175.5 113.5t199.5 41q62 0 117 -14.5t101 -41.5l56 77l63 -40l-57 -80q84 -72 124 -183.5t22 -245.5q-15 -109 -67.5 -204t-131.5 -167.5t-175 -113.5t-200 -41q-60 0 -115 16
t-102 42zM254 150l537 750q-95 55 -202 45.5t-204 -69.5t-165 -158t-85 -220q-15 -108 18.5 -198.5t100.5 -149.5zM313 104q99 -56 206.5 -46.5t203.5 70t162.5 158t83.5 216.5q15 108 -17.5 200t-98.5 152z" />
    <glyph glyph-name="product" unicode="&#x220f;" horiz-adv-x="1280" 
d="M178 1400h1120l-12 -86h-1120zM387 1345h86l-188 -1345h-86zM987 1345h86l-188 -1345h-86z" />
    <glyph glyph-name="summation" unicode="&#x2211;" horiz-adv-x="972" 
d="M-18 0l12 86l399 612l-228 612l13 86h832l-13 -86h-734l227 -612l-399 -612h735l-12 -86h-832z" />
    <glyph glyph-name="minus" unicode="&#x2212;" horiz-adv-x="1160" 
d="M60 557l12 86h1000l-12 -86h-1000z" />
    <glyph glyph-name="radical" unicode="&#x221a;" horiz-adv-x="1255" 
d="M950 1400h323l-12 -86h-263l-664 -1314h-94l-159 708h92l131 -585z" />
    <glyph glyph-name="infinity" unicode="&#x221e;" horiz-adv-x="1446" 
d="M306 328q-81 10 -138 53t-83 108.5t-15 140.5q11 79 57 145.5t115 108.5t149 48q82 0 135 -25t97.5 -77.5t99.5 -133.5q75 78 134 130.5t116 79t124 26.5q96 -6 157.5 -47.5t87.5 -107.5t14 -147q-11 -79 -56 -144.5t-113.5 -107.5t-149.5 -50q-79 0 -130.5 22.5
t-97 74.5t-104.5 139q-80 -83 -139.5 -135.5t-119 -77t-140.5 -23.5zM322 411q67 0 113.5 21t96.5 69t129 129q-59 84 -96 132t-76 67.5t-106 19.5q-87 -9 -152.5 -71.5t-78.5 -147.5q-12 -89 38.5 -149t131.5 -70zM1044 411q86 10 152 72t78 147q13 88 -36.5 149t-150.5 70
q-57 0 -101 -22.5t-94 -70.5t-126 -126q49 -69 82 -112.5t60 -66.5t58.5 -31.5t77.5 -8.5z" />
    <glyph glyph-name="integral" unicode="&#x222b;" horiz-adv-x="776" 
d="M119 -26q-41 1 -71.5 23.5t-43.5 59t-2 79.5l72 -6q-7 -29 7 -50t45 -27q29 -2 53 16t32 48l269 1179q11 42 39 71.5t65 45t74 13.5q41 -3 71 -26t42.5 -58.5t3.5 -78.5l-69 7q6 33 -11.5 54.5t-45.5 21.5q-32 5 -56 -17t-30 -47l-268 -1176q-17 -65 -63.5 -97.5
t-112.5 -34.5z" />
    <glyph glyph-name="approxequal" unicode="&#x2248;" horiz-adv-x="1181" 
d="M786 742q-61 0 -129.5 37t-136 85t-129.5 84t-112 36q-51 1 -93.5 -27.5t-66.5 -74.5t-19 -98l-85 -12q-10 72 26.5 140t103 113t145.5 45q59 0 123 -37t129.5 -85t128.5 -84.5t120 -36.5q52 0 95 28t67.5 73t17.5 95l85 15q12 -77 -25.5 -144.5t-103 -109.5t-141.5 -42z
M786 194q-61 0 -129.5 37t-136 85t-129.5 84t-112 36q-51 1 -93.5 -27.5t-66.5 -74.5t-19 -98l-85 -12q-10 72 26.5 140t103 113t145.5 45q59 0 123 -37t129.5 -85t128.5 -84.5t120 -36.5q52 0 95 28t67.5 73t17.5 95l85 15q12 -77 -25.5 -144.5t-103 -109.5t-141.5 -42z
" />
    <glyph glyph-name="notequal" unicode="&#x2260;" horiz-adv-x="1160" 
d="M862 1182l-149 -344h386l-11 -86h-412l-131 -304h499l-11 -86h-525l-151 -344h-89l150 344h-385l11 86h410l133 304h-499l11 86h525l149 344h89z" />
    <glyph glyph-name="lessequal" unicode="&#x2264;" horiz-adv-x="1160" 
d="M1031 346l-961 284l20 138l1040 286l-13 -91l-966 -263l892 -265zM-18 0l12 86h1000l-12 -86h-1000z" />
    <glyph glyph-name="greaterequal" unicode="&#x2265;" horiz-adv-x="1160" 
d="M31 348l12 90l966 263l-892 262l13 91l960 -285l-20 -138zM-18 0l12 86h1000l-12 -86h-1000z" />
    <glyph glyph-name="lozenge" unicode="&#x25ca;" horiz-adv-x="751" 
d="M230 0l-170 702l364 698h99l168 -698l-366 -702h-95zM295 134l306 568l-146 568l-304 -568z" />
    <glyph glyph-name="uniFFFD" unicode="&#xfffd;" horiz-adv-x="1630" 
d="M714 -26q-54 0 -103 20t-86 62l-355 414q-36 42 -48.5 94t-5.5 106q8 54 36 106t74 92l472 414q48 42 102.5 62t108.5 20t102.5 -20t84.5 -62l356 -414q36 -42 49 -93t5 -105q-7 -54 -34.5 -106t-75.5 -94l-473 -414q-46 -40 -100.5 -61t-108.5 -21zM773 337
q17 0 29 11.5t14 26.5t-7 26t-26 11q-15 0 -27.5 -11t-15.5 -26q-1 -15 8 -26.5t25 -11.5zM759 519h75v2q9 61 69 92q52 26 87.5 74.5t43.5 107.5q8 56 -13.5 102.5t-64.5 74t-99 27.5q-57 0 -107.5 -27.5t-84.5 -74t-43 -102.5h76q7 54 51 91.5t98 37.5q53 0 86 -37.5
t25 -91.5q-4 -38 -27 -69.5t-55 -47.5q-47 -23 -78.5 -65.5t-38.5 -91.5v-2z" />
    </font>
</defs>
</svg>
