<?xml version="1.0" standalone="no"?>
<!DOCTYPE svg PUBLIC "-//W3C//DTD SVG 1.1//EN" "http://www.w3.org/Graphics/SVG/1.1/DTD/svg11.dtd" >
<svg xmlns="http://www.w3.org/2000/svg" xmlns:xlink="http://www.w3.org/1999/xlink" version="1.1">
<metadata>
Created by FontForge 20201107 at Wed Oct 27 17:11:08 2021
 By 
Copyright 2021 The Urbanist Project Authors (https://github.com/coreyhu/Urbanist)
</metadata>
<defs>
<font id="Urbanist-ExtraBoldItalic" horiz-adv-x="1370" >
  <font-face 
    font-family="Urbanist ExtraBold"
    font-weight="800"
    font-style="italic"
    font-stretch="normal"
    units-per-em="2000"
    panose-1="2 11 10 4 4 2 0 0 2 3"
    ascent="1600"
    descent="-400"
    x-height="1000"
    cap-height="1400"
    bbox="-389 -500 2842 2102"
    underline-thickness="50"
    underline-position="-125"
    unicode-range="U+000D-FFFD"
  />
<missing-glyph horiz-adv-x="1000" 
d="M100 -500v2400h800v-2400h-800zM200 -400h600v2200h-600v-2200z" />
    <glyph glyph-name=".notdef" horiz-adv-x="1000" 
d="M100 -500v2400h800v-2400h-800zM200 -400h600v2200h-600v-2200z" />
    <glyph glyph-name=".null" horiz-adv-x="1200" 
 />
    <glyph glyph-name=".null" horiz-adv-x="1200" 
 />
    <glyph glyph-name="nonmarkingreturn" unicode="&#xd;" horiz-adv-x="1200" 
 />
    <glyph glyph-name="nonmarkingreturn" unicode="&#xfeff;" horiz-adv-x="1200" 
 />
    <glyph glyph-name="space" unicode=" " horiz-adv-x="480" 
 />
    <glyph glyph-name="exclam" unicode="!" horiz-adv-x="477" 
d="M64 420l137 980h231l-137 -980h-231zM118 -26q-59 0 -94 41t-27 100q9 58 55 98t105 40q57 0 91.5 -40t26.5 -98q-9 -59 -54.5 -100t-102.5 -41z" />
    <glyph glyph-name="quotedbl" unicode="&#x22;" horiz-adv-x="610" 
d="M87 878l73 522h186l-73 -522h-186zM387 878l73 522h186l-73 -522h-186z" />
    <glyph glyph-name="numbersign" unicode="#" horiz-adv-x="1592" 
d="M1463 862h-156l-134 -324h158l-109 -266h-156l-111 -272h-276l111 272h-338l-109 -272h-276l109 272h-156l109 266h156l134 324h-158l109 267h156l111 271h276l-111 -271h338l109 271h276l-109 -271h156zM897 538l134 324h-336l-134 -324h336z" />
    <glyph glyph-name="dollar" unicode="$" horiz-adv-x="1217" 
d="M672 1147q-64 1 -124.5 -19t-101.5 -55t-48 -80q-8 -59 22 -89t85.5 -43t122.5 -23q139 -21 252 -74.5t173 -142t42 -215.5q-15 -115 -86.5 -204.5t-178 -146.5t-229.5 -74l-29 -205h-186l29 205q-98 13 -180 53t-138.5 103.5t-74.5 146.5l273 96q7 -34 40.5 -63.5
t88 -48t121.5 -18.5q65 0 125.5 19.5t101.5 54.5t47 82q7 47 -26 78t-88.5 49.5t-115.5 28.5q-147 22 -259.5 71.5t-169.5 137t-38 222.5q17 116 88 206t178 147t229 74l29 204h186l-29 -204q96 -13 179 -53.5t139.5 -104.5t74.5 -149l-274 -94q-7 34 -40.5 63t-88 47
t-121.5 18z" />
    <glyph glyph-name="percent" unicode="%" horiz-adv-x="1578" 
d="M128 0l1004 1400h318l-1004 -1400h-318zM410 774q-87 0 -154 42t-100.5 114.5t-20.5 161.5q13 92 67.5 163.5t133 113t164.5 41.5q87 0 153 -42t99 -114.5t21 -161.5q-13 -91 -67.5 -162.5t-133 -113.5t-162.5 -42zM437 960q54 0 98.5 38.5t51.5 93.5q8 56 -25.5 94
t-87.5 38q-55 0 -100 -38t-53 -94q-7 -55 27 -93.5t89 -38.5zM1078 -12q-89 0 -154.5 44.5t-98 117.5t-20.5 156q12 91 66.5 163.5t133.5 114.5t163 42q92 0 158 -45t97 -117.5t20 -157.5q-13 -87 -66.5 -159.5t-132 -115.5t-166.5 -43zM1104 174q56 0 101 39t52 93
q8 56 -26 95t-90 39q-54 0 -98 -39t-52 -95q-7 -54 26 -93t87 -39z" />
    <glyph glyph-name="ampersand" unicode="&#x26;" horiz-adv-x="1435" 
d="M416 -26q-124 0 -214.5 61t-134 160.5t-28.5 216.5q9 64 28 112.5t52.5 93t88 96.5t135.5 123q-33 38 -54.5 69.5t-33 63t-14 65.5t3.5 76q14 96 70.5 171t137.5 118.5t170 43.5q91 0 161 -44.5t104.5 -119.5t20.5 -169q-6 -43 -18.5 -77.5t-33.5 -65.5t-52 -62.5
t-72 -68.5l197 -230l299 263l-54 -390l-78 -68l186 -217l-221 -195l-187 217q-82 -72 -141.5 -119t-108 -74.5t-97.5 -38.5t-112 -11zM455 250q30 0 54 8t50 26.5t61 50t87 77.5l-197 230q-55 -48 -91 -79.5t-57.5 -53.5t-31.5 -44.5t-15 -52.5q-6 -48 12 -84.5t52 -57
t76 -20.5zM559 990q43 37 65.5 55.5t31.5 33t12 37.5q6 45 -20.5 68.5t-57.5 23.5q-36 0 -67 -26t-37 -66q-3 -23 3.5 -39t23.5 -35t46 -52z" />
    <glyph glyph-name="quotesingle" unicode="'" horiz-adv-x="310" 
d="M87 878l73 522h186l-73 -522h-186z" />
    <glyph glyph-name="parenleft" unicode="(" horiz-adv-x="793" 
d="M303 -112q-89 103 -139 218t-62 248t10 290q10 70 37.5 160.5t67.5 186t89.5 180.5t102.5 146.5t106 82.5h276q-41 -24 -91 -84.5t-100 -144t-94.5 -177.5t-75.5 -185.5t-42 -164.5q-21 -156 4 -299.5t77.5 -261t109.5 -195.5h-276z" />
    <glyph glyph-name="parenright" unicode=")" horiz-adv-x="793" 
d="M-14 -112q80 78 164.5 195.5t150.5 261t88 299.5q10 73 5 164.5t-23 185.5t-44.5 177.5t-59.5 144t-69 84.5h276q47 -21 83 -82.5t61.5 -146.5t39.5 -180.5t16 -186t-9 -160.5q-21 -157 -71 -290t-131.5 -248t-200.5 -218h-276z" />
    <glyph glyph-name="asterisk" unicode="*" horiz-adv-x="730" 
d="M275 830l-136 110l111 127l-142 48l81 178l144 -49l22 156h186l-22 -156l156 49l33 -178l-158 -48l76 -127l-166 -110l-74 128z" />
    <glyph glyph-name="plus" unicode="+" horiz-adv-x="1160" 
d="M358 100l51 362h-362l38 276h362l51 362h276l-51 -362h362l-38 -276h-362l-51 -362h-276z" />
    <glyph glyph-name="comma" unicode="," horiz-adv-x="538" 
d="M-34 -112l109 338h276l-201 -338h-184z" />
    <glyph glyph-name="hyphen" unicode="-" horiz-adv-x="880" 
d="M125 738h640l-38 -276h-640z" />
    <glyph glyph-name="period" unicode="." horiz-adv-x="479" 
d="M117 -26q-58 0 -93 40.5t-27 99.5q9 57 55 98t104 41t93.5 -41t26.5 -98q-8 -59 -54.5 -99.5t-104.5 -40.5z" />
    <glyph glyph-name="slash" unicode="/" horiz-adv-x="842" 
d="M860 1400l-618 -1512h-276l618 1512h276z" />
    <glyph glyph-name="zero" unicode="0" horiz-adv-x="1214" 
d="M506 -26q-121 0 -213.5 56.5t-151.5 156.5t-80.5 231.5t-0.5 281.5t79.5 281.5t146 231.5t195.5 156.5t229 56.5t213 -56.5t150.5 -156.5t80 -231.5t0.5 -281.5t-79 -281.5t-145.5 -231.5t-195 -156.5t-228.5 -56.5zM545 250q99 0 171.5 64t118 167t61.5 219
q17 123 -0.5 225t-73.5 163.5t-151 61.5q-74 0 -134 -37t-104.5 -101t-73 -144.5t-41.5 -167.5q-16 -116 1 -218.5t72.5 -167t153.5 -64.5z" />
    <glyph glyph-name="one" unicode="1" horiz-adv-x="700" 
d="M166 0l157 1124h-184l113 276h386l-196 -1400h-276z" />
    <glyph glyph-name="two" unicode="2" horiz-adv-x="1160" 
d="M-18 0l34 246q66 42 161.5 108.5t199.5 147t196.5 163.5t153.5 157t69 127q7 55 -13.5 101t-61.5 73t-96 27q-56 0 -105.5 -27t-83 -73t-41.5 -101h-276q20 135 100.5 243t197.5 171t246 63q131 0 230 -64t148 -172.5t31 -240.5q-10 -68 -39.5 -132t-78 -127.5
t-113.5 -129t-143.5 -136t-170.5 -148.5h453l-38 -276h-960z" />
    <glyph glyph-name="three" unicode="3" horiz-adv-x="1035" 
d="M415 -26q-126 0 -221 61t-142.5 164.5t-29.5 229.5h276q-7 -48 11.5 -89t56 -65.5t88.5 -24.5q49 0 93.5 24.5t75.5 65.5t38 89q10 66 -20.5 110t-92.5 66t-148 22l30 211q116 0 189 41.5t84 123.5q6 41 -10 74.5t-47 54t-71 20.5q-42 0 -84.5 -20.5t-73 -54t-36.5 -74.5
h-276q12 88 59 165t118 135.5t155.5 91.5t172.5 33q115 0 204.5 -57t135.5 -153.5t29 -214.5q-11 -75 -55 -151t-113 -109q53 -21 84 -71.5t41 -115t1 -127.5q-18 -125 -95 -228.5t-189 -165t-238 -61.5z" />
    <glyph glyph-name="four" unicode="4" horiz-adv-x="1179" 
d="M576 0l45 322h-594l38 277l644 801h339l-113 -802h109l-39 -276h-108l-45 -322h-276zM384 599l275 -1l61 429z" />
    <glyph glyph-name="five" unicode="5" horiz-adv-x="1162" 
d="M455 -26q-137 0 -238 66.5t-150 177t-31 241.5h276q-8 -58 13.5 -105.5t65.5 -75.5t103 -28q57 0 108.5 28t87 75.5t43.5 105.5t-9 107t-70 78.5t-153 29.5h-366l255 726h698l-39 -276h-474l-60 -174l78 -2q142 -5 241.5 -71t146 -175t27.5 -243q-13 -99 -63 -187
t-126 -155t-169.5 -105t-194.5 -38z" />
    <glyph glyph-name="six" unicode="6" horiz-adv-x="1105" 
d="M444 -26q-136 0 -239.5 67t-154.5 180t-32 251q9 66 33.5 128.5t68.5 121.5l486 678h320l-316 -439q78 -3 144.5 -28.5t119.5 -70.5t87.5 -105.5t48.5 -132.5t3 -152q-14 -103 -65.5 -193t-130 -158.5t-174.5 -107.5t-199 -39zM482 250q64 0 119 31.5t91.5 82t44.5 106.5
q9 61 -13.5 111.5t-68.5 81t-109 30.5q-65 0 -119.5 -32t-89.5 -82.5t-43 -108.5q-9 -63 15 -112.5t70 -78.5t103 -29z" />
    <glyph glyph-name="seven" unicode="7" horiz-adv-x="1109" 
d="M3 0l805 1124h-709l39 276h1029l-39 -276l-807 -1124h-318z" />
    <glyph glyph-name="eight" unicode="8" horiz-adv-x="1101" 
d="M448 -26q-131 0 -229 60t-147 161t-32 225q14 91 63 173t124 143q-44 55 -64.5 124.5t-10.5 147.5q17 116 89.5 211t180.5 151t230 56q121 0 213 -56t138.5 -151t29.5 -211q-10 -78 -50.5 -147.5t-100.5 -124.5q60 -61 86.5 -143t13.5 -173q-17 -123 -95 -224.5
t-193 -161.5t-246 -60zM486 250q50 0 94.5 23t74.5 61.5t36 85.5q7 48 -12 86.5t-57 61.5t-87 23q-50 0 -94.5 -23t-74.5 -61.5t-37 -86.5q-5 -47 13.5 -85.5t56.5 -61.5t87 -23zM573 867q42 0 78.5 19t61.5 51.5t30 70.5q5 39 -10.5 71t-46.5 51.5t-73 19.5
q-41 0 -78 -19.5t-61.5 -51.5t-30.5 -71q-5 -38 10.5 -70.5t47 -51.5t72.5 -19z" />
    <glyph glyph-name="nine" unicode="9" horiz-adv-x="1110" 
d="M172 0l320 444q-97 3 -176.5 42t-134 105.5t-78.5 153t-10 186.5q14 102 65 191.5t129 158t173.5 107t198.5 38.5q135 0 237.5 -67t154 -179.5t32.5 -248.5q-9 -66 -34 -127.5t-68 -121.5l-489 -682h-320zM557 712q65 0 119 31.5t88.5 81.5t42.5 107q9 63 -15 112.5
t-69.5 77.5t-102.5 28q-64 0 -118.5 -31t-90 -81t-43.5 -106q-8 -60 14 -110t67.5 -80t107.5 -30z" />
    <glyph glyph-name="colon" unicode=":" horiz-adv-x="479" 
d="M222 721q-58 0 -93 40.5t-26 99.5q8 57 54 98t104 41t93.5 -41t26.5 -98q-8 -59 -54.5 -99.5t-104.5 -40.5zM117 -26q-58 0 -93 40.5t-27 99.5q9 57 55 98t104 41t93.5 -41t26.5 -98q-8 -59 -54.5 -99.5t-104.5 -40.5z" />
    <glyph glyph-name="semicolon" unicode=";" horiz-adv-x="539" 
d="M-34 -112l109 338h276l-201 -338h-184zM283 721q-59 0 -94 40.5t-26 98.5q8 58 54 99t105 41q57 0 92.5 -41t27.5 -99q-9 -58 -55.5 -98.5t-103.5 -40.5z" />
    <glyph glyph-name="less" unicode="&#x3c;" horiz-adv-x="1160" 
d="M994 84l-960 284l64 462l1040 286l-40 -288l-834 -228l769 -229z" />
    <glyph glyph-name="equal" unicode="=" horiz-adv-x="1160" 
d="M16 243l39 276h1000l-39 -276h-1000zM77 681l39 276h1000l-39 -276h-1000z" />
    <glyph glyph-name="greater" unicode="&#x3e;" horiz-adv-x="1160" 
d="M-5 95l40 287l833 218l-771 218l40 287l961 -275l-64 -462z" />
    <glyph glyph-name="question" unicode="?" horiz-adv-x="1140" 
d="M386 412q16 118 89 216.5t185 155.5q48 24 80 70.5t40 103.5q8 53 -12.5 97t-61 69.5t-93.5 25.5t-100.5 -25.5t-80 -69.5t-39.5 -97h-276q18 129 96 235t193.5 169.5t245.5 63.5t227.5 -63.5t146.5 -169.5t30 -235q-18 -133 -98.5 -245t-202.5 -172q-38 -19 -63 -53
t-31 -76h-275zM475 -26q-59 0 -93.5 41t-26.5 100q8 58 54 98t105 40q58 0 92.5 -40t25.5 -98q-8 -59 -54 -100t-103 -41z" />
    <glyph glyph-name="at" unicode="@" horiz-adv-x="1866" 
d="M796 -271q-177 0 -322.5 61t-247.5 172t-147 261t-20 327t113 332t221.5 272.5t298 183.5t340.5 66q178 0 323.5 -66.5t246 -184.5t144.5 -272.5t19 -330.5q-14 -100 -51.5 -194.5t-96 -170t-133.5 -120.5t-165 -45q-62 0 -124 27t-104.5 72t-47.5 99
q-43 -31 -95.5 -48.5t-111.5 -17.5q-109 0 -192 54t-123.5 144.5t-25.5 199.5q16 110 82 200.5t164 144t207 53.5q53 0 113 -14t91 -39l5 32l198 -45l-73 -513q-4 -34 11 -53.5t46 -19.5q42 0 73 45.5t51 105.5t26 103q17 121 -14 226t-99 184t-166.5 123.5t-216.5 44.5
q-119 0 -229.5 -45t-201 -124t-150.5 -183.5t-77 -225.5q-16 -119 14 -219.5t99 -173t168 -112.5t220 -40zM888 355q54 0 101 27.5t78.5 72t38.5 97.5q8 53 -11 97t-58.5 70t-93.5 26t-102 -26t-80.5 -70t-39.5 -99q-8 -54 12.5 -98t61 -70.5t93.5 -26.5z" />
    <glyph glyph-name="A" unicode="A" horiz-adv-x="1490" 
d="M686 1400h314l312 -1400h-293l-52 232h-575l-117 -232h-293zM531 508h374l-116 513z" />
    <glyph glyph-name="B" unicode="B" horiz-adv-x="1192" 
d="M22 0l196 1400h521q113 0 198.5 -46.5t127.5 -132.5t25 -202q-7 -47 -26.5 -97t-54.5 -92t-90 -64q65 -16 99 -59.5t47 -100t11.5 -115.5t-8.5 -107q-15 -108 -83.5 -195t-170 -138t-215.5 -51h-577zM330 235h272q55 0 104.5 26.5t83 73t40.5 105.5q8 50 -13 95t-62 73.5
t-97 28.5h-271zM420 867h213q66 0 119 43t62 111q10 70 -32 106.5t-108 36.5h-213z" />
    <glyph glyph-name="C" unicode="C" horiz-adv-x="1418" 
d="M666 -26q-142 0 -259 56.5t-197.5 156.5t-115.5 231.5t-14 281.5q21 151 93 282.5t180.5 231t241.5 156t275 56.5q170 0 302 -78.5t208 -209.5l-266 -133q-45 66 -118.5 105.5t-164.5 39.5q-85 0 -164.5 -35t-145 -97t-109 -143t-56.5 -175q-13 -93 7.5 -174.5t68 -143
t118 -97t155.5 -35.5q91 0 175 40t149 106l227 -134q-112 -130 -266 -209t-324 -79z" />
    <glyph glyph-name="D" unicode="D" horiz-adv-x="1344" 
d="M22 0l196 1400h464q145 0 264 -54.5t202 -151t119.5 -223t16.5 -271.5t-92.5 -271.5t-182 -223t-244 -151t-279.5 -54.5h-464zM337 276h187q87 0 168 33t148 91t111 135t57 165q12 88 -10.5 164.5t-72.5 135t-122.5 91.5t-159.5 33h-188z" />
    <glyph glyph-name="E" unicode="E" horiz-adv-x="1106" 
d="M22 0l196 1400h886l-39 -276h-610l-33 -236h476l-38 -276h-476l-47 -336h610l-39 -276h-886z" />
    <glyph glyph-name="F" unicode="F" horiz-adv-x="970" 
d="M22 0l196 1400h830l-39 -276h-554l-33 -236h458l-38 -276h-458l-86 -612h-276z" />
    <glyph glyph-name="G" unicode="G" horiz-adv-x="1537" 
d="M666 -26q-146 0 -263.5 57t-197 157.5t-113 232.5t-12.5 281q23 160 98.5 292t187 228.5t243.5 149t267 52.5q148 0 280.5 -69t222.5 -219l-265 -132q-54 74 -127 110t-154 36q-80 0 -159.5 -33t-146 -94t-112 -144t-60.5 -183q-13 -93 8 -174t69.5 -142t119 -95.5
t156.5 -34.5q54 0 107 15.5t105 45.5t97.5 75t83.5 104h-216l34 240h542q-17 -155 -87 -292t-179.5 -241.5t-245 -163.5t-283.5 -59z" />
    <glyph glyph-name="H" unicode="H" horiz-adv-x="1324" 
d="M1026 1400h276l-196 -1400h-276l86 612h-532l-86 -612h-276l196 1400h276l-72 -512h532z" />
    <glyph glyph-name="I" unicode="I" horiz-adv-x="576" 
d="M52 0l196 1400h276l-196 -1400h-276z" />
    <glyph glyph-name="J" unicode="J" horiz-adv-x="914" 
d="M232 -26q-80 0 -152.5 27t-126.5 80l207 212q16 -15 43.5 -29t67.5 -14q50 0 95.5 25.5t76.5 68t38 92.5l135 964h276l-135 -964q-18 -127 -95 -231.5t-190 -167.5t-240 -63z" />
    <glyph glyph-name="K" unicode="K" horiz-adv-x="1205" 
d="M1083 0h-360l-300 524l-60 -62l-65 -462h-276l196 1400h276l-72 -509l498 509h360l-646 -660z" />
    <glyph glyph-name="L" unicode="L" horiz-adv-x="1060" 
d="M22 0l196 1400h276l-157 -1124h564l-39 -276h-840z" />
    <glyph glyph-name="M" unicode="M" horiz-adv-x="1901" 
d="M22 0l468 1400h233l205 -857l446 857h233l76 -1400h-282l-42 803l-410 -789h-190l-188 789l-268 -803h-281z" />
    <glyph glyph-name="N" unicode="N" horiz-adv-x="1360" 
d="M22 0l196 1400h298l420 -901l126 901h276l-196 -1400h-298l-420 901l-126 -901h-276z" />
    <glyph glyph-name="O" unicode="O" horiz-adv-x="1540" 
d="M668 -26q-142 0 -259.5 56.5t-198 156.5t-116 231.5t-14.5 281.5t93 281.5t181.5 231.5t242.5 156.5t275 56.5q143 0 260 -56.5t197.5 -156.5t116 -231.5t14.5 -281.5t-93 -281.5t-181.5 -231.5t-242 -156.5t-275.5 -56.5zM707 250q85 0 165 35.5t145.5 97.5t109.5 143
t57 174t-8 174.5t-69 143t-118 97t-156 35.5q-85 0 -165 -35.5t-145.5 -97.5t-109.5 -143t-57 -174t8 -174.5t69 -143t118 -97t156 -35.5z" />
    <glyph glyph-name="P" unicode="P" horiz-adv-x="1126" 
d="M22 0l196 1400h516q115 0 200 -58t126 -154.5t24 -212.5q-16 -118 -86 -214.5t-171.5 -153.5t-211.5 -57h-240l-77 -550h-276zM413 826h210q45 0 85.5 22.5t68.5 61t34 85.5q7 46 -10 84.5t-51.5 61.5t-79.5 23h-209z" />
    <glyph glyph-name="Q" unicode="Q" horiz-adv-x="1579" 
d="M1199 -48l-132 151q-88 -58 -189.5 -90t-208.5 -32q-142 0 -259.5 56.5t-198 156t-116 231t-14.5 282.5q21 150 93 281.5t181.5 231.5t242.5 156.5t275 56.5q143 0 260 -56.5t197.5 -156.5t116 -231.5t14.5 -281.5q-16 -112 -61.5 -214t-112.5 -190l134 -156zM708 257
q48 0 96 12.5t91 35.5l-88 103l223 195l80 -94q30 45 49 95t26 103q12 93 -8.5 174.5t-69 143.5t-118.5 97t-155 35t-165 -35.5t-146 -97.5t-109.5 -143t-56.5 -174t8 -174.5t69 -143.5t118.5 -97t155.5 -35z" />
    <glyph glyph-name="R" unicode="R" horiz-adv-x="1243" 
d="M22 0l196 1400h556q114 0 199 -57.5t125.5 -154t23.5 -213.5q-12 -92 -55.5 -170.5t-109.5 -137.5t-148 -92l253 -575h-318l-242 550h-127l-77 -550h-276zM413 826h248q45 0 85.5 22.5t68.5 61t34 85.5q7 46 -10 84.5t-51.5 61.5t-79.5 23h-247z" />
    <glyph glyph-name="S" unicode="S" horiz-adv-x="1257" 
d="M527 -26q-118 0 -220.5 37t-172.5 107t-92 166l273 96q7 -34 40.5 -63.5t88 -48t121.5 -18.5q65 0 125.5 19.5t101.5 54.5t47 82q7 47 -26 78t-88.5 49.5t-115.5 28.5q-147 22 -259.5 71.5t-169.5 137t-38 222.5q19 130 106 227t215 151t268 54q116 0 218.5 -37t174 -107
t92.5 -168l-274 -94q-7 34 -40.5 63t-88 47t-121.5 18q-64 1 -124.5 -19t-101.5 -55t-48 -80q-8 -59 22 -89t85.5 -43t122.5 -23q139 -21 252 -74.5t173 -142t42 -215.5q-17 -130 -104 -227t-215 -151t-269 -54z" />
    <glyph glyph-name="T" unicode="T" horiz-adv-x="1260" 
d="M1278 1400l-39 -276h-412l-157 -1124h-276l157 1124h-412l39 276h1100z" />
    <glyph glyph-name="U" unicode="U" 
d="M584 -26q-168 0 -284 82t-168 220.5t-28 307.5l114 816h276l-114 -816q-13 -91 10.5 -167t82 -121.5t150.5 -45.5t163 45t115 121t57 168l114 816h276l-114 -816q-18 -127 -74.5 -237.5t-142.5 -194.5t-196.5 -131t-236.5 -47z" />
    <glyph glyph-name="V" unicode="V" horiz-adv-x="1555" 
d="M502 0l-312 1400h293l241 -1081l545 1081h292l-704 -1400h-355z" />
    <glyph glyph-name="W" unicode="W" horiz-adv-x="1919" 
d="M352 0l-162 1400h285l103 -895l353 895h253l103 -895l353 895h285l-552 -1400h-312l-90 778l-307 -778h-312z" />
    <glyph glyph-name="X" unicode="X" horiz-adv-x="1486" 
d="M-38 0l611 704l-409 696h340l272 -462l402 462h340l-603 -696l413 -704h-342l-275 468l-407 -468h-342z" />
    <glyph glyph-name="Y" unicode="Y" horiz-adv-x="1364" 
d="M1076 1400h326l-592 -769l-88 -631h-276l88 631l-376 769h326l230 -469z" />
    <glyph glyph-name="Z" unicode="Z" horiz-adv-x="1292" 
d="M-18 0l39 276l877 848h-759l39 276h1132l-39 -276l-877 -848h759l-39 -276h-1132z" />
    <glyph glyph-name="bracketleft" unicode="[" horiz-adv-x="672" 
d="M497 164l-39 -276h-452l212 1512h452l-38 -276h-177l-134 -960h176z" />
    <glyph glyph-name="backslash" unicode="\" horiz-adv-x="840" 
d="M370 -112l-192 1512h276l192 -1512h-276z" />
    <glyph glyph-name="bracketright" unicode="]" horiz-adv-x="674" 
d="M-14 -112l39 276h178l135 960h-179l39 276h454l-212 -1512h-454z" />
    <glyph glyph-name="asciicircum" unicode="^" horiz-adv-x="1012" 
d="M122 1000l328 650h380l144 -650h-294l-81 363l-183 -363h-294z" />
    <glyph glyph-name="underscore" unicode="_" horiz-adv-x="1240" 
d="M45 164h1000l-39 -276h-1000z" />
    <glyph glyph-name="grave" unicode="`" horiz-adv-x="1116" 
d="M406 1398h276l40 -288h-184z" />
    <glyph glyph-name="a" unicode="a" horiz-adv-x="1209" 
d="M896 1000h276l-140 -1000h-277l1 104q-47 -58 -113 -94t-148 -36q-112 0 -203.5 42t-154.5 116t-91 171.5t-12 209.5q15 107 67.5 200t132.5 164t178.5 111t205.5 40q92 0 160 -39t115 -99zM524 239q69 0 129 35t100.5 94.5t50.5 131.5q10 73 -14 132t-74 94t-118 35
q-69 0 -130 -35t-102 -94.5t-51 -131.5t15 -131.5t76 -94.5t118 -35z" />
    <glyph glyph-name="b" unicode="b" horiz-adv-x="1252" 
d="M711 1028q146 0 255.5 -71t164 -190.5t33.5 -264.5q-15 -109 -69.5 -205t-137 -168.5t-184 -113.5t-210.5 -41q-86 0 -148 38t-101 96l-15 -108h-276l210 1500h276l-85 -606q56 59 128.5 96.5t158.5 37.5zM597 241q68 0 129.5 35t103 94.5t51.5 131.5t-15 131t-76 94.5
t-120 35.5q-68 0 -127.5 -35.5t-99.5 -95t-50 -130.5q-10 -73 13.5 -132t73 -94t117.5 -35z" />
    <glyph glyph-name="c" unicode="c" horiz-adv-x="1020" 
d="M658 316l229 -134q-82 -94 -194 -151t-235 -57q-138 0 -241.5 71t-154 190.5t-30.5 264.5q15 110 67.5 205.5t131.5 168t175.5 113.5t199.5 41q123 0 219.5 -57t151.5 -153l-268 -134q-26 33 -63 50.5t-79 17.5q-63 0 -118.5 -35t-93 -92.5t-47.5 -124.5q-9 -66 12 -123
t67 -92t110 -35q43 0 84.5 18t76.5 48z" />
    <glyph glyph-name="d" unicode="d" horiz-adv-x="1251" 
d="M967 1500h276l-210 -1500h-276l15 106q-55 -58 -128 -95t-160 -37q-109 0 -198.5 41t-151.5 113.5t-89.5 167.5t-12.5 204t69.5 204t137 167.5t183.5 113.5t210 41q87 0 149.5 -36.5t101.5 -95.5zM524 239q69 0 129 35t100.5 94.5t50.5 131.5q10 73 -14 132t-74 94
t-118 35q-69 0 -130 -35t-102 -94.5t-51 -131.5t15 -131.5t76 -94.5t118 -35z" />
    <glyph glyph-name="e" unicode="e" horiz-adv-x="1119" 
d="M458 -26q-138 0 -241.5 71t-154 191t-30.5 265q15 109 67.5 204.5t131.5 168t175.5 113.5t199.5 41q119 0 210 -51t147.5 -139t70 -199t-22.5 -231h-694q7 -44 29.5 -79.5t60 -56.5t90.5 -22q52 -1 99.5 24t84.5 67l272 -65q-79 -133 -212 -217.5t-283 -84.5zM335 612
h426q-6 50 -32 90t-66 63t-90 23t-96.5 -23t-83 -62.5t-58.5 -90.5z" />
    <glyph glyph-name="f" unicode="f" horiz-adv-x="748" 
d="M496 1194l-28 -194h265l-39 -276h-264l-102 -724h-276l102 724h-101l39 276h100l28 194q13 91 68.5 165.5t137 119.5t172.5 45q67 0 128.5 -27.5t103.5 -85.5l-226 -195q-5 16 -17.5 24t-26.5 8q-23 0 -42 -15.5t-22 -38.5z" />
    <glyph glyph-name="g" unicode="g" horiz-adv-x="1242" 
d="M888 1000h276l-142 -1014q-16 -111 -73.5 -200.5t-144.5 -153.5t-192 -98t-217 -34q-106 0 -196.5 41.5t-155.5 114.5t-94 168l268 115q14 -50 46 -86t76.5 -55.5t95.5 -19.5q54 0 106.5 13t96 39t72 65t36.5 91l16 116q-54 -57 -124.5 -92.5t-156.5 -35.5
q-108 0 -197 41t-150.5 113.5t-89 167.5t-12.5 204t69.5 204t136.5 167.5t182.5 113.5t208.5 41q86 0 146.5 -35.5t98.5 -92.5zM522 239q68 0 127.5 35.5t100 94.5t50.5 131t-13.5 131.5t-73.5 94.5t-118 35q-67 0 -127.5 -35t-101.5 -94.5t-51 -131.5t14.5 -131.5t75 -94.5
t117.5 -35z" />
    <glyph glyph-name="h" unicode="h" horiz-adv-x="1130" 
d="M1040 636l-88 -636h-276l79 560q7 53 -12.5 95.5t-58.5 67.5t-92 25q-52 0 -98 -25t-77 -67.5t-38 -95.5l-79 -560h-276l209 1500h276l-80 -574q58 48 129 75t146 27q109 0 190 -53t121.5 -141.5t24.5 -197.5z" />
    <glyph glyph-name="i" unicode="i" horiz-adv-x="516" 
d="M162 1000h276l-140 -1000h-276zM319 1115q-61 0 -96 40t-27 99t54.5 99t106.5 40q58 0 93 -40t27 -99q-9 -59 -54 -99t-104 -40z" />
    <glyph glyph-name="j" unicode="j" horiz-adv-x="501" 
d="M-249 -500l40 276q51 0 96 24.5t76 66.5t39 93l145 1040h276l-145 -1040q-18 -127 -95 -231t-190 -166.5t-242 -62.5zM304 1115q-61 0 -96 40t-27 99t54.5 99t106.5 40q58 0 93 -40t27 -99q-9 -59 -54 -99t-104 -40z" />
    <glyph glyph-name="k" unicode="k" horiz-adv-x="1099" 
d="M951 0h-318l-161 365l-142 -145l-31 -220h-276l210 1500h276l-120 -851l344 351h360l-401 -411z" />
    <glyph glyph-name="l" unicode="l" horiz-adv-x="517" 
d="M23 0l210 1500h276l-210 -1500h-276z" />
    <glyph glyph-name="m" unicode="m" horiz-adv-x="1777" 
d="M22 0l140 1000h276l-11 -74q58 48 129 75t146 27q102 0 180.5 -47t120.5 -125q64 78 155.5 125t192.5 47q109 0 190 -53t122 -141.5t25 -197.5l-89 -636h-276l79 560q7 52 -12.5 94.5t-58.5 68t-91 25.5q-51 0 -97 -25t-77 -67.5t-39 -95.5l-79 -560h-276l79 560
q8 53 -11.5 95.5t-59 67.5t-91.5 25q-51 0 -97 -25.5t-77 -68t-38 -94.5l-79 -560h-276z" />
    <glyph glyph-name="n" unicode="n" horiz-adv-x="1129" 
d="M1039 636l-88 -636h-276l79 560q7 53 -12.5 95.5t-58.5 67.5t-92 25q-52 0 -98 -25t-77 -67.5t-38 -95.5l-79 -560h-276l139 1000h276l-10 -74q58 48 129 75t146 27q109 0 190 -53t121.5 -141.5t24.5 -197.5z" />
    <glyph glyph-name="o" unicode="o" horiz-adv-x="1120" 
d="M458 -26q-138 0 -241.5 71t-154 190.5t-30.5 264.5q15 110 67.5 205.5t131.5 168t175.5 113.5t199.5 41q138 0 241.5 -71t154.5 -191t30 -266q-15 -109 -67.5 -204t-131.5 -167.5t-175 -113.5t-200 -41zM497 250q63 0 118.5 34.5t93.5 91.5t47 124q10 69 -12.5 126.5
t-68.5 91.5t-108 34t-118 -35t-93.5 -92t-47.5 -125q-10 -71 13 -127.5t69 -89.5t107 -33z" />
    <glyph glyph-name="p" unicode="p" horiz-adv-x="1250" 
d="M227 -500h-276l211 1500h276l-15 -108q56 59 127.5 96.5t159.5 37.5q109 0 198.5 -41t152 -113.5t89.5 -167.5t12 -204t-69.5 -205t-137 -168.5t-183.5 -113.5t-210 -41q-88 0 -149 38t-100 96zM668 761q-67 0 -126.5 -35.5t-99.5 -94.5t-50 -131t13 -131.5t72.5 -94.5
t117.5 -35t129.5 35t103.5 94t52 132q10 71 -15 130.5t-76.5 95t-120.5 35.5z" />
    <glyph glyph-name="q" unicode="q" horiz-adv-x="1250" 
d="M484 -28q-145 0 -254.5 71t-163.5 191t-34 266q15 109 69.5 204t137 167.5t183.5 113.5t210 41q87 0 148.5 -37.5t100.5 -96.5l15 108h276l-211 -1500h-276l86 606q-56 -58 -128 -96t-159 -38zM598 761q-69 0 -130 -35.5t-102 -95t-51 -130.5q-10 -73 14.5 -132t75.5 -94
t119 -35q69 0 128.5 35t99.5 94.5t50 131.5t-13.5 131t-73 94.5t-117.5 35.5z" />
    <glyph glyph-name="r" unicode="r" horiz-adv-x="787" 
d="M23 0l139 1000h276l-10 -74q58 48 129 75t146 27q55 0 108 -16l-148 -279q-33 15 -72 15q-52 0 -98 -25t-77 -67.5t-38 -95.5l-79 -560h-276z" />
    <glyph glyph-name="s" unicode="s" horiz-adv-x="872" 
d="M310 -18q-76 6 -143 32.5t-116.5 72t-71.5 109.5l246 100q9 -16 28 -34.5t49.5 -32.5t71.5 -14q31 0 61 7.5t50.5 25t24.5 46.5q5 32 -16 49t-52 25.5t-61 14.5q-89 16 -164.5 57.5t-117.5 107.5t-29 158q15 101 77.5 174.5t153.5 113.5t190 40q117 0 209.5 -49
t142.5 -138l-236 -129q-11 19 -29 36.5t-42.5 30t-54.5 14.5q-39 3 -72 -4.5t-54 -27.5t-26 -54q-5 -33 21.5 -48.5t64 -23t65.5 -17.5q83 -28 153 -71.5t108.5 -106.5t23.5 -148q-14 -99 -83.5 -173.5t-168.5 -113t-203 -29.5z" />
    <glyph glyph-name="t" unicode="t" horiz-adv-x="724" 
d="M668 724h-181l-101 -724h-276l101 724h-137l38 276h138l44 314h276l-44 -314h180z" />
    <glyph glyph-name="u" unicode="u" horiz-adv-x="1089" 
d="M33 366l89 634h276l-79 -558q-7 -53 12.5 -95.5t59 -67.5t90.5 -25q53 0 99 25t77.5 67.5t37.5 95.5l79 558h276l-139 -1000h-276l9 76q-57 -48 -128 -75t-146 -27q-108 0 -189.5 53t-122 141.5t-25.5 197.5z" />
    <glyph glyph-name="v" unicode="v" horiz-adv-x="1205" 
d="M683 0h-357l-224 1000h294l153 -683l343 683h295z" />
    <glyph glyph-name="w" unicode="w" horiz-adv-x="1730" 
d="M568 0h-272l-194 1000h270l117 -599l283 599h270l115 -599l284 599h271l-475 -1000h-271l-115 600z" />
    <glyph glyph-name="x" unicode="x" horiz-adv-x="1232" 
d="M-18 0l436 502l-292 498h340l154 -262l230 262h341l-433 -498l296 -502h-340l-160 268l-232 -268h-340z" />
    <glyph glyph-name="y" unicode="y" horiz-adv-x="1180" 
d="M848 1000h294l-759 -1500h-292l251 500l-220 1000h302l108 -623z" />
    <glyph glyph-name="z" unicode="z" horiz-adv-x="1014" 
d="M937 724l-518 -448h456l-39 -276h-854l39 276l518 448h-456l39 276h854z" />
    <glyph glyph-name="braceleft" unicode="{" horiz-adv-x="826" 
d="M494 -112q-97 0 -170 47t-108.5 126.5t-22.5 176.5l34 244q3 25 -15 42.5t-43.5 32.5t-43 35.5t-13.5 51.5q4 29 28 49.5t53.5 37.5t52.5 34t27 39l34 246q14 96 72 175.5t144 127t183 47.5h118l-39 -276h-118q-20 0 -38 -10t-30.5 -26.5t-15.5 -37.5l-36 -255
q-6 -32 -29 -55.5t-46.5 -46t-33.5 -49.5q2 -31 19.5 -52t34 -43.5t13.5 -55.5l-36 -255q-3 -21 4.5 -38t23 -26.5t35.5 -9.5h119l-39 -276h-118z" />
    <glyph glyph-name="bar" unicode="|" horiz-adv-x="556" 
d="M238 1400h276l-239 -1702h-276z" />
    <glyph glyph-name="braceright" unicode="}" horiz-adv-x="826" 
d="M-14 -112l39 276h118q20 0 38 9.5t30.5 26.5t15.5 38l36 255q7 33 29.5 55.5t46 43.5t33.5 52q-1 27 -19 49.5t-34 46t-14 55.5l36 255q3 21 -4.5 37.5t-23 26.5t-35.5 10h-119l39 276h118q97 0 170 -47.5t109 -127t22 -175.5l-34 -246q-3 -22 15.5 -39t43.5 -34
t42.5 -37.5t13.5 -49.5q-4 -31 -28 -51.5t-53 -35.5t-52.5 -32.5t-27.5 -42.5l-34 -244q-13 -97 -71.5 -176.5t-144.5 -126.5t-183 -47h-118z" />
    <glyph glyph-name="asciitilde" unicode="~" horiz-adv-x="1330" 
d="M938 390q-67 0 -139 24.5t-143.5 56.5t-137 56.5t-117.5 24.5q-28 0 -45.5 -14.5t-26 -37t-11.5 -47.5l-269 6q0 91 50.5 171t132.5 130t176 50q66 0 130.5 -25.5t126.5 -59t120 -59t111 -25.5q28 0 46 13.5t28 37t12 51.5l269 -6q1 -92 -38.5 -171t-110 -127.5
t-164.5 -48.5z" />
    <glyph glyph-name="uni00A0" unicode="&#xa0;" horiz-adv-x="480" 
 />
    <glyph glyph-name="exclamdown" unicode="&#xa1;" horiz-adv-x="473" 
d="M264 1026q58 0 93 -40.5t26 -100.5q-8 -57 -54 -97.5t-105 -40.5q-56 0 -91 40.5t-27 97.5q9 60 55 100.5t103 40.5zM317 580l-138 -980h-231l138 980h231z" />
    <glyph glyph-name="cent" unicode="&#xa2;" horiz-adv-x="1092" 
d="M391 0l28 207q-111 23 -194 93t-122.5 174.5t-22.5 227.5q17 122 85.5 226.5t171 174.5t221.5 92l29 205h186l-29 -205q104 -20 183 -81.5t122 -151.5l-258 -138q-25 47 -72.5 75.5t-104.5 28.5q-61 0 -117 -30.5t-94 -82t-47 -113.5q-8 -63 15.5 -115t70.5 -82.5
t109 -30.5q57 0 112 28.5t93 75.5l219 -138q-67 -90 -163 -151.5t-207 -81.5l-28 -207h-186z" />
    <glyph glyph-name="sterling" unicode="&#xa3;" horiz-adv-x="1206" 
d="M6 0l39 276q48 0 102 12.5t98.5 35.5t66 56t5.5 75q-9 30 -29.5 61.5t-46.5 65.5t-52 71t-46.5 77t-30.5 83.5t-3 90.5q14 107 69 201.5t136.5 167t182 113t207.5 40.5q108 0 197.5 -40.5t151.5 -112.5t89 -166.5t13 -202.5h-276q9 68 -16.5 124t-77 89t-120.5 33
q-67 0 -127.5 -33t-102 -89t-50.5 -124q-8 -56 6 -100t41 -82t58.5 -74t58 -76.5t40 -89.5t4.5 -114q-3 -19 -10 -37t-15 -33t-15 -22h490l-38 -276h-999zM68 445l26 186h776l-26 -186h-776z" />
    <glyph glyph-name="currency" unicode="&#xa4;" horiz-adv-x="1040" 
d="M150 260l-114 132l150 131q-24 54 -26 115.5t18 123t60 115.5l-114 133l150 130l113 -131q57 31 120.5 41.5t124.5 1t110 -40.5l150 129l112 -130l-147 -129q25 -55 27.5 -118t-17 -126t-60.5 -118l109 -127l-149 -132l-109 127q-61 -32 -124.5 -43t-124 0t-112.5 45z
M498 525q49 1 91 24t70.5 62t35.5 88q7 51 -11.5 89.5t-55 60t-81.5 22.5q-51 1 -94 -23.5t-70 -64.5t-34 -84q-7 -48 11 -88t54 -63.5t84 -22.5z" />
    <glyph glyph-name="yen" unicode="&#xa5;" horiz-adv-x="1368" 
d="M448 0l18 134h-226l26 186h226l11 80h-226l27 186h226l6 45l-376 769h326l230 -469l362 469h326l-592 -769l-6 -45h226l-27 -186h-226l-11 -80h226l-26 -186h-226l-18 -134h-276z" />
    <glyph glyph-name="brokenbar" unicode="&#xa6;" horiz-adv-x="516" 
d="M85 448h276l-106 -750h-276zM218 1400h276l-105 -750h-276z" />
    <glyph glyph-name="section" unicode="&#xa7;" horiz-adv-x="1110" 
d="M393 -363q-117 0 -209.5 49t-142.5 138l236 129q10 -18 28.5 -36t43 -30.5t53.5 -14.5q40 -3 72.5 4.5t54 27.5t25.5 54q6 33 -20 50.5t-63 26t-67 12.5q-104 13 -180 80t-111.5 166t-20.5 207q10 70 39 135t73 119.5t99 93.5q-38 35 -54.5 81.5t-8.5 104.5
q15 102 77.5 175.5t153.5 113.5t190 40q117 0 209.5 -49t142.5 -138l-236 -129q-10 18 -28.5 36t-43.5 30.5t-54 14.5q-39 3 -71.5 -4.5t-54 -27.5t-26.5 -54q-4 -32 20 -49t60 -24.5t66 -13.5q110 -21 186.5 -84t112 -158t18.5 -213q-9 -71 -38.5 -135t-74 -118t-99.5 -94
q38 -35 55 -82t9 -105q-14 -102 -77 -175.5t-154 -113.5t-190 -40zM510 287q48 0 93.5 31t77.5 79.5t39 101.5q9 64 -11 111.5t-63.5 75t-108.5 27.5q-44 0 -88 -32t-76 -81t-39 -100q-9 -59 10 -107.5t61.5 -77t104.5 -28.5z" />
    <glyph glyph-name="dieresis" unicode="&#xa8;" horiz-adv-x="1502" 
d="M593 1067q-60 0 -95 39.5t-27 99.5q8 58 54.5 99t106.5 41q58 0 93 -41t27 -99q-8 -60 -54.5 -99.5t-104.5 -39.5zM1014 1067q-59 0 -94.5 39.5t-27.5 99.5q8 58 55 99t106 41t94 -41t26 -99q-8 -60 -54 -99.5t-105 -39.5z" />
    <glyph glyph-name="copyright" unicode="&#xa9;" horiz-adv-x="1938" 
d="M820 -350q-184 0 -335 69t-256 191t-151 282.5t-20 345.5q25 184 117 345t230.5 283t309.5 191t355 69q185 0 336.5 -68.5t257 -190.5t151.5 -283t21 -345q-26 -186 -118 -346.5t-232 -282.5t-310.5 -191t-355.5 -69zM859 -74q131 0 249 48.5t214 133.5t158.5 195.5
t79.5 234.5q17 126 -14.5 236.5t-104 195.5t-177 132.5t-232.5 47.5q-130 0 -248 -48.5t-213.5 -133.5t-157.5 -195t-79 -235q-19 -130 14 -241.5t106 -194.5t177.5 -129.5t227.5 -46.5zM1067 354l229 -134q-82 -94 -194 -151t-235 -57q-138 0 -241.5 71t-154 190.5
t-30.5 264.5q15 110 67.5 205.5t131.5 168t175.5 113.5t199.5 41q123 0 219.5 -57t151.5 -153l-267 -134q-26 33 -63 50.5t-79 17.5q-64 0 -119.5 -35.5t-93 -92.5t-47.5 -123q-9 -67 12.5 -124t67.5 -92t109 -35q43 0 85 18t76 48z" />
    <glyph glyph-name="ordfeminine" unicode="&#xaa;" horiz-adv-x="1209" 
d="M896 1000h276l-140 -1000h-277l1 104q-47 -58 -113 -94t-148 -36q-112 0 -203.5 42t-154.5 116t-91 171.5t-12 209.5q15 107 67.5 200t132.5 164t178.5 111t205.5 40q92 0 160 -39t115 -99zM524 239q69 0 129 35t100.5 94.5t50.5 131.5q10 73 -14 132t-74 94t-118 35
q-69 0 -130 -35t-102 -94.5t-51 -131.5t15 -131.5t76 -94.5t118 -35z" />
    <glyph glyph-name="guillemotleft" unicode="&#xab;" horiz-adv-x="1224" 
d="M358 261l-252 340l348 338h278l-346 -338l250 -340h-278zM784 261l-252 340l348 338h278l-346 -338l250 -340h-278z" />
    <glyph glyph-name="logicalnot" unicode="&#xac;" horiz-adv-x="1038" 
d="M623 281l51 362h-602l39 276h879l-91 -638h-276z" />
    <glyph glyph-name="uni00AD" unicode="&#xad;" horiz-adv-x="884" 
d="M129 738h640l-38 -276h-640z" />
    <glyph glyph-name="registered" unicode="&#xae;" horiz-adv-x="1164" 
d="M536 379q-108 0 -197 40.5t-150 112.5t-88.5 166.5t-12.5 203.5q16 108 69.5 202t135.5 166t182 112.5t208 40.5q110 0 199.5 -41.5t150.5 -114t87.5 -166t11.5 -199.5q-15 -110 -69.5 -205t-137 -166.5t-182.5 -111.5t-207 -40zM563 574q91 0 171.5 44t135.5 118.5
t67 165.5q13 90 -20.5 164t-102 118t-159.5 44q-90 0 -170 -44t-134.5 -118t-67.5 -164q-12 -91 21.5 -165.5t101 -118.5t157.5 -44zM439 700l61 434h171q55 0 88 -41t25 -98q-6 -39 -29 -71.5t-57 -49.5l78 -174h-120l-71 156h-19l-22 -156h-105zM580 961h66q11 0 21 10
t12 24q2 15 -5 24.5t-19 9.5h-65z" />
    <glyph glyph-name="macron" unicode="&#xaf;" horiz-adv-x="1200" 
d="M352 1340h676l-29 -204h-676z" />
    <glyph glyph-name="degree" unicode="&#xb0;" horiz-adv-x="978" 
d="M486 672q-116 0 -201 57t-126 150t-26 201q16 111 83.5 204t168.5 148.5t215 55.5q117 0 201 -57t124.5 -150t25.5 -201q-16 -117 -85 -209t-169.5 -145.5t-210.5 -53.5zM525 948q54 0 98.5 38.5t51.5 93.5q8 56 -25.5 94t-87.5 38q-55 0 -100 -38t-53 -94
q-7 -55 27 -93.5t89 -38.5z" />
    <glyph glyph-name="plusminus" unicode="&#xb1;" horiz-adv-x="1160" 
d="M399 390l50 362h-362l39 276h362l51 362h276l-51 -362h362l-39 -276h-362l-50 -362h-276zM-18 0l39 276h1000l-39 -276h-1000z" />
    <glyph glyph-name="uni00B2" unicode="&#xb2;" horiz-adv-x="721" 
d="M113 818l19 139q46 29 97 58t100 61t91.5 72t73.5 90q6 35 -14.5 58.5t-54.5 23.5t-62 -23.5t-33 -58.5h-159q10 67 50 119t99.5 81.5t125.5 29.5q100 0 160.5 -65t46.5 -165q-5 -40 -27.5 -75t-55 -66.5t-70.5 -61t-77 -59.5h182l-22 -158h-470z" />
    <glyph glyph-name="uni00B3" unicode="&#xb3;" horiz-adv-x="583" 
d="M307 798q-91 0 -147.5 59t-43.5 151h158q-4 -27 11.5 -44.5t41.5 -17.5q25 0 45 17.5t24 44.5q5 32 -20 60t-83 28l14 102q58 0 82 25t27 50q2 20 -9.5 33.5t-31.5 13.5q-19 0 -35.5 -13.5t-18.5 -33.5h-158q11 86 79.5 140.5t153.5 54.5q86 0 138 -54.5t40 -140.5
q-4 -33 -19 -64.5t-38 -57.5q25 -29 34 -66t4 -77q-13 -92 -86 -151t-162 -59z" />
    <glyph glyph-name="acute" unicode="&#xb4;" horiz-adv-x="1116" 
d="M510 1110l120 288h276l-212 -288h-184z" />
    <glyph glyph-name="uni00B5" unicode="&#xb5;" horiz-adv-x="1158" 
d="M-79 -432l201 1432h276l-71 -505q-9 -71 11.5 -129t68 -92.5t116.5 -34.5q68 0 120.5 34.5t86.5 92.5t44 129l70 505h276l-140 -1000h-276l15 103q-57 -57 -127 -94t-154 -37q-53 0 -97.5 13.5t-79.5 35.5l-64 -453h-276z" />
    <glyph glyph-name="paragraph" unicode="&#xb6;" horiz-adv-x="1120" 
d="M279 -302l144 1020q-94 0 -165 46t-105.5 123.5t-21.5 172.5q13 94 69.5 171t140 123t177.5 46h276l-239 -1702h-276zM623 -302l239 1702h276l-239 -1702h-276z" />
    <glyph glyph-name="periodcentered" unicode="&#xb7;" horiz-adv-x="439" 
d="M186 461q-59 0 -93.5 40.5t-26.5 98.5t54 98.5t105 40.5q58 0 93 -40.5t27 -98.5t-54.5 -98.5t-104.5 -40.5z" />
    <glyph glyph-name="cedilla" unicode="&#xb8;" horiz-adv-x="1296" 
d="M476 -379q-76 -19 -137 19t-70 111l141 37q2 -17 16.5 -26t32.5 -5q18 5 29.5 20.5t9.5 33.5q-3 18 -17 25t-33 6l-138 -2l182 257l113 -71l-46 -63q33 -16 54.5 -45.5t26.5 -70.5q8 -74 -39 -140t-125 -86z" />
    <glyph glyph-name="uni00B9" unicode="&#xb9;" horiz-adv-x="460" 
d="M174 818l66 473h-61l45 158h197l-88 -631h-159z" />
    <glyph glyph-name="ordmasculine" unicode="&#xba;" horiz-adv-x="1120" 
d="M458 -26q-138 0 -241.5 71t-154 190.5t-30.5 264.5q15 110 67.5 205.5t131.5 168t175.5 113.5t199.5 41q138 0 241.5 -71t154.5 -191t30 -266q-15 -109 -67.5 -204t-131.5 -167.5t-175 -113.5t-200 -41zM497 250q63 0 118.5 34.5t93.5 91.5t47 124q10 69 -12.5 126.5
t-68.5 91.5t-108 34t-118 -35t-93.5 -92t-47.5 -125q-10 -71 13 -127.5t69 -89.5t107 -33z" />
    <glyph glyph-name="guillemotright" unicode="&#xbb;" horiz-adv-x="1244" 
d="M464 261l346 340l-250 338h278l252 -338l-348 -340h-278zM38 261l346 340l-250 338h278l252 -338l-348 -340h-278z" />
    <glyph glyph-name="onequarter" unicode="&#xbc;" horiz-adv-x="1603" 
d="M174 818l66 473h-61l45 158h197l-88 -631h-159zM71 0l1004 1400h224l-1004 -1400h-224zM1148 0l13 91h-240l26 191l271 349h176l-53 -381h55l-22 -159h-55l-13 -91h-158zM1097 250h101l22 160z" />
    <glyph glyph-name="onehalf" unicode="&#xbd;" horiz-adv-x="1631" 
d="M174 818l66 473h-61l45 158h197l-88 -631h-159zM71 0l1004 1400h224l-1004 -1400h-224zM908 0l19 139q46 29 97 58.5t100 61.5t91.5 72t73.5 90q6 35 -14.5 58t-54.5 23t-62 -23t-33 -58h-159q10 66 50.5 120.5t100 87t126.5 32.5q66 0 115.5 -32.5t74.5 -87t15 -120.5
q-5 -40 -27.5 -75t-55 -67t-70.5 -61.5t-77 -59.5h182l-22 -158h-470z" />
    <glyph glyph-name="threequarters" unicode="&#xbe;" horiz-adv-x="1727" 
d="M307 798q-91 0 -147.5 59t-43.5 151h158q-4 -27 11.5 -44.5t41.5 -17.5q25 0 45 17.5t24 44.5q5 32 -20 60t-83 28l14 102q58 0 82 25t27 50q2 20 -9.5 33.5t-31.5 13.5q-19 0 -35.5 -13.5t-18.5 -33.5h-158q11 86 79.5 140.5t153.5 54.5q86 0 138 -54.5t40 -140.5
q-4 -33 -19 -64.5t-38 -57.5q25 -29 34 -66t4 -77q-13 -92 -86 -151t-162 -59zM194 0l1004 1400h224l-1004 -1400h-224zM1271 0l13 91h-240l26 191l271 349h176l-53 -381h55l-22 -159h-55l-13 -91h-158zM1220 250h101l22 160z" />
    <glyph glyph-name="questiondown" unicode="&#xbf;" horiz-adv-x="1136" 
d="M392 -426q-130 0 -228 63.5t-146 169.5t-31 235q20 133 100 245.5t200 171.5q40 19 65 53.5t30 75.5h276q-16 -117 -89 -216t-185 -156q-48 -23 -80 -70t-41 -104q-7 -53 13 -97t60.5 -69.5t94.5 -25.5q53 0 100.5 25.5t80 69.5t39.5 97h276q-17 -129 -95.5 -235
t-194 -169.5t-245.5 -63.5zM530 747q-57 0 -92 40.5t-27 97.5q9 60 55 100.5t103 40.5q58 0 93 -40.5t26 -100.5q-8 -57 -54 -97.5t-104 -40.5z" />
    <glyph glyph-name="Agrave" unicode="&#xc0;" horiz-adv-x="1490" 
d="M686 1400h314l312 -1400h-293l-52 232h-575l-117 -232h-293zM531 508h374l-116 513zM617 1798h276l40 -288h-184z" />
    <glyph glyph-name="Aacute" unicode="&#xc1;" horiz-adv-x="1490" 
d="M686 1400h314l312 -1400h-293l-52 232h-575l-117 -232h-293zM531 508h374l-116 513zM786 1510l120 288h276l-212 -288h-184z" />
    <glyph glyph-name="Acircumflex" unicode="&#xc2;" horiz-adv-x="1490" 
d="M686 1400h314l312 -1400h-293l-52 232h-575l-117 -232h-293zM531 508h374l-116 513zM1054 1798l154 -288h-184l-139 190l-189 -190h-184l230 288h312z" />
    <glyph glyph-name="Atilde" unicode="&#xc3;" horiz-adv-x="1490" 
d="M686 1400h314l312 -1400h-293l-52 232h-575l-117 -232h-293zM531 508h374l-116 513zM1012 1497q-38 0 -86 27t-95 59t-82 51t-45 4q-12 -17 -13.5 -35.5t2.5 -49.5l-163 -43q-17 84 5 152.5t76.5 108.5t133.5 40q36 0 81.5 -21.5t89.5 -49.5t78 -49.5t46 -21.5
q20 0 25.5 12.5t3.5 32t-7 37.5l168 52q17 -89 -8 -158t-80 -108.5t-130 -39.5z" />
    <glyph glyph-name="Adieresis" unicode="&#xc4;" horiz-adv-x="1490" 
d="M686 1400h314l312 -1400h-293l-52 232h-575l-117 -232h-293zM531 508h374l-116 513zM643 1467q-60 0 -95 39.5t-27 99.5q8 58 54.5 99t106.5 41q58 0 93 -41t27 -99q-8 -60 -54.5 -99.5t-104.5 -39.5zM1064 1467q-59 0 -94.5 39.5t-27.5 99.5q8 58 55 99t106 41t94 -41
t26 -99q-8 -60 -54 -99.5t-105 -39.5z" />
    <glyph glyph-name="Aring" unicode="&#xc5;" horiz-adv-x="1490" 
d="M686 1400h314l312 -1400h-293l-52 232h-575l-117 -232h-293zM531 508h374l-116 513zM852 1460q-80 0 -129 58t-38 138q8 52 40 95.5t80 70t101 26.5q80 0 128.5 -57t38.5 -135q-12 -82 -76.5 -139t-144.5 -57zM869 1591q27 0 48 19t25 45q3 25 -13 43.5t-42 18.5t-47 -18
t-24 -43q-4 -27 11.5 -46t41.5 -19z" />
    <glyph glyph-name="AE" unicode="&#xc6;" horiz-adv-x="1696" 
d="M-18 0l704 1400h1008l-38 -276h-470l-40 -286h374l-39 -276h-374l-40 -286h470l-39 -276h-746l33 232h-393l-117 -232h-293zM531 508h293l86 616h-69z" />
    <glyph glyph-name="Ccedilla" unicode="&#xc7;" horiz-adv-x="1418" 
d="M666 -26q-142 0 -259 56.5t-197.5 156.5t-115.5 231.5t-14 281.5q21 151 93 282.5t180.5 231t241.5 156t275 56.5q170 0 302 -78.5t208 -209.5l-266 -133q-45 66 -118.5 105.5t-164.5 39.5q-85 0 -164.5 -35t-145 -97t-109 -143t-56.5 -175q-13 -93 7.5 -174.5t68 -143
t118 -97t155.5 -35.5q91 0 175 40t149 106l227 -134q-112 -130 -266 -209t-324 -79zM626 -379q-76 -19 -137 19t-70 111l141 37q2 -17 16.5 -26t32.5 -5q18 5 29.5 20.5t9.5 33.5q-3 18 -17 25t-33 6l-138 -2l182 257l113 -71l-46 -63q33 -16 54.5 -45.5t26.5 -70.5
q8 -74 -39 -140t-125 -86z" />
    <glyph glyph-name="Egrave" unicode="&#xc8;" horiz-adv-x="1106" 
d="M22 0l196 1400h886l-39 -276h-610l-33 -236h476l-38 -276h-476l-47 -336h610l-39 -276h-886zM425 1798h276l40 -288h-184z" />
    <glyph glyph-name="Eacute" unicode="&#xc9;" horiz-adv-x="1106" 
d="M22 0l196 1400h886l-39 -276h-610l-33 -236h476l-38 -276h-476l-47 -336h610l-39 -276h-886zM594 1510l120 288h276l-212 -288h-184z" />
    <glyph glyph-name="Ecircumflex" unicode="&#xca;" horiz-adv-x="1106" 
d="M22 0l196 1400h886l-39 -276h-610l-33 -236h476l-38 -276h-476l-47 -336h610l-39 -276h-886zM862 1798l154 -288h-184l-139 190l-189 -190h-184l230 288h312z" />
    <glyph glyph-name="Edieresis" unicode="&#xcb;" horiz-adv-x="1106" 
d="M22 0l196 1400h886l-39 -276h-610l-33 -236h476l-38 -276h-476l-47 -336h610l-39 -276h-886zM451 1467q-60 0 -95 39.5t-27 99.5q8 58 54.5 99t106.5 41q58 0 93 -41t27 -99q-8 -60 -54.5 -99.5t-104.5 -39.5zM872 1467q-59 0 -94.5 39.5t-27.5 99.5q8 58 55 99t106 41
t94 -41t26 -99q-8 -60 -54 -99.5t-105 -39.5z" />
    <glyph glyph-name="Igrave" unicode="&#xcc;" horiz-adv-x="576" 
d="M52 0l196 1400h276l-196 -1400h-276zM160 1798h276l40 -288h-184z" />
    <glyph glyph-name="Iacute" unicode="&#xcd;" horiz-adv-x="576" 
d="M52 0l196 1400h276l-196 -1400h-276zM329 1510l120 288h276l-212 -288h-184z" />
    <glyph glyph-name="Icircumflex" unicode="&#xce;" horiz-adv-x="576" 
d="M52 0l196 1400h276l-196 -1400h-276zM597 1798l154 -288h-184l-139 190l-189 -190h-184l230 288h312z" />
    <glyph glyph-name="Idieresis" unicode="&#xcf;" horiz-adv-x="576" 
d="M52 0l196 1400h276l-196 -1400h-276zM186 1467q-60 0 -95 39.5t-27 99.5q8 58 54.5 99t106.5 41q58 0 93 -41t27 -99q-8 -60 -54.5 -99.5t-104.5 -39.5zM607 1467q-59 0 -94.5 39.5t-27.5 99.5q8 58 55 99t106 41t94 -41t26 -99q-8 -60 -54 -99.5t-105 -39.5z" />
    <glyph glyph-name="Eth" unicode="&#xd0;" horiz-adv-x="1461" 
d="M141 0l85 612h-138l38 276h139l72 512h462q145 0 264 -54.5t202 -151t119.5 -223t16.5 -271.5t-92.5 -271.5t-182 -223t-244 -151t-279.5 -54.5h-462zM455 276h187q88 0 169 33t148 92t110 135.5t56 163.5q13 88 -9.5 164.5t-73 135t-122.5 91.5t-160 33h-186l-33 -236
h254l-39 -276h-254z" />
    <glyph glyph-name="Ntilde" unicode="&#xd1;" horiz-adv-x="1360" 
d="M22 0l196 1400h298l420 -901l126 901h276l-196 -1400h-298l-420 901l-126 -901h-276zM947 1497q-38 0 -86 27t-95 59t-82 51t-45 4q-12 -17 -13.5 -35.5t2.5 -49.5l-163 -43q-17 84 5 152.5t76.5 108.5t133.5 40q36 0 81.5 -21.5t89.5 -49.5t78 -49.5t46 -21.5
q20 0 25.5 12.5t3.5 32t-7 37.5l168 52q17 -89 -8 -158t-80 -108.5t-130 -39.5z" />
    <glyph glyph-name="Ograve" unicode="&#xd2;" horiz-adv-x="1540" 
d="M668 -26q-142 0 -259.5 56.5t-198 156.5t-116 231.5t-14.5 281.5t93 281.5t181.5 231.5t242.5 156.5t275 56.5q143 0 260 -56.5t197.5 -156.5t116 -231.5t14.5 -281.5t-93 -281.5t-181.5 -231.5t-242 -156.5t-275.5 -56.5zM707 250q85 0 165 35.5t145.5 97.5t109.5 143
t57 174t-8 174.5t-69 143t-118 97t-156 35.5q-85 0 -165 -35.5t-145.5 -97.5t-109.5 -143t-57 -174t8 -174.5t69 -143t118 -97t156 -35.5zM642 1798h276l40 -288h-184z" />
    <glyph glyph-name="Oacute" unicode="&#xd3;" horiz-adv-x="1540" 
d="M668 -26q-142 0 -259.5 56.5t-198 156.5t-116 231.5t-14.5 281.5t93 281.5t181.5 231.5t242.5 156.5t275 56.5q143 0 260 -56.5t197.5 -156.5t116 -231.5t14.5 -281.5t-93 -281.5t-181.5 -231.5t-242 -156.5t-275.5 -56.5zM707 250q85 0 165 35.5t145.5 97.5t109.5 143
t57 174t-8 174.5t-69 143t-118 97t-156 35.5q-85 0 -165 -35.5t-145.5 -97.5t-109.5 -143t-57 -174t8 -174.5t69 -143t118 -97t156 -35.5zM811 1510l120 288h276l-212 -288h-184z" />
    <glyph glyph-name="Ocircumflex" unicode="&#xd4;" horiz-adv-x="1540" 
d="M668 -26q-142 0 -259.5 56.5t-198 156.5t-116 231.5t-14.5 281.5t93 281.5t181.5 231.5t242.5 156.5t275 56.5q143 0 260 -56.5t197.5 -156.5t116 -231.5t14.5 -281.5t-93 -281.5t-181.5 -231.5t-242 -156.5t-275.5 -56.5zM707 250q85 0 165 35.5t145.5 97.5t109.5 143
t57 174t-8 174.5t-69 143t-118 97t-156 35.5q-85 0 -165 -35.5t-145.5 -97.5t-109.5 -143t-57 -174t8 -174.5t69 -143t118 -97t156 -35.5zM1079 1798l154 -288h-184l-139 190l-189 -190h-184l230 288h312z" />
    <glyph glyph-name="Otilde" unicode="&#xd5;" horiz-adv-x="1540" 
d="M668 -26q-142 0 -259.5 56.5t-198 156.5t-116 231.5t-14.5 281.5t93 281.5t181.5 231.5t242.5 156.5t275 56.5q143 0 260 -56.5t197.5 -156.5t116 -231.5t14.5 -281.5t-93 -281.5t-181.5 -231.5t-242 -156.5t-275.5 -56.5zM707 250q85 0 165 35.5t145.5 97.5t109.5 143
t57 174t-8 174.5t-69 143t-118 97t-156 35.5q-85 0 -165 -35.5t-145.5 -97.5t-109.5 -143t-57 -174t8 -174.5t69 -143t118 -97t156 -35.5zM1037 1497q-38 0 -86 27t-95 59t-82 51t-45 4q-12 -17 -13.5 -35.5t2.5 -49.5l-163 -43q-17 84 5 152.5t76.5 108.5t133.5 40
q36 0 81.5 -21.5t89.5 -49.5t78 -49.5t46 -21.5q20 0 25.5 12.5t3.5 32t-7 37.5l168 52q17 -89 -8 -158t-80 -108.5t-130 -39.5z" />
    <glyph glyph-name="Odieresis" unicode="&#xd6;" horiz-adv-x="1540" 
d="M668 -26q-142 0 -259.5 56.5t-198 156.5t-116 231.5t-14.5 281.5t93 281.5t181.5 231.5t242.5 156.5t275 56.5q143 0 260 -56.5t197.5 -156.5t116 -231.5t14.5 -281.5t-93 -281.5t-181.5 -231.5t-242 -156.5t-275.5 -56.5zM707 250q85 0 165 35.5t145.5 97.5t109.5 143
t57 174t-8 174.5t-69 143t-118 97t-156 35.5q-85 0 -165 -35.5t-145.5 -97.5t-109.5 -143t-57 -174t8 -174.5t69 -143t118 -97t156 -35.5zM668 1467q-60 0 -95 39.5t-27 99.5q8 58 54.5 99t106.5 41q58 0 93 -41t27 -99q-8 -60 -54.5 -99.5t-104.5 -39.5zM1089 1467
q-59 0 -94.5 39.5t-27.5 99.5q8 58 55 99t106 41t94 -41t26 -99q-8 -60 -54 -99.5t-105 -39.5z" />
    <glyph glyph-name="multiply" unicode="&#xd7;" horiz-adv-x="1061" 
d="M197 149l-167 195l291 256l-219 256l223 195l218 -256l293 256l167 -195l-292 -256l220 -256l-223 -195l-220 256z" />
    <glyph glyph-name="Oslash" unicode="&#xd8;" horiz-adv-x="1540" 
d="M345 -116l-220 138l103 146q-87 99 -128.5 237t-19.5 295q21 150 93 281.5t181.5 231.5t242.5 156.5t275 56.5q63 0 120 -11.5t109 -31.5l96 133l220 -138l-105 -144q89 -100 129.5 -238t18.5 -296q-21 -150 -93 -281.5t-181.5 -231.5t-242 -156.5t-275.5 -56.5
q-61 0 -117.5 12t-108.5 33zM411 422l514 714q-21 7 -44 10.5t-48 3.5q-85 0 -165 -35.5t-145.5 -97.5t-109.5 -143t-57 -174q-11 -79 4 -150.5t51 -127.5zM707 250q85 0 165 35.5t145.5 97.5t109.5 143t57 174q12 79 -3 150.5t-50 127.5l-514 -713q21 -7 44 -11t46 -4z" />
    <glyph glyph-name="Ugrave" unicode="&#xd9;" 
d="M584 -26q-168 0 -284 82t-168 220.5t-28 307.5l114 816h276l-114 -816q-13 -91 10.5 -167t82 -121.5t150.5 -45.5t163 45t115 121t57 168l114 816h276l-114 -816q-18 -127 -74.5 -237.5t-142.5 -194.5t-196.5 -131t-236.5 -47zM557 1798h276l40 -288h-184z" />
    <glyph glyph-name="Uacute" unicode="&#xda;" 
d="M584 -26q-168 0 -284 82t-168 220.5t-28 307.5l114 816h276l-114 -816q-13 -91 10.5 -167t82 -121.5t150.5 -45.5t163 45t115 121t57 168l114 816h276l-114 -816q-18 -127 -74.5 -237.5t-142.5 -194.5t-196.5 -131t-236.5 -47zM726 1510l120 288h276l-212 -288h-184z" />
    <glyph glyph-name="Ucircumflex" unicode="&#xdb;" 
d="M584 -26q-168 0 -284 82t-168 220.5t-28 307.5l114 816h276l-114 -816q-13 -91 10.5 -167t82 -121.5t150.5 -45.5t163 45t115 121t57 168l114 816h276l-114 -816q-18 -127 -74.5 -237.5t-142.5 -194.5t-196.5 -131t-236.5 -47zM995 1798l154 -288h-184l-139 190
l-189 -190h-184l230 288h312z" />
    <glyph glyph-name="Udieresis" unicode="&#xdc;" 
d="M584 -26q-168 0 -284 82t-168 220.5t-28 307.5l114 816h276l-114 -816q-13 -91 10.5 -167t82 -121.5t150.5 -45.5t163 45t115 121t57 168l114 816h276l-114 -816q-18 -127 -74.5 -237.5t-142.5 -194.5t-196.5 -131t-236.5 -47zM583 1467q-60 0 -95 39.5t-27 99.5
q8 58 54.5 99t106.5 41q58 0 93 -41t27 -99q-8 -60 -54.5 -99.5t-104.5 -39.5zM1004 1467q-59 0 -94.5 39.5t-27.5 99.5q8 58 55 99t106 41t94 -41t26 -99q-8 -60 -54 -99.5t-105 -39.5z" />
    <glyph glyph-name="Yacute" unicode="&#xdd;" horiz-adv-x="1364" 
d="M1076 1400h326l-592 -769l-88 -631h-276l88 631l-376 769h326l230 -469zM723 1510l120 288h276l-212 -288h-184z" />
    <glyph glyph-name="Thorn" unicode="&#xde;" horiz-adv-x="1106" 
d="M22 0l196 1400h276l-38 -275h240q114 0 199 -58t126.5 -154.5t24.5 -212.5q-16 -118 -86 -214t-171.5 -153.5t-212.5 -57.5h-240l-38 -275h-276zM375 551h209q46 0 86.5 22.5t68.5 61t34 85.5q7 46 -10 84.5t-51.5 61.5t-79.5 23h-210z" />
    <glyph glyph-name="germandbls" unicode="&#xdf;" horiz-adv-x="1168" 
d="M22 0l124 882q14 108 67.5 201.5t134.5 164.5t180.5 111.5t206.5 40.5q114 0 198 -52.5t125 -143.5t25 -206q-7 -47 -26 -99.5t-54.5 -97.5t-91.5 -70q64 -9 99 -44t49 -84t14 -103t-7 -102q-16 -114 -85 -204.5t-170.5 -142t-215.5 -51.5h-74l-6 235h83q55 0 104 25
t82 66.5t39 91.5q8 50 -13.5 90.5t-63 65.5t-96.5 27l-83 3l32 224l24 4q45 6 84.5 27.5t66.5 57t33 81.5q6 45 -10.5 82.5t-49.5 60.5t-77 23q-58 0 -109.5 -28.5t-86 -75.5t-42.5 -106l-134 -954h-276z" />
    <glyph glyph-name="agrave" unicode="&#xe0;" horiz-adv-x="1209" 
d="M896 1000h276l-140 -1000h-277l1 104q-47 -58 -113 -94t-148 -36q-112 0 -203.5 42t-154.5 116t-91 171.5t-12 209.5q15 107 67.5 200t132.5 164t178.5 111t205.5 40q92 0 160 -39t115 -99zM524 239q69 0 129 35t100.5 94.5t50.5 131.5q10 73 -14 132t-74 94t-118 35
q-69 0 -130 -35t-102 -94.5t-51 -131.5t15 -131.5t76 -94.5t118 -35zM435 1398h276l40 -288h-184z" />
    <glyph glyph-name="aacute" unicode="&#xe1;" horiz-adv-x="1209" 
d="M896 1000h276l-140 -1000h-277l1 104q-47 -58 -113 -94t-148 -36q-112 0 -203.5 42t-154.5 116t-91 171.5t-12 209.5q15 107 67.5 200t132.5 164t178.5 111t205.5 40q92 0 160 -39t115 -99zM524 239q69 0 129 35t100.5 94.5t50.5 131.5q10 73 -14 132t-74 94t-118 35
q-69 0 -130 -35t-102 -94.5t-51 -131.5t15 -131.5t76 -94.5t118 -35zM604 1110l120 288h276l-212 -288h-184z" />
    <glyph glyph-name="acircumflex" unicode="&#xe2;" horiz-adv-x="1209" 
d="M896 1000h276l-140 -1000h-277l1 104q-47 -58 -113 -94t-148 -36q-112 0 -203.5 42t-154.5 116t-91 171.5t-12 209.5q15 107 67.5 200t132.5 164t178.5 111t205.5 40q92 0 160 -39t115 -99zM524 239q69 0 129 35t100.5 94.5t50.5 131.5q10 73 -14 132t-74 94t-118 35
q-69 0 -130 -35t-102 -94.5t-51 -131.5t15 -131.5t76 -94.5t118 -35zM872 1398l154 -288h-184l-139 190l-189 -190h-184l230 288h312z" />
    <glyph glyph-name="atilde" unicode="&#xe3;" horiz-adv-x="1209" 
d="M896 1000h276l-140 -1000h-277l1 104q-47 -58 -113 -94t-148 -36q-112 0 -203.5 42t-154.5 116t-91 171.5t-12 209.5q15 107 67.5 200t132.5 164t178.5 111t205.5 40q92 0 160 -39t115 -99zM524 239q69 0 129 35t100.5 94.5t50.5 131.5q10 73 -14 132t-74 94t-118 35
q-69 0 -130 -35t-102 -94.5t-51 -131.5t15 -131.5t76 -94.5t118 -35zM830 1097q-38 0 -86 27t-95 59t-82 51t-45 4q-12 -17 -13.5 -35.5t2.5 -49.5l-163 -43q-17 84 5 152.5t76.5 108.5t133.5 40q36 0 81.5 -21.5t89.5 -49.5t78 -49.5t46 -21.5q20 0 25.5 12.5t3.5 32
t-7 37.5l168 52q17 -89 -8 -158t-80 -108.5t-130 -39.5z" />
    <glyph glyph-name="adieresis" unicode="&#xe4;" horiz-adv-x="1209" 
d="M896 1000h276l-140 -1000h-277l1 104q-47 -58 -113 -94t-148 -36q-112 0 -203.5 42t-154.5 116t-91 171.5t-12 209.5q15 107 67.5 200t132.5 164t178.5 111t205.5 40q92 0 160 -39t115 -99zM524 239q69 0 129 35t100.5 94.5t50.5 131.5q10 73 -14 132t-74 94t-118 35
q-69 0 -130 -35t-102 -94.5t-51 -131.5t15 -131.5t76 -94.5t118 -35zM461 1067q-60 0 -95 39.5t-27 99.5q8 58 54.5 99t106.5 41q58 0 93 -41t27 -99q-8 -60 -54.5 -99.5t-104.5 -39.5zM882 1067q-59 0 -94.5 39.5t-27.5 99.5q8 58 55 99t106 41t94 -41t26 -99
q-8 -60 -54 -99.5t-105 -39.5z" />
    <glyph glyph-name="aring" unicode="&#xe5;" horiz-adv-x="1209" 
d="M896 1000h276l-140 -1000h-277l1 104q-47 -58 -113 -94t-148 -36q-112 0 -203.5 42t-154.5 116t-91 171.5t-12 209.5q15 107 67.5 200t132.5 164t178.5 111t205.5 40q92 0 160 -39t115 -99zM524 239q69 0 129 35t100.5 94.5t50.5 131.5q10 73 -14 132t-74 94t-118 35
q-69 0 -130 -35t-102 -94.5t-51 -131.5t15 -131.5t76 -94.5t118 -35zM670 1060q-80 0 -129 58t-38 138q8 52 40 95.5t80 70t101 26.5q80 0 128.5 -57t38.5 -135q-12 -82 -76.5 -139t-144.5 -57zM687 1191q27 0 48 19t25 45q3 25 -13 43.5t-42 18.5t-47 -18t-24 -43
q-4 -27 11.5 -46t41.5 -19z" />
    <glyph glyph-name="ae" unicode="&#xe6;" horiz-adv-x="1714" 
d="M262 -26q-96 0 -165.5 44t-102.5 116.5t-21 158.5q12 85 65.5 157.5t135.5 117t177 44.5h281q-5 40 -24.5 71.5t-52.5 50t-80 18.5q-80 0 -149 -40l-121 229q72 44 149.5 65.5t155.5 21.5q100 0 184 -40t137 -114q51 47 110.5 81.5t125.5 53.5t134 19q119 0 210.5 -51
t147.5 -139t69.5 -199t-23.5 -231h-694q7 -45 29.5 -80.5t61 -56.5t92.5 -21q51 0 98.5 25t82.5 66l272 -65q-79 -133 -211.5 -217.5t-282.5 -84.5q-77 0 -143.5 23.5t-119.5 66t-90 99.5q-43 -49 -112 -91.5t-153 -70t-173 -27.5zM297 214q64 0 120.5 24.5t101.5 67.5
q48 41 83 102h-279q-40 0 -70.5 -27.5t-36.5 -66.5q-5 -38 17.5 -69t63.5 -31zM930 612h425q-6 50 -31.5 90t-65.5 63t-91 23q-49 0 -95.5 -23t-83.5 -62.5t-58 -90.5z" />
    <glyph glyph-name="ccedilla" unicode="&#xe7;" horiz-adv-x="1019" 
d="M658 316l229 -134q-82 -94 -194 -151t-235 -57q-138 0 -241.5 71t-154 190.5t-30.5 264.5q15 110 67.5 205.5t131.5 168t175.5 113.5t199.5 41q123 0 219.5 -57t151.5 -153l-268 -134q-26 33 -63 50.5t-79 17.5q-63 0 -118.5 -35t-93 -92.5t-47.5 -124.5q-9 -66 12 -123
t67 -92t110 -35q43 0 84.5 18t76.5 48zM418 -379q-76 -19 -137 19t-70 111l141 37q2 -17 16.5 -26t32.5 -5q18 5 29.5 20.5t9.5 33.5q-3 18 -17 25t-33 6l-138 -2l182 257l113 -71l-46 -63q33 -16 54.5 -45.5t26.5 -70.5q8 -74 -39 -140t-125 -86z" />
    <glyph glyph-name="egrave" unicode="&#xe8;" horiz-adv-x="1119" 
d="M458 -26q-138 0 -241.5 71t-154 191t-30.5 265q15 109 67.5 204.5t131.5 168t175.5 113.5t199.5 41q119 0 210 -51t147.5 -139t70 -199t-22.5 -231h-694q7 -44 29.5 -79.5t60 -56.5t90.5 -22q52 -1 99.5 24t84.5 67l272 -65q-79 -133 -212 -217.5t-283 -84.5zM335 612
h426q-6 50 -32 90t-66 63t-90 23t-96.5 -23t-83 -62.5t-58.5 -90.5zM376 1398h276l40 -288h-184z" />
    <glyph glyph-name="eacute" unicode="&#xe9;" horiz-adv-x="1119" 
d="M458 -26q-138 0 -241.5 71t-154 191t-30.5 265q15 109 67.5 204.5t131.5 168t175.5 113.5t199.5 41q119 0 210 -51t147.5 -139t70 -199t-22.5 -231h-694q7 -44 29.5 -79.5t60 -56.5t90.5 -22q52 -1 99.5 24t84.5 67l272 -65q-79 -133 -212 -217.5t-283 -84.5zM335 612
h426q-6 50 -32 90t-66 63t-90 23t-96.5 -23t-83 -62.5t-58.5 -90.5zM545 1110l120 288h276l-212 -288h-184z" />
    <glyph glyph-name="ecircumflex" unicode="&#xea;" horiz-adv-x="1119" 
d="M458 -26q-138 0 -241.5 71t-154 191t-30.5 265q15 109 67.5 204.5t131.5 168t175.5 113.5t199.5 41q119 0 210 -51t147.5 -139t70 -199t-22.5 -231h-694q7 -44 29.5 -79.5t60 -56.5t90.5 -22q52 -1 99.5 24t84.5 67l272 -65q-79 -133 -212 -217.5t-283 -84.5zM335 612
h426q-6 50 -32 90t-66 63t-90 23t-96.5 -23t-83 -62.5t-58.5 -90.5zM813 1398l154 -288h-184l-139 190l-189 -190h-184l230 288h312z" />
    <glyph glyph-name="edieresis" unicode="&#xeb;" horiz-adv-x="1119" 
d="M458 -26q-138 0 -241.5 71t-154 191t-30.5 265q15 109 67.5 204.5t131.5 168t175.5 113.5t199.5 41q119 0 210 -51t147.5 -139t70 -199t-22.5 -231h-694q7 -44 29.5 -79.5t60 -56.5t90.5 -22q52 -1 99.5 24t84.5 67l272 -65q-79 -133 -212 -217.5t-283 -84.5zM335 612
h426q-6 50 -32 90t-66 63t-90 23t-96.5 -23t-83 -62.5t-58.5 -90.5zM402 1067q-60 0 -95 39.5t-27 99.5q8 58 54.5 99t106.5 41q58 0 93 -41t27 -99q-8 -60 -54.5 -99.5t-104.5 -39.5zM823 1067q-59 0 -94.5 39.5t-27.5 99.5q8 58 55 99t106 41t94 -41t26 -99
q-8 -60 -54 -99.5t-105 -39.5z" />
    <glyph glyph-name="igrave" unicode="&#xec;" horiz-adv-x="516" 
d="M162 1000h276l-140 -1000h-276zM74 1398h276l40 -288h-184z" />
    <glyph glyph-name="iacute" unicode="&#xed;" horiz-adv-x="516" 
d="M162 1000h276l-140 -1000h-276zM243 1110l120 288h276l-212 -288h-184z" />
    <glyph glyph-name="icircumflex" unicode="&#xee;" horiz-adv-x="516" 
d="M162 1000h276l-140 -1000h-276zM511 1398l154 -288h-184l-139 190l-189 -190h-184l230 288h312z" />
    <glyph glyph-name="idieresis" unicode="&#xef;" horiz-adv-x="516" 
d="M162 1000h276l-140 -1000h-276zM100 1067q-60 0 -95 39.5t-27 99.5q8 58 54.5 99t106.5 41q58 0 93 -41t27 -99q-8 -60 -54.5 -99.5t-104.5 -39.5zM521 1067q-59 0 -94.5 39.5t-27.5 99.5q8 58 55 99t106 41t94 -41t26 -99q-8 -60 -54 -99.5t-105 -39.5z" />
    <glyph glyph-name="eth" unicode="&#xf0;" horiz-adv-x="1126" 
d="M485 1023l-114 132l498 432l112 -132zM482 -26q-139 0 -244 68t-156.5 182t-32.5 252q15 104 66.5 195.5t130.5 161t176 108.5t201 39q31 0 59 -7.5t51 -22.5q-14 49 -32.5 102.5t-51 100.5t-87.5 76t-141 29l36 276q171 0 297 -83.5t203.5 -227t104 -327t-1.5 -383.5
q-22 -157 -104.5 -279t-205.5 -191t-268 -69zM520 250q63 0 118.5 31t93.5 82.5t47 112.5q9 63 -15 114.5t-71 82.5t-109 31q-63 0 -118.5 -31t-93.5 -83t-47 -114q-9 -61 14.5 -112.5t71 -82.5t109.5 -31z" />
    <glyph glyph-name="ntilde" unicode="&#xf1;" horiz-adv-x="1129" 
d="M1039 636l-88 -636h-276l79 560q7 53 -12.5 95.5t-58.5 67.5t-92 25q-52 0 -98 -25t-77 -67.5t-38 -95.5l-79 -560h-276l139 1000h276l-10 -74q58 48 129 75t146 27q109 0 190 -53t121.5 -141.5t24.5 -197.5zM814 1097q-38 0 -86 27t-95 59t-82 51t-45 4
q-12 -17 -13.5 -35.5t2.5 -49.5l-163 -43q-17 84 5 152.5t76.5 108.5t133.5 40q36 0 81.5 -21.5t89.5 -49.5t78 -49.5t46 -21.5q20 0 25.5 12.5t3.5 32t-7 37.5l168 52q17 -89 -8 -158t-80 -108.5t-130 -39.5z" />
    <glyph glyph-name="ograve" unicode="&#xf2;" horiz-adv-x="1120" 
d="M458 -26q-138 0 -241.5 71t-154 190.5t-30.5 264.5q15 110 67.5 205.5t131.5 168t175.5 113.5t199.5 41q138 0 241.5 -71t154.5 -191t30 -266q-15 -109 -67.5 -204t-131.5 -167.5t-175 -113.5t-200 -41zM497 250q63 0 118.5 34.5t93.5 91.5t47 124q10 69 -12.5 126.5
t-68.5 91.5t-108 34t-118 -35t-93.5 -92t-47.5 -125q-10 -71 13 -127.5t69 -89.5t107 -33zM376 1398h276l40 -288h-184z" />
    <glyph glyph-name="oacute" unicode="&#xf3;" horiz-adv-x="1120" 
d="M458 -26q-138 0 -241.5 71t-154 190.5t-30.5 264.5q15 110 67.5 205.5t131.5 168t175.5 113.5t199.5 41q138 0 241.5 -71t154.5 -191t30 -266q-15 -109 -67.5 -204t-131.5 -167.5t-175 -113.5t-200 -41zM497 250q63 0 118.5 34.5t93.5 91.5t47 124q10 69 -12.5 126.5
t-68.5 91.5t-108 34t-118 -35t-93.5 -92t-47.5 -125q-10 -71 13 -127.5t69 -89.5t107 -33zM545 1110l120 288h276l-212 -288h-184z" />
    <glyph glyph-name="ocircumflex" unicode="&#xf4;" horiz-adv-x="1120" 
d="M458 -26q-138 0 -241.5 71t-154 190.5t-30.5 264.5q15 110 67.5 205.5t131.5 168t175.5 113.5t199.5 41q138 0 241.5 -71t154.5 -191t30 -266q-15 -109 -67.5 -204t-131.5 -167.5t-175 -113.5t-200 -41zM497 250q63 0 118.5 34.5t93.5 91.5t47 124q10 69 -12.5 126.5
t-68.5 91.5t-108 34t-118 -35t-93.5 -92t-47.5 -125q-10 -71 13 -127.5t69 -89.5t107 -33zM813 1398l154 -288h-184l-139 190l-189 -190h-184l230 288h312z" />
    <glyph glyph-name="otilde" unicode="&#xf5;" horiz-adv-x="1120" 
d="M458 -26q-138 0 -241.5 71t-154 190.5t-30.5 264.5q15 110 67.5 205.5t131.5 168t175.5 113.5t199.5 41q138 0 241.5 -71t154.5 -191t30 -266q-15 -109 -67.5 -204t-131.5 -167.5t-175 -113.5t-200 -41zM497 250q63 0 118.5 34.5t93.5 91.5t47 124q10 69 -12.5 126.5
t-68.5 91.5t-108 34t-118 -35t-93.5 -92t-47.5 -125q-10 -71 13 -127.5t69 -89.5t107 -33zM771 1097q-38 0 -86 27t-95 59t-82 51t-45 4q-12 -17 -13.5 -35.5t2.5 -49.5l-163 -43q-17 84 5 152.5t76.5 108.5t133.5 40q36 0 81.5 -21.5t89.5 -49.5t78 -49.5t46 -21.5
q20 0 25.5 12.5t3.5 32t-7 37.5l168 52q17 -89 -8 -158t-80 -108.5t-130 -39.5z" />
    <glyph glyph-name="odieresis" unicode="&#xf6;" horiz-adv-x="1120" 
d="M458 -26q-138 0 -241.5 71t-154 190.5t-30.5 264.5q15 110 67.5 205.5t131.5 168t175.5 113.5t199.5 41q138 0 241.5 -71t154.5 -191t30 -266q-15 -109 -67.5 -204t-131.5 -167.5t-175 -113.5t-200 -41zM497 250q63 0 118.5 34.5t93.5 91.5t47 124q10 69 -12.5 126.5
t-68.5 91.5t-108 34t-118 -35t-93.5 -92t-47.5 -125q-10 -71 13 -127.5t69 -89.5t107 -33zM402 1067q-60 0 -95 39.5t-27 99.5q8 58 54.5 99t106.5 41q58 0 93 -41t27 -99q-8 -60 -54.5 -99.5t-104.5 -39.5zM823 1067q-59 0 -94.5 39.5t-27.5 99.5q8 58 55 99t106 41t94 -41
t26 -99q-8 -60 -54 -99.5t-105 -39.5z" />
    <glyph glyph-name="divide" unicode="&#xf7;" horiz-adv-x="1160" 
d="M47 462l38 276h1000l-38 -276h-1000zM637 1103q59 0 94.5 -42t28.5 -101q-9 -58 -57 -100.5t-107 -42.5q-60 0 -95 42.5t-27 100.5q8 59 55.5 101t107.5 42zM535 383q59 0 95.5 -42.5t27.5 -101.5q-8 -58 -56 -100t-107 -42q-60 0 -95.5 42t-27.5 100q8 59 55.5 101.5
t107.5 42.5z" />
    <glyph glyph-name="oslash" unicode="&#xf8;" horiz-adv-x="1120" 
d="M243 -81l-178 111l67 92q-61 72 -88 169.5t-12 208.5q15 110 67.5 205.5t131.5 168t175.5 113.5t199.5 41q42 0 81 -7t74 -21l61 84l177 -111l-67 -93q61 -72 88 -169.5t12 -210.5q-15 -109 -67.5 -204t-131.5 -167.5t-175 -113.5t-200 -41q-42 0 -81 7t-76 21zM301 354
l305 427q-55 5 -109 -17t-99 -63.5t-75 -97.5t-39 -119q-6 -37 -0.5 -69.5t17.5 -60.5zM458 221q57 -4 111 17t98 62.5t73.5 97t38.5 118.5q7 38 2 71t-17 61z" />
    <glyph glyph-name="ugrave" unicode="&#xf9;" horiz-adv-x="1089" 
d="M33 366l89 634h276l-79 -558q-7 -53 12.5 -95.5t59 -67.5t90.5 -25q53 0 99 25t77.5 67.5t37.5 95.5l79 558h276l-139 -1000h-276l9 76q-57 -48 -128 -75t-146 -27q-108 0 -189.5 53t-122 141.5t-25.5 197.5zM395 1400h276l40 -288h-184z" />
    <glyph glyph-name="uacute" unicode="&#xfa;" horiz-adv-x="1089" 
d="M33 366l89 634h276l-79 -558q-7 -53 12.5 -95.5t59 -67.5t90.5 -25q53 0 99 25t77.5 67.5t37.5 95.5l79 558h276l-139 -1000h-276l9 76q-57 -48 -128 -75t-146 -27q-108 0 -189.5 53t-122 141.5t-25.5 197.5zM564 1112l120 288h276l-212 -288h-184z" />
    <glyph glyph-name="ucircumflex" unicode="&#xfb;" horiz-adv-x="1089" 
d="M33 366l89 634h276l-79 -558q-7 -53 12.5 -95.5t59 -67.5t90.5 -25q53 0 99 25t77.5 67.5t37.5 95.5l79 558h276l-139 -1000h-276l9 76q-57 -48 -128 -75t-146 -27q-108 0 -189.5 53t-122 141.5t-25.5 197.5zM833 1400l154 -288h-184l-139 190l-189 -190h-184l230 288
h312z" />
    <glyph glyph-name="udieresis" unicode="&#xfc;" horiz-adv-x="1089" 
d="M33 366l89 634h276l-79 -558q-7 -53 12.5 -95.5t59 -67.5t90.5 -25q53 0 99 25t77.5 67.5t37.5 95.5l79 558h276l-139 -1000h-276l9 76q-57 -48 -128 -75t-146 -27q-108 0 -189.5 53t-122 141.5t-25.5 197.5zM421 1069q-60 0 -95 39.5t-27 99.5q8 58 54.5 99t106.5 41
q58 0 93 -41t27 -99q-8 -60 -54.5 -99.5t-104.5 -39.5zM842 1069q-59 0 -94.5 39.5t-27.5 99.5q8 58 55 99t106 41t94 -41t26 -99q-8 -60 -54 -99.5t-105 -39.5z" />
    <glyph glyph-name="yacute" unicode="&#xfd;" horiz-adv-x="1180" 
d="M848 1000h294l-759 -1500h-292l251 500l-220 1000h302l108 -623zM575 1110l120 288h276l-212 -288h-184z" />
    <glyph glyph-name="thorn" unicode="&#xfe;" horiz-adv-x="1250" 
d="M-49 -500l267 1900h276l-71 -508q56 59 127.5 96.5t159.5 37.5q109 0 198.5 -41t152 -113.5t89.5 -167.5t12 -204t-69.5 -205t-137 -168.5t-183.5 -113.5t-210 -41q-88 0 -149 38t-100 96l-86 -606h-276zM595 239q68 0 129.5 35t103.5 94t52 132q10 71 -15 130.5
t-76.5 95t-120.5 35.5q-67 0 -126.5 -35.5t-99.5 -94.5t-50 -131t13 -131.5t72.5 -94.5t117.5 -35z" />
    <glyph glyph-name="ydieresis" unicode="&#xff;" horiz-adv-x="1180" 
d="M848 1000h294l-759 -1500h-292l251 500l-220 1000h302l108 -623zM432 1067q-60 0 -95 39.5t-27 99.5q8 58 54.5 99t106.5 41q58 0 93 -41t27 -99q-8 -60 -54.5 -99.5t-104.5 -39.5zM853 1067q-59 0 -94.5 39.5t-27.5 99.5q8 58 55 99t106 41t94 -41t26 -99
q-8 -60 -54 -99.5t-105 -39.5z" />
    <glyph glyph-name="Amacron" unicode="&#x100;" horiz-adv-x="1490" 
d="M686 1400h314l312 -1400h-293l-52 232h-575l-117 -232h-293zM531 508h374l-116 513zM553 1740h676l-29 -204h-676z" />
    <glyph glyph-name="amacron" unicode="&#x101;" horiz-adv-x="1209" 
d="M896 1000h276l-140 -1000h-277l1 104q-47 -58 -113 -94t-148 -36q-112 0 -203.5 42t-154.5 116t-91 171.5t-12 209.5q15 107 67.5 200t132.5 164t178.5 111t205.5 40q92 0 160 -39t115 -99zM524 239q69 0 129 35t100.5 94.5t50.5 131.5q10 73 -14 132t-74 94t-118 35
q-69 0 -130 -35t-102 -94.5t-51 -131.5t15 -131.5t76 -94.5t118 -35zM371 1340h676l-29 -204h-676z" />
    <glyph glyph-name="Abreve" unicode="&#x102;" horiz-adv-x="1490" 
d="M686 1400h314l312 -1400h-293l-52 232h-575l-117 -232h-293zM531 508h374l-116 513zM856 1488q-91 0 -160 45t-103.5 120.5t-22.5 166.5h168q-6 -45 11 -82t51 -59.5t79 -22.5q46 0 86 21.5t67.5 59t33.5 83.5h168q-13 -93 -68 -168.5t-136.5 -119.5t-173.5 -44z" />
    <glyph glyph-name="abreve" unicode="&#x103;" horiz-adv-x="1209" 
d="M896 1000h276l-140 -1000h-277l1 104q-47 -58 -113 -94t-148 -36q-112 0 -203.5 42t-154.5 116t-91 171.5t-12 209.5q15 107 67.5 200t132.5 164t178.5 111t205.5 40q92 0 160 -39t115 -99zM524 239q69 0 129 35t100.5 94.5t50.5 131.5q10 73 -14 132t-74 94t-118 35
q-69 0 -130 -35t-102 -94.5t-51 -131.5t15 -131.5t76 -94.5t118 -35zM674 1088q-91 0 -160 45t-103.5 120.5t-22.5 166.5h168q-6 -45 11 -82t51 -59.5t79 -22.5q46 0 86 21.5t67.5 59t33.5 83.5h168q-13 -93 -68 -168.5t-136.5 -119.5t-173.5 -44z" />
    <glyph glyph-name="Aogonek" unicode="&#x104;" horiz-adv-x="1490" 
d="M686 1400h314l312 -1400h-293l-52 232h-575l-117 -232h-293zM531 508h374l-116 513zM1122 -465q-76 0 -127.5 36t-74 94.5t-13.5 121.5q7 48 31 93.5t67 83.5l192 168l113 -132q-35 -31 -70 -60t-63.5 -57t-47 -54.5t-22.5 -51.5q-3 -23 10.5 -42t40.5 -19q38 0 69.5 27
t36.5 66h172q-10 -73 -55 -135.5t-113 -100.5t-146 -38z" />
    <glyph glyph-name="aogonek" unicode="&#x105;" horiz-adv-x="1209" 
d="M896 1000h276l-140 -1000h-277l1 104q-47 -58 -113 -94t-148 -36q-112 0 -203.5 42t-154.5 116t-91 171.5t-12 209.5q15 107 67.5 200t132.5 164t178.5 111t205.5 40q92 0 160 -39t115 -99zM524 239q69 0 129 35t100.5 94.5t50.5 131.5q10 73 -14 132t-74 94t-118 35
q-69 0 -130 -35t-102 -94.5t-51 -131.5t15 -131.5t76 -94.5t118 -35zM842 -465q-76 0 -127.5 36t-74 94.5t-13.5 121.5q7 48 31 93.5t67 83.5l192 168l113 -132q-35 -31 -70 -60t-63.5 -57t-47 -54.5t-22.5 -51.5q-3 -23 10.5 -42t40.5 -19q38 0 69.5 27t36.5 66h172
q-10 -73 -55 -135.5t-113 -100.5t-146 -38z" />
    <glyph glyph-name="Cacute" unicode="&#x106;" horiz-adv-x="1418" 
d="M666 -26q-142 0 -259 56.5t-197.5 156.5t-115.5 231.5t-14 281.5q21 151 93 282.5t180.5 231t241.5 156t275 56.5q170 0 302 -78.5t208 -209.5l-266 -133q-45 66 -118.5 105.5t-164.5 39.5q-85 0 -164.5 -35t-145 -97t-109 -143t-56.5 -175q-13 -93 7.5 -174.5t68 -143
t118 -97t155.5 -35.5q91 0 175 40t149 106l227 -134q-112 -130 -266 -209t-324 -79zM809 1510l120 288h276l-212 -288h-184z" />
    <glyph glyph-name="cacute" unicode="&#x107;" horiz-adv-x="1019" 
d="M658 316l229 -134q-82 -94 -194 -151t-235 -57q-138 0 -241.5 71t-154 190.5t-30.5 264.5q15 110 67.5 205.5t131.5 168t175.5 113.5t199.5 41q123 0 219.5 -57t151.5 -153l-268 -134q-26 33 -63 50.5t-79 17.5q-63 0 -118.5 -35t-93 -92.5t-47.5 -124.5q-9 -66 12 -123
t67 -92t110 -35q43 0 84.5 18t76.5 48zM545 1110l120 288h276l-212 -288h-184z" />
    <glyph glyph-name="Ccircumflex" unicode="&#x108;" horiz-adv-x="1418" 
d="M666 -26q-142 0 -259 56.5t-197.5 156.5t-115.5 231.5t-14 281.5q21 151 93 282.5t180.5 231t241.5 156t275 56.5q170 0 302 -78.5t208 -209.5l-266 -133q-45 66 -118.5 105.5t-164.5 39.5q-85 0 -164.5 -35t-145 -97t-109 -143t-56.5 -175q-13 -93 7.5 -174.5t68 -143
t118 -97t155.5 -35.5q91 0 175 40t149 106l227 -134q-112 -130 -266 -209t-324 -79zM1077 1798l154 -288h-184l-139 190l-189 -190h-184l230 288h312z" />
    <glyph glyph-name="ccircumflex" unicode="&#x109;" horiz-adv-x="1019" 
d="M658 316l229 -134q-82 -94 -194 -151t-235 -57q-138 0 -241.5 71t-154 190.5t-30.5 264.5q15 110 67.5 205.5t131.5 168t175.5 113.5t199.5 41q123 0 219.5 -57t151.5 -153l-268 -134q-26 33 -63 50.5t-79 17.5q-63 0 -118.5 -35t-93 -92.5t-47.5 -124.5q-9 -66 12 -123
t67 -92t110 -35q43 0 84.5 18t76.5 48zM813 1398l154 -288h-184l-139 190l-189 -190h-184l230 288h312z" />
    <glyph glyph-name="Cdotaccent" unicode="&#x10a;" horiz-adv-x="1418" 
d="M666 -26q-142 0 -259 56.5t-197.5 156.5t-115.5 231.5t-14 281.5q21 151 93 282.5t180.5 231t241.5 156t275 56.5q170 0 302 -78.5t208 -209.5l-266 -133q-45 66 -118.5 105.5t-164.5 39.5q-85 0 -164.5 -35t-145 -97t-109 -143t-56.5 -175q-13 -93 7.5 -174.5t68 -143
t118 -97t155.5 -35.5q91 0 175 40t149 106l227 -134q-112 -130 -266 -209t-324 -79zM885 1515q-61 0 -96 40t-27 99t54.5 99t106.5 40q58 0 93 -40t27 -99q-9 -59 -54 -99t-104 -40z" />
    <glyph glyph-name="cdotaccent" unicode="&#x10b;" horiz-adv-x="1019" 
d="M658 316l229 -134q-82 -94 -194 -151t-235 -57q-138 0 -241.5 71t-154 190.5t-30.5 264.5q15 110 67.5 205.5t131.5 168t175.5 113.5t199.5 41q123 0 219.5 -57t151.5 -153l-268 -134q-26 33 -63 50.5t-79 17.5q-63 0 -118.5 -35t-93 -92.5t-47.5 -124.5q-9 -66 12 -123
t67 -92t110 -35q43 0 84.5 18t76.5 48zM621 1115q-61 0 -96 40t-27 99t54.5 99t106.5 40q58 0 93 -40t27 -99q-9 -59 -54 -99t-104 -40z" />
    <glyph glyph-name="Ccaron" unicode="&#x10c;" horiz-adv-x="1418" 
d="M666 -26q-142 0 -259 56.5t-197.5 156.5t-115.5 231.5t-14 281.5q21 151 93 282.5t180.5 231t241.5 156t275 56.5q170 0 302 -78.5t208 -209.5l-266 -133q-45 66 -118.5 105.5t-164.5 39.5q-85 0 -164.5 -35t-145 -97t-109 -143t-56.5 -175q-13 -93 7.5 -174.5t68 -143
t118 -97t155.5 -35.5q91 0 175 40t149 106l227 -134q-112 -130 -266 -209t-324 -79zM727 1510l-154 288h184l139 -190l189 190h184l-230 -288h-312z" />
    <glyph glyph-name="ccaron" unicode="&#x10d;" horiz-adv-x="1019" 
d="M658 316l229 -134q-82 -94 -194 -151t-235 -57q-138 0 -241.5 71t-154 190.5t-30.5 264.5q15 110 67.5 205.5t131.5 168t175.5 113.5t199.5 41q123 0 219.5 -57t151.5 -153l-268 -134q-26 33 -63 50.5t-79 17.5q-63 0 -118.5 -35t-93 -92.5t-47.5 -124.5q-9 -66 12 -123
t67 -92t110 -35q43 0 84.5 18t76.5 48zM463 1110l-154 288h184l139 -190l189 190h184l-230 -288h-312z" />
    <glyph glyph-name="Dcaron" unicode="&#x10e;" horiz-adv-x="1343" 
d="M22 0l196 1400h464q145 0 264 -54.5t202 -151t119.5 -223t16.5 -271.5t-92.5 -271.5t-182 -223t-244 -151t-279.5 -54.5h-464zM337 276h187q87 0 168 33t148 91t111 135t57 165q12 88 -10.5 164.5t-72.5 135t-122.5 91.5t-159.5 33h-188zM611 1510l-154 288h184l139 -190
l189 190h184l-230 -288h-312z" />
    <glyph glyph-name="dcaron" unicode="&#x10f;" horiz-adv-x="1251" 
d="M967 1500h276l-210 -1500h-276l15 106q-55 -58 -128 -95t-160 -37q-109 0 -198.5 41t-151.5 113.5t-89.5 167.5t-12.5 204t69.5 204t137 167.5t183.5 113.5t210 41q87 0 149.5 -36.5t101.5 -95.5zM524 239q69 0 129 35t100.5 94.5t50.5 131.5q10 73 -14 132t-74 94
t-118 35q-69 0 -130 -35t-102 -94.5t-51 -131.5t15 -131.5t76 -94.5t118 -35zM1250 1212l120 288h276l-212 -288h-184z" />
    <glyph glyph-name="Emacron" unicode="&#x112;" horiz-adv-x="1106" 
d="M22 0l196 1400h886l-39 -276h-610l-33 -236h476l-38 -276h-476l-47 -336h610l-39 -276h-886zM361 1740h676l-29 -204h-676z" />
    <glyph glyph-name="emacron" unicode="&#x113;" horiz-adv-x="1119" 
d="M458 -26q-138 0 -241.5 71t-154 191t-30.5 265q15 109 67.5 204.5t131.5 168t175.5 113.5t199.5 41q119 0 210 -51t147.5 -139t70 -199t-22.5 -231h-694q7 -44 29.5 -79.5t60 -56.5t90.5 -22q52 -1 99.5 24t84.5 67l272 -65q-79 -133 -212 -217.5t-283 -84.5zM335 612
h426q-6 50 -32 90t-66 63t-90 23t-96.5 -23t-83 -62.5t-58.5 -90.5zM311 1340h676l-29 -204h-676z" />
    <glyph glyph-name="Edotaccent" unicode="&#x116;" horiz-adv-x="1106" 
d="M22 0l196 1400h886l-39 -276h-610l-33 -236h476l-38 -276h-476l-47 -336h610l-39 -276h-886zM670 1515q-61 0 -96 40t-27 99t54.5 99t106.5 40q58 0 93 -40t27 -99q-9 -59 -54 -99t-104 -40z" />
    <glyph glyph-name="edotaccent" unicode="&#x117;" horiz-adv-x="1119" 
d="M458 -26q-138 0 -241.5 71t-154 191t-30.5 265q15 109 67.5 204.5t131.5 168t175.5 113.5t199.5 41q119 0 210 -51t147.5 -139t70 -199t-22.5 -231h-694q7 -44 29.5 -79.5t60 -56.5t90.5 -22q52 -1 99.5 24t84.5 67l272 -65q-79 -133 -212 -217.5t-283 -84.5zM335 612
h426q-6 50 -32 90t-66 63t-90 23t-96.5 -23t-83 -62.5t-58.5 -90.5zM621 1115q-61 0 -96 40t-27 99t54.5 99t106.5 40q58 0 93 -40t27 -99q-9 -59 -54 -99t-104 -40z" />
    <glyph glyph-name="Eogonek" unicode="&#x118;" horiz-adv-x="1106" 
d="M22 0l196 1400h886l-39 -276h-610l-33 -236h476l-38 -276h-476l-47 -336h610l-39 -276h-886zM614 -465q-76 0 -127.5 36t-74 94.5t-13.5 121.5q7 48 31 93.5t67 83.5l192 168l113 -132q-35 -31 -70 -60t-63.5 -57t-47 -54.5t-22.5 -51.5q-3 -23 10.5 -42t40.5 -19
q38 0 69.5 27t36.5 66h172q-10 -73 -55 -135.5t-113 -100.5t-146 -38z" />
    <glyph glyph-name="eogonek" unicode="&#x119;" horiz-adv-x="1119" 
d="M458 -26q-138 0 -241.5 71t-154 191t-30.5 265q15 109 67.5 204.5t131.5 168t175.5 113.5t199.5 41q119 0 210 -51t147.5 -139t70 -199t-22.5 -231h-694q7 -44 29.5 -79.5t60 -56.5t90.5 -22q52 -1 99.5 24t84.5 67l272 -65q-79 -133 -212 -217.5t-283 -84.5zM335 612
h426q-6 50 -32 90t-66 63t-90 23t-96.5 -23t-83 -62.5t-58.5 -90.5zM428 -465q-76 0 -127.5 36t-74 94.5t-13.5 121.5q7 48 31 93.5t67 83.5l192 168l113 -132q-35 -31 -70 -60t-63.5 -57t-47 -54.5t-22.5 -51.5q-3 -23 10.5 -42t40.5 -19q38 0 69.5 27t36.5 66h172
q-10 -73 -55 -135.5t-113 -100.5t-146 -38z" />
    <glyph glyph-name="Ecaron" unicode="&#x11a;" horiz-adv-x="1106" 
d="M22 0l196 1400h886l-39 -276h-610l-33 -236h476l-38 -276h-476l-47 -336h610l-39 -276h-886zM512 1510l-154 288h184l139 -190l189 190h184l-230 -288h-312z" />
    <glyph glyph-name="ecaron" unicode="&#x11b;" horiz-adv-x="1119" 
d="M458 -26q-138 0 -241.5 71t-154 191t-30.5 265q15 109 67.5 204.5t131.5 168t175.5 113.5t199.5 41q119 0 210 -51t147.5 -139t70 -199t-22.5 -231h-694q7 -44 29.5 -79.5t60 -56.5t90.5 -22q52 -1 99.5 24t84.5 67l272 -65q-79 -133 -212 -217.5t-283 -84.5zM335 612
h426q-6 50 -32 90t-66 63t-90 23t-96.5 -23t-83 -62.5t-58.5 -90.5zM463 1110l-154 288h184l139 -190l189 190h184l-230 -288h-312z" />
    <glyph glyph-name="Gcircumflex" unicode="&#x11c;" horiz-adv-x="1536" 
d="M666 -26q-146 0 -263.5 57t-197 157.5t-113 232.5t-12.5 281q23 160 98.5 292t187 228.5t243.5 149t267 52.5q148 0 280.5 -69t222.5 -219l-265 -132q-54 74 -127 110t-154 36q-80 0 -159.5 -33t-146 -94t-112 -144t-60.5 -183q-13 -93 8 -174t69.5 -142t119 -95.5
t156.5 -34.5q54 0 107 15.5t105 45.5t97.5 75t83.5 104h-216l34 240h542q-17 -155 -87 -292t-179.5 -241.5t-245 -163.5t-283.5 -59zM1079 1798l154 -288h-184l-139 190l-189 -190h-184l230 288h312z" />
    <glyph glyph-name="gcircumflex" unicode="&#x11d;" horiz-adv-x="1242" 
d="M888 1000h276l-142 -1014q-16 -111 -73.5 -200.5t-144.5 -153.5t-192 -98t-217 -34q-106 0 -196.5 41.5t-155.5 114.5t-94 168l268 115q14 -50 46 -86t76.5 -55.5t95.5 -19.5q54 0 106.5 13t96 39t72 65t36.5 91l16 116q-54 -57 -124.5 -92.5t-156.5 -35.5
q-108 0 -197 41t-150.5 113.5t-89 167.5t-12.5 204t69.5 204t136.5 167.5t182.5 113.5t208.5 41q86 0 146.5 -35.5t98.5 -92.5zM522 239q68 0 127.5 35.5t100 94.5t50.5 131t-13.5 131.5t-73.5 94.5t-118 35q-67 0 -127.5 -35t-101.5 -94.5t-51 -131.5t14.5 -131.5t75 -94.5
t117.5 -35zM875 1398l154 -288h-184l-139 190l-189 -190h-184l230 288h312z" />
    <glyph glyph-name="Gbreve" unicode="&#x11e;" horiz-adv-x="1536" 
d="M666 -26q-146 0 -263.5 57t-197 157.5t-113 232.5t-12.5 281q23 160 98.5 292t187 228.5t243.5 149t267 52.5q148 0 280.5 -69t222.5 -219l-265 -132q-54 74 -127 110t-154 36q-80 0 -159.5 -33t-146 -94t-112 -144t-60.5 -183q-13 -93 8 -174t69.5 -142t119 -95.5
t156.5 -34.5q54 0 107 15.5t105 45.5t97.5 75t83.5 104h-216l34 240h542q-17 -155 -87 -292t-179.5 -241.5t-245 -163.5t-283.5 -59zM881 1488q-91 0 -160 45t-103.5 120.5t-22.5 166.5h168q-6 -45 11 -82t51 -59.5t79 -22.5q46 0 86 21.5t67.5 59t33.5 83.5h168
q-13 -93 -68 -168.5t-136.5 -119.5t-173.5 -44z" />
    <glyph glyph-name="gbreve" unicode="&#x11f;" horiz-adv-x="1242" 
d="M888 1000h276l-142 -1014q-16 -111 -73.5 -200.5t-144.5 -153.5t-192 -98t-217 -34q-106 0 -196.5 41.5t-155.5 114.5t-94 168l268 115q14 -50 46 -86t76.5 -55.5t95.5 -19.5q54 0 106.5 13t96 39t72 65t36.5 91l16 116q-54 -57 -124.5 -92.5t-156.5 -35.5
q-108 0 -197 41t-150.5 113.5t-89 167.5t-12.5 204t69.5 204t136.5 167.5t182.5 113.5t208.5 41q86 0 146.5 -35.5t98.5 -92.5zM522 239q68 0 127.5 35.5t100 94.5t50.5 131t-13.5 131.5t-73.5 94.5t-118 35q-67 0 -127.5 -35t-101.5 -94.5t-51 -131.5t14.5 -131.5t75 -94.5
t117.5 -35zM676 1088q-91 0 -160 45t-103.5 120.5t-22.5 166.5h168q-6 -45 11 -82t51 -59.5t79 -22.5q46 0 86 21.5t67.5 59t33.5 83.5h168q-13 -93 -68 -168.5t-136.5 -119.5t-173.5 -44z" />
    <glyph glyph-name="Gdotaccent" unicode="&#x120;" horiz-adv-x="1536" 
d="M666 -26q-146 0 -263.5 57t-197 157.5t-113 232.5t-12.5 281q23 160 98.5 292t187 228.5t243.5 149t267 52.5q148 0 280.5 -69t222.5 -219l-265 -132q-54 74 -127 110t-154 36q-80 0 -159.5 -33t-146 -94t-112 -144t-60.5 -183q-13 -93 8 -174t69.5 -142t119 -95.5
t156.5 -34.5q54 0 107 15.5t105 45.5t97.5 75t83.5 104h-216l34 240h542q-17 -155 -87 -292t-179.5 -241.5t-245 -163.5t-283.5 -59zM886 1515q-61 0 -96 40t-27 99t54.5 99t106.5 40q58 0 93 -40t27 -99q-9 -59 -54 -99t-104 -40z" />
    <glyph glyph-name="gdotaccent" unicode="&#x121;" horiz-adv-x="1242" 
d="M888 1000h276l-142 -1014q-16 -111 -73.5 -200.5t-144.5 -153.5t-192 -98t-217 -34q-106 0 -196.5 41.5t-155.5 114.5t-94 168l268 115q14 -50 46 -86t76.5 -55.5t95.5 -19.5q54 0 106.5 13t96 39t72 65t36.5 91l16 116q-54 -57 -124.5 -92.5t-156.5 -35.5
q-108 0 -197 41t-150.5 113.5t-89 167.5t-12.5 204t69.5 204t136.5 167.5t182.5 113.5t208.5 41q86 0 146.5 -35.5t98.5 -92.5zM522 239q68 0 127.5 35.5t100 94.5t50.5 131t-13.5 131.5t-73.5 94.5t-118 35q-67 0 -127.5 -35t-101.5 -94.5t-51 -131.5t14.5 -131.5t75 -94.5
t117.5 -35zM682 1115q-61 0 -96 40t-27 99t54.5 99t106.5 40q58 0 93 -40t27 -99q-9 -59 -54 -99t-104 -40z" />
    <glyph glyph-name="uni0122" unicode="&#x122;" horiz-adv-x="1536" 
d="M666 -26q-146 0 -263.5 57t-197 157.5t-113 232.5t-12.5 281q23 160 98.5 292t187 228.5t243.5 149t267 52.5q148 0 280.5 -69t222.5 -219l-265 -132q-54 74 -127 110t-154 36q-80 0 -159.5 -33t-146 -94t-112 -144t-60.5 -183q-13 -93 8 -174t69.5 -142t119 -95.5
t156.5 -34.5q54 0 107 15.5t105 45.5t97.5 75t83.5 104h-216l34 240h542q-17 -155 -87 -292t-179.5 -241.5t-245 -163.5t-283.5 -59zM409 -441l109 338h276l-201 -338h-184z" />
    <glyph glyph-name="Hcircumflex" unicode="&#x124;" horiz-adv-x="1324" 
d="M1026 1400h276l-196 -1400h-276l86 612h-532l-86 -612h-276l196 1400h276l-72 -512h532zM971 1798l154 -288h-184l-139 190l-189 -190h-184l230 288h312z" />
    <glyph glyph-name="hcircumflex" unicode="&#x125;" horiz-adv-x="1130" 
d="M1040 636l-88 -636h-276l79 560q7 53 -12.5 95.5t-58.5 67.5t-92 25q-52 0 -98 -25t-77 -67.5t-38 -95.5l-79 -560h-276l209 1500h276l-80 -574q58 48 129 75t146 27q109 0 190 -53t121.5 -141.5t24.5 -197.5zM935 1823l154 -288h-184l-139 190l-189 -190h-184l230 288
h312z" />
    <glyph glyph-name="Itilde" unicode="&#x128;" horiz-adv-x="576" 
d="M52 0l196 1400h276l-196 -1400h-276zM555 1497q-38 0 -86 27t-95 59t-82 51t-45 4q-12 -17 -13.5 -35.5t2.5 -49.5l-163 -43q-17 84 5 152.5t76.5 108.5t133.5 40q36 0 81.5 -21.5t89.5 -49.5t78 -49.5t46 -21.5q20 0 25.5 12.5t3.5 32t-7 37.5l168 52q17 -89 -8 -158
t-80 -108.5t-130 -39.5z" />
    <glyph glyph-name="itilde" unicode="&#x129;" horiz-adv-x="516" 
d="M434 1078q-31 0 -69 21t-75 47t-64 41.5t-36 2.5t-10 -28t2 -40l-129 -34q-15 68 3 122t61 86.5t105 32.5q29 0 65 -17.5t71 -40t61.5 -39.5t35.5 -17q23 0 23 21.5t-6 44.5l133 42q21 -107 -31 -176t-140 -69zM162 1000h276l-140 -1000h-276z" />
    <glyph glyph-name="Imacron" unicode="&#x12a;" horiz-adv-x="576" 
d="M52 0l196 1400h276l-196 -1400h-276zM96 1740h676l-29 -204h-676z" />
    <glyph glyph-name="imacron" unicode="&#x12b;" horiz-adv-x="516" 
d="M78 1340h517l-22 -204h-517zM162 1000h276l-140 -1000h-276z" />
    <glyph glyph-name="Iogonek" unicode="&#x12e;" horiz-adv-x="576" 
d="M52 0l196 1400h276l-196 -1400h-276zM139 -465q-76 0 -127.5 36t-74 94.5t-13.5 121.5q7 48 31 93.5t67 83.5l192 168l113 -132q-35 -31 -70 -60t-63.5 -57t-47 -54.5t-22.5 -51.5q-3 -23 10.5 -42t40.5 -19q38 0 69.5 27t36.5 66h172q-10 -73 -55 -135.5t-113 -100.5
t-146 -38z" />
    <glyph glyph-name="iogonek" unicode="&#x12f;" horiz-adv-x="516" 
d="M162 1000h276l-140 -1000h-276zM319 1115q-61 0 -96 40t-27 99t54.5 99t106.5 40q58 0 93 -40t27 -99q-9 -59 -54 -99t-104 -40zM109 -465q-76 0 -127.5 36t-74 94.5t-13.5 121.5q7 48 31 93.5t67 83.5l192 168l113 -132q-35 -31 -70 -60t-63.5 -57t-47 -54.5
t-22.5 -51.5q-3 -23 10.5 -42t40.5 -19q38 0 69.5 27t36.5 66h172q-10 -73 -55 -135.5t-113 -100.5t-146 -38z" />
    <glyph glyph-name="Idotaccent" unicode="&#x130;" horiz-adv-x="576" 
d="M52 0l196 1400h276l-196 -1400h-276zM405 1515q-61 0 -96 40t-27 99t54.5 99t106.5 40q58 0 93 -40t27 -99q-9 -59 -54 -99t-104 -40z" />
    <glyph glyph-name="dotlessi" unicode="&#x131;" horiz-adv-x="516" 
d="M162 1000h276l-140 -1000h-276z" />
    <glyph glyph-name="IJ" unicode="&#x132;" horiz-adv-x="1490" 
d="M52 0l196 1400h276l-196 -1400h-276zM808 -26q-80 0 -152.5 27t-126.5 80l207 212q16 -15 43.5 -29t67.5 -14q50 0 95.5 25.5t76.5 68t38 92.5l135 964h276l-135 -964q-18 -127 -95 -231.5t-190 -167.5t-240 -63z" />
    <glyph glyph-name="ij" unicode="&#x133;" horiz-adv-x="1027" 
d="M162 1000h276l-140 -1000h-276zM319 1115q-61 0 -96 40t-27 99t54.5 99t106.5 40q58 0 93 -40t27 -99q-9 -59 -54 -99t-104 -40zM277 -500l40 276q51 0 96 24.5t76 66.5t39 93l145 1040h276l-145 -1040q-18 -127 -95 -231t-190 -166.5t-242 -62.5zM830 1115q-61 0 -96 40
t-27 99t54.5 99t106.5 40q58 0 93 -40t27 -99q-9 -59 -54 -99t-104 -40z" />
    <glyph glyph-name="Jcircumflex" unicode="&#x134;" horiz-adv-x="914" 
d="M232 -26q-80 0 -152.5 27t-126.5 80l207 212q16 -15 43.5 -29t67.5 -14q50 0 95.5 25.5t76.5 68t38 92.5l135 964h276l-135 -964q-18 -127 -95 -231.5t-190 -167.5t-240 -63zM966 1798l154 -288h-184l-139 190l-189 -190h-184l230 288h312z" />
    <glyph glyph-name="jcircumflex" unicode="&#x135;" horiz-adv-x="501" 
d="M-249 -500l40 276q51 0 96 24.5t76 66.5t39 93l145 1040h276l-145 -1040q-18 -127 -95 -231t-190 -166.5t-242 -62.5zM497 1398l154 -288h-184l-139 190l-189 -190h-184l230 288h312z" />
    <glyph glyph-name="uni0136" unicode="&#x136;" horiz-adv-x="1205" 
d="M1083 0h-360l-300 524l-60 -62l-65 -462h-276l196 1400h276l-72 -509l498 509h360l-646 -660zM243 -441l109 338h276l-201 -338h-184z" />
    <glyph glyph-name="uni0137" unicode="&#x137;" horiz-adv-x="1099" 
d="M951 0h-318l-161 365l-142 -145l-31 -220h-276l210 1500h276l-120 -851l344 351h360l-401 -411zM188 -441l109 338h276l-201 -338h-184z" />
    <glyph glyph-name="Lacute" unicode="&#x139;" horiz-adv-x="1060" 
d="M22 0l196 1400h276l-157 -1124h564l-39 -276h-840zM299 1510l120 288h276l-212 -288h-184z" />
    <glyph glyph-name="lacute" unicode="&#x13a;" horiz-adv-x="517" 
d="M23 0l210 1500h276l-210 -1500h-276zM314 1610l120 288h276l-212 -288h-184z" />
    <glyph glyph-name="uni013B" unicode="&#x13b;" horiz-adv-x="1060" 
d="M22 0l196 1400h276l-157 -1124h564l-39 -276h-840zM180 -441l109 338h276l-201 -338h-184z" />
    <glyph glyph-name="uni013C" unicode="&#x13c;" horiz-adv-x="517" 
d="M23 0l210 1500h276l-210 -1500h-276zM-101 -441l109 338h276l-201 -338h-184z" />
    <glyph glyph-name="Lcaron" unicode="&#x13d;" horiz-adv-x="1060" 
d="M22 0l196 1400h276l-157 -1124h564l-39 -276h-840zM661 1212l120 288h276l-212 -288h-184z" />
    <glyph glyph-name="lcaron" unicode="&#x13e;" horiz-adv-x="517" 
d="M23 0l210 1500h276l-210 -1500h-276zM515 1212l120 288h276l-212 -288h-184z" />
    <glyph glyph-name="Nacute" unicode="&#x143;" horiz-adv-x="1360" 
d="M22 0l196 1400h298l420 -901l126 901h276l-196 -1400h-298l-420 901l-126 -901h-276zM721 1510l120 288h276l-212 -288h-184z" />
    <glyph glyph-name="nacute" unicode="&#x144;" horiz-adv-x="1129" 
d="M1039 636l-88 -636h-276l79 560q7 53 -12.5 95.5t-58.5 67.5t-92 25q-52 0 -98 -25t-77 -67.5t-38 -95.5l-79 -560h-276l139 1000h276l-10 -74q58 48 129 75t146 27q109 0 190 -53t121.5 -141.5t24.5 -197.5zM588 1110l120 288h276l-212 -288h-184z" />
    <glyph glyph-name="uni0145" unicode="&#x145;" horiz-adv-x="1360" 
d="M22 0l196 1400h298l420 -901l126 901h276l-196 -1400h-298l-420 901l-126 -901h-276zM320 -441l109 338h276l-201 -338h-184z" />
    <glyph glyph-name="uni0146" unicode="&#x146;" horiz-adv-x="1129" 
d="M1039 636l-88 -636h-276l79 560q7 53 -12.5 95.5t-58.5 67.5t-92 25q-52 0 -98 -25t-77 -67.5t-38 -95.5l-79 -560h-276l139 1000h276l-10 -74q58 48 129 75t146 27q109 0 190 -53t121.5 -141.5t24.5 -197.5zM225 -441l109 338h276l-201 -338h-184z" />
    <glyph glyph-name="Ncaron" unicode="&#x147;" horiz-adv-x="1360" 
d="M22 0l196 1400h298l420 -901l126 901h276l-196 -1400h-298l-420 901l-126 -901h-276zM639 1510l-154 288h184l139 -190l189 190h184l-230 -288h-312z" />
    <glyph glyph-name="ncaron" unicode="&#x148;" horiz-adv-x="1129" 
d="M1039 636l-88 -636h-276l79 560q7 53 -12.5 95.5t-58.5 67.5t-92 25q-52 0 -98 -25t-77 -67.5t-38 -95.5l-79 -560h-276l139 1000h276l-10 -74q58 48 129 75t146 27q109 0 190 -53t121.5 -141.5t24.5 -197.5zM506 1110l-154 288h184l139 -190l189 190h184l-230 -288h-312
z" />
    <glyph glyph-name="Omacron" unicode="&#x14c;" horiz-adv-x="1540" 
d="M668 -26q-142 0 -259.5 56.5t-198 156.5t-116 231.5t-14.5 281.5t93 281.5t181.5 231.5t242.5 156.5t275 56.5q143 0 260 -56.5t197.5 -156.5t116 -231.5t14.5 -281.5t-93 -281.5t-181.5 -231.5t-242 -156.5t-275.5 -56.5zM707 250q85 0 165 35.5t145.5 97.5t109.5 143
t57 174t-8 174.5t-69 143t-118 97t-156 35.5q-85 0 -165 -35.5t-145.5 -97.5t-109.5 -143t-57 -174t8 -174.5t69 -143t118 -97t156 -35.5zM578 1740h676l-29 -204h-676z" />
    <glyph glyph-name="omacron" unicode="&#x14d;" horiz-adv-x="1120" 
d="M458 -26q-138 0 -241.5 71t-154 190.5t-30.5 264.5q15 110 67.5 205.5t131.5 168t175.5 113.5t199.5 41q138 0 241.5 -71t154.5 -191t30 -266q-15 -109 -67.5 -204t-131.5 -167.5t-175 -113.5t-200 -41zM497 250q63 0 118.5 34.5t93.5 91.5t47 124q10 69 -12.5 126.5
t-68.5 91.5t-108 34t-118 -35t-93.5 -92t-47.5 -125q-10 -71 13 -127.5t69 -89.5t107 -33zM312 1340h676l-29 -204h-676z" />
    <glyph glyph-name="Ohungarumlaut" unicode="&#x150;" horiz-adv-x="1540" 
d="M668 -26q-142 0 -259.5 56.5t-198 156.5t-116 231.5t-14.5 281.5t93 281.5t181.5 231.5t242.5 156.5t275 56.5q143 0 260 -56.5t197.5 -156.5t116 -231.5t14.5 -281.5t-93 -281.5t-181.5 -231.5t-242 -156.5t-275.5 -56.5zM707 250q85 0 165 35.5t145.5 97.5t109.5 143
t57 174t-8 174.5t-69 143t-118 97t-156 35.5q-85 0 -165 -35.5t-145.5 -97.5t-109.5 -143t-57 -174t8 -174.5t69 -143t118 -97t156 -35.5zM999 1510l120 288h276l-212 -288h-184zM645 1510l120 288h276l-212 -288h-184z" />
    <glyph glyph-name="ohungarumlaut" unicode="&#x151;" horiz-adv-x="1120" 
d="M458 -26q-138 0 -241.5 71t-154 190.5t-30.5 264.5q15 110 67.5 205.5t131.5 168t175.5 113.5t199.5 41q138 0 241.5 -71t154.5 -191t30 -266q-15 -109 -67.5 -204t-131.5 -167.5t-175 -113.5t-200 -41zM497 250q63 0 118.5 34.5t93.5 91.5t47 124q10 69 -12.5 126.5
t-68.5 91.5t-108 34t-118 -35t-93.5 -92t-47.5 -125q-10 -71 13 -127.5t69 -89.5t107 -33zM733 1110l120 288h276l-212 -288h-184zM379 1110l120 288h276l-212 -288h-184z" />
    <glyph glyph-name="OE" unicode="&#x152;" horiz-adv-x="2107" 
d="M668 -26q-142 0 -259.5 56.5t-198 156.5t-116 231.5t-14.5 281.5t93 281.5t181.5 231.5t242.5 156.5t275 56.5q80 0 151.5 -19.5t133.5 -55t110 -85.5l19 134h819l-39 -276h-543l-40 -286h447l-38 -276h-448l-40 -286h544l-39 -276h-819l18 134q-62 -49 -133.5 -85
t-149 -55.5t-157.5 -19.5zM707 250q85 0 165 35.5t145.5 97.5t109.5 143t57 174t-8 174.5t-69 143t-118 97t-156 35.5q-85 0 -165 -35.5t-145.5 -97.5t-109.5 -143t-57 -174t8 -174.5t69 -143t118 -97t156 -35.5z" />
    <glyph glyph-name="oe" unicode="&#x153;" horiz-adv-x="1843" 
d="M458 -26q-138 0 -241.5 71t-154 190.5t-30.5 264.5q15 110 67.5 205.5t131.5 168t175.5 113.5t199.5 41q72 0 135 -21t115 -59t88 -90q52 52 114 90t131 59t141 21q118 0 209 -51t147.5 -138.5t70 -198.5t-22.5 -231h-693q7 -45 29 -80.5t59.5 -56.5t91.5 -22
q52 0 99.5 25t84.5 67l271 -66q-79 -133 -211.5 -217.5t-282.5 -84.5q-72 0 -135 21t-114.5 59t-88.5 90q-51 -52 -113.5 -90t-131.5 -59t-141 -21zM497 250q63 0 118.5 34.5t93.5 91.5t47 124q10 69 -12.5 126.5t-68.5 91.5t-108 34t-118 -35t-93.5 -92t-47.5 -125
q-10 -71 13 -127.5t69 -89.5t107 -33zM1058 613h425q-6 50 -31 90t-65 62.5t-90 22.5q-51 0 -98 -22.5t-83.5 -62t-57.5 -90.5z" />
    <glyph glyph-name="Racute" unicode="&#x154;" horiz-adv-x="1243" 
d="M22 0l196 1400h556q114 0 199 -57.5t125.5 -154t23.5 -213.5q-12 -92 -55.5 -170.5t-109.5 -137.5t-148 -92l253 -575h-318l-242 550h-127l-77 -550h-276zM413 826h248q45 0 85.5 22.5t68.5 61t34 85.5q7 46 -10 84.5t-51.5 61.5t-79.5 23h-247zM552 1510l120 288h276
l-212 -288h-184z" />
    <glyph glyph-name="racute" unicode="&#x155;" horiz-adv-x="787" 
d="M23 0l139 1000h276l-10 -74q58 48 129 75t146 27q55 0 108 -16l-148 -279q-33 15 -72 15q-52 0 -98 -25t-77 -67.5t-38 -95.5l-79 -560h-276zM439 1110l120 288h276l-212 -288h-184z" />
    <glyph glyph-name="uni0156" unicode="&#x156;" horiz-adv-x="1243" 
d="M22 0l196 1400h556q114 0 199 -57.5t125.5 -154t23.5 -213.5q-12 -92 -55.5 -170.5t-109.5 -137.5t-148 -92l253 -575h-318l-242 550h-127l-77 -550h-276zM413 826h248q45 0 85.5 22.5t68.5 61t34 85.5q7 46 -10 84.5t-51.5 61.5t-79.5 23h-247zM260 -441l109 338h276
l-201 -338h-184z" />
    <glyph glyph-name="uni0157" unicode="&#x157;" horiz-adv-x="787" 
d="M23 0l139 1000h276l-10 -74q58 48 129 75t146 27q55 0 108 -16l-148 -279q-33 15 -72 15q-52 0 -98 -25t-77 -67.5t-38 -95.5l-79 -560h-276zM-102 -441l109 338h276l-201 -338h-184z" />
    <glyph glyph-name="Rcaron" unicode="&#x158;" horiz-adv-x="1243" 
d="M22 0l196 1400h556q114 0 199 -57.5t125.5 -154t23.5 -213.5q-12 -92 -55.5 -170.5t-109.5 -137.5t-148 -92l253 -575h-318l-242 550h-127l-77 -550h-276zM413 826h248q45 0 85.5 22.5t68.5 61t34 85.5q7 46 -10 84.5t-51.5 61.5t-79.5 23h-247zM470 1510l-154 288h184
l139 -190l189 190h184l-230 -288h-312z" />
    <glyph glyph-name="rcaron" unicode="&#x159;" horiz-adv-x="787" 
d="M23 0l139 1000h276l-10 -74q58 48 129 75t146 27q55 0 108 -16l-148 -279q-33 15 -72 15q-52 0 -98 -25t-77 -67.5t-38 -95.5l-79 -560h-276zM357 1110l-154 288h184l139 -190l189 190h184l-230 -288h-312z" />
    <glyph glyph-name="Sacute" unicode="&#x15a;" horiz-adv-x="1257" 
d="M527 -26q-118 0 -220.5 37t-172.5 107t-92 166l273 96q7 -34 40.5 -63.5t88 -48t121.5 -18.5q65 0 125.5 19.5t101.5 54.5t47 82q7 47 -26 78t-88.5 49.5t-115.5 28.5q-147 22 -259.5 71.5t-169.5 137t-38 222.5q19 130 106 227t215 151t268 54q116 0 218.5 -37t174 -107
t92.5 -168l-274 -94q-7 34 -40.5 63t-88 47t-121.5 18q-64 1 -124.5 -19t-101.5 -55t-48 -80q-8 -59 22 -89t85.5 -43t122.5 -23q139 -21 252 -74.5t173 -142t42 -215.5q-17 -130 -104 -227t-215 -151t-269 -54zM670 1510l120 288h276l-212 -288h-184z" />
    <glyph glyph-name="sacute" unicode="&#x15b;" horiz-adv-x="872" 
d="M310 -18q-76 6 -143 32.5t-116.5 72t-71.5 109.5l246 100q9 -16 28 -34.5t49.5 -32.5t71.5 -14q31 0 61 7.5t50.5 25t24.5 46.5q5 32 -16 49t-52 25.5t-61 14.5q-89 16 -164.5 57.5t-117.5 107.5t-29 158q15 101 77.5 174.5t153.5 113.5t190 40q117 0 209.5 -49
t142.5 -138l-236 -129q-11 19 -29 36.5t-42.5 30t-54.5 14.5q-39 3 -72 -4.5t-54 -27.5t-26 -54q-5 -33 21.5 -48.5t64 -23t65.5 -17.5q83 -28 153 -71.5t108.5 -106.5t23.5 -148q-14 -99 -83.5 -173.5t-168.5 -113t-203 -29.5zM421 1110l120 288h276l-212 -288h-184z" />
    <glyph glyph-name="Scircumflex" unicode="&#x15c;" horiz-adv-x="1257" 
d="M527 -26q-118 0 -220.5 37t-172.5 107t-92 166l273 96q7 -34 40.5 -63.5t88 -48t121.5 -18.5q65 0 125.5 19.5t101.5 54.5t47 82q7 47 -26 78t-88.5 49.5t-115.5 28.5q-147 22 -259.5 71.5t-169.5 137t-38 222.5q19 130 106 227t215 151t268 54q116 0 218.5 -37t174 -107
t92.5 -168l-274 -94q-7 34 -40.5 63t-88 47t-121.5 18q-64 1 -124.5 -19t-101.5 -55t-48 -80q-8 -59 22 -89t85.5 -43t122.5 -23q139 -21 252 -74.5t173 -142t42 -215.5q-17 -130 -104 -227t-215 -151t-269 -54zM938 1798l154 -288h-184l-139 190l-189 -190h-184l230 288
h312z" />
    <glyph glyph-name="scircumflex" unicode="&#x15d;" horiz-adv-x="872" 
d="M310 -18q-76 6 -143 32.5t-116.5 72t-71.5 109.5l246 100q9 -16 28 -34.5t49.5 -32.5t71.5 -14q31 0 61 7.5t50.5 25t24.5 46.5q5 32 -16 49t-52 25.5t-61 14.5q-89 16 -164.5 57.5t-117.5 107.5t-29 158q15 101 77.5 174.5t153.5 113.5t190 40q117 0 209.5 -49
t142.5 -138l-236 -129q-11 19 -29 36.5t-42.5 30t-54.5 14.5q-39 3 -72 -4.5t-54 -27.5t-26 -54q-5 -33 21.5 -48.5t64 -23t65.5 -17.5q83 -28 153 -71.5t108.5 -106.5t23.5 -148q-14 -99 -83.5 -173.5t-168.5 -113t-203 -29.5zM689 1398l154 -288h-184l-139 190l-189 -190
h-184l230 288h312z" />
    <glyph glyph-name="Scedilla" unicode="&#x15e;" horiz-adv-x="1257" 
d="M527 -26q-118 0 -220.5 37t-172.5 107t-92 166l273 96q7 -34 40.5 -63.5t88 -48t121.5 -18.5q65 0 125.5 19.5t101.5 54.5t47 82q7 47 -26 78t-88.5 49.5t-115.5 28.5q-147 22 -259.5 71.5t-169.5 137t-38 222.5q19 130 106 227t215 151t268 54q116 0 218.5 -37t174 -107
t92.5 -168l-274 -94q-7 34 -40.5 63t-88 47t-121.5 18q-64 1 -124.5 -19t-101.5 -55t-48 -80q-8 -59 22 -89t85.5 -43t122.5 -23q139 -21 252 -74.5t173 -142t42 -215.5q-17 -130 -104 -227t-215 -151t-269 -54zM567 -379q-76 -19 -137 19t-70 111l141 37q2 -17 16.5 -26
t32.5 -5q18 5 29.5 20.5t9.5 33.5q-3 18 -17 25t-33 6l-138 -2l182 257l113 -71l-46 -63q33 -16 54.5 -45.5t26.5 -70.5q8 -74 -39 -140t-125 -86z" />
    <glyph glyph-name="scedilla" unicode="&#x15f;" horiz-adv-x="872" 
d="M310 -18q-76 6 -143 32.5t-116.5 72t-71.5 109.5l246 100q9 -16 28 -34.5t49.5 -32.5t71.5 -14q31 0 61 7.5t50.5 25t24.5 46.5q5 32 -16 49t-52 25.5t-61 14.5q-89 16 -164.5 57.5t-117.5 107.5t-29 158q15 101 77.5 174.5t153.5 113.5t190 40q117 0 209.5 -49
t142.5 -138l-236 -129q-11 19 -29 36.5t-42.5 30t-54.5 14.5q-39 3 -72 -4.5t-54 -27.5t-26 -54q-5 -33 21.5 -48.5t64 -23t65.5 -17.5q83 -28 153 -71.5t108.5 -106.5t23.5 -148q-14 -99 -83.5 -173.5t-168.5 -113t-203 -29.5zM351 -379q-76 -19 -137 19t-70 111l141 37
q2 -17 16.5 -26t32.5 -5q18 5 29.5 20.5t9.5 33.5q-3 18 -17 25t-33 6l-138 -2l182 257l113 -71l-46 -63q33 -16 54.5 -45.5t26.5 -70.5q8 -74 -39 -140t-125 -86z" />
    <glyph glyph-name="Scaron" unicode="&#x160;" horiz-adv-x="1257" 
d="M527 -26q-118 0 -220.5 37t-172.5 107t-92 166l273 96q7 -34 40.5 -63.5t88 -48t121.5 -18.5q65 0 125.5 19.5t101.5 54.5t47 82q7 47 -26 78t-88.5 49.5t-115.5 28.5q-147 22 -259.5 71.5t-169.5 137t-38 222.5q19 130 106 227t215 151t268 54q116 0 218.5 -37t174 -107
t92.5 -168l-274 -94q-7 34 -40.5 63t-88 47t-121.5 18q-64 1 -124.5 -19t-101.5 -55t-48 -80q-8 -59 22 -89t85.5 -43t122.5 -23q139 -21 252 -74.5t173 -142t42 -215.5q-17 -130 -104 -227t-215 -151t-269 -54zM588 1510l-154 288h184l139 -190l189 190h184l-230 -288h-312
z" />
    <glyph glyph-name="scaron" unicode="&#x161;" horiz-adv-x="872" 
d="M310 -18q-76 6 -143 32.5t-116.5 72t-71.5 109.5l246 100q9 -16 28 -34.5t49.5 -32.5t71.5 -14q31 0 61 7.5t50.5 25t24.5 46.5q5 32 -16 49t-52 25.5t-61 14.5q-89 16 -164.5 57.5t-117.5 107.5t-29 158q15 101 77.5 174.5t153.5 113.5t190 40q117 0 209.5 -49
t142.5 -138l-236 -129q-11 19 -29 36.5t-42.5 30t-54.5 14.5q-39 3 -72 -4.5t-54 -27.5t-26 -54q-5 -33 21.5 -48.5t64 -23t65.5 -17.5q83 -28 153 -71.5t108.5 -106.5t23.5 -148q-14 -99 -83.5 -173.5t-168.5 -113t-203 -29.5zM339 1110l-154 288h184l139 -190l189 190h184
l-230 -288h-312z" />
    <glyph glyph-name="uni0162" unicode="&#x162;" horiz-adv-x="1259" 
d="M1278 1400l-39 -276h-412l-157 -1124h-276l157 1124h-412l39 276h1100zM487 -379q-76 -19 -137 19t-70 111l141 37q2 -17 16.5 -26t32.5 -5q18 5 29.5 20.5t9.5 33.5q-3 18 -17 25t-33 6l-138 -2l182 257l113 -71l-46 -63q33 -16 54.5 -45.5t26.5 -70.5q8 -74 -39 -140
t-125 -86z" />
    <glyph glyph-name="uni0163" unicode="&#x163;" horiz-adv-x="724" 
d="M668 724h-181l-101 -724h-276l101 724h-137l38 276h138l44 314h276l-44 -314h180zM204 -379q-76 -19 -137 19t-70 111l141 37q2 -17 16.5 -26t32.5 -5q18 5 29.5 20.5t9.5 33.5q-3 18 -17 25t-33 6l-138 -2l182 257l113 -71l-46 -63q33 -16 54.5 -45.5t26.5 -70.5
q8 -74 -39 -140t-125 -86z" />
    <glyph glyph-name="Tcaron" unicode="&#x164;" horiz-adv-x="1259" 
d="M1278 1400l-39 -276h-412l-157 -1124h-276l157 1124h-412l39 276h1100zM589 1510l-154 288h184l139 -190l189 190h184l-230 -288h-312z" />
    <glyph glyph-name="tcaron" unicode="&#x165;" horiz-adv-x="724" 
d="M668 724h-181l-101 -724h-276l101 724h-137l38 276h138l44 314h276l-44 -314h180zM607 1212l120 288h276l-212 -288h-184z" />
    <glyph glyph-name="Utilde" unicode="&#x168;" 
d="M584 -26q-168 0 -284 82t-168 220.5t-28 307.5l114 816h276l-114 -816q-13 -91 10.5 -167t82 -121.5t150.5 -45.5t163 45t115 121t57 168l114 816h276l-114 -816q-18 -127 -74.5 -237.5t-142.5 -194.5t-196.5 -131t-236.5 -47zM952 1497q-38 0 -86 27t-95 59t-82 51
t-45 4q-12 -17 -13.5 -35.5t2.5 -49.5l-163 -43q-17 84 5 152.5t76.5 108.5t133.5 40q36 0 81.5 -21.5t89.5 -49.5t78 -49.5t46 -21.5q20 0 25.5 12.5t3.5 32t-7 37.5l168 52q17 -89 -8 -158t-80 -108.5t-130 -39.5z" />
    <glyph glyph-name="utilde" unicode="&#x169;" horiz-adv-x="1089" 
d="M33 366l89 634h276l-79 -558q-7 -53 12.5 -95.5t59 -67.5t90.5 -25q53 0 99 25t77.5 67.5t37.5 95.5l79 558h276l-139 -1000h-276l9 76q-57 -48 -128 -75t-146 -27q-108 0 -189.5 53t-122 141.5t-25.5 197.5zM790 1099q-38 0 -86 27t-95 59t-82 51t-45 4
q-12 -17 -13.5 -35.5t2.5 -49.5l-163 -43q-17 84 5 152.5t76.5 108.5t133.5 40q36 0 81.5 -21.5t89.5 -49.5t78 -49.5t46 -21.5q20 0 25.5 12.5t3.5 32t-7 37.5l168 52q17 -89 -8 -158t-80 -108.5t-130 -39.5z" />
    <glyph glyph-name="Umacron" unicode="&#x16a;" 
d="M584 -26q-168 0 -284 82t-168 220.5t-28 307.5l114 816h276l-114 -816q-13 -91 10.5 -167t82 -121.5t150.5 -45.5t163 45t115 121t57 168l114 816h276l-114 -816q-18 -127 -74.5 -237.5t-142.5 -194.5t-196.5 -131t-236.5 -47zM493 1740h676l-29 -204h-676z" />
    <glyph glyph-name="umacron" unicode="&#x16b;" horiz-adv-x="1089" 
d="M33 366l89 634h276l-79 -558q-7 -53 12.5 -95.5t59 -67.5t90.5 -25q53 0 99 25t77.5 67.5t37.5 95.5l79 558h276l-139 -1000h-276l9 76q-57 -48 -128 -75t-146 -27q-108 0 -189.5 53t-122 141.5t-25.5 197.5zM331 1342h676l-29 -204h-676z" />
    <glyph glyph-name="Ubreve" unicode="&#x16c;" 
d="M584 -26q-168 0 -284 82t-168 220.5t-28 307.5l114 816h276l-114 -816q-13 -91 10.5 -167t82 -121.5t150.5 -45.5t163 45t115 121t57 168l114 816h276l-114 -816q-18 -127 -74.5 -237.5t-142.5 -194.5t-196.5 -131t-236.5 -47zM796 1488q-91 0 -160 45t-103.5 120.5
t-22.5 166.5h168q-6 -45 11 -82t51 -59.5t79 -22.5q46 0 86 21.5t67.5 59t33.5 83.5h168q-13 -93 -68 -168.5t-136.5 -119.5t-173.5 -44z" />
    <glyph glyph-name="ubreve" unicode="&#x16d;" horiz-adv-x="1089" 
d="M33 366l89 634h276l-79 -558q-7 -53 12.5 -95.5t59 -67.5t90.5 -25q53 0 99 25t77.5 67.5t37.5 95.5l79 558h276l-139 -1000h-276l9 76q-57 -48 -128 -75t-146 -27q-108 0 -189.5 53t-122 141.5t-25.5 197.5zM634 1090q-91 0 -160 45t-103.5 120.5t-22.5 166.5h168
q-6 -45 11 -82t51 -59.5t79 -22.5q46 0 86 21.5t67.5 59t33.5 83.5h168q-13 -93 -68 -168.5t-136.5 -119.5t-173.5 -44z" />
    <glyph glyph-name="Uring" unicode="&#x16e;" 
d="M584 -26q-168 0 -284 82t-168 220.5t-28 307.5l114 816h276l-114 -816q-13 -91 10.5 -167t82 -121.5t150.5 -45.5t163 45t115 121t57 168l114 816h276l-114 -816q-18 -127 -74.5 -237.5t-142.5 -194.5t-196.5 -131t-236.5 -47zM792 1460q-80 0 -129 58t-38 138
q8 52 40 95.5t80 70t101 26.5q80 0 128.5 -57t38.5 -135q-12 -82 -76.5 -139t-144.5 -57zM809 1591q27 0 48 19t25 45q3 25 -13 43.5t-42 18.5t-47 -18t-24 -43q-4 -27 11.5 -46t41.5 -19z" />
    <glyph glyph-name="uring" unicode="&#x16f;" horiz-adv-x="1089" 
d="M33 366l89 634h276l-79 -558q-7 -53 12.5 -95.5t59 -67.5t90.5 -25q53 0 99 25t77.5 67.5t37.5 95.5l79 558h276l-139 -1000h-276l9 76q-57 -48 -128 -75t-146 -27q-108 0 -189.5 53t-122 141.5t-25.5 197.5zM630 1062q-80 0 -129 58t-38 138q8 52 40 95.5t80 70
t101 26.5q80 0 128.5 -57t38.5 -135q-12 -82 -76.5 -139t-144.5 -57zM647 1193q27 0 48 19t25 45q3 25 -13 43.5t-42 18.5t-47 -18t-24 -43q-4 -27 11.5 -46t41.5 -19z" />
    <glyph glyph-name="Uhungarumlaut" unicode="&#x170;" 
d="M584 -26q-168 0 -284 82t-168 220.5t-28 307.5l114 816h276l-114 -816q-13 -91 10.5 -167t82 -121.5t150.5 -45.5t163 45t115 121t57 168l114 816h276l-114 -816q-18 -127 -74.5 -237.5t-142.5 -194.5t-196.5 -131t-236.5 -47zM914 1510l120 288h276l-212 -288h-184z
M560 1510l120 288h276l-212 -288h-184z" />
    <glyph glyph-name="uhungarumlaut" unicode="&#x171;" horiz-adv-x="1089" 
d="M33 366l89 634h276l-79 -558q-7 -53 12.5 -95.5t59 -67.5t90.5 -25q53 0 99 25t77.5 67.5t37.5 95.5l79 558h276l-139 -1000h-276l9 76q-57 -48 -128 -75t-146 -27q-108 0 -189.5 53t-122 141.5t-25.5 197.5zM752 1112l120 288h276l-212 -288h-184zM398 1112l120 288h276
l-212 -288h-184z" />
    <glyph glyph-name="Uogonek" unicode="&#x172;" 
d="M584 -26q-168 0 -284 82t-168 220.5t-28 307.5l114 816h276l-114 -816q-13 -91 10.5 -167t82 -121.5t150.5 -45.5t163 45t115 121t57 168l114 816h276l-114 -816q-18 -127 -74.5 -237.5t-142.5 -194.5t-196.5 -131t-236.5 -47zM562 -467q-76 0 -127.5 36t-74 94.5
t-13.5 121.5q7 48 31 93.5t67 83.5l192 168l113 -132q-35 -31 -70 -60t-63.5 -57t-47 -54.5t-22.5 -51.5q-3 -23 10.5 -42t40.5 -19q38 0 69.5 27t36.5 66h172q-10 -73 -55 -135.5t-113 -100.5t-146 -38z" />
    <glyph glyph-name="uogonek" unicode="&#x173;" horiz-adv-x="1089" 
d="M33 366l89 634h276l-79 -558q-7 -53 12.5 -95.5t59 -67.5t90.5 -25q53 0 99 25t77.5 67.5t37.5 95.5l79 558h276l-139 -1000h-276l9 76q-57 -48 -128 -75t-146 -27q-108 0 -189.5 53t-122 141.5t-25.5 197.5zM722 -463q-76 0 -127.5 36t-74 94.5t-13.5 121.5
q7 48 31 93.5t67 83.5l192 168l113 -132q-35 -31 -70 -60t-63.5 -57t-47 -54.5t-22.5 -51.5q-3 -23 10.5 -42t40.5 -19q38 0 69.5 27t36.5 66h172q-10 -73 -55 -135.5t-113 -100.5t-146 -38z" />
    <glyph glyph-name="Wcircumflex" unicode="&#x174;" horiz-adv-x="1919" 
d="M352 0l-162 1400h285l103 -895l353 895h253l103 -895l353 895h285l-552 -1400h-312l-90 778l-307 -778h-312zM1269 1798l154 -288h-184l-139 190l-189 -190h-184l230 288h312z" />
    <glyph glyph-name="wcircumflex" unicode="&#x175;" horiz-adv-x="1730" 
d="M568 0h-272l-194 1000h270l117 -599l283 599h270l115 -599l284 599h271l-475 -1000h-271l-115 600zM1118 1398l154 -288h-184l-139 190l-189 -190h-184l230 288h312z" />
    <glyph glyph-name="Ycircumflex" unicode="&#x176;" horiz-adv-x="1364" 
d="M1076 1400h326l-592 -769l-88 -631h-276l88 631l-376 769h326l230 -469zM992 1798l154 -288h-184l-139 190l-189 -190h-184l230 288h312z" />
    <glyph glyph-name="ycircumflex" unicode="&#x177;" horiz-adv-x="1180" 
d="M848 1000h294l-759 -1500h-292l251 500l-220 1000h302l108 -623zM843 1398l154 -288h-184l-139 190l-189 -190h-184l230 288h312z" />
    <glyph glyph-name="Ydieresis" unicode="&#x178;" horiz-adv-x="1364" 
d="M1076 1400h326l-592 -769l-88 -631h-276l88 631l-376 769h326l230 -469zM580 1467q-60 0 -95 39.5t-27 99.5q8 58 54.5 99t106.5 41q58 0 93 -41t27 -99q-8 -60 -54.5 -99.5t-104.5 -39.5zM1001 1467q-59 0 -94.5 39.5t-27.5 99.5q8 58 55 99t106 41t94 -41t26 -99
q-8 -60 -54 -99.5t-105 -39.5z" />
    <glyph glyph-name="Zacute" unicode="&#x179;" horiz-adv-x="1292" 
d="M-18 0l39 276l877 848h-759l39 276h1132l-39 -276l-877 -848h759l-39 -276h-1132zM687 1510l120 288h276l-212 -288h-184z" />
    <glyph glyph-name="zacute" unicode="&#x17a;" horiz-adv-x="1014" 
d="M937 724l-518 -448h456l-39 -276h-854l39 276l518 448h-456l39 276h854zM492 1110l120 288h276l-212 -288h-184z" />
    <glyph glyph-name="Zdotaccent" unicode="&#x17b;" horiz-adv-x="1292" 
d="M-18 0l39 276l877 848h-759l39 276h1132l-39 -276l-877 -848h759l-39 -276h-1132zM763 1515q-61 0 -96 40t-27 99t54.5 99t106.5 40q58 0 93 -40t27 -99q-9 -59 -54 -99t-104 -40z" />
    <glyph glyph-name="zdotaccent" unicode="&#x17c;" horiz-adv-x="1014" 
d="M937 724l-518 -448h456l-39 -276h-854l39 276l518 448h-456l39 276h854zM568 1115q-61 0 -96 40t-27 99t54.5 99t106.5 40q58 0 93 -40t27 -99q-9 -59 -54 -99t-104 -40z" />
    <glyph glyph-name="Zcaron" unicode="&#x17d;" horiz-adv-x="1292" 
d="M-18 0l39 276l877 848h-759l39 276h1132l-39 -276l-877 -848h759l-39 -276h-1132zM605 1510l-154 288h184l139 -190l189 190h184l-230 -288h-312z" />
    <glyph glyph-name="zcaron" unicode="&#x17e;" horiz-adv-x="1014" 
d="M937 724l-518 -448h456l-39 -276h-854l39 276l518 448h-456l39 276h854zM410 1110l-154 288h184l139 -190l189 190h184l-230 -288h-312z" />
    <glyph glyph-name="uni01CD" unicode="&#x1cd;" horiz-adv-x="1490" 
d="M686 1400h314l312 -1400h-293l-52 232h-575l-117 -232h-293zM531 508h374l-116 513zM704 1510l-154 288h184l139 -190l189 190h184l-230 -288h-312z" />
    <glyph glyph-name="uni01CE" unicode="&#x1ce;" horiz-adv-x="1209" 
d="M896 1000h276l-140 -1000h-277l1 104q-47 -58 -113 -94t-148 -36q-112 0 -203.5 42t-154.5 116t-91 171.5t-12 209.5q15 107 67.5 200t132.5 164t178.5 111t205.5 40q92 0 160 -39t115 -99zM524 239q69 0 129 35t100.5 94.5t50.5 131.5q10 73 -14 132t-74 94t-118 35
q-69 0 -130 -35t-102 -94.5t-51 -131.5t15 -131.5t76 -94.5t118 -35zM522 1110l-154 288h184l139 -190l189 190h184l-230 -288h-312z" />
    <glyph glyph-name="uni01CF" unicode="&#x1cf;" horiz-adv-x="576" 
d="M52 0l196 1400h276l-196 -1400h-276zM247 1510l-154 288h184l139 -190l189 190h184l-230 -288h-312z" />
    <glyph glyph-name="uni01D0" unicode="&#x1d0;" horiz-adv-x="516" 
d="M162 1000h276l-140 -1000h-276zM161 1110l-154 288h184l139 -190l189 190h184l-230 -288h-312z" />
    <glyph glyph-name="uni01D1" unicode="&#x1d1;" horiz-adv-x="1540" 
d="M668 -26q-142 0 -259.5 56.5t-198 156.5t-116 231.5t-14.5 281.5t93 281.5t181.5 231.5t242.5 156.5t275 56.5q143 0 260 -56.5t197.5 -156.5t116 -231.5t14.5 -281.5t-93 -281.5t-181.5 -231.5t-242 -156.5t-275.5 -56.5zM707 250q85 0 165 35.5t145.5 97.5t109.5 143
t57 174t-8 174.5t-69 143t-118 97t-156 35.5q-85 0 -165 -35.5t-145.5 -97.5t-109.5 -143t-57 -174t8 -174.5t69 -143t118 -97t156 -35.5zM729 1510l-154 288h184l139 -190l189 190h184l-230 -288h-312z" />
    <glyph glyph-name="uni01D2" unicode="&#x1d2;" horiz-adv-x="1120" 
d="M458 -26q-138 0 -241.5 71t-154 190.5t-30.5 264.5q15 110 67.5 205.5t131.5 168t175.5 113.5t199.5 41q138 0 241.5 -71t154.5 -191t30 -266q-15 -109 -67.5 -204t-131.5 -167.5t-175 -113.5t-200 -41zM497 250q63 0 118.5 34.5t93.5 91.5t47 124q10 69 -12.5 126.5
t-68.5 91.5t-108 34t-118 -35t-93.5 -92t-47.5 -125q-10 -71 13 -127.5t69 -89.5t107 -33zM463 1110l-154 288h184l139 -190l189 190h184l-230 -288h-312z" />
    <glyph glyph-name="uni01D3" unicode="&#x1d3;" 
d="M584 -26q-168 0 -284 82t-168 220.5t-28 307.5l114 816h276l-114 -816q-13 -91 10.5 -167t82 -121.5t150.5 -45.5t163 45t115 121t57 168l114 816h276l-114 -816q-18 -127 -74.5 -237.5t-142.5 -194.5t-196.5 -131t-236.5 -47zM644 1510l-154 288h184l139 -190l189 190
h184l-230 -288h-312z" />
    <glyph glyph-name="uni01D4" unicode="&#x1d4;" horiz-adv-x="1089" 
d="M33 366l89 634h276l-79 -558q-7 -53 12.5 -95.5t59 -67.5t90.5 -25q53 0 99 25t77.5 67.5t37.5 95.5l79 558h276l-139 -1000h-276l9 76q-57 -48 -128 -75t-146 -27q-108 0 -189.5 53t-122 141.5t-25.5 197.5zM482 1112l-154 288h184l139 -190l189 190h184l-230 -288h-312
z" />
    <glyph glyph-name="uni01D5" unicode="&#x1d5;" 
d="M584 -26q-168 0 -284 82t-168 220.5t-28 307.5l114 816h276l-114 -816q-13 -91 10.5 -167t82 -121.5t150.5 -45.5t163 45t115 121t57 168l114 816h276l-114 -816q-18 -127 -74.5 -237.5t-142.5 -194.5t-196.5 -131t-236.5 -47zM583 1467q-60 0 -95 39.5t-27 99.5
q8 58 54.5 99t106.5 41q58 0 93 -41t27 -99q-8 -60 -54.5 -99.5t-104.5 -39.5zM1004 1467q-59 0 -94.5 39.5t-27.5 99.5q8 58 55 99t106 41t94 -41t26 -99q-8 -60 -54 -99.5t-105 -39.5zM536 2044h676l-29 -204h-676z" />
    <glyph glyph-name="uni01D6" unicode="&#x1d6;" horiz-adv-x="1089" 
d="M33 366l89 634h276l-79 -558q-7 -53 12.5 -95.5t59 -67.5t90.5 -25q53 0 99 25t77.5 67.5t37.5 95.5l79 558h276l-139 -1000h-276l9 76q-57 -48 -128 -75t-146 -27q-108 0 -189.5 53t-122 141.5t-25.5 197.5zM421 1069q-60 0 -95 39.5t-27 99.5q8 58 54.5 99t106.5 41
q58 0 93 -41t27 -99q-8 -60 -54.5 -99.5t-104.5 -39.5zM842 1069q-59 0 -94.5 39.5t-27.5 99.5q8 58 55 99t106 41t94 -41t26 -99q-8 -60 -54 -99.5t-105 -39.5zM374 1646h676l-29 -204h-676z" />
    <glyph glyph-name="uni01D7" unicode="&#x1d7;" 
d="M584 -26q-168 0 -284 82t-168 220.5t-28 307.5l114 816h276l-114 -816q-13 -91 10.5 -167t82 -121.5t150.5 -45.5t163 45t115 121t57 168l114 816h276l-114 -816q-18 -127 -74.5 -237.5t-142.5 -194.5t-196.5 -131t-236.5 -47zM583 1467q-60 0 -95 39.5t-27 99.5
q8 58 54.5 99t106.5 41q58 0 93 -41t27 -99q-8 -60 -54.5 -99.5t-104.5 -39.5zM1004 1467q-59 0 -94.5 39.5t-27.5 99.5q8 58 55 99t106 41t94 -41t26 -99q-8 -60 -54 -99.5t-105 -39.5zM769 1814l120 288h276l-212 -288h-184z" />
    <glyph glyph-name="uni01D8" unicode="&#x1d8;" horiz-adv-x="1089" 
d="M33 366l89 634h276l-79 -558q-7 -53 12.5 -95.5t59 -67.5t90.5 -25q53 0 99 25t77.5 67.5t37.5 95.5l79 558h276l-139 -1000h-276l9 76q-57 -48 -128 -75t-146 -27q-108 0 -189.5 53t-122 141.5t-25.5 197.5zM421 1069q-60 0 -95 39.5t-27 99.5q8 58 54.5 99t106.5 41
q58 0 93 -41t27 -99q-8 -60 -54.5 -99.5t-104.5 -39.5zM842 1069q-59 0 -94.5 39.5t-27.5 99.5q8 58 55 99t106 41t94 -41t26 -99q-8 -60 -54 -99.5t-105 -39.5zM607 1416l120 288h276l-212 -288h-184z" />
    <glyph glyph-name="uni01D9" unicode="&#x1d9;" 
d="M584 -26q-168 0 -284 82t-168 220.5t-28 307.5l114 816h276l-114 -816q-13 -91 10.5 -167t82 -121.5t150.5 -45.5t163 45t115 121t57 168l114 816h276l-114 -816q-18 -127 -74.5 -237.5t-142.5 -194.5t-196.5 -131t-236.5 -47zM583 1467q-60 0 -95 39.5t-27 99.5
q8 58 54.5 99t106.5 41q58 0 93 -41t27 -99q-8 -60 -54.5 -99.5t-104.5 -39.5zM1004 1467q-59 0 -94.5 39.5t-27.5 99.5q8 58 55 99t106 41t94 -41t26 -99q-8 -60 -54 -99.5t-105 -39.5zM687 1814l-154 288h184l139 -190l189 190h184l-230 -288h-312z" />
    <glyph glyph-name="uni01DA" unicode="&#x1da;" horiz-adv-x="1089" 
d="M33 366l89 634h276l-79 -558q-7 -53 12.5 -95.5t59 -67.5t90.5 -25q53 0 99 25t77.5 67.5t37.5 95.5l79 558h276l-139 -1000h-276l9 76q-57 -48 -128 -75t-146 -27q-108 0 -189.5 53t-122 141.5t-25.5 197.5zM421 1069q-60 0 -95 39.5t-27 99.5q8 58 54.5 99t106.5 41
q58 0 93 -41t27 -99q-8 -60 -54.5 -99.5t-104.5 -39.5zM842 1069q-59 0 -94.5 39.5t-27.5 99.5q8 58 55 99t106 41t94 -41t26 -99q-8 -60 -54 -99.5t-105 -39.5zM525 1416l-154 288h184l139 -190l189 190h184l-230 -288h-312z" />
    <glyph glyph-name="uni01DB" unicode="&#x1db;" 
d="M584 -26q-168 0 -284 82t-168 220.5t-28 307.5l114 816h276l-114 -816q-13 -91 10.5 -167t82 -121.5t150.5 -45.5t163 45t115 121t57 168l114 816h276l-114 -816q-18 -127 -74.5 -237.5t-142.5 -194.5t-196.5 -131t-236.5 -47zM583 1467q-60 0 -95 39.5t-27 99.5
q8 58 54.5 99t106.5 41q58 0 93 -41t27 -99q-8 -60 -54.5 -99.5t-104.5 -39.5zM1004 1467q-59 0 -94.5 39.5t-27.5 99.5q8 58 55 99t106 41t94 -41t26 -99q-8 -60 -54 -99.5t-105 -39.5zM600 2102h276l40 -288h-184z" />
    <glyph glyph-name="uni01DC" unicode="&#x1dc;" horiz-adv-x="1089" 
d="M33 366l89 634h276l-79 -558q-7 -53 12.5 -95.5t59 -67.5t90.5 -25q53 0 99 25t77.5 67.5t37.5 95.5l79 558h276l-139 -1000h-276l9 76q-57 -48 -128 -75t-146 -27q-108 0 -189.5 53t-122 141.5t-25.5 197.5zM421 1069q-60 0 -95 39.5t-27 99.5q8 58 54.5 99t106.5 41
q58 0 93 -41t27 -99q-8 -60 -54.5 -99.5t-104.5 -39.5zM842 1069q-59 0 -94.5 39.5t-27.5 99.5q8 58 55 99t106 41t94 -41t26 -99q-8 -60 -54 -99.5t-105 -39.5zM438 1704h276l40 -288h-184z" />
    <glyph glyph-name="uni01DE" unicode="&#x1de;" horiz-adv-x="1490" 
d="M686 1400h314l312 -1400h-293l-52 232h-575l-117 -232h-293zM531 508h374l-116 513zM643 1467q-60 0 -95 39.5t-27 99.5q8 58 54.5 99t106.5 41q58 0 93 -41t27 -99q-8 -60 -54.5 -99.5t-104.5 -39.5zM1064 1467q-59 0 -94.5 39.5t-27.5 99.5q8 58 55 99t106 41t94 -41
t26 -99q-8 -60 -54 -99.5t-105 -39.5zM596 2044h676l-29 -204h-676z" />
    <glyph glyph-name="uni01DF" unicode="&#x1df;" horiz-adv-x="1209" 
d="M896 1000h276l-140 -1000h-277l1 104q-47 -58 -113 -94t-148 -36q-112 0 -203.5 42t-154.5 116t-91 171.5t-12 209.5q15 107 67.5 200t132.5 164t178.5 111t205.5 40q92 0 160 -39t115 -99zM524 239q69 0 129 35t100.5 94.5t50.5 131.5q10 73 -14 132t-74 94t-118 35
q-69 0 -130 -35t-102 -94.5t-51 -131.5t15 -131.5t76 -94.5t118 -35zM461 1067q-60 0 -95 39.5t-27 99.5q8 58 54.5 99t106.5 41q58 0 93 -41t27 -99q-8 -60 -54.5 -99.5t-104.5 -39.5zM882 1067q-59 0 -94.5 39.5t-27.5 99.5q8 58 55 99t106 41t94 -41t26 -99
q-8 -60 -54 -99.5t-105 -39.5zM414 1644h676l-29 -204h-676z" />
    <glyph glyph-name="uni01E2" unicode="&#x1e2;" horiz-adv-x="1696" 
d="M-18 0l704 1400h1008l-38 -276h-470l-40 -286h374l-39 -276h-374l-40 -286h470l-39 -276h-746l33 232h-393l-117 -232h-293zM531 508h293l86 616h-69zM900 1740h676l-29 -204h-676z" />
    <glyph glyph-name="uni01E3" unicode="&#x1e3;" horiz-adv-x="1714" 
d="M262 -26q-96 0 -165.5 44t-102.5 116.5t-21 158.5q12 85 65.5 157.5t135.5 117t177 44.5h281q-5 40 -24.5 71.5t-52.5 50t-80 18.5q-80 0 -149 -40l-121 229q72 44 149.5 65.5t155.5 21.5q100 0 184 -40t137 -114q51 47 110.5 81.5t125.5 53.5t134 19q119 0 210.5 -51
t147.5 -139t69.5 -199t-23.5 -231h-694q7 -45 29.5 -80.5t61 -56.5t92.5 -21q51 0 98.5 25t82.5 66l272 -65q-79 -133 -211.5 -217.5t-282.5 -84.5q-77 0 -143.5 23.5t-119.5 66t-90 99.5q-43 -49 -112 -91.5t-153 -70t-173 -27.5zM297 214q64 0 120.5 24.5t101.5 67.5
q48 41 83 102h-279q-40 0 -70.5 -27.5t-36.5 -66.5q-5 -38 17.5 -69t63.5 -31zM930 612h425q-6 50 -31.5 90t-65.5 63t-91 23q-49 0 -95.5 -23t-83.5 -62.5t-58 -90.5zM558 1342h676l-29 -204h-676z" />
    <glyph glyph-name="Gcaron" unicode="&#x1e6;" horiz-adv-x="1536" 
d="M666 -26q-146 0 -263.5 57t-197 157.5t-113 232.5t-12.5 281q23 160 98.5 292t187 228.5t243.5 149t267 52.5q148 0 280.5 -69t222.5 -219l-265 -132q-54 74 -127 110t-154 36q-80 0 -159.5 -33t-146 -94t-112 -144t-60.5 -183q-13 -93 8 -174t69.5 -142t119 -95.5
t156.5 -34.5q54 0 107 15.5t105 45.5t97.5 75t83.5 104h-216l34 240h542q-17 -155 -87 -292t-179.5 -241.5t-245 -163.5t-283.5 -59zM728 1510l-154 288h184l139 -190l189 190h184l-230 -288h-312z" />
    <glyph glyph-name="gcaron" unicode="&#x1e7;" horiz-adv-x="1242" 
d="M888 1000h276l-142 -1014q-16 -111 -73.5 -200.5t-144.5 -153.5t-192 -98t-217 -34q-106 0 -196.5 41.5t-155.5 114.5t-94 168l268 115q14 -50 46 -86t76.5 -55.5t95.5 -19.5q54 0 106.5 13t96 39t72 65t36.5 91l16 116q-54 -57 -124.5 -92.5t-156.5 -35.5
q-108 0 -197 41t-150.5 113.5t-89 167.5t-12.5 204t69.5 204t136.5 167.5t182.5 113.5t208.5 41q86 0 146.5 -35.5t98.5 -92.5zM522 239q68 0 127.5 35.5t100 94.5t50.5 131t-13.5 131.5t-73.5 94.5t-118 35q-67 0 -127.5 -35t-101.5 -94.5t-51 -131.5t14.5 -131.5t75 -94.5
t117.5 -35zM524 1110l-154 288h184l139 -190l189 190h184l-230 -288h-312z" />
    <glyph glyph-name="uni01E8" unicode="&#x1e8;" horiz-adv-x="1205" 
d="M1083 0h-360l-300 524l-60 -62l-65 -462h-276l196 1400h276l-72 -509l498 509h360l-646 -660zM562 1510l-154 288h184l139 -190l189 190h184l-230 -288h-312z" />
    <glyph glyph-name="uni01E9" unicode="&#x1e9;" horiz-adv-x="1099" 
d="M951 0h-318l-161 365l-142 -145l-31 -220h-276l210 1500h276l-120 -851l344 351h360l-401 -411zM628 1510l-154 288h184l139 -190l189 190h184l-230 -288h-312z" />
    <glyph glyph-name="uni0218" unicode="&#x218;" horiz-adv-x="1257" 
d="M527 -26q-118 0 -220.5 37t-172.5 107t-92 166l273 96q7 -34 40.5 -63.5t88 -48t121.5 -18.5q65 0 125.5 19.5t101.5 54.5t47 82q7 47 -26 78t-88.5 49.5t-115.5 28.5q-147 22 -259.5 71.5t-169.5 137t-38 222.5q19 130 106 227t215 151t268 54q116 0 218.5 -37t174 -107
t92.5 -168l-274 -94q-7 34 -40.5 63t-88 47t-121.5 18q-64 1 -124.5 -19t-101.5 -55t-48 -80q-8 -59 22 -89t85.5 -43t122.5 -23q139 -21 252 -74.5t173 -142t42 -215.5q-17 -130 -104 -227t-215 -151t-269 -54zM350 -441l109 338h276l-201 -338h-184z" />
    <glyph glyph-name="uni0219" unicode="&#x219;" horiz-adv-x="872" 
d="M310 -18q-76 6 -143 32.5t-116.5 72t-71.5 109.5l246 100q9 -16 28 -34.5t49.5 -32.5t71.5 -14q31 0 61 7.5t50.5 25t24.5 46.5q5 32 -16 49t-52 25.5t-61 14.5q-89 16 -164.5 57.5t-117.5 107.5t-29 158q15 101 77.5 174.5t153.5 113.5t190 40q117 0 209.5 -49
t142.5 -138l-236 -129q-11 19 -29 36.5t-42.5 30t-54.5 14.5q-39 3 -72 -4.5t-54 -27.5t-26 -54q-5 -33 21.5 -48.5t64 -23t65.5 -17.5q83 -28 153 -71.5t108.5 -106.5t23.5 -148q-14 -99 -83.5 -173.5t-168.5 -113t-203 -29.5zM133 -441l109 338h276l-201 -338h-184z" />
    <glyph glyph-name="uni021A" unicode="&#x21a;" horiz-adv-x="1259" 
d="M1278 1400l-39 -276h-412l-157 -1124h-276l157 1124h-412l39 276h1100zM270 -441l109 338h276l-201 -338h-184z" />
    <glyph glyph-name="uni021B" unicode="&#x21b;" horiz-adv-x="724" 
d="M668 724h-181l-101 -724h-276l101 724h-137l38 276h138l44 314h276l-44 -314h180zM-14 -441l109 338h276l-201 -338h-184z" />
    <glyph glyph-name="uni022A" unicode="&#x22a;" horiz-adv-x="1540" 
d="M668 -26q-142 0 -259.5 56.5t-198 156.5t-116 231.5t-14.5 281.5t93 281.5t181.5 231.5t242.5 156.5t275 56.5q143 0 260 -56.5t197.5 -156.5t116 -231.5t14.5 -281.5t-93 -281.5t-181.5 -231.5t-242 -156.5t-275.5 -56.5zM707 250q85 0 165 35.5t145.5 97.5t109.5 143
t57 174t-8 174.5t-69 143t-118 97t-156 35.5q-85 0 -165 -35.5t-145.5 -97.5t-109.5 -143t-57 -174t8 -174.5t69 -143t118 -97t156 -35.5zM668 1467q-60 0 -95 39.5t-27 99.5q8 58 54.5 99t106.5 41q58 0 93 -41t27 -99q-8 -60 -54.5 -99.5t-104.5 -39.5zM1089 1467
q-59 0 -94.5 39.5t-27.5 99.5q8 58 55 99t106 41t94 -41t26 -99q-8 -60 -54 -99.5t-105 -39.5zM621 2044h676l-29 -204h-676z" />
    <glyph glyph-name="uni022B" unicode="&#x22b;" horiz-adv-x="1120" 
d="M458 -26q-138 0 -241.5 71t-154 190.5t-30.5 264.5q15 110 67.5 205.5t131.5 168t175.5 113.5t199.5 41q138 0 241.5 -71t154.5 -191t30 -266q-15 -109 -67.5 -204t-131.5 -167.5t-175 -113.5t-200 -41zM497 250q63 0 118.5 34.5t93.5 91.5t47 124q10 69 -12.5 126.5
t-68.5 91.5t-108 34t-118 -35t-93.5 -92t-47.5 -125q-10 -71 13 -127.5t69 -89.5t107 -33zM402 1067q-60 0 -95 39.5t-27 99.5q8 58 54.5 99t106.5 41q58 0 93 -41t27 -99q-8 -60 -54.5 -99.5t-104.5 -39.5zM823 1067q-59 0 -94.5 39.5t-27.5 99.5q8 58 55 99t106 41t94 -41
t26 -99q-8 -60 -54 -99.5t-105 -39.5zM355 1644h676l-29 -204h-676z" />
    <glyph glyph-name="uni0232" unicode="&#x232;" horiz-adv-x="1364" 
d="M1076 1400h326l-592 -769l-88 -631h-276l88 631l-376 769h326l230 -469zM490 1740h676l-29 -204h-676z" />
    <glyph glyph-name="uni0233" unicode="&#x233;" horiz-adv-x="1180" 
d="M848 1000h294l-759 -1500h-292l251 500l-220 1000h302l108 -623zM342 1340h676l-29 -204h-676z" />
    <glyph glyph-name="uni0237" unicode="&#x237;" horiz-adv-x="501" 
d="M-249 -500l40 276q51 0 96 24.5t76 66.5t39 93l145 1040h276l-145 -1040q-18 -127 -95 -231t-190 -166.5t-242 -62.5z" />
    <glyph glyph-name="quoteleft" unicode="&#x2bb;" horiz-adv-x="438" 
d="M85 878l227 522h184l-135 -522h-276z" />
    <glyph glyph-name="quoteleft" unicode="&#x2018;" horiz-adv-x="438" 
d="M85 878l227 522h184l-135 -522h-276z" />
    <glyph glyph-name="uni02BC" unicode="&#x2bc;" horiz-adv-x="572" 
d="M65 878l135 522h276l-227 -522h-184z" />
    <glyph glyph-name="circumflex" unicode="&#x2c6;" horiz-adv-x="727" 
d="M616 1398l154 -288h-184l-139 190l-189 -190h-184l230 288h312z" />
    <glyph glyph-name="caron" unicode="&#x2c7;" horiz-adv-x="688" 
d="M248 1110l-154 288h184l139 -190l189 190h184l-230 -288h-312z" />
    <glyph glyph-name="breve" unicode="&#x2d8;" horiz-adv-x="1144" 
d="M627 1088q-91 0 -160 45t-103.5 120.5t-22.5 166.5h168q-6 -45 11 -82t51 -59.5t79 -22.5q46 0 86 21.5t67.5 59t33.5 83.5h168q-13 -93 -68 -168.5t-136.5 -119.5t-173.5 -44z" />
    <glyph glyph-name="dotaccent" unicode="&#x2d9;" horiz-adv-x="1081" 
d="M601 1115q-61 0 -96 40t-27 99t54.5 99t106.5 40q58 0 93 -40t27 -99q-9 -59 -54 -99t-104 -40z" />
    <glyph glyph-name="ring" unicode="&#x2da;" horiz-adv-x="1188" 
d="M645 1060q-80 0 -129 58t-38 138q8 52 40 95.5t80 70t101 26.5q80 0 128.5 -57t38.5 -135q-12 -82 -76.5 -139t-144.5 -57zM662 1191q27 0 48 19t25 45q3 25 -13 43.5t-42 18.5t-47 -18t-24 -43q-4 -27 11.5 -46t41.5 -19z" />
    <glyph glyph-name="ogonek" unicode="&#x2db;" horiz-adv-x="1126" 
d="M387 -465q-76 0 -127.5 36t-74 94.5t-13.5 121.5q7 48 31 93.5t67 83.5l192 168l113 -132q-35 -31 -70 -60t-63.5 -57t-47 -54.5t-22.5 -51.5q-3 -23 10.5 -42t40.5 -19q38 0 69.5 27t36.5 66h172q-10 -73 -55 -135.5t-113 -100.5t-146 -38z" />
    <glyph glyph-name="tilde" unicode="&#x2dc;" horiz-adv-x="1267" 
d="M858 1099q-38 0 -86 27t-95 59t-82 51t-45 4q-12 -17 -13.5 -35.5t2.5 -49.5l-163 -43q-17 84 5 152.5t76.5 108.5t133.5 40q36 0 81.5 -21.5t89.5 -49.5t78 -49.5t46 -21.5q20 0 25.5 12.5t3.5 32t-7 37.5l168 52q17 -89 -8 -158t-80 -108.5t-130 -39.5z" />
    <glyph glyph-name="hungarumlaut" unicode="&#x2dd;" horiz-adv-x="1109" 
d="M612 1110l120 288h276l-212 -288h-184zM258 1110l120 288h276l-212 -288h-184z" />
    <glyph glyph-name="gravecomb" unicode="&#x300;" horiz-adv-x="0" 
d="M406 1398h276l40 -288h-184z" />
    <glyph glyph-name="acutecomb" unicode="&#x301;" horiz-adv-x="0" 
d="M510 1110l120 288h276l-212 -288h-184z" />
    <glyph glyph-name="uni0302" unicode="&#x302;" horiz-adv-x="0" 
d="M616 1398l154 -288h-184l-139 190l-189 -190h-184l230 288h312z" />
    <glyph glyph-name="tildecomb" unicode="&#x303;" horiz-adv-x="0" 
d="M860 1097q-38 0 -86 27t-95 59t-82 51t-45 4q-12 -17 -13.5 -35.5t2.5 -49.5l-163 -43q-17 84 5 152.5t76.5 108.5t133.5 40q36 0 81.5 -21.5t89.5 -49.5t78 -49.5t46 -21.5q20 0 25.5 12.5t3.5 32t-7 37.5l168 52q17 -89 -8 -158t-80 -108.5t-130 -39.5z" />
    <glyph glyph-name="uni0304" unicode="&#x304;" horiz-adv-x="0" 
d="M352 1340h676l-29 -204h-676z" />
    <glyph glyph-name="uni0306" unicode="&#x306;" horiz-adv-x="0" 
d="M627 1088q-91 0 -160 45t-103.5 120.5t-22.5 166.5h168q-6 -45 11 -82t51 -59.5t79 -22.5q46 0 86 21.5t67.5 59t33.5 83.5h168q-13 -93 -68 -168.5t-136.5 -119.5t-173.5 -44z" />
    <glyph glyph-name="uni0307" unicode="&#x307;" horiz-adv-x="0" 
d="M601 1115q-61 0 -96 40t-27 99t54.5 99t106.5 40q58 0 93 -40t27 -99q-9 -59 -54 -99t-104 -40z" />
    <glyph glyph-name="uni0308" unicode="&#x308;" horiz-adv-x="0" 
d="M593 1067q-60 0 -95 39.5t-27 99.5q8 58 54.5 99t106.5 41q58 0 93 -41t27 -99q-8 -60 -54.5 -99.5t-104.5 -39.5zM1014 1067q-59 0 -94.5 39.5t-27.5 99.5q8 58 55 99t106 41t94 -41t26 -99q-8 -60 -54 -99.5t-105 -39.5z" />
    <glyph glyph-name="uni030A" unicode="&#x30a;" horiz-adv-x="0" 
d="M645 1060q-80 0 -129 58t-38 138q8 52 40 95.5t80 70t101 26.5q80 0 128.5 -57t38.5 -135q-12 -82 -76.5 -139t-144.5 -57zM662 1191q27 0 48 19t25 45q3 25 -13 43.5t-42 18.5t-47 -18t-24 -43q-4 -27 11.5 -46t41.5 -19z" />
    <glyph glyph-name="uni030B" unicode="&#x30b;" horiz-adv-x="0" 
d="M612 1110l120 288h276l-212 -288h-184zM258 1110l120 288h276l-212 -288h-184z" />
    <glyph glyph-name="uni030C" unicode="&#x30c;" horiz-adv-x="0" 
d="M248 1110l-154 288h184l139 -190l189 190h184l-230 -288h-312z" />
    <glyph glyph-name="dotbelowcomb" unicode="&#x323;" horiz-adv-x="0" 
d="M601 -454q-61 0 -96 40t-27 99t54.5 99t106.5 40q58 0 93 -40t27 -99q-9 -59 -54 -99t-104 -40z" />
    <glyph glyph-name="uni0326" unicode="&#x326;" horiz-adv-x="0" 
d="M240 -441l109 338h276l-201 -338h-184z" />
    <glyph glyph-name="uni0327" unicode="&#x327;" horiz-adv-x="0" 
d="M476 -379q-76 -19 -137 19t-70 111l141 37q2 -17 16.5 -26t32.5 -5q18 5 29.5 20.5t9.5 33.5q-3 18 -17 25t-33 6l-138 -2l182 257l113 -71l-46 -63q33 -16 54.5 -45.5t26.5 -70.5q8 -74 -39 -140t-125 -86z" />
    <glyph glyph-name="uni0328" unicode="&#x328;" horiz-adv-x="0" 
d="M387 -465q-76 0 -127.5 36t-74 94.5t-13.5 121.5q7 48 31 93.5t67 83.5l192 168l113 -132q-35 -31 -70 -60t-63.5 -57t-47 -54.5t-22.5 -51.5q-3 -23 10.5 -42t40.5 -19q38 0 69.5 27t36.5 66h172q-10 -73 -55 -135.5t-113 -100.5t-146 -38z" />
    <glyph glyph-name="uni03BC" unicode="&#x3bc;" horiz-adv-x="1158" 
d="M-79 -432l201 1432h276l-71 -505q-9 -71 11.5 -129t68 -92.5t116.5 -34.5q68 0 120.5 34.5t86.5 92.5t44 129l70 505h276l-140 -1000h-276l15 103q-57 -57 -127 -94t-154 -37q-53 0 -97.5 13.5t-79.5 35.5l-64 -453h-276z" />
    <glyph glyph-name="uni1E04" unicode="&#x1e04;" horiz-adv-x="1192" 
d="M22 0l196 1400h521q113 0 198.5 -46.5t127.5 -132.5t25 -202q-7 -47 -26.5 -97t-54.5 -92t-90 -64q65 -16 99 -59.5t47 -100t11.5 -115.5t-8.5 -107q-15 -108 -83.5 -195t-170 -138t-215.5 -51h-577zM330 235h272q55 0 104.5 26.5t83 73t40.5 105.5q8 50 -13 95t-62 73.5
t-97 28.5h-271zM420 867h213q66 0 119 43t62 111q10 70 -32 106.5t-108 36.5h-213zM436 -454q-61 0 -96 40t-27 99t54.5 99t106.5 40q58 0 93 -40t27 -99q-9 -59 -54 -99t-104 -40z" />
    <glyph glyph-name="uni1E05" unicode="&#x1e05;" horiz-adv-x="1252" 
d="M711 1028q146 0 255.5 -71t164 -190.5t33.5 -264.5q-15 -109 -69.5 -205t-137 -168.5t-184 -113.5t-210.5 -41q-86 0 -148 38t-101 96l-15 -108h-276l210 1500h276l-85 -606q56 59 128.5 96.5t158.5 37.5zM597 241q68 0 129.5 35t103 94.5t51.5 131.5t-15 131t-76 94.5
t-120 35.5q-68 0 -127.5 -35.5t-99.5 -95t-50 -130.5q-10 -73 13.5 -132t73 -94t117.5 -35zM467 -454q-61 0 -96 40t-27 99t54.5 99t106.5 40q58 0 93 -40t27 -99q-9 -59 -54 -99t-104 -40z" />
    <glyph glyph-name="uni1E0C" unicode="&#x1e0c;" horiz-adv-x="1343" 
d="M22 0l196 1400h464q145 0 264 -54.5t202 -151t119.5 -223t16.5 -271.5t-92.5 -271.5t-182 -223t-244 -151t-279.5 -54.5h-464zM337 276h187q87 0 168 33t148 91t111 135t57 165q12 88 -10.5 164.5t-72.5 135t-122.5 91.5t-159.5 33h-188zM494 -454q-61 0 -96 40t-27 99
t54.5 99t106.5 40q58 0 93 -40t27 -99q-9 -59 -54 -99t-104 -40z" />
    <glyph glyph-name="uni1E0D" unicode="&#x1e0d;" horiz-adv-x="1251" 
d="M967 1500h276l-210 -1500h-276l15 106q-55 -58 -128 -95t-160 -37q-109 0 -198.5 41t-151.5 113.5t-89.5 167.5t-12.5 204t69.5 204t137 167.5t183.5 113.5t210 41q87 0 149.5 -36.5t101.5 -95.5zM524 239q69 0 129 35t100.5 94.5t50.5 131.5q10 73 -14 132t-74 94
t-118 35q-69 0 -130 -35t-102 -94.5t-51 -131.5t15 -131.5t76 -94.5t118 -35zM458 -454q-61 0 -96 40t-27 99t54.5 99t106.5 40q58 0 93 -40t27 -99q-9 -59 -54 -99t-104 -40z" />
    <glyph glyph-name="uni1E20" unicode="&#x1e20;" horiz-adv-x="1536" 
d="M666 -26q-146 0 -263.5 57t-197 157.5t-113 232.5t-12.5 281q23 160 98.5 292t187 228.5t243.5 149t267 52.5q148 0 280.5 -69t222.5 -219l-265 -132q-54 74 -127 110t-154 36q-80 0 -159.5 -33t-146 -94t-112 -144t-60.5 -183q-13 -93 8 -174t69.5 -142t119 -95.5
t156.5 -34.5q54 0 107 15.5t105 45.5t97.5 75t83.5 104h-216l34 240h542q-17 -155 -87 -292t-179.5 -241.5t-245 -163.5t-283.5 -59zM578 1740h676l-29 -204h-676z" />
    <glyph glyph-name="uni1E21" unicode="&#x1e21;" horiz-adv-x="1242" 
d="M888 1000h276l-142 -1014q-16 -111 -73.5 -200.5t-144.5 -153.5t-192 -98t-217 -34q-106 0 -196.5 41.5t-155.5 114.5t-94 168l268 115q14 -50 46 -86t76.5 -55.5t95.5 -19.5q54 0 106.5 13t96 39t72 65t36.5 91l16 116q-54 -57 -124.5 -92.5t-156.5 -35.5
q-108 0 -197 41t-150.5 113.5t-89 167.5t-12.5 204t69.5 204t136.5 167.5t182.5 113.5t208.5 41q86 0 146.5 -35.5t98.5 -92.5zM522 239q68 0 127.5 35.5t100 94.5t50.5 131t-13.5 131.5t-73.5 94.5t-118 35q-67 0 -127.5 -35t-101.5 -94.5t-51 -131.5t14.5 -131.5t75 -94.5
t117.5 -35zM373 1340h676l-29 -204h-676z" />
    <glyph glyph-name="uni1E24" unicode="&#x1e24;" horiz-adv-x="1324" 
d="M1026 1400h276l-196 -1400h-276l86 612h-532l-86 -612h-276l196 1400h276l-72 -512h532zM502 -454q-61 0 -96 40t-27 99t54.5 99t106.5 40q58 0 93 -40t27 -99q-9 -59 -54 -99t-104 -40z" />
    <glyph glyph-name="uni1E25" unicode="&#x1e25;" horiz-adv-x="1130" 
d="M1040 636l-88 -636h-276l79 560q7 53 -12.5 95.5t-58.5 67.5t-92 25q-52 0 -98 -25t-77 -67.5t-38 -95.5l-79 -560h-276l209 1500h276l-80 -574q58 48 129 75t146 27q109 0 190 -53t121.5 -141.5t24.5 -197.5zM462 -454q-61 0 -96 40t-27 99t54.5 99t106.5 40
q58 0 93 -40t27 -99q-9 -59 -54 -99t-104 -40z" />
    <glyph glyph-name="uni1E2E" unicode="&#x1e2e;" horiz-adv-x="576" 
d="M52 0l196 1400h276l-196 -1400h-276zM186 1467q-60 0 -95 39.5t-27 99.5q8 58 54.5 99t106.5 41q58 0 93 -41t27 -99q-8 -60 -54.5 -99.5t-104.5 -39.5zM607 1467q-59 0 -94.5 39.5t-27.5 99.5q8 58 55 99t106 41t94 -41t26 -99q-8 -60 -54 -99.5t-105 -39.5zM372 1814
l120 288h276l-212 -288h-184z" />
    <glyph glyph-name="uni1E2F" unicode="&#x1e2f;" horiz-adv-x="516" 
d="M162 1000h276l-140 -1000h-276zM100 1067q-60 0 -95 39.5t-27 99.5q8 58 54.5 99t106.5 41q58 0 93 -41t27 -99q-8 -60 -54.5 -99.5t-104.5 -39.5zM521 1067q-59 0 -94.5 39.5t-27.5 99.5q8 58 55 99t106 41t94 -41t26 -99q-8 -60 -54 -99.5t-105 -39.5zM286 1414
l120 288h276l-212 -288h-184z" />
    <glyph glyph-name="uni1E36" unicode="&#x1e36;" horiz-adv-x="1060" 
d="M22 0l196 1400h276l-157 -1124h564l-39 -276h-840zM380 -454q-61 0 -96 40t-27 99t54.5 99t106.5 40q58 0 93 -40t27 -99q-9 -59 -54 -99t-104 -40z" />
    <glyph glyph-name="uni1E37" unicode="&#x1e37;" horiz-adv-x="517" 
d="M23 0l210 1500h276l-210 -1500h-276zM99 -454q-61 0 -96 40t-27 99t54.5 99t106.5 40q58 0 93 -40t27 -99q-9 -59 -54 -99t-104 -40z" />
    <glyph glyph-name="uni1E3E" unicode="&#x1e3e;" horiz-adv-x="1901" 
d="M22 0l468 1400h233l205 -857l446 857h233l76 -1400h-282l-42 803l-410 -789h-190l-188 789l-268 -803h-281zM991 1510l120 288h276l-212 -288h-184z" />
    <glyph glyph-name="uni1E3F" unicode="&#x1e3f;" horiz-adv-x="1776" 
d="M22 0l140 1000h276l-11 -74q58 48 129 75t146 27q102 0 180.5 -47t120.5 -125q64 78 155.5 125t192.5 47q109 0 190 -53t122 -141.5t25 -197.5l-89 -636h-276l79 560q7 52 -12.5 94.5t-58.5 68t-91 25.5q-51 0 -97 -25t-77 -67.5t-39 -95.5l-79 -560h-276l79 560
q8 53 -11.5 95.5t-59 67.5t-91.5 25q-51 0 -97 -25.5t-77 -68t-38 -94.5l-79 -560h-276zM966 1110l120 288h276l-212 -288h-184z" />
    <glyph glyph-name="uni1E40" unicode="&#x1e40;" horiz-adv-x="1901" 
d="M22 0l468 1400h233l205 -857l446 857h233l76 -1400h-282l-42 803l-410 -789h-190l-188 789l-268 -803h-281zM1067 1515q-61 0 -96 40t-27 99t54.5 99t106.5 40q58 0 93 -40t27 -99q-9 -59 -54 -99t-104 -40z" />
    <glyph glyph-name="uni1E41" unicode="&#x1e41;" horiz-adv-x="1776" 
d="M22 0l140 1000h276l-11 -74q58 48 129 75t146 27q102 0 180.5 -47t120.5 -125q64 78 155.5 125t192.5 47q109 0 190 -53t122 -141.5t25 -197.5l-89 -636h-276l79 560q7 52 -12.5 94.5t-58.5 68t-91 25.5q-51 0 -97 -25t-77 -67.5t-39 -95.5l-79 -560h-276l79 560
q8 53 -11.5 95.5t-59 67.5t-91.5 25q-51 0 -97 -25.5t-77 -68t-38 -94.5l-79 -560h-276zM1042 1115q-61 0 -96 40t-27 99t54.5 99t106.5 40q58 0 93 -40t27 -99q-9 -59 -54 -99t-104 -40z" />
    <glyph glyph-name="uni1E42" unicode="&#x1e42;" horiz-adv-x="1901" 
d="M22 0l468 1400h233l205 -857l446 857h233l76 -1400h-282l-42 803l-410 -789h-190l-188 789l-268 -803h-281zM790 -454q-61 0 -96 40t-27 99t54.5 99t106.5 40q58 0 93 -40t27 -99q-9 -59 -54 -99t-104 -40z" />
    <glyph glyph-name="uni1E43" unicode="&#x1e43;" horiz-adv-x="1776" 
d="M22 0l140 1000h276l-11 -74q58 48 129 75t146 27q102 0 180.5 -47t120.5 -125q64 78 155.5 125t192.5 47q109 0 190 -53t122 -141.5t25 -197.5l-89 -636h-276l79 560q7 52 -12.5 94.5t-58.5 68t-91 25.5q-51 0 -97 -25t-77 -67.5t-39 -95.5l-79 -560h-276l79 560
q8 53 -11.5 95.5t-59 67.5t-91.5 25q-51 0 -97 -25.5t-77 -68t-38 -94.5l-79 -560h-276zM748 -454q-61 0 -96 40t-27 99t54.5 99t106.5 40q58 0 93 -40t27 -99q-9 -59 -54 -99t-104 -40z" />
    <glyph glyph-name="uni1E44" unicode="&#x1e44;" horiz-adv-x="1360" 
d="M22 0l196 1400h298l420 -901l126 901h276l-196 -1400h-298l-420 901l-126 -901h-276zM797 1515q-61 0 -96 40t-27 99t54.5 99t106.5 40q58 0 93 -40t27 -99q-9 -59 -54 -99t-104 -40z" />
    <glyph glyph-name="uni1E45" unicode="&#x1e45;" horiz-adv-x="1129" 
d="M1039 636l-88 -636h-276l79 560q7 53 -12.5 95.5t-58.5 67.5t-92 25q-52 0 -98 -25t-77 -67.5t-38 -95.5l-79 -560h-276l139 1000h276l-10 -74q58 48 129 75t146 27q109 0 190 -53t121.5 -141.5t24.5 -197.5zM664 1115q-61 0 -96 40t-27 99t54.5 99t106.5 40q58 0 93 -40
t27 -99q-9 -59 -54 -99t-104 -40z" />
    <glyph glyph-name="uni1E46" unicode="&#x1e46;" horiz-adv-x="1360" 
d="M22 0l196 1400h298l420 -901l126 901h276l-196 -1400h-298l-420 901l-126 -901h-276zM520 -454q-61 0 -96 40t-27 99t54.5 99t106.5 40q58 0 93 -40t27 -99q-9 -59 -54 -99t-104 -40z" />
    <glyph glyph-name="uni1E47" unicode="&#x1e47;" horiz-adv-x="1129" 
d="M1039 636l-88 -636h-276l79 560q7 53 -12.5 95.5t-58.5 67.5t-92 25q-52 0 -98 -25t-77 -67.5t-38 -95.5l-79 -560h-276l139 1000h276l-10 -74q58 48 129 75t146 27q109 0 190 -53t121.5 -141.5t24.5 -197.5zM425 -454q-61 0 -96 40t-27 99t54.5 99t106.5 40q58 0 93 -40
t27 -99q-9 -59 -54 -99t-104 -40z" />
    <glyph glyph-name="uni1E62" unicode="&#x1e62;" horiz-adv-x="1257" 
d="M527 -26q-118 0 -220.5 37t-172.5 107t-92 166l273 96q7 -34 40.5 -63.5t88 -48t121.5 -18.5q65 0 125.5 19.5t101.5 54.5t47 82q7 47 -26 78t-88.5 49.5t-115.5 28.5q-147 22 -259.5 71.5t-169.5 137t-38 222.5q19 130 106 227t215 151t268 54q116 0 218.5 -37t174 -107
t92.5 -168l-274 -94q-7 34 -40.5 63t-88 47t-121.5 18q-64 1 -124.5 -19t-101.5 -55t-48 -80q-8 -59 22 -89t85.5 -43t122.5 -23q139 -21 252 -74.5t173 -142t42 -215.5q-17 -130 -104 -227t-215 -151t-269 -54zM550 -454q-61 0 -96 40t-27 99t54.5 99t106.5 40q58 0 93 -40
t27 -99q-9 -59 -54 -99t-104 -40z" />
    <glyph glyph-name="uni1E63" unicode="&#x1e63;" horiz-adv-x="872" 
d="M310 -18q-76 6 -143 32.5t-116.5 72t-71.5 109.5l246 100q9 -16 28 -34.5t49.5 -32.5t71.5 -14q31 0 61 7.5t50.5 25t24.5 46.5q5 32 -16 49t-52 25.5t-61 14.5q-89 16 -164.5 57.5t-117.5 107.5t-29 158q15 101 77.5 174.5t153.5 113.5t190 40q117 0 209.5 -49
t142.5 -138l-236 -129q-11 19 -29 36.5t-42.5 30t-54.5 14.5q-39 3 -72 -4.5t-54 -27.5t-26 -54q-5 -33 21.5 -48.5t64 -23t65.5 -17.5q83 -28 153 -71.5t108.5 -106.5t23.5 -148q-14 -99 -83.5 -173.5t-168.5 -113t-203 -29.5zM333 -454q-61 0 -96 40t-27 99t54.5 99
t106.5 40q58 0 93 -40t27 -99q-9 -59 -54 -99t-104 -40z" />
    <glyph glyph-name="uni1E6C" unicode="&#x1e6c;" horiz-adv-x="1259" 
d="M1278 1400l-39 -276h-412l-157 -1124h-276l157 1124h-412l39 276h1100zM470 -454q-61 0 -96 40t-27 99t54.5 99t106.5 40q58 0 93 -40t27 -99q-9 -59 -54 -99t-104 -40z" />
    <glyph glyph-name="uni1E6D" unicode="&#x1e6d;" horiz-adv-x="724" 
d="M668 724h-181l-101 -724h-276l101 724h-137l38 276h138l44 314h276l-44 -314h180zM186 -454q-61 0 -96 40t-27 99t54.5 99t106.5 40q58 0 93 -40t27 -99q-9 -59 -54 -99t-104 -40z" />
    <glyph glyph-name="Wgrave" unicode="&#x1e80;" horiz-adv-x="1919" 
d="M352 0l-162 1400h285l103 -895l353 895h253l103 -895l353 895h285l-552 -1400h-312l-90 778l-307 -778h-312zM831 1798h276l40 -288h-184z" />
    <glyph glyph-name="wgrave" unicode="&#x1e81;" horiz-adv-x="1730" 
d="M568 0h-272l-194 1000h270l117 -599l283 599h270l115 -599l284 599h271l-475 -1000h-271l-115 600zM681 1398h276l40 -288h-184z" />
    <glyph glyph-name="Wacute" unicode="&#x1e82;" horiz-adv-x="1919" 
d="M352 0l-162 1400h285l103 -895l353 895h253l103 -895l353 895h285l-552 -1400h-312l-90 778l-307 -778h-312zM1001 1510l120 288h276l-212 -288h-184z" />
    <glyph glyph-name="wacute" unicode="&#x1e83;" horiz-adv-x="1730" 
d="M568 0h-272l-194 1000h270l117 -599l283 599h270l115 -599l284 599h271l-475 -1000h-271l-115 600zM850 1110l120 288h276l-212 -288h-184z" />
    <glyph glyph-name="Wdieresis" unicode="&#x1e84;" horiz-adv-x="1919" 
d="M352 0l-162 1400h285l103 -895l353 895h253l103 -895l353 895h285l-552 -1400h-312l-90 778l-307 -778h-312zM857 1467q-60 0 -95 39.5t-27 99.5q8 58 54.5 99t106.5 41q58 0 93 -41t27 -99q-8 -60 -54.5 -99.5t-104.5 -39.5zM1278 1467q-59 0 -94.5 39.5t-27.5 99.5
q8 58 55 99t106 41t94 -41t26 -99q-8 -60 -54 -99.5t-105 -39.5z" />
    <glyph glyph-name="wdieresis" unicode="&#x1e85;" horiz-adv-x="1730" 
d="M568 0h-272l-194 1000h270l117 -599l283 599h270l115 -599l284 599h271l-475 -1000h-271l-115 600zM707 1067q-60 0 -95 39.5t-27 99.5q8 58 54.5 99t106.5 41q58 0 93 -41t27 -99q-8 -60 -54.5 -99.5t-104.5 -39.5zM1128 1067q-59 0 -94.5 39.5t-27.5 99.5q8 58 55 99
t106 41t94 -41t26 -99q-8 -60 -54 -99.5t-105 -39.5z" />
    <glyph glyph-name="uni1E92" unicode="&#x1e92;" horiz-adv-x="1292" 
d="M-18 0l39 276l877 848h-759l39 276h1132l-39 -276l-877 -848h759l-39 -276h-1132zM486 -454q-61 0 -96 40t-27 99t54.5 99t106.5 40q58 0 93 -40t27 -99q-9 -59 -54 -99t-104 -40z" />
    <glyph glyph-name="uni1E93" unicode="&#x1e93;" horiz-adv-x="1014" 
d="M937 724l-518 -448h456l-39 -276h-854l39 276l518 448h-456l39 276h854zM347 -454q-61 0 -96 40t-27 99t54.5 99t106.5 40q58 0 93 -40t27 -99q-9 -59 -54 -99t-104 -40z" />
    <glyph glyph-name="uni1E97" unicode="&#x1e97;" horiz-adv-x="724" 
d="M668 724h-181l-101 -724h-276l101 724h-137l38 276h138l44 314h276l-44 -314h180zM231 1381q-60 0 -95 39.5t-27 99.5q8 58 54.5 99t106.5 41q58 0 93 -41t27 -99q-8 -60 -54.5 -99.5t-104.5 -39.5zM652 1381q-59 0 -94.5 39.5t-27.5 99.5q8 58 55 99t106 41t94 -41
t26 -99q-8 -60 -54 -99.5t-105 -39.5z" />
    <glyph glyph-name="uni1E9E" unicode="&#x1e9e;" horiz-adv-x="1228" 
d="M22 0l124 882q14 108 68 201.5t135 164.5t180.5 111.5t206.5 40.5q103 0 188.5 -43.5t133.5 -117t35 -163.5q-7 -47 -40 -91t-93 -102.5t-146 -149.5q69 13 129.5 -10.5t105.5 -71.5t67 -109.5t13 -125.5q-14 -101 -66.5 -178.5t-129 -130.5t-165 -80t-173.5 -27h-56
l-24 235h83q55 0 118 16.5t110.5 56.5t56.5 110q11 70 -26 109.5t-94.5 56.5t-112.5 17h-81l15 102q5 43 30 90.5t58 93t65.5 85t55.5 68.5t24 42q5 40 -17 57t-62 20.5t-86 3.5q-49 0 -96.5 -28t-81.5 -75t-42 -106l-134 -954h-276z" />
    <glyph glyph-name="uni1EA0" unicode="&#x1ea0;" horiz-adv-x="1490" 
d="M686 1400h314l312 -1400h-293l-52 232h-575l-117 -232h-293zM531 508h374l-116 513zM584 -454q-61 0 -96 40t-27 99t54.5 99t106.5 40q58 0 93 -40t27 -99q-9 -59 -54 -99t-104 -40z" />
    <glyph glyph-name="uni1EA1" unicode="&#x1ea1;" horiz-adv-x="1209" 
d="M896 1000h276l-140 -1000h-277l1 104q-47 -58 -113 -94t-148 -36q-112 0 -203.5 42t-154.5 116t-91 171.5t-12 209.5q15 107 67.5 200t132.5 164t178.5 111t205.5 40q92 0 160 -39t115 -99zM524 239q69 0 129 35t100.5 94.5t50.5 131.5q10 73 -14 132t-74 94t-118 35
q-69 0 -130 -35t-102 -94.5t-51 -131.5t15 -131.5t76 -94.5t118 -35zM459 -454q-61 0 -96 40t-27 99t54.5 99t106.5 40q58 0 93 -40t27 -99q-9 -59 -54 -99t-104 -40z" />
    <glyph glyph-name="uni1EAC" unicode="&#x1eac;" horiz-adv-x="1490" 
d="M686 1400h314l312 -1400h-293l-52 232h-575l-117 -232h-293zM531 508h374l-116 513zM584 -454q-61 0 -96 40t-27 99t54.5 99t106.5 40q58 0 93 -40t27 -99q-9 -59 -54 -99t-104 -40zM1054 1798l154 -288h-184l-139 190l-189 -190h-184l230 288h312z" />
    <glyph glyph-name="uni1EAD" unicode="&#x1ead;" horiz-adv-x="1209" 
d="M896 1000h276l-140 -1000h-277l1 104q-47 -58 -113 -94t-148 -36q-112 0 -203.5 42t-154.5 116t-91 171.5t-12 209.5q15 107 67.5 200t132.5 164t178.5 111t205.5 40q92 0 160 -39t115 -99zM524 239q69 0 129 35t100.5 94.5t50.5 131.5q10 73 -14 132t-74 94t-118 35
q-69 0 -130 -35t-102 -94.5t-51 -131.5t15 -131.5t76 -94.5t118 -35zM459 -454q-61 0 -96 40t-27 99t54.5 99t106.5 40q58 0 93 -40t27 -99q-9 -59 -54 -99t-104 -40zM872 1398l154 -288h-184l-139 190l-189 -190h-184l230 288h312z" />
    <glyph glyph-name="uni1EB6" unicode="&#x1eb6;" horiz-adv-x="1490" 
d="M686 1400h314l312 -1400h-293l-52 232h-575l-117 -232h-293zM531 508h374l-116 513zM584 -454q-61 0 -96 40t-27 99t54.5 99t106.5 40q58 0 93 -40t27 -99q-9 -59 -54 -99t-104 -40zM856 1488q-91 0 -160 45t-103.5 120.5t-22.5 166.5h168q-6 -45 11 -82t51 -59.5
t79 -22.5q46 0 86 21.5t67.5 59t33.5 83.5h168q-13 -93 -68 -168.5t-136.5 -119.5t-173.5 -44z" />
    <glyph glyph-name="uni1EB7" unicode="&#x1eb7;" horiz-adv-x="1209" 
d="M896 1000h276l-140 -1000h-277l1 104q-47 -58 -113 -94t-148 -36q-112 0 -203.5 42t-154.5 116t-91 171.5t-12 209.5q15 107 67.5 200t132.5 164t178.5 111t205.5 40q92 0 160 -39t115 -99zM524 239q69 0 129 35t100.5 94.5t50.5 131.5q10 73 -14 132t-74 94t-118 35
q-69 0 -130 -35t-102 -94.5t-51 -131.5t15 -131.5t76 -94.5t118 -35zM459 -454q-61 0 -96 40t-27 99t54.5 99t106.5 40q58 0 93 -40t27 -99q-9 -59 -54 -99t-104 -40zM674 1088q-91 0 -160 45t-103.5 120.5t-22.5 166.5h168q-6 -45 11 -82t51 -59.5t79 -22.5q46 0 86 21.5
t67.5 59t33.5 83.5h168q-13 -93 -68 -168.5t-136.5 -119.5t-173.5 -44z" />
    <glyph glyph-name="uni1EB8" unicode="&#x1eb8;" horiz-adv-x="1106" 
d="M22 0l196 1400h886l-39 -276h-610l-33 -236h476l-38 -276h-476l-47 -336h610l-39 -276h-886zM393 -454q-61 0 -96 40t-27 99t54.5 99t106.5 40q58 0 93 -40t27 -99q-9 -59 -54 -99t-104 -40z" />
    <glyph glyph-name="uni1EB9" unicode="&#x1eb9;" horiz-adv-x="1119" 
d="M458 -26q-138 0 -241.5 71t-154 191t-30.5 265q15 109 67.5 204.5t131.5 168t175.5 113.5t199.5 41q119 0 210 -51t147.5 -139t70 -199t-22.5 -231h-694q7 -44 29.5 -79.5t60 -56.5t90.5 -22q52 -1 99.5 24t84.5 67l272 -65q-79 -133 -212 -217.5t-283 -84.5zM335 612
h426q-6 50 -32 90t-66 63t-90 23t-96.5 -23t-83 -62.5t-58.5 -90.5zM400 -454q-61 0 -96 40t-27 99t54.5 99t106.5 40q58 0 93 -40t27 -99q-9 -59 -54 -99t-104 -40z" />
    <glyph glyph-name="uni1EBC" unicode="&#x1ebc;" horiz-adv-x="1106" 
d="M22 0l196 1400h886l-39 -276h-610l-33 -236h476l-38 -276h-476l-47 -336h610l-39 -276h-886zM820 1497q-38 0 -86 27t-95 59t-82 51t-45 4q-12 -17 -13.5 -35.5t2.5 -49.5l-163 -43q-17 84 5 152.5t76.5 108.5t133.5 40q36 0 81.5 -21.5t89.5 -49.5t78 -49.5t46 -21.5
q20 0 25.5 12.5t3.5 32t-7 37.5l168 52q17 -89 -8 -158t-80 -108.5t-130 -39.5z" />
    <glyph glyph-name="uni1EBD" unicode="&#x1ebd;" horiz-adv-x="1119" 
d="M458 -26q-138 0 -241.5 71t-154 191t-30.5 265q15 109 67.5 204.5t131.5 168t175.5 113.5t199.5 41q119 0 210 -51t147.5 -139t70 -199t-22.5 -231h-694q7 -44 29.5 -79.5t60 -56.5t90.5 -22q52 -1 99.5 24t84.5 67l272 -65q-79 -133 -212 -217.5t-283 -84.5zM335 612
h426q-6 50 -32 90t-66 63t-90 23t-96.5 -23t-83 -62.5t-58.5 -90.5zM771 1097q-38 0 -86 27t-95 59t-82 51t-45 4q-12 -17 -13.5 -35.5t2.5 -49.5l-163 -43q-17 84 5 152.5t76.5 108.5t133.5 40q36 0 81.5 -21.5t89.5 -49.5t78 -49.5t46 -21.5q20 0 25.5 12.5t3.5 32
t-7 37.5l168 52q17 -89 -8 -158t-80 -108.5t-130 -39.5z" />
    <glyph glyph-name="uni1EC6" unicode="&#x1ec6;" horiz-adv-x="1106" 
d="M22 0l196 1400h886l-39 -276h-610l-33 -236h476l-38 -276h-476l-47 -336h610l-39 -276h-886zM393 -454q-61 0 -96 40t-27 99t54.5 99t106.5 40q58 0 93 -40t27 -99q-9 -59 -54 -99t-104 -40zM862 1798l154 -288h-184l-139 190l-189 -190h-184l230 288h312z" />
    <glyph glyph-name="uni1EC7" unicode="&#x1ec7;" horiz-adv-x="1119" 
d="M458 -26q-138 0 -241.5 71t-154 191t-30.5 265q15 109 67.5 204.5t131.5 168t175.5 113.5t199.5 41q119 0 210 -51t147.5 -139t70 -199t-22.5 -231h-694q7 -44 29.5 -79.5t60 -56.5t90.5 -22q52 -1 99.5 24t84.5 67l272 -65q-79 -133 -212 -217.5t-283 -84.5zM335 612
h426q-6 50 -32 90t-66 63t-90 23t-96.5 -23t-83 -62.5t-58.5 -90.5zM400 -454q-61 0 -96 40t-27 99t54.5 99t106.5 40q58 0 93 -40t27 -99q-9 -59 -54 -99t-104 -40zM813 1398l154 -288h-184l-139 190l-189 -190h-184l230 288h312z" />
    <glyph glyph-name="uni1ECA" unicode="&#x1eca;" horiz-adv-x="576" 
d="M52 0l196 1400h276l-196 -1400h-276zM128 -454q-61 0 -96 40t-27 99t54.5 99t106.5 40q58 0 93 -40t27 -99q-9 -59 -54 -99t-104 -40z" />
    <glyph glyph-name="uni1ECB" unicode="&#x1ecb;" horiz-adv-x="516" 
d="M162 1000h276l-140 -1000h-276zM319 1115q-61 0 -96 40t-27 99t54.5 99t106.5 40q58 0 93 -40t27 -99q-9 -59 -54 -99t-104 -40zM98 -454q-61 0 -96 40t-27 99t54.5 99t106.5 40q58 0 93 -40t27 -99q-9 -59 -54 -99t-104 -40z" />
    <glyph glyph-name="uni1ECC" unicode="&#x1ecc;" horiz-adv-x="1540" 
d="M668 -26q-142 0 -259.5 56.5t-198 156.5t-116 231.5t-14.5 281.5t93 281.5t181.5 231.5t242.5 156.5t275 56.5q143 0 260 -56.5t197.5 -156.5t116 -231.5t14.5 -281.5t-93 -281.5t-181.5 -231.5t-242 -156.5t-275.5 -56.5zM707 250q85 0 165 35.5t145.5 97.5t109.5 143
t57 174t-8 174.5t-69 143t-118 97t-156 35.5q-85 0 -165 -35.5t-145.5 -97.5t-109.5 -143t-57 -174t8 -174.5t69 -143t118 -97t156 -35.5zM610 -454q-61 0 -96 40t-27 99t54.5 99t106.5 40q58 0 93 -40t27 -99q-9 -59 -54 -99t-104 -40z" />
    <glyph glyph-name="uni1ECD" unicode="&#x1ecd;" horiz-adv-x="1120" 
d="M458 -26q-138 0 -241.5 71t-154 190.5t-30.5 264.5q15 110 67.5 205.5t131.5 168t175.5 113.5t199.5 41q138 0 241.5 -71t154.5 -191t30 -266q-15 -109 -67.5 -204t-131.5 -167.5t-175 -113.5t-200 -41zM497 250q63 0 118.5 34.5t93.5 91.5t47 124q10 69 -12.5 126.5
t-68.5 91.5t-108 34t-118 -35t-93.5 -92t-47.5 -125q-10 -71 13 -127.5t69 -89.5t107 -33zM400 -454q-61 0 -96 40t-27 99t54.5 99t106.5 40q58 0 93 -40t27 -99q-9 -59 -54 -99t-104 -40z" />
    <glyph glyph-name="uni1ED8" unicode="&#x1ed8;" horiz-adv-x="1540" 
d="M668 -26q-142 0 -259.5 56.5t-198 156.5t-116 231.5t-14.5 281.5t93 281.5t181.5 231.5t242.5 156.5t275 56.5q143 0 260 -56.5t197.5 -156.5t116 -231.5t14.5 -281.5t-93 -281.5t-181.5 -231.5t-242 -156.5t-275.5 -56.5zM707 250q85 0 165 35.5t145.5 97.5t109.5 143
t57 174t-8 174.5t-69 143t-118 97t-156 35.5q-85 0 -165 -35.5t-145.5 -97.5t-109.5 -143t-57 -174t8 -174.5t69 -143t118 -97t156 -35.5zM610 -454q-61 0 -96 40t-27 99t54.5 99t106.5 40q58 0 93 -40t27 -99q-9 -59 -54 -99t-104 -40zM1079 1798l154 -288h-184l-139 190
l-189 -190h-184l230 288h312z" />
    <glyph glyph-name="uni1ED9" unicode="&#x1ed9;" horiz-adv-x="1120" 
d="M458 -26q-138 0 -241.5 71t-154 190.5t-30.5 264.5q15 110 67.5 205.5t131.5 168t175.5 113.5t199.5 41q138 0 241.5 -71t154.5 -191t30 -266q-15 -109 -67.5 -204t-131.5 -167.5t-175 -113.5t-200 -41zM497 250q63 0 118.5 34.5t93.5 91.5t47 124q10 69 -12.5 126.5
t-68.5 91.5t-108 34t-118 -35t-93.5 -92t-47.5 -125q-10 -71 13 -127.5t69 -89.5t107 -33zM400 -454q-61 0 -96 40t-27 99t54.5 99t106.5 40q58 0 93 -40t27 -99q-9 -59 -54 -99t-104 -40zM813 1398l154 -288h-184l-139 190l-189 -190h-184l230 288h312z" />
    <glyph glyph-name="uni1EE4" unicode="&#x1ee4;" 
d="M584 -26q-168 0 -284 82t-168 220.5t-28 307.5l114 816h276l-114 -816q-13 -91 10.5 -167t82 -121.5t150.5 -45.5t163 45t115 121t57 168l114 816h276l-114 -816q-18 -127 -74.5 -237.5t-142.5 -194.5t-196.5 -131t-236.5 -47zM525 -454q-61 0 -96 40t-27 99t54.5 99
t106.5 40q58 0 93 -40t27 -99q-9 -59 -54 -99t-104 -40z" />
    <glyph glyph-name="uni1EE5" unicode="&#x1ee5;" horiz-adv-x="1089" 
d="M33 366l89 634h276l-79 -558q-7 -53 12.5 -95.5t59 -67.5t90.5 -25q53 0 99 25t77.5 67.5t37.5 95.5l79 558h276l-139 -1000h-276l9 76q-57 -48 -128 -75t-146 -27q-108 0 -189.5 53t-122 141.5t-25.5 197.5zM419 -452q-61 0 -96 40t-27 99t54.5 99t106.5 40q58 0 93 -40
t27 -99q-9 -59 -54 -99t-104 -40z" />
    <glyph glyph-name="Ygrave" unicode="&#x1ef2;" horiz-adv-x="1364" 
d="M1076 1400h326l-592 -769l-88 -631h-276l88 631l-376 769h326l230 -469zM554 1798h276l40 -288h-184z" />
    <glyph glyph-name="ygrave" unicode="&#x1ef3;" horiz-adv-x="1180" 
d="M848 1000h294l-759 -1500h-292l251 500l-220 1000h302l108 -623zM406 1398h276l40 -288h-184z" />
    <glyph glyph-name="uni1EF4" unicode="&#x1ef4;" horiz-adv-x="1364" 
d="M1076 1400h326l-592 -769l-88 -631h-276l88 631l-376 769h326l230 -469zM522 -454q-61 0 -96 40t-27 99t54.5 99t106.5 40q58 0 93 -40t27 -99q-9 -59 -54 -99t-104 -40z" />
    <glyph glyph-name="uni1EF5" unicode="&#x1ef5;" horiz-adv-x="1180" 
d="M848 1000h294l-759 -1500h-292l251 500l-220 1000h302l108 -623zM681 -454q-61 0 -96 40t-27 99t54.5 99t106.5 40q58 0 93 -40t27 -99q-9 -59 -54 -99t-104 -40z" />
    <glyph glyph-name="uni1EF8" unicode="&#x1ef8;" horiz-adv-x="1364" 
d="M1076 1400h326l-592 -769l-88 -631h-276l88 631l-376 769h326l230 -469zM949 1497q-38 0 -86 27t-95 59t-82 51t-45 4q-12 -17 -13.5 -35.5t2.5 -49.5l-163 -43q-17 84 5 152.5t76.5 108.5t133.5 40q36 0 81.5 -21.5t89.5 -49.5t78 -49.5t46 -21.5q20 0 25.5 12.5t3.5 32
t-7 37.5l168 52q17 -89 -8 -158t-80 -108.5t-130 -39.5z" />
    <glyph glyph-name="uni1EF9" unicode="&#x1ef9;" horiz-adv-x="1180" 
d="M848 1000h294l-759 -1500h-292l251 500l-220 1000h302l108 -623zM801 1097q-38 0 -86 27t-95 59t-82 51t-45 4q-12 -17 -13.5 -35.5t2.5 -49.5l-163 -43q-17 84 5 152.5t76.5 108.5t133.5 40q36 0 81.5 -21.5t89.5 -49.5t78 -49.5t46 -21.5q20 0 25.5 12.5t3.5 32
t-7 37.5l168 52q17 -89 -8 -158t-80 -108.5t-130 -39.5z" />
    <glyph glyph-name="uni2002" unicode="&#x2002;" horiz-adv-x="1000" 
 />
    <glyph glyph-name="uni2009" unicode="&#x2009;" horiz-adv-x="400" 
 />
    <glyph glyph-name="uni200B" unicode="&#x200b;" horiz-adv-x="0" 
 />
    <glyph glyph-name="endash" unicode="&#x2013;" horiz-adv-x="1240" 
d="M125 738h1000l-38 -276h-1000z" />
    <glyph glyph-name="emdash" unicode="&#x2014;" horiz-adv-x="2040" 
d="M125 738h1800l-38 -276h-1800z" />
    <glyph glyph-name="quoteright" unicode="&#x2019;" horiz-adv-x="438" 
d="M65 878l135 522h276l-227 -522h-184z" />
    <glyph glyph-name="quoteright" unicode="&#x2032;" horiz-adv-x="438" 
d="M65 878l135 522h276l-227 -522h-184z" />
    <glyph glyph-name="quotesinglbase" unicode="&#x201a;" horiz-adv-x="494" 
d="M-38 -112l109 338h276l-201 -338h-184z" />
    <glyph glyph-name="quotedblleft" unicode="&#x201c;" horiz-adv-x="852" 
d="M145 878l227 522h184l-135 -522h-276zM499 882l227 522h184l-135 -522h-276z" />
    <glyph glyph-name="quotedblright" unicode="&#x201d;" horiz-adv-x="852" 
d="M65 878l135 522h276l-227 -522h-184zM419 878l135 522h276l-227 -522h-184z" />
    <glyph glyph-name="quotedblright" unicode="&#x2033;" horiz-adv-x="852" 
d="M65 878l135 522h276l-227 -522h-184zM419 878l135 522h276l-227 -522h-184z" />
    <glyph glyph-name="quotedblbase" unicode="&#x201e;" horiz-adv-x="892" 
d="M-38 -112l109 338h276l-201 -338h-184zM360 -112l109 338h276l-201 -338h-184z" />
    <glyph glyph-name="dagger" unicode="&#x2020;" horiz-adv-x="880" 
d="M124 1014l39 276h222l29 210h276l-29 -210h222l-39 -276h-222l-63 -450h-276l63 450h-222z" />
    <glyph glyph-name="daggerdbl" unicode="&#x2021;" horiz-adv-x="880" 
d="M82 714l38 274h222l17 116h-222l38 276h222l17 120h276l-17 -120h222l-38 -276h-222l-17 -116h222l-38 -274h-222l-22 -154h-276l22 154h-222z" />
    <glyph glyph-name="bullet" unicode="&#x2022;" horiz-adv-x="532" 
d="M226 414q-78 0 -124.5 54t-35.5 132q10 77 72 131.5t140 54.5q77 0 123.5 -54.5t36.5 -131.5q-11 -78 -73 -132t-139 -54z" />
    <glyph glyph-name="ellipsis" unicode="&#x2026;" horiz-adv-x="1327" 
d="M117 -26q-58 0 -93 40.5t-27 99.5q9 57 55 98t104 41t93.5 -41t26.5 -98q-8 -59 -54.5 -99.5t-104.5 -40.5zM541 -26q-58 0 -93 40.5t-27 99.5q9 57 55 98t104 41t93.5 -41t26.5 -98q-8 -59 -54.5 -99.5t-104.5 -40.5zM965 -26q-58 0 -93 40.5t-27 99.5q9 57 55 98
t104 41t93.5 -41t26.5 -98q-8 -59 -54.5 -99.5t-104.5 -40.5z" />
    <glyph glyph-name="perthousand" unicode="&#x2030;" horiz-adv-x="2267" 
d="M128 0l1004 1400h318l-1004 -1400h-318zM410 774q-87 0 -154 42t-100.5 114.5t-20.5 161.5q13 92 67.5 163.5t133 113t164.5 41.5q87 0 153 -42.5t99 -115t21 -160.5q-13 -91 -67.5 -162.5t-133 -113.5t-162.5 -42zM437 960q54 0 98.5 38.5t51.5 93.5q8 56 -25.5 94
t-87.5 38q-55 0 -100 -38t-53 -94q-7 -55 27 -93.5t89 -38.5zM1072 -12q-89 0 -154.5 44.5t-98 117.5t-20.5 156q12 91 66.5 163.5t133.5 114.5t163 42q92 0 158 -45t97 -117.5t20 -157.5q-13 -87 -66.5 -159.5t-132 -115.5t-166.5 -43zM1098 174q56 0 101 39t52 93
q8 56 -26 95t-90 39q-54 0 -98 -39t-52 -95q-7 -54 26 -93t87 -39zM1767 -12q-89 0 -154.5 44.5t-98 117.5t-20.5 156q12 91 66.5 163.5t133 114.5t163.5 42q92 0 158 -45t97 -117.5t20 -157.5q-13 -87 -66.5 -159.5t-132 -115.5t-166.5 -43zM1793 174q56 0 101 39t52 93
q8 56 -26 95t-90 39q-54 0 -98 -39t-52 -95q-7 -54 26 -93t87 -39z" />
    <glyph glyph-name="uni2035" unicode="&#x2035;" horiz-adv-x="578" 
d="M299 878l-81 522h276l-11 -522h-184z" />
    <glyph glyph-name="guilsinglleft" unicode="&#x2039;" horiz-adv-x="798" 
d="M358 261l-252 340l348 338h278l-346 -338l250 -340h-278z" />
    <glyph glyph-name="guilsinglright" unicode="&#x203a;" horiz-adv-x="798" 
d="M38 261l346 340l-250 338h278l252 -338l-348 -340h-278z" />
    <glyph glyph-name="fraction" unicode="&#x2044;" horiz-adv-x="450" 
d="M-389 0l1004 1400h224l-1004 -1400h-224z" />
    <glyph glyph-name="fraction" unicode="&#x2215;" horiz-adv-x="450" 
d="M-389 0l1004 1400h224l-1004 -1400h-224z" />
    <glyph glyph-name="uni2070" unicode="&#x2070;" horiz-adv-x="648" 
d="M338 798q-69 0 -120.5 44t-74.5 120t-10 172q14 95 58.5 170.5t108 119.5t132.5 44q70 0 121 -44t74.5 -119.5t9.5 -170.5q-13 -96 -58 -172t-108 -120t-133 -44zM359 946q31 0 56 32t42 76.5t22 79.5q6 41 0.5 84t-22 72.5t-46.5 29.5q-32 0 -57 -30.5t-41 -74
t-22 -81.5q-5 -42 -0.5 -86t21.5 -73t47 -29z" />
    <glyph glyph-name="uni2074" unicode="&#x2074;" horiz-adv-x="694" 
d="M353 818l13 91h-240l26 191l271 349h176l-53 -381h55l-22 -159h-55l-13 -91h-158zM302 1068h101l22 160z" />
    <glyph glyph-name="uni2075" unicode="&#x2075;" horiz-adv-x="702" 
d="M334 798q-96 0 -157 63t-47 161h158q-4 -31 15.5 -53.5t51.5 -22.5q33 0 59.5 22.5t31.5 53.5q4 33 -16.5 53.5t-53.5 24.5q-18 2 -53.5 1t-76.5 -4t-75 -8l84 360h341l-19 -137h-197l-9 -54q123 2 185.5 -64t47.5 -172q-14 -98 -92.5 -161t-177.5 -63z" />
    <glyph glyph-name="uni2076" unicode="&#x2076;" horiz-adv-x="706" 
d="M343 798q-98 0 -157 61.5t-45 159.5q4 27 14 52t36 64.5t79 113t142 197.5h184l-146 -201q58 -15 96 -48t53 -79t8 -101q-9 -65 -48 -114.5t-95.5 -77t-120.5 -27.5zM364 946q34 0 59.5 26t24.5 60q-1 27 -19 43.5t-45 16.5q-41 0 -64 -29t-21 -59q0 -32 21 -45t44 -13z
" />
    <glyph glyph-name="uni2077" unicode="&#x2077;" horiz-adv-x="679" 
d="M171 818l335 470h-304l23 158h487l-22 -154l-338 -474h-181z" />
    <glyph glyph-name="uni2078" unicode="&#x2078;" horiz-adv-x="632" 
d="M329 798q-91 0 -147 57t-43 148q6 42 25.5 79.5t48.5 66.5q-16 25 -22 57.5t-2 65.5q12 87 80.5 142.5t153.5 55.5t138.5 -55.5t42.5 -142.5q-5 -33 -20.5 -65.5t-38.5 -57.5q21 -29 30.5 -66.5t2.5 -79.5q-12 -91 -84 -148t-165 -57zM349 944q26 0 47 17t24 42
q3 26 -12 44t-42 18q-25 0 -45 -18t-24 -44q-3 -25 12 -42t40 -17zM388 1224q21 0 38 14.5t19 33.5q3 21 -9.5 34.5t-33.5 13.5q-19 0 -35.5 -13.5t-19.5 -34.5q-2 -19 10 -33.5t31 -14.5z" />
    <glyph glyph-name="uni2079" unicode="&#x2079;" horiz-adv-x="658" 
d="M158 818l145 204q-43 7 -75 29.5t-52 55t-26 72t4 80.5q17 91 91.5 150t167.5 59q52 0 92.5 -18.5t68 -50.5t37 -74t-0.5 -90q-7 -52 -43 -104l-226 -313h-183zM372 1172q21 0 40 11.5t31.5 30t13.5 40.5q3 26 -18 46t-47 20q-24 0 -42.5 -12t-29.5 -29.5t-13 -37.5
q-3 -38 20.5 -53.5t44.5 -15.5z" />
    <glyph glyph-name="uni2080" unicode="&#x2080;" horiz-adv-x="648" 
d="M221 -31q-69 0 -120 46.5t-73.5 125t-9.5 174.5q14 95 59 173t109 124.5t133 46.5q70 0 120.5 -46.5t73.5 -124.5t9 -173q-13 -96 -58.5 -174.5t-109 -125t-133.5 -46.5zM244 127q30 0 55.5 32.5t42.5 76.5t21 79q7 41 1.5 83.5t-22 72.5t-46.5 30q-33 0 -57.5 -31
t-40.5 -74t-22 -81q-5 -41 -0.5 -85t21.5 -73.5t47 -29.5z" />
    <glyph glyph-name="uni2081" unicode="&#x2081;" horiz-adv-x="460" 
d="M59 0l66 473h-61l45 158h197l-88 -631h-159z" />
    <glyph glyph-name="uni2082" unicode="&#x2082;" horiz-adv-x="721" 
d="M-2 0l19 139q46 29 97 58.5t100 61.5t91.5 72t73.5 90q6 35 -14.5 58t-54.5 23t-62 -23t-33 -58h-159q10 66 50.5 120.5t100 87t126.5 32.5q66 0 115.5 -32.5t74.5 -87t15 -120.5q-5 -40 -27.5 -75t-55 -67t-70.5 -61.5t-77 -59.5h182l-22 -158h-470z" />
    <glyph glyph-name="uni2083" unicode="&#x2083;" horiz-adv-x="583" 
d="M190 -31q-61 0 -107 30t-68.5 79.5t-13.5 109.5h158q-5 -26 11 -43.5t42 -17.5q25 0 45 17.5t24 43.5q5 32 -20 60.5t-83 28.5l14 102q58 0 81.5 25.5t27.5 50.5q2 19 -10 32.5t-31 13.5t-35.5 -13.5t-18.5 -32.5h-159q13 85 81.5 144.5t153.5 59.5q86 0 138 -59.5
t39 -144.5q-4 -34 -18.5 -65t-37.5 -57q25 -30 33.5 -67t3.5 -78q-9 -60 -46 -109.5t-91 -79.5t-113 -30z" />
    <glyph glyph-name="uni2084" unicode="&#x2084;" horiz-adv-x="694" 
d="M238 0l13 91h-240l26 191l271 349h176l-53 -381h55l-22 -159h-55l-13 -91h-158zM187 250h101l22 160z" />
    <glyph glyph-name="uni2085" unicode="&#x2085;" horiz-adv-x="702" 
d="M217 -31q-64 0 -113.5 31.5t-73.5 84.5t-15 118h158q-5 -31 15 -53.5t52 -22.5q33 0 59.5 22.5t31.5 53.5q4 32 -16.5 55t-53.5 23l-206 -4l84 353h342l-19 -139h-197l-9 -53l31 1q115 0 165.5 -68t36.5 -168q-9 -65 -49 -118t-98.5 -84.5t-124.5 -31.5z" />
    <glyph glyph-name="uni2086" unicode="&#x2086;" horiz-adv-x="682" 
d="M226 -31q-98 0 -156 67t-44 165q4 27 13.5 51.5t36 64.5t79.5 113.5t142 197.5h184l-146 -202q58 -15 95.5 -48t53 -79t8.5 -101q-9 -64 -48.5 -116.5t-96.5 -82.5t-121 -30zM249 127q34 0 59.5 26t23.5 60q0 28 -18 44t-45 16q-41 0 -63.5 -29t-21.5 -59q1 -32 21.5 -45
t43.5 -13z" />
    <glyph glyph-name="uni2087" unicode="&#x2087;" horiz-adv-x="679" 
d="M53 0l339 473h-304l22 158h487l-22 -154l-341 -477h-181z" />
    <glyph glyph-name="uni2088" unicode="&#x2088;" horiz-adv-x="632" 
d="M212 -31q-91 0 -146 62.5t-42 152.5q6 42 25.5 80t48.5 66q-16 26 -22.5 57.5t-1.5 65.5q12 87 81 147t154 60q86 0 139 -60t40 -147q-4 -34 -19.5 -65.5t-38.5 -57.5q21 -28 30 -66t3 -80q-13 -90 -85.5 -152.5t-165.5 -62.5zM234 125q26 0 47 17t24 42q3 26 -12 44
t-42 18q-25 0 -45.5 -18t-23.5 -44q-4 -25 11.5 -42t40.5 -17zM273 404q21 0 38 15t19 34q2 20 -10 34t-33 14q-19 0 -35.5 -14t-19.5 -34q-2 -19 10 -34t31 -15z" />
    <glyph glyph-name="uni2089" unicode="&#x2089;" horiz-adv-x="658" 
d="M43 0l145 204q-43 7 -75 29.5t-52 55.5t-25.5 72.5t3.5 80.5q11 61 49 110.5t93.5 79t118.5 29.5q66 0 113.5 -31.5t70.5 -83t16.5 -112.5t-48.5 -120l-226 -314h-183zM257 355q21 0 40 11.5t31.5 29.5t13.5 40q3 26 -18 46t-47 20q-24 0 -42.5 -12t-29.5 -29.5
t-13 -37.5q-3 -38 20.5 -53t44.5 -15z" />
    <glyph glyph-name="Euro" unicode="&#x20ac;" horiz-adv-x="1107" 
d="M926 -16q-137 -21 -255.5 5t-212 93t-155 166.5t-83.5 224.5h-172l26 186h139l11 78h-139l26 186h173q56 128 146 228.5t202 167.5t239 93t257 4l-41 -285q-73 22 -144.5 17t-137.5 -34t-122.5 -77.5t-99.5 -113.5h252l-26 -186h-309l-9 -78h307l-26 -186h-250
q26 -66 70 -114t102.5 -75.5t127 -31.5t144.5 17z" />
    <glyph glyph-name="trademark" unicode="&#x2122;" horiz-adv-x="3061" 
d="M1278 1400l-39 -276h-412l-157 -1124h-276l157 1124h-412l39 276h1100zM1181 0l468 1400h233l205 -857l446 857h233l76 -1400h-282l-42 803l-410 -789h-190l-188 789l-268 -803h-281z" />
    <glyph glyph-name="oneeighth" unicode="&#x215b;" horiz-adv-x="1541" 
d="M174 818l66 473h-61l45 158h197l-88 -631h-159zM71 0l1004 1400h224l-1004 -1400h-224zM1122 -31q-91 0 -146 62.5t-42 152.5q6 42 25.5 80t48.5 66q-16 26 -22.5 57.5t-1.5 65.5q12 87 81 147t154 60q86 0 139 -60t40 -147q-4 -34 -19.5 -65.5t-38.5 -57.5
q21 -28 30 -66t3 -80q-13 -90 -85.5 -152.5t-165.5 -62.5zM1144 125q26 0 47 17t24 42q3 26 -12 44t-42 18q-25 0 -45.5 -18t-23.5 -44q-4 -25 11.5 -42t40.5 -17zM1183 404q21 0 38 15t19 34q2 20 -10 34t-33 14q-19 0 -35.5 -14t-19.5 -34q-2 -19 10 -34t31 -15z" />
    <glyph glyph-name="threeeighths" unicode="&#x215c;" horiz-adv-x="1665" 
d="M307 798q-91 0 -147.5 59t-43.5 151h158q-4 -27 11.5 -44.5t41.5 -17.5q25 0 45 17.5t24 44.5q5 32 -20 60t-83 28l14 102q58 0 82 25t27 50q2 20 -9.5 33.5t-31.5 13.5q-19 0 -35.5 -13.5t-18.5 -33.5h-158q11 86 79.5 140.5t153.5 54.5q86 0 138 -54.5t40 -140.5
q-4 -33 -19 -64.5t-38 -57.5q25 -29 34 -66t4 -77q-13 -92 -86 -151t-162 -59zM194 0l1004 1400h224l-1004 -1400h-224zM1245 -31q-91 0 -146 62.5t-42 152.5q6 42 25.5 80t48.5 66q-16 26 -22.5 57.5t-1.5 65.5q12 87 81 147t154 60q86 0 139 -60t40 -147
q-4 -34 -19.5 -65.5t-38.5 -57.5q21 -28 30 -66t3 -80q-13 -90 -85.5 -152.5t-165.5 -62.5zM1267 125q26 0 47 17t24 42q3 26 -12 44t-42 18q-25 0 -45.5 -18t-23.5 -44q-4 -25 11.5 -42t40.5 -17zM1306 404q21 0 38 15t19 34q2 20 -10 34t-33 14q-19 0 -35.5 -14t-19.5 -34
q-2 -19 10 -34t31 -15z" />
    <glyph glyph-name="fiveeighths" unicode="&#x215d;" horiz-adv-x="1784" 
d="M334 798q-96 0 -157 63t-47 161h158q-4 -31 15.5 -53.5t51.5 -22.5q33 0 59.5 22.5t31.5 53.5q4 33 -16.5 53.5t-53.5 24.5q-18 2 -53.5 1t-76.5 -4t-75 -8l84 360h341l-19 -137h-197l-9 -54q123 2 185.5 -64t47.5 -172q-14 -98 -92.5 -161t-177.5 -63zM313 0l1004 1400
h224l-1004 -1400h-224zM1364 -31q-91 0 -146 62.5t-42 152.5q6 42 25.5 80t48.5 66q-16 26 -22.5 57.5t-1.5 65.5q12 87 81 147t154 60q86 0 139 -60t40 -147q-4 -34 -19.5 -65.5t-38.5 -57.5q21 -28 30 -66t3 -80q-13 -90 -85.5 -152.5t-165.5 -62.5zM1386 125q26 0 47 17
t24 42q3 26 -12 44t-42 18q-25 0 -45.5 -18t-23.5 -44q-4 -25 11.5 -42t40.5 -17zM1425 404q21 0 38 15t19 34q2 20 -10 34t-33 14q-19 0 -35.5 -14t-19.5 -34q-2 -19 10 -34t31 -15z" />
    <glyph glyph-name="seveneighths" unicode="&#x215e;" horiz-adv-x="1760" 
d="M171 818l335 470h-304l23 158h487l-22 -154l-338 -474h-181zM290 0l1004 1400h224l-1004 -1400h-224zM1341 -31q-91 0 -146 62.5t-42 152.5q6 42 25.5 80t48.5 66q-16 26 -22.5 57.5t-1.5 65.5q12 87 81 147t154 60q86 0 139 -60t40 -147q-4 -34 -19.5 -65.5t-38.5 -57.5
q21 -28 30 -66t3 -80q-13 -90 -85.5 -152.5t-165.5 -62.5zM1363 125q26 0 47 17t24 42q3 26 -12 44t-42 18q-25 0 -45.5 -18t-23.5 -44q-4 -25 11.5 -42t40.5 -17zM1402 404q21 0 38 15t19 34q2 20 -10 34t-33 14q-19 0 -35.5 -14t-19.5 -34q-2 -19 10 -34t31 -15z" />
    <glyph glyph-name="arrowleft" unicode="&#x2190;" horiz-adv-x="1418" 
d="M554 207l-467 543l620 543l168 -195l-241 -210h730l-39 -276h-729l180 -210z" />
    <glyph glyph-name="arrowup" unicode="&#x2191;" horiz-adv-x="1247" 
d="M404 120l102 730l-239 -209l-167 195l619 544l468 -544l-223 -195l-182 209l-102 -730h-276z" />
    <glyph glyph-name="arrowright" unicode="&#x2192;" horiz-adv-x="1419" 
d="M726 207l-167 195l238 210h-729l38 276h730l-179 210l223 195l466 -543z" />
    <glyph glyph-name="arrowdown" unicode="&#x2193;" horiz-adv-x="1245" 
d="M540 120l-465 544l222 195l180 -209l102 730h276l-102 -730l239 209l169 -195z" />
    <glyph glyph-name="arrowboth" unicode="&#x2194;" horiz-adv-x="1891" 
d="M554 207l-467 543l620 543l168 -195l-241 -210h674l-179 210l223 195l466 -543l-620 -543l-167 195l238 210h-673l180 -210z" />
    <glyph glyph-name="arrowupdn" unicode="&#x2195;" horiz-adv-x="1247" 
d="M509 -116l-468 544l223 195l181 -209l94 672l-239 -209l-167 195l619 544l468 -544l-223 -195l-182 209l-94 -672l240 209l167 -195z" />
    <glyph glyph-name="uni2196" unicode="&#x2196;" horiz-adv-x="1148" 
d="M811 256l-445 517l-41 -297h-276l107 768h768l-39 -276h-296l443 -517z" />
    <glyph glyph-name="uni2197" unicode="&#x2197;" horiz-adv-x="1147" 
d="M213 257l-167 195l588 515h-299l39 276h769l-107 -768h-276l41 297z" />
    <glyph glyph-name="uni2198" unicode="&#x2198;" horiz-adv-x="1147" 
d="M237 257l39 276h297l-444 515l222 195l445 -515l41 297h276l-108 -768h-768z" />
    <glyph glyph-name="uni2199" unicode="&#x2199;" horiz-adv-x="1147" 
d="M18 257l107 768h276l-41 -297l588 515l169 -195l-589 -515h297l-39 -276h-768z" />
    <glyph glyph-name="partialdiff" unicode="&#x2202;" horiz-adv-x="1166" 
d="M482 -26q-139 0 -244 68t-156.5 182t-32.5 252q15 104 66.5 195.5t130.5 161t176 108.5t201 39q31 0 59 -7.5t51 -22.5q-14 49 -32.5 102.5t-51 100.5t-87.5 76t-141 29l36 276q171 0 297 -83.5t203.5 -227t104 -327t-1.5 -383.5q-22 -157 -104.5 -279t-205.5 -191
t-268 -69zM520 250q63 0 118.5 31t93.5 82.5t47 112.5q9 63 -15 114.5t-71 82.5t-109 31q-63 0 -118.5 -31t-93.5 -83t-47 -114q-9 -61 14.5 -112.5t71 -82.5t109.5 -31z" />
    <glyph glyph-name="emptyset" unicode="&#x2205;" horiz-adv-x="1160" 
d="M263 -81l-178 111l67 92q-61 72 -88 169.5t-12 208.5q15 110 67.5 205.5t131.5 168t175.5 113.5t199.5 41q42 0 81 -7t74 -21l61 84l177 -111l-67 -93q61 -72 88 -169.5t12 -210.5q-15 -109 -67.5 -204t-131.5 -167.5t-175 -113.5t-200 -41q-42 0 -81 7t-76 21zM321 354
l305 427q-55 5 -109 -17t-99 -63.5t-75 -97.5t-39 -119q-6 -37 -0.5 -69.5t17.5 -60.5zM478 221q57 -4 111 17t98 62.5t73.5 97t38.5 118.5q7 38 2 71t-17 61z" />
    <glyph glyph-name="product" unicode="&#x220f;" horiz-adv-x="1280" 
d="M178 1400h1120l-39 -276h-1120zM273 1211h276l-169 -1211h-276zM873 1211h276l-169 -1211h-276z" />
    <glyph glyph-name="summation" unicode="&#x2211;" horiz-adv-x="913" 
d="M-18 0l39 276l275 422l-157 422l39 276h773l-38 -276h-463l155 -422l-273 -422h462l-39 -276h-773z" />
    <glyph glyph-name="minus" unicode="&#x2212;" horiz-adv-x="1160" 
d="M47 462l38 276h1000l-38 -276h-1000z" />
    <glyph glyph-name="radical" unicode="&#x221a;" horiz-adv-x="1364" 
d="M1009 1400h373l-38 -276h-181l-568 -1124h-355l-159 708h293l88 -389z" />
    <glyph glyph-name="infinity" unicode="&#x221e;" horiz-adv-x="1537" 
d="M389 239q-115 10 -191.5 62t-109.5 133.5t-20 181.5q16 105 74.5 190.5t150 135.5t202.5 50q64 0 116 -18.5t95 -55.5t80 -91q55 55 109.5 91.5t110.5 55t117 18.5q119 0 195.5 -52.5t108.5 -138t18 -185.5q-15 -107 -73.5 -192t-149.5 -134.5t-202 -50.5
q-65 0 -117 18.5t-94.5 55t-82.5 89.5q-54 -55 -108 -93t-110.5 -56t-118.5 -14zM421 490q34 0 69 22t65.5 51.5t49.5 52.5q-14 25 -37 55t-51 50.5t-60 18.5q-60 -2 -97 -41t-43 -83q-7 -53 21.5 -89t82.5 -37zM1058 490q60 3 96.5 41t43.5 85q6 49 -19.5 87t-76.5 39
q-37 0 -70.5 -19t-64 -48t-57.5 -59q11 -20 27 -42t35 -41.5t40.5 -31.5t45.5 -11z" />
    <glyph glyph-name="integral" unicode="&#x222b;" horiz-adv-x="1134" 
d="M280 -26q-89 0 -153.5 40t-93.5 111t-11 162l170 -13q0 -34 3.5 -57.5t36.5 -24.5q32 0 57 17.5t33 48.5l229 949q17 62 67.5 111.5t117 78.5t131.5 29q85 0 146.5 -45t88.5 -117t9 -153l-154 15q1 49 -22 66t-54 12q-23 -2 -43.5 -19.5t-30.5 -49.5l-225 -944
q-44 -116 -128 -166.5t-174 -50.5z" />
    <glyph glyph-name="approxequal" unicode="&#x2248;" horiz-adv-x="1330" 
d="M898 668q-67 0 -139 24.5t-143.5 56.5t-137 56.5t-117.5 24.5q-28 0 -45.5 -14.5t-26 -37t-11.5 -47.5l-269 6q0 91 50.5 171t132.5 130t176 50q66 0 130.5 -25.5t126.5 -59t120 -59t111 -25.5q28 0 46 13.5t28 37t12 51.5l269 -6q1 -92 -38.5 -171t-110 -127.5
t-164.5 -48.5zM898 120q-67 0 -139 24.5t-143.5 56.5t-137 56.5t-117.5 24.5q-28 0 -45.5 -14.5t-26 -37t-11.5 -47.5l-269 6q0 91 50.5 171t132.5 130t176 50q66 0 130.5 -25.5t126.5 -59t120 -59t111 -25.5q28 0 46 13.5t28 37t12 51.5l269 -6q1 -92 -38.5 -171
t-110 -127.5t-164.5 -48.5z" />
    <glyph glyph-name="notequal" unicode="&#x2260;" horiz-adv-x="1160" 
d="M961 1182l-98 -225h253l-39 -276h-334l-69 -162h381l-39 -276h-462l-98 -225h-287l98 225h-251l39 276h332l70 162h-380l39 276h460l98 225h287z" />
    <glyph glyph-name="lessequal" unicode="&#x2264;" horiz-adv-x="1160" 
d="M1028 330l-960 284l65 461l1040 286l-40 -287l-835 -228l771 -229zM-18 0l39 276h1000l-39 -276h-1000z" />
    <glyph glyph-name="greaterequal" unicode="&#x2265;" horiz-adv-x="1160" 
d="M31 352l40 287l833 217l-771 218l40 287l961 -275l-65 -461zM-18 0l39 276h1000l-39 -276h-1000z" />
    <glyph glyph-name="lozenge" unicode="&#x25ca;" horiz-adv-x="1150" 
d="M230 0l-170 702l364 698h498l168 -698l-366 -702h-494zM495 134l306 568l-146 568l-304 -568z" />
    <glyph glyph-name="uniFFFD" unicode="&#xfffd;" horiz-adv-x="1630" 
d="M714 -26q-54 0 -103 20t-86 62l-355 414q-36 42 -48.5 94t-5.5 106q8 54 36 106t74 92l472 414q48 42 102.5 62t108.5 20t102.5 -20t84.5 -62l356 -414q36 -42 49 -93t5 -105q-7 -54 -34.5 -106t-75.5 -94l-473 -414q-46 -40 -100.5 -61t-108.5 -21zM756 242
q39 0 70 27.5t36 67.5q6 38 -17.5 64.5t-62.5 26.5t-69.5 -26.5t-36.5 -64.5q-5 -40 18 -67.5t62 -27.5zM696 513h186v2q4 29 32 44q66 35 111 96t55 134q11 72 -16.5 131t-81.5 94.5t-126 35.5t-136 -35.5t-107.5 -94.5t-54.5 -131h186q5 32 30 53.5t56 21.5
q32 0 50.5 -21.5t13.5 -53.5q-2 -21 -14.5 -39.5t-30.5 -27.5q-63 -29 -103 -85t-50 -122v-2z" />
    </font>
</defs>
</svg>
