<?xml version="1.0" standalone="no"?>
<!DOCTYPE svg PUBLIC "-//W3C//DTD SVG 1.1//EN" "http://www.w3.org/Graphics/SVG/1.1/DTD/svg11.dtd" >
<svg xmlns="http://www.w3.org/2000/svg" xmlns:xlink="http://www.w3.org/1999/xlink" version="1.1">
<metadata>
Created by FontForge 20201107 at Wed Oct 27 17:11:08 2021
 By 
Copyright 2021 The Urbanist Project Authors (https://github.com/coreyhu/Urbanist)
</metadata>
<defs>
<font id="Urbanist-Bold" horiz-adv-x="484" >
  <font-face 
    font-family="Urbanist"
    font-weight="700"
    font-stretch="normal"
    units-per-em="2000"
    panose-1="2 11 10 4 4 2 0 0 2 3"
    ascent="1600"
    descent="-400"
    x-height="1000"
    cap-height="1400"
    bbox="-280 -500 2909 2081"
    underline-thickness="50"
    underline-position="-125"
    unicode-range="U+000D-FFFD"
  />
<missing-glyph horiz-adv-x="1000" 
d="M100 -500v2400h800v-2400h-800zM200 -400h600v2200h-600v-2200z" />
    <glyph glyph-name=".notdef" horiz-adv-x="1000" 
d="M100 -500v2400h800v-2400h-800zM200 -400h600v2200h-600v-2200z" />
    <glyph glyph-name=".null" horiz-adv-x="1200" 
 />
    <glyph glyph-name=".null" horiz-adv-x="1200" 
 />
    <glyph glyph-name="nonmarkingreturn" unicode="&#xd;" horiz-adv-x="1200" 
 />
    <glyph glyph-name="nonmarkingreturn" unicode="&#xfeff;" horiz-adv-x="1200" 
 />
    <glyph glyph-name="space" unicode=" " horiz-adv-x="480" 
 />
    <glyph glyph-name="exclam" unicode="!" horiz-adv-x="449" 
d="M102 420v980h206v-980h-206zM206 -26q-53 0 -89.5 37t-36.5 90q0 52 36.5 88t89.5 36q51 0 87 -36t36 -88q0 -53 -36 -90t-87 -37z" />
    <glyph glyph-name="quotedbl" unicode="&#x22;" horiz-adv-x="589" 
d="M65 878v522h167v-522h-167zM357 878v522h167v-522h-167z" />
    <glyph glyph-name="numbersign" unicode="#" horiz-adv-x="1573" 
d="M1429 878h-166l-97 -355h169l-64 -236h-166l-78 -287h-244l78 287h-370l-76 -287h-244l76 287h-167l64 236h166l97 355h-169l64 235h167l77 287h244l-77 -287h369l76 287h244l-76 -287h167zM922 523l97 355h-368l-97 -355h368z" />
    <glyph glyph-name="dollar" unicode="$" horiz-adv-x="1209" 
d="M604 1179q-71 1 -134.5 -22.5t-103.5 -63.5t-40 -92q0 -67 37.5 -101t100.5 -49.5t140 -28.5q140 -22 259 -74t191 -138.5t72 -211.5q0 -114 -59 -202.5t-158.5 -144.5t-220.5 -71v-204h-167v204q-101 12 -190 51t-154.5 102t-96.5 147l229 84q14 -40 57 -73t105 -53
t133 -20q73 0 136.5 22.5t102.5 63t39 94.5q0 55 -41 90.5t-105 56.5t-132 32q-149 23 -267 71t-186.5 133t-68.5 220q0 114 59.5 203t159 144.5t220.5 70.5v205h167v-205q99 -12 188 -51t155.5 -102.5t97.5 -148.5l-230 -83q-14 40 -57 73t-105 52.5t-133 19.5z" />
    <glyph glyph-name="percent" unicode="%" horiz-adv-x="1508" 
d="M209 0l808 1400h282l-808 -1400h-282zM381 793q-82 0 -150.5 39.5t-109.5 107.5t-41 152q0 86 41.5 154t110 107t149.5 39q82 0 150 -40t108.5 -108t40.5 -152q0 -85 -41.5 -153t-109.5 -107t-148 -39zM381 960q54 0 93 38.5t39 93.5q0 56 -39 94t-93 38q-55 0 -94.5 -38
t-39.5 -94q0 -55 39.5 -93.5t94.5 -38.5zM1127 7q-83 0 -151 41.5t-108 110t-40 147.5q0 86 41.5 154t110 107.5t147.5 39.5q86 0 154 -42t107.5 -110.5t39.5 -148.5q0 -82 -40.5 -150t-109 -108.5t-151.5 -40.5zM1127 174q56 0 95 39t39 93q0 56 -39 95t-95 39
q-54 0 -93 -39t-39 -95q0 -54 39 -93t93 -39z" />
    <glyph glyph-name="ampersand" unicode="&#x26;" horiz-adv-x="1431" 
d="M510 -26q-123 0 -220 60t-153.5 158.5t-56.5 212.5q0 64 12 112t41 93.5t79 100t126 130.5q-41 42 -69.5 75t-45.5 64.5t-24.5 64.5t-7.5 75q0 92 44 164.5t117 114.5t158 42q89 0 161.5 -42.5t116 -115.5t43.5 -163q0 -43 -7.5 -77t-25 -65t-46 -64t-69.5 -73l264 -264
l252 253v-345l-81 -81l233 -232l-173 -172l-231 231q-77 -77 -132 -127t-100.5 -78.5t-93 -40t-111.5 -11.5zM510 218q35 0 61 8.5t52 30t61.5 57.5t89.5 90l-264 264q-56 -57 -92.5 -93t-56.5 -61.5t-28.5 -50.5t-8.5 -59q0 -54 26.5 -96t69 -66t90.5 -24zM510 978
q45 43 67.5 65t31 38.5t8.5 43.5q0 50 -34 78t-73 28q-42 0 -73.5 -31t-31.5 -75q0 -27 9.5 -45t32.5 -40t63 -62z" />
    <glyph glyph-name="quotesingle" unicode="'" horiz-adv-x="297" 
d="M65 878v522h167v-522h-167z" />
    <glyph glyph-name="parenleft" unicode="(" horiz-adv-x="758" 
d="M414 -112q-104 102 -168.5 218t-95 250t-30.5 288q0 72 14 162t40 183.5t62.5 177t81.5 145.5t96 88h244q-42 -29 -83.5 -91t-79 -143.5t-67 -173.5t-46.5 -182t-18 -166q1 -156 44.5 -298.5t110.5 -259t139 -198.5h-244z" />
    <glyph glyph-name="parenright" unicode=")" horiz-adv-x="758" 
d="M100 -112q72 82 139 198.5t110.5 259t44.5 298.5q-1 76 -18 166t-46.5 182t-67 173.5t-79 143.5t-83.5 91h244q51 -26 96 -88t81.5 -145.5t62.5 -177t40 -183.5t14 -162q0 -154 -30 -288t-95 -250t-169 -218h-244z" />
    <glyph glyph-name="asterisk" unicode="*" horiz-adv-x="724" 
d="M246 835l-136 99l101 138l-161 51l50 161l163 -53v169h168v-169l161 53l52 -161l-163 -51l101 -138l-136 -99l-99 139z" />
    <glyph glyph-name="plus" unicode="+" horiz-adv-x="1160" 
d="M458 100v378h-378v244h378v378h244v-378h378v-244h-378v-378h-244z" />
    <glyph glyph-name="comma" unicode="," horiz-adv-x="506" 
d="M80 -112l62 338h244l-143 -338h-163z" />
    <glyph glyph-name="hyphen" unicode="-" horiz-adv-x="880" 
d="M120 722h640v-244h-640v244z" />
    <glyph glyph-name="period" unicode="." horiz-adv-x="451" 
d="M205 -26q-52 0 -88.5 36.5t-36.5 89.5q0 51 36.5 88t88.5 37t89 -37t37 -88q0 -53 -37 -89.5t-89 -36.5z" />
    <glyph glyph-name="slash" unicode="/" horiz-adv-x="810" 
d="M730 1400l-406 -1512h-244l406 1512h244z" />
    <glyph glyph-name="zero" unicode="0" horiz-adv-x="1209" 
d="M605 -26q-122 0 -222 56.5t-172.5 156.5t-111.5 231.5t-39 281.5t39 281.5t111.5 231.5t172.5 156.5t222 56.5t222 -56.5t171.5 -156.5t111 -231.5t39.5 -281.5t-39.5 -281.5t-111 -231.5t-171.5 -156.5t-222 -56.5zM605 218q107 0 177 68t104 178t34 236
q0 133 -36 242.5t-106 174.5t-173 65q-81 0 -140.5 -39.5t-98.5 -107.5t-58 -154.5t-19 -180.5q0 -125 34.5 -235.5t105 -178.5t176.5 -68z" />
    <glyph glyph-name="one" unicode="1" horiz-adv-x="660" 
d="M256 0v1156h-176l66 244h354v-1400h-244z" />
    <glyph glyph-name="two" unicode="2" horiz-adv-x="1143" 
d="M80 0v218q65 49 154 121.5t183 157t174 169.5t130.5 162t50.5 132q0 61 -30 111.5t-79.5 80.5t-110.5 30t-111 -30t-80 -80.5t-30 -111.5h-244q0 132 64 237.5t169.5 167t231.5 61.5q128 0 233 -62.5t168 -168.5t63 -235q0 -68 -25 -137t-70 -139t-106 -141.5
t-134.5 -146t-154.5 -152.5h497v-244h-943z" />
    <glyph glyph-name="three" unicode="3" horiz-adv-x="1023" 
d="M511 -26q-127 0 -229 60t-162 161.5t-60 225.5h244q0 -56 26.5 -102t73.5 -73.5t107 -27.5q55 0 102.5 27.5t76.5 73.5t29 102q0 73 -39 121.5t-108.5 72.5t-161.5 24v188q124 0 196.5 47t72.5 138q0 47 -24 86t-63.5 62.5t-86.5 23.5q-48 0 -93 -23.5t-73.5 -62.5
t-28.5 -86h-244q0 86 35 161.5t96.5 132.5t140 89.5t164.5 32.5q113 0 209 -56t154 -150t58 -210q0 -81 -38 -159t-108 -110q61 -22 102 -73.5t62.5 -117t21.5 -131.5q0 -123 -62 -224.5t-164.5 -162t-225.5 -60.5z" />
    <glyph glyph-name="four" unicode="4" horiz-adv-x="1158" 
d="M676 0v339h-596v245l539 816h301v-817h118v-244h-118v-339h-244zM363 584l313 -1l-1 484z" />
    <glyph glyph-name="five" unicode="5" horiz-adv-x="1149" 
d="M550 -26q-135 0 -244 65.5t-172.5 174.5t-63.5 239h244q0 -65 32 -118.5t85.5 -85t118.5 -31.5t118 31.5t85 85t32 118.5t-27.5 119.5t-89 87t-162.5 32.5h-360l148 708h688v-244h-490l-45 -220l99 -1q142 -5 251 -69t170.5 -171.5t61.5 -241.5q0 -98 -37 -185t-103 -153
t-152.5 -103.5t-186.5 -37.5z" />
    <glyph glyph-name="six" unicode="6" horiz-adv-x="1098" 
d="M542 -26q-134 0 -246 67t-179 179t-67 248q0 70 16.5 130t51.5 121l392 681h283l-263 -455q81 6 156 -14t139 -63t112 -104t74.5 -136t26.5 -160q0 -102 -38.5 -191t-106.5 -157.5t-158 -107t-193 -38.5zM542 218q73 0 130 35.5t89.5 92.5t32.5 121q0 69 -33 126
t-89.5 91t-127.5 34q-73 0 -129.5 -35.5t-88.5 -92.5t-32 -123q0 -71 35 -127t91.5 -89t121.5 -33z" />
    <glyph glyph-name="seven" unicode="7" horiz-adv-x="1100" 
d="M110 0l667 1156h-737v244h1020v-244l-669 -1156h-281z" />
    <glyph glyph-name="eight" unicode="8" horiz-adv-x="1090" 
d="M544 -26q-129 0 -234 59t-167.5 158.5t-62.5 221.5q0 96 43.5 180.5t117.5 142.5q-58 53 -94.5 125.5t-36.5 155.5q0 113 59 206t157.5 148t217.5 55q120 0 218 -55t157 -148t59 -206q0 -83 -35.5 -155.5t-95.5 -125.5q76 -58 119.5 -142.5t43.5 -180.5
q0 -121 -62.5 -220.5t-168.5 -159t-235 -59.5zM544 218q58 0 105 26.5t75 70.5t28 98t-28 98t-75 70.5t-105 26.5q-57 0 -104 -26.5t-75.5 -70.5t-28.5 -98t28.5 -98t75.5 -70.5t104 -26.5zM544 852q49 0 89 22.5t63.5 59.5t23.5 83t-23.5 83t-63.5 59.5t-89 22.5
q-48 0 -88 -22.5t-64 -59.5t-24 -83t24 -83t64 -59.5t88 -22.5z" />
    <glyph glyph-name="nine" unicode="9" horiz-adv-x="1097" 
d="M290 0l269 465q-99 -6 -188.5 27t-159.5 98t-110.5 154t-40.5 193q0 101 38 189.5t105.5 156t156 105.5t190.5 38q133 0 243.5 -66t177 -177t66.5 -246q0 -67 -16.5 -126.5t-51.5 -120.5l-397 -690h-282zM548 692q72 0 127.5 35t86.5 91t31 120q0 70 -34 125.5t-90 87
t-119 31.5q-72 0 -127.5 -34.5t-87.5 -90.5t-32 -119q0 -67 32.5 -123t88 -89.5t124.5 -33.5z" />
    <glyph glyph-name="colon" unicode=":" horiz-adv-x="451" 
d="M205 749q-52 0 -88.5 36.5t-36.5 89.5q0 51 36.5 88t88.5 37t89 -37t37 -88q0 -53 -37 -89.5t-89 -36.5zM205 -26q-52 0 -88.5 36.5t-36.5 89.5q0 51 36.5 88t88.5 37t89 -37t37 -88q0 -53 -37 -89.5t-89 -36.5z" />
    <glyph glyph-name="semicolon" unicode=";" horiz-adv-x="509" 
d="M80 -112l62 338h244l-143 -338h-163zM264 749q-53 0 -89.5 36.5t-36.5 88.5t36.5 89t89.5 37q51 0 88 -37t37 -89t-37 -88.5t-88 -36.5z" />
    <glyph glyph-name="less" unicode="&#x3c;" horiz-adv-x="1160" 
d="M1080 112l-1000 284v406l1000 286v-254l-823 -234l823 -235v-253z" />
    <glyph glyph-name="equal" unicode="=" horiz-adv-x="1160" 
d="M80 263v244h1000v-244h-1000zM80 693v244h1000v-244h-1000z" />
    <glyph glyph-name="greater" unicode="&#x3e;" horiz-adv-x="1160" 
d="M80 121v253l823 226l-823 225v254l1000 -277v-406z" />
    <glyph glyph-name="question" unicode="?" horiz-adv-x="1108" 
d="M426 428q0 114 57 209t156 149q49 26 77 76.5t28 111.5q0 58 -28.5 105.5t-76.5 75t-105 27.5q-58 0 -106 -27.5t-76 -75t-28 -105.5h-244q0 125 61 227.5t164.5 163.5t228.5 61t228 -61t164.5 -163.5t61.5 -227.5q0 -128 -62.5 -236t-171.5 -167q-39 -21 -61.5 -59
t-22.5 -84h-244zM557 -26q-53 0 -89.5 37t-36.5 90q0 52 36.5 88t89.5 36q52 0 88 -36t36 -88q0 -53 -36 -90t-88 -37z" />
    <glyph glyph-name="at" unicode="@" horiz-adv-x="1834" 
d="M917 -251q-174 0 -325.5 59.5t-266.5 167.5t-180 254.5t-65 319.5q0 174 65 326t180 267t267 180t325 65q175 0 327 -65.5t266.5 -181t179 -267t64.5 -324.5q0 -95 -23 -187t-68.5 -165.5t-112 -117.5t-152.5 -44q-61 0 -124.5 27t-109 72.5t-56.5 99.5
q-39 -38 -93 -60.5t-120 -22.5q-109 0 -199.5 54t-144 144.5t-53.5 199.5q0 110 53.5 200.5t144 144t199.5 53.5q60 0 124.5 -19.5t100.5 -52.5v51l182 -38v-527q0 -37 22.5 -59.5t58.5 -22.5q45 0 73.5 47t41 110t12.5 113q0 124 -46.5 232t-128.5 189t-189 127t-229 46
t-229.5 -46t-189 -127.5t-128 -189t-46.5 -231.5q0 -123 46 -225t127.5 -176.5t189 -115t230.5 -40.5v-244zM915 334q59 0 105.5 31t73 81.5t26.5 108.5q0 57 -25.5 105t-72 77t-107.5 29q-60 0 -108.5 -29t-78 -78t-29.5 -109q0 -59 29.5 -108t78.5 -78.5t108 -29.5z" />
    <glyph glyph-name="A" unicode="A" horiz-adv-x="1458" 
d="M588 1400h281l509 -1400h-259l-90 248h-600l-90 -248h-259zM518 492h421l-211 577z" />
    <glyph glyph-name="B" unicode="B" horiz-adv-x="1174" 
d="M120 0v1400h510q111 0 200.5 -45.5t142 -130t52.5 -199.5q0 -51 -15 -103t-46 -93.5t-80 -61.5q65 -16 106 -58t64 -98.5t31.5 -115t8.5 -108.5q0 -111 -55 -198t-147.5 -138t-204.5 -51h-567zM364 209h298q60 0 108 29t77 80t29 116q0 56 -29 106t-77 81t-108 31h-298
v-443zM364 858h238q74 0 126.5 46t52.5 122q0 81 -52.5 122.5t-126.5 41.5h-238v-332z" />
    <glyph glyph-name="C" unicode="C" horiz-adv-x="1418" 
d="M768 -26q-142 0 -267 56.5t-219.5 156.5t-148 231.5t-53.5 281.5q0 151 53.5 282.5t148 231t219.5 156t267 56.5q170 0 313 -78.5t237 -209.5l-218 -117q-59 73 -146.5 117t-185.5 44q-92 0 -173 -37.5t-142 -104t-95 -154t-34 -186.5q0 -100 34.5 -187t95.5 -153.5
t141.5 -104t172.5 -37.5q100 0 186.5 44.5t145.5 117.5l218 -118q-94 -130 -237 -209t-313 -79z" />
    <glyph glyph-name="D" unicode="D" horiz-adv-x="1344" 
d="M120 0v1400h464q145 0 271.5 -54.5t223 -151t151 -223t54.5 -271.5t-54.5 -271.5t-151 -223t-223 -151t-271.5 -54.5h-464zM364 244h220q93 0 175.5 35.5t145.5 98t99 145t36 177.5t-36 177t-99 145t-145 98.5t-176 35.5h-220v-912z" />
    <glyph glyph-name="E" unicode="E" horiz-adv-x="1098" 
d="M120 0v1400h878v-244h-634v-284h503v-244h-503v-384h634v-244h-878z" />
    <glyph glyph-name="F" unicode="F" horiz-adv-x="967" 
d="M120 0v1400h827v-244h-583v-284h487v-244h-487v-628h-244z" />
    <glyph glyph-name="G" unicode="G" horiz-adv-x="1537" 
d="M768 -26q-146 0 -271.5 57t-218.5 157.5t-145.5 232t-52.5 281.5q0 158 56.5 290t154.5 229t222.5 150t259.5 53q151 0 293.5 -70.5t251.5 -217.5l-218 -117q-67 82 -153.5 122.5t-176.5 40.5q-88 0 -168.5 -36t-143 -101.5t-98.5 -154t-36 -193.5q0 -99 35 -186.5
t96.5 -153t142.5 -102.5t174 -37q62 0 121.5 19.5t112 56.5t94 90t69.5 120h-255v213h542q4 -153 -48 -287t-147 -237t-221 -161t-272 -58z" />
    <glyph glyph-name="H" unicode="H" horiz-adv-x="1308" 
d="M944 1400h244v-1400h-244v628h-580v-628h-244v1400h244v-528h580v528z" />
    <glyph glyph-name="I" unicode="I" horiz-adv-x="544" 
d="M150 0v1400h244v-1400h-244z" />
    <glyph glyph-name="J" unicode="J" horiz-adv-x="888" 
d="M324 -26q-77 0 -150.5 26t-133.5 77l156 188q22 -18 54 -32.5t74 -14.5q55 0 100 28.5t72.5 75t27.5 101.5v977h244v-977q0 -123 -60 -224.5t-161 -163t-223 -61.5z" />
    <glyph glyph-name="K" unicode="K" horiz-adv-x="1173" 
d="M1143 0h-318l-393 549l-68 -81v-468h-244v1400h244v-553l463 553h319l-555 -660z" />
    <glyph glyph-name="L" unicode="L" horiz-adv-x="1047" 
d="M120 0v1400h244v-1156h583v-244h-827z" />
    <glyph glyph-name="M" unicode="M" horiz-adv-x="1870" 
d="M120 0l272 1400h202l341 -897l341 897h202l272 -1400h-249l-168 866l-315 -834h-167l-315 834l-167 -866h-249z" />
    <glyph glyph-name="N" unicode="N" horiz-adv-x="1339" 
d="M120 0v1400h264l591 -959v959h244v-1400h-263l-592 959v-959h-244z" />
    <glyph glyph-name="O" unicode="O" horiz-adv-x="1540" 
d="M770 -26q-142 0 -267 56.5t-220 156.5t-149 231.5t-54 281.5t54 281.5t149 231.5t220 156.5t267 56.5q143 0 268 -56.5t220 -156.5t148.5 -231.5t53.5 -281.5t-53.5 -281.5t-148.5 -231.5t-220 -156.5t-268 -56.5zM770 218q92 0 173 38t142.5 104.5t96 153.5t34.5 186
t-35 186.5t-96.5 153.5t-142 104t-172.5 38t-173 -38t-142.5 -104.5t-96 -153.5t-34.5 -186q0 -100 35 -187t96.5 -153.5t142 -104t172.5 -37.5z" />
    <glyph glyph-name="P" unicode="P" horiz-adv-x="1107" 
d="M120 0v1400h500q114 0 206.5 -57t146.5 -153t54 -211q0 -118 -55.5 -213.5t-148.5 -152t-203 -56.5h-256v-557h-244zM364 801h230q52 0 95 26t68.5 70t25.5 98q0 55 -25.5 99t-68.5 70t-95 26h-230v-389z" />
    <glyph glyph-name="Q" unicode="Q" horiz-adv-x="1573" 
d="M1320 -42l-156 154q-82 -62 -182.5 -97t-211.5 -35q-142 0 -267 56.5t-220 156t-149 231.5t-54 282t54 281.5t149 231.5t220 156.5t267 56.5q143 0 268 -56.5t220 -156.5t148.5 -231.5t53.5 -281.5q0 -117 -34 -222.5t-93 -194.5l159 -159zM770 224q58 0 114 17.5
t103 49.5l-127 127l172 173l119 -120q32 52 48.5 112t16.5 123q0 100 -35 187t-96.5 153.5t-142 104t-172.5 37.5t-173 -38t-142.5 -104.5t-96 -153.5t-34.5 -186t35 -186.5t96.5 -154t142 -104t172.5 -37.5z" />
    <glyph glyph-name="R" unicode="R" horiz-adv-x="1213" 
d="M120 0v1400h537q114 0 206 -57t146 -152.5t54 -211.5q0 -95 -34.5 -174.5t-96 -137.5t-141.5 -88l335 -579h-281l-324 557h-157v-557h-244zM364 801h265q52 0 95 26t69 70t26 98q0 55 -26 99t-69 70t-95 26h-265v-389z" />
    <glyph glyph-name="S" unicode="S" horiz-adv-x="1249" 
d="M624 -26q-116 0 -222.5 36.5t-186.5 105t-115 164.5l229 84q14 -40 57 -73t105 -53t133 -20q73 0 136.5 22.5t102.5 63t39 94.5q0 55 -41 90.5t-105 56.5t-132 32q-149 23 -267 71t-186.5 133t-68.5 220q0 127 73 222t192 148t257 53q115 0 222 -36t187.5 -105
t115.5 -166l-230 -83q-14 40 -57 73t-105 52.5t-133 19.5q-71 1 -134.5 -22.5t-103.5 -63.5t-40 -92q0 -67 37.5 -101t100.5 -49.5t140 -28.5q140 -22 259 -74t191 -138.5t72 -211.5q0 -127 -72 -222.5t-191 -148.5t-259 -53z" />
    <glyph glyph-name="T" unicode="T" horiz-adv-x="1260" 
d="M1180 1400v-244h-428v-1156h-244v1156h-428v244h1100z" />
    <glyph glyph-name="U" unicode="U" horiz-adv-x="1360" 
d="M681 -26q-168 0 -294.5 82t-196.5 220.5t-70 307.5v816h244v-816q0 -100 37.5 -183.5t108 -133t171.5 -49.5q102 0 172 49.5t106.5 133t36.5 183.5v816h244v-816q0 -127 -40 -237.5t-114 -194.5t-176.5 -131t-228.5 -47z" />
    <glyph glyph-name="V" unicode="V" horiz-adv-x="1491" 
d="M589 0l-508 1400h259l405 -1115l406 1115h258l-508 -1400h-312z" />
    <glyph glyph-name="W" unicode="W" horiz-adv-x="1865" 
d="M439 0l-358 1400h252l244 -957l244 957h223l244 -957l243 957h252l-356 -1400h-277l-218 848l-215 -848h-278z" />
    <glyph glyph-name="X" unicode="X" horiz-adv-x="1447" 
d="M60 0l512 704l-506 696h301l356 -490l357 490h301l-506 -696l512 -704h-303l-361 496l-360 -496h-303z" />
    <glyph glyph-name="Y" unicode="Y" horiz-adv-x="1326" 
d="M978 1400h288l-481 -769v-631h-244v631l-481 769h288l315 -503z" />
    <glyph glyph-name="Z" unicode="Z" horiz-adv-x="1292" 
d="M80 0v244l803 912h-803v244h1132v-244l-803 -912h803v-244h-1132z" />
    <glyph glyph-name="bracketleft" unicode="[" horiz-adv-x="641" 
d="M541 132v-244h-421v1512h421v-244h-177v-1024h177z" />
    <glyph glyph-name="backslash" unicode="\" horiz-adv-x="808" 
d="M484 -112l-404 1512h244l404 -1512h-244z" />
    <glyph glyph-name="bracketright" unicode="]" horiz-adv-x="642" 
d="M100 -112v244h178v1024h-178v244h422v-1512h-422z" />
    <glyph glyph-name="asciicircum" unicode="^" horiz-adv-x="959" 
d="M80 1000l236 650h327l236 -650h-261l-139 384l-139 -384h-260z" />
    <glyph glyph-name="underscore" unicode="_" horiz-adv-x="1240" 
d="M120 132h1000v-244h-1000v244z" />
    <glyph glyph-name="grave" unicode="`" horiz-adv-x="1031" 
d="M292 1398h244l80 -288h-163z" />
    <glyph glyph-name="a" unicode="a" horiz-adv-x="1198" 
d="M874 1000h244v-1000h-244l-11 124q-41 -67 -108.5 -108.5t-159.5 -41.5q-111 0 -208 42t-170.5 116t-115 171t-41.5 208q0 107 39.5 201t110.5 165t164 111t200 40q99 0 177.5 -44t133.5 -112zM589 209q78 0 138 39t94 105.5t34 146.5q0 81 -34 147.5t-94.5 105.5
t-137.5 39t-140.5 -39.5t-101 -105.5t-37.5 -147t38 -147t101.5 -105t139.5 -39z" />
    <glyph glyph-name="b" unicode="b" horiz-adv-x="1240" 
d="M652 1028q146 0 266 -71t191 -190.5t71 -264.5q0 -109 -41 -205t-113.5 -168.5t-168 -113.5t-205.5 -41q-94 0 -166.5 42.5t-121.5 110.5v-127h-244v1500h244v-625q49 68 121.5 110.5t166.5 42.5zM649 210q78 0 141.5 39.5t101.5 105.5t38 147q0 80 -38 146.5t-102 105.5
t-141 39q-76 0 -136 -39.5t-94 -106t-34 -145.5q0 -81 34 -147.5t94 -105.5t136 -39z" />
    <glyph glyph-name="c" unicode="c" horiz-adv-x="1020" 
d="M740 301l220 -119q-69 -94 -173 -151t-227 -57q-138 0 -251.5 71t-181 190.5t-67.5 264.5q0 110 39 205.5t107.5 168t159.5 113.5t194 41q123 0 227 -57t173 -153l-220 -118q-35 40 -82.5 62t-97.5 22q-72 0 -130 -39.5t-92 -104t-34 -140.5q0 -75 34 -139.5t92 -103.5
t130 -39q52 0 99 22.5t81 60.5z" />
    <glyph glyph-name="d" unicode="d" horiz-adv-x="1240" 
d="M876 1500h244v-1500h-244v125q-48 -67 -121 -109t-169 -42q-109 0 -204 41t-167.5 113.5t-113.5 167.5t-41 204t41 204t113.5 167.5t167.5 113.5t204 41q96 0 169 -41.5t121 -109.5v625zM589 209q78 0 138 39t94 105.5t34 146.5q0 81 -34 147.5t-94.5 105.5t-137.5 39
t-140.5 -39.5t-101 -105.5t-37.5 -147t38 -147t101.5 -105t139.5 -39z" />
    <glyph glyph-name="e" unicode="e" horiz-adv-x="1119" 
d="M560 -26q-138 0 -251.5 71t-181 191t-67.5 265q0 109 39 204.5t107.5 168t159.5 113.5t194 41q117 0 214.5 -49.5t165.5 -135.5t99 -196t14 -230h-731q14 -56 46 -100.5t81 -71t111 -27.5q64 -1 116.5 30.5t87.5 85.5l249 -58q-61 -133 -182 -217.5t-271 -84.5zM314 600
h492q-11 60 -46.5 108.5t-87.5 77.5t-112 29t-111 -28.5t-86.5 -77t-48.5 -109.5z" />
    <glyph glyph-name="f" unicode="f" horiz-adv-x="729" 
d="M403 1210v-210h273v-244h-273v-756h-244v756h-109v244h109v210q0 86 42.5 157.5t114.5 114t159 42.5q63 0 125 -26t110 -80l-176 -172q-9 17 -25.5 25.5t-33.5 8.5q-29 0 -50.5 -20.5t-21.5 -49.5z" />
    <glyph glyph-name="g" unicode="g" horiz-adv-x="1226" 
d="M862 1000h244v-1019q0 -108 -44 -196.5t-120 -152t-174 -98t-206 -34.5q-105 0 -202 43t-171.5 117.5t-113.5 169.5l223 101q20 -55 60.5 -96.5t93.5 -65t110 -23.5q58 0 111.5 16t96.5 46.5t67.5 74t24.5 98.5v141q-47 -66 -118 -107t-164 -41q-108 0 -202 41
t-165.5 113.5t-112 167.5t-40.5 204t40.5 204t112 167.5t165.5 113.5t202 41q93 0 164 -40.5t118 -106.5v121zM583 209q77 0 136.5 39.5t93.5 106t34 145.5q0 80 -34.5 146t-94 106t-135.5 40q-75 0 -137 -39.5t-99 -105.5t-37 -147t37 -147t99 -105t137 -39z" />
    <glyph glyph-name="h" unicode="h" horiz-adv-x="1116" 
d="M1036 632v-632h-244v568q0 59 -29 107.5t-77.5 77t-107.5 28.5t-107.5 -28.5t-77 -77t-28.5 -107.5v-568h-244l-1 1500h244l1 -589q51 54 122 85.5t153 31.5q109 0 199 -53.5t143.5 -143t53.5 -199.5z" />
    <glyph glyph-name="i" unicode="i" 
d="M120 1000h244v-1000h-244v1000zM244 1129q-54 0 -91 35.5t-37 89.5q0 53 37 89t90 36t89.5 -36t36.5 -89q0 -54 -36 -89.5t-89 -35.5z" />
    <glyph glyph-name="j" unicode="j" horiz-adv-x="487" 
d="M-80 -500v244q57 0 103 26.5t73 72t27 101.5v1056h244v-1056q0 -122 -59.5 -223t-161 -161t-226.5 -60zM247 1129q-54 0 -91 35.5t-37 89.5q0 53 37 89t90 36t89.5 -36t36.5 -89q0 -54 -36 -89.5t-89 -35.5z" />
    <glyph glyph-name="k" unicode="k" horiz-adv-x="1070" 
d="M1013 0h-281l-228 393l-140 -167v-226h-244v1500h244v-895l331 395h319l-343 -409z" />
    <glyph glyph-name="l" unicode="l" 
d="M120 0v1500h244v-1500h-244z" />
    <glyph glyph-name="m" unicode="m" horiz-adv-x="1777" 
d="M120 0v1000h244v-89q51 54 122 85.5t153 31.5q104 0 191.5 -49t139.5 -131q53 82 140 131t191 49q110 0 199.5 -53.5t143 -143t53.5 -199.5v-632h-244v567q0 58 -28.5 106.5t-76 78t-106.5 29.5t-106.5 -28.5t-76.5 -76.5t-29 -109v-567h-244v567q0 61 -28 109t-76 76.5
t-107 28.5q-58 0 -106 -29.5t-76.5 -78t-28.5 -106.5v-567h-244z" />
    <glyph glyph-name="n" unicode="n" horiz-adv-x="1116" 
d="M1036 632v-632h-244v568q0 59 -29 107.5t-77.5 77t-107.5 28.5t-107.5 -28.5t-77 -77t-28.5 -107.5v-568h-244l-1 1000h244l1 -89q51 54 122 85.5t153 31.5q109 0 199 -53.5t143.5 -143t53.5 -199.5z" />
    <glyph glyph-name="o" unicode="o" horiz-adv-x="1120" 
d="M560 -26q-138 0 -251.5 71t-181 190.5t-67.5 264.5q0 110 39 205.5t107.5 168t159.5 113.5t194 41q138 0 251.5 -71t181 -191t67.5 -266q0 -109 -39 -204t-107.5 -167.5t-159 -113.5t-194.5 -41zM560 218q73 0 131 39t91.5 103t33.5 140q0 78 -34.5 142.5t-93 103
t-128.5 38.5q-72 0 -130 -39t-92 -104t-34 -141q0 -79 35 -143t93.5 -101.5t127.5 -37.5z" />
    <glyph glyph-name="p" unicode="p" horiz-adv-x="1238" 
d="M364 -500h-244v1500h244v-127q49 68 120.5 110.5t167.5 42.5q110 0 205 -41t167.5 -113.5t113 -167.5t40.5 -204t-40.5 -205t-113 -168.5t-167.5 -113.5t-205 -41q-96 0 -167.5 42.5t-120.5 110.5v-625zM649 791q-76 0 -136 -39.5t-94 -105.5t-34 -146t34 -146.5t94 -106
t136 -39.5q77 0 141 39t102 105.5t38 147.5q0 80 -38 146t-101.5 105.5t-141.5 39.5z" />
    <glyph glyph-name="q" unicode="q" horiz-adv-x="1238" 
d="M586 -28q-145 0 -264.5 71t-190.5 191t-71 266q0 109 41 204t113.5 167.5t167.5 113.5t204 41q96 0 168 -42.5t120 -110.5v127h244v-1500h-244v625q-48 -68 -120 -110.5t-168 -42.5zM589 791q-77 0 -140.5 -39.5t-101 -105.5t-37.5 -146q0 -81 37.5 -147.5t101 -105.5
t140.5 -39q78 0 137.5 39.5t93.5 106t34 146.5t-34 146t-94 105.5t-137 39.5z" />
    <glyph glyph-name="r" unicode="r" horiz-adv-x="770" 
d="M121 0l-1 1000h244l1 -89q51 54 122 85.5t153 31.5q55 0 110 -16l-96 -246q-38 15 -76 15q-59 0 -107.5 -28.5t-77 -77t-28.5 -107.5v-568h-244z" />
    <glyph glyph-name="s" unicode="s" horiz-adv-x="869" 
d="M415 -18q-78 5 -150.5 31.5t-128.5 72.5t-86 110l206 88q12 -20 39 -42.5t64.5 -37.5t82.5 -15q38 0 72.5 10.5t56 32.5t21.5 57q0 37 -25.5 57.5t-64 31t-74.5 19.5q-95 19 -176.5 59t-131 103.5t-49.5 153.5q0 99 52.5 171t137 111t182.5 39q119 0 218.5 -49.5
t157.5 -139.5l-193 -114q-14 24 -39 44.5t-57 34t-67 15.5q-45 2 -82 -8t-59.5 -34t-22.5 -64q0 -38 30 -56.5t72.5 -28.5t81.5 -22q88 -29 165.5 -71t124.5 -103t45 -146q0 -97 -58 -169.5t-149.5 -110.5t-195.5 -30z" />
    <glyph glyph-name="t" unicode="t" horiz-adv-x="716" 
d="M656 756h-194v-756h-244v756h-148v244h148v314h244v-314h194v-244z" />
    <glyph glyph-name="u" unicode="u" horiz-adv-x="1076" 
d="M80 370v630h244v-566q0 -59 29 -107.5t77.5 -77t106.5 -28.5q60 0 108 28.5t77 77t29 107.5v566h244l1 -1000h-244l-1 91q-52 -54 -123 -85.5t-152 -31.5q-109 0 -199 53.5t-143.5 143t-53.5 199.5z" />
    <glyph glyph-name="v" unicode="v" horiz-adv-x="1163" 
d="M739 0h-315l-364 1001h260l262 -720l261 720h260z" />
    <glyph glyph-name="w" unicode="w" horiz-adv-x="1705" 
d="M636 0h-242l-334 1000h239l217 -647l216 647h241l216 -647l217 647h239l-334 -1000h-242l-217 650z" />
    <glyph glyph-name="x" unicode="x" horiz-adv-x="1193" 
d="M80 0l366 502l-363 499h301l212 -291l213 291h301l-363 -499l366 -502h-301l-216 296l-215 -296h-301z" />
    <glyph glyph-name="y" unicode="y" horiz-adv-x="1145" 
d="M806 1000h259l-547 -1500h-259l181 500l-360 1000h267l215 -666z" />
    <glyph glyph-name="z" unicode="z" horiz-adv-x="1014" 
d="M934 756l-503 -512h503v-244h-854v244l503 512h-503v244h854v-244z" />
    <glyph glyph-name="braceleft" unicode="{" horiz-adv-x="821" 
d="M613 -112q-97 0 -176.5 47t-126.5 126.5t-47 176.5v244q-1 27 -22.5 44.5t-50 32t-49.5 34.5t-21 51q0 30 21 50t49.5 35.5t50 33t22.5 41.5v246q0 96 47 175.5t126.5 127t176.5 47.5h108v-244h-108q-29 0 -53 -14t-38.5 -38.5t-14.5 -53.5v-254q-2 -34 -20.5 -57.5
t-40.5 -45t-35 -49.5q14 -31 35.5 -52t40 -43.5t20.5 -56.5v-254q0 -30 14 -54t38 -38t54 -14h108v-244h-108z" />
    <glyph glyph-name="bar" unicode="|" horiz-adv-x="524" 
d="M140 1400h244v-1702h-244v1702z" />
    <glyph glyph-name="braceright" unicode="}" horiz-adv-x="821" 
d="M100 -112v244h108q29 0 53 14t38.5 38t14.5 54v254q2 34 20 56.5t40 43.5t35 52q-13 28 -34.5 49.5t-40 45t-20.5 57.5v254q0 29 -14.5 53.5t-38.5 38.5t-53 14h-108v244h108q97 0 176.5 -47.5t126.5 -127t47 -175.5v-246q1 -24 22 -41.5t49.5 -33t50 -35.5t21.5 -50
q0 -31 -21.5 -51t-50 -34.5t-49.5 -32t-22 -44.5v-244q0 -97 -47 -176.5t-126.5 -126.5t-176.5 -47h-108z" />
    <glyph glyph-name="asciitilde" unicode="~" horiz-adv-x="1305" 
d="M961 398q-65 0 -140.5 26.5t-151.5 61t-144 61t-120 26.5q-32 0 -51.5 -16.5t-27 -43.5t-4.5 -56l-238 3q-14 89 23 167t109.5 126.5t164.5 48.5q65 0 133 -27t135.5 -63.5t130.5 -63.5t116 -27q32 0 52 16t28.5 43t4.5 58l240 -2q14 -89 -14 -166t-91.5 -124.5
t-154.5 -47.5z" />
    <glyph glyph-name="uni00A0" unicode="&#xa0;" horiz-adv-x="480" 
 />
    <glyph glyph-name="exclamdown" unicode="&#xa1;" horiz-adv-x="440" 
d="M204 1026q53 0 89 -36.5t36 -90.5q0 -51 -36 -87.5t-89 -36.5q-51 0 -87.5 36.5t-36.5 87.5q0 54 36.5 90.5t87.5 36.5zM307 580v-980h-205v980h205z" />
    <glyph glyph-name="cent" unicode="&#xa2;" horiz-adv-x="1092" 
d="M497 0v206q-117 21 -212 91t-150 175.5t-55 229.5t55 229t150 175t212 90v204h168v-204q110 -17 200.5 -79.5t146.5 -154.5l-211 -122q-36 55 -95 87.5t-124 32.5q-70 0 -129 -35t-94 -93.5t-35 -129.5q0 -72 35.5 -131t94 -94t128.5 -35q65 0 124 32.5t95 87.5l211 -122
q-56 -91 -146.5 -153.5t-200.5 -80.5v-206h-168z" />
    <glyph glyph-name="sterling" unicode="&#xa3;" horiz-adv-x="1195" 
d="M104 0v244q51 0 104 13t94.5 37.5t59 59.5t-1.5 78q-10 38 -35 72.5t-57 69t-65 71t-61 77t-45 87t-17 100.5q0 107 40.5 200t112 164.5t164.5 112t200 40.5t201 -40.5t165.5 -111.5t111.5 -164.5t40 -200.5h-244q0 75 -37 137t-99.5 99t-137.5 37t-137 -37t-99 -99
t-37 -137q0 -62 21 -108t54 -84t70.5 -73.5t70.5 -75.5t54 -90.5t21 -119.5q0 -24 -8 -46.5t-19 -40.5t-23 -27h530v-244h-991zM104 446v167h770v-167h-770z" />
    <glyph glyph-name="currency" unicode="&#xa4;" horiz-adv-x="1027" 
d="M199 267l-119 118l129 130q-35 56 -46.5 120.5t0.5 128.5t48 121l-131 132l119 116l130 -129q55 35 119.5 46.5t130 0.5t121.5 -45l130 127l117 -116l-128 -129q37 -57 49.5 -122.5t0.5 -131t-48 -123.5l126 -126l-117 -118l-127 125q-58 -35 -123.5 -47t-130 0
t-123.5 49zM516 506q53 1 96.5 26.5t69 69t25.5 97.5q0 56 -26.5 98.5t-70 67t-94.5 25.5q-56 0 -99 -27t-68 -70.5t-25 -93.5q0 -54 26 -98t70 -70t96 -25z" />
    <glyph glyph-name="yen" unicode="&#xa5;" horiz-adv-x="1335" 
d="M546 0v148h-242v167h242v99h-242v167h242v50l-481 769h287l316 -503l315 503h287l-480 -769v-50h242v-167h-242v-99h242v-167h-242v-148h-244z" />
    <glyph glyph-name="brokenbar" unicode="&#xa6;" 
d="M120 448h244v-750h-244v750zM120 1400h244v-750h-244v750z" />
    <glyph glyph-name="section" unicode="&#xa7;" horiz-adv-x="1102" 
d="M543 -372q-119 0 -218.5 50t-157.5 139l193 114q14 -24 39 -44.5t57.5 -34t66.5 -15.5q45 -3 82 7.5t59.5 35t22.5 63.5t-29.5 59.5t-72 31t-82.5 17.5q-110 15 -196.5 80t-136.5 162t-50 207q0 73 23 140.5t65 122t98 91.5q-58 33 -88.5 82t-30.5 115q0 99 52.5 171
t137 111t182.5 39q119 0 218.5 -49.5t157.5 -139.5l-193 -114q-14 24 -39 44.5t-57 34t-67 15.5q-45 3 -82 -7.5t-59.5 -35t-22.5 -63.5q0 -38 28 -57.5t69 -30t82 -18.5q115 -22 202.5 -83.5t136.5 -155t49 -212.5q0 -74 -23.5 -141t-65.5 -121t-99 -91q60 -33 90.5 -82
t30.5 -116q0 -99 -52 -171t-137 -111t-183 -39zM562 268q55 0 102 33t75 85.5t28 111.5q0 70 -30 123t-83 82t-120 29q-51 0 -97 -34t-74 -87t-28 -111q0 -65 29.5 -117.5t80.5 -83.5t117 -31z" />
    <glyph glyph-name="dieresis" unicode="&#xa8;" horiz-adv-x="1450" 
d="M528 1070q-54 0 -91 36t-37 89t37 89.5t91 36.5q52 0 88.5 -36.5t36.5 -89.5t-36.5 -89t-88.5 -36zM924 1070q-54 0 -91 36t-37 89t37 89.5t91 36.5q52 0 89 -36.5t37 -89.5t-37 -89t-89 -36z" />
    <glyph glyph-name="copyright" unicode="&#xa9;" horiz-adv-x="1906" 
d="M952 -319q-181 0 -339 68t-278 187.5t-187.5 278t-67.5 339.5t67.5 339t187.5 278t278 187.5t339 67.5t339.5 -67.5t279 -187t188 -278t67.5 -339.5t-67.5 -339.5t-188 -278t-279 -187.5t-339.5 -68zM952 -75q134 0 248.5 49.5t200 137t133.5 201t48 241.5q0 129 -49 243
t-135 200.5t-200.5 135.5t-245.5 49q-132 0 -246.5 -50t-200 -137t-133.5 -200t-48 -241q0 -133 50 -247.5t137 -200.5t200.5 -133.5t240.5 -47.5zM1136 355l219 -119q-69 -94 -173 -151t-227 -57q-138 0 -251.5 71t-181 190.5t-67.5 264.5q0 110 39 205.5t107.5 168
t159.5 113.5t194 41q123 0 227 -57t173 -153l-219 -119q-36 41 -83.5 63t-97.5 22q-72 0 -130 -39.5t-92 -104.5t-34 -140t34.5 -139.5t92 -103.5t129.5 -39q52 0 99 22.5t82 60.5z" />
    <glyph glyph-name="ordfeminine" unicode="&#xaa;" horiz-adv-x="1198" 
d="M874 1000h244v-1000h-244l-11 124q-41 -67 -108.5 -108.5t-159.5 -41.5q-111 0 -208 42t-170.5 116t-115 171t-41.5 208q0 107 39.5 201t110.5 165t164 111t200 40q99 0 177.5 -44t133.5 -112zM589 209q78 0 138 39t94 105.5t34 146.5q0 81 -34 147.5t-94.5 105.5
t-137.5 39t-140.5 -39.5t-101 -105.5t-37.5 -147t38 -147t101.5 -105t139.5 -39z" />
    <glyph glyph-name="guillemotleft" unicode="&#xab;" horiz-adv-x="1176" 
d="M420 261l-300 340l300 338h249l-299 -338l299 -340h-249zM827 261l-300 340l300 338h249l-299 -338l299 -340h-249z" />
    <glyph glyph-name="logicalnot" unicode="&#xac;" horiz-adv-x="1023" 
d="M699 289v378h-619v244h863v-622h-244z" />
    <glyph glyph-name="uni00AD" unicode="&#xad;" horiz-adv-x="889" 
d="M129 722h640v-244h-640v244z" />
    <glyph glyph-name="registered" unicode="&#xae;" horiz-adv-x="1124" 
d="M561 399q-104 0 -194.5 39t-160 108.5t-108 160.5t-38.5 195q0 103 39 193.5t108 160t159.5 108.5t194.5 39q106 0 197.5 -40t160.5 -110t107 -160t38 -191q0 -105 -39.5 -196.5t-109 -160.5t-160 -107.5t-194.5 -38.5zM561 574q91 0 165.5 44t118.5 118.5t44 165.5
q0 90 -44 164t-118.5 118t-165.5 44q-90 0 -164 -44t-118 -118t-44 -164q0 -91 44 -165.5t118 -118.5t164 -44zM424 702v426h165q54 0 91.5 -39.5t37.5 -95.5q0 -39 -19 -70.5t-51 -47.5l101 -173h-113l-93 157h-21v-157h-98zM522 957h67q13 0 22 11t9 25q0 16 -9 26t-22 10
h-67v-72z" />
    <glyph glyph-name="macron" unicode="&#xaf;" horiz-adv-x="1200" 
d="M262 1327h676v-183h-676v183z" />
    <glyph glyph-name="degree" unicode="&#xb0;" horiz-adv-x="914" 
d="M458 704q-107 0 -192.5 52.5t-135.5 138t-50 185.5q0 102 50.5 187.5t136 137t191.5 51.5q107 0 192 -52.5t134.5 -138t49.5 -185.5q0 -107 -52 -192t-137.5 -134.5t-186.5 -49.5zM458 948q54 0 93 38.5t39 93.5q0 56 -39 94t-93 38q-55 0 -94.5 -38t-39.5 -94
q0 -55 39.5 -93.5t94.5 -38.5z" />
    <glyph glyph-name="plusminus" unicode="&#xb1;" horiz-adv-x="1160" 
d="M458 377v378h-378v244h378v378h244v-378h378v-244h-378v-378h-244zM80 0v244h1000v-244h-1000z" />
    <glyph glyph-name="uni00B2" unicode="&#xb2;" horiz-adv-x="714" 
d="M96 818v129q42 29 90 60t95 66.5t84.5 77t58.5 91.5q0 38 -26 64t-64 26t-65 -26t-27 -64h-146q0 66 32 117t86.5 80t119.5 29q98 0 167 -64t69 -162q0 -41 -19 -78t-50 -72t-68 -67t-73 -61h201v-146h-465z" />
    <glyph glyph-name="uni00B3" unicode="&#xb3;" horiz-adv-x="577" 
d="M289 798q-88 0 -152.5 58.5t-64.5 147.5h146q0 -30 20.5 -50t50.5 -20q29 0 49.5 20t20.5 50q0 36 -30.5 65.5t-91.5 29.5v97q60 0 82.5 25.5t22.5 55.5q0 23 -17 38.5t-41 15.5q-22 0 -39 -15.5t-17 -38.5h-146q0 83 59.5 137t142.5 54q85 0 144 -54t59 -137
q0 -36 -11.5 -69t-32.5 -57q31 -29 46.5 -66t15.5 -81q0 -89 -64 -147.5t-152 -58.5z" />
    <glyph glyph-name="acute" unicode="&#xb4;" horiz-adv-x="1031" 
d="M415 1110l80 288h244l-162 -288h-162z" />
    <glyph glyph-name="uni00B5" unicode="&#xb5;" horiz-adv-x="1134" 
d="M80 -432v1432h244v-511q0 -77 32 -141t89 -101.5t130 -37.5t125.5 37.5t81 101.5t28.5 141v511h244v-1000h-244v119q-49 -66 -118.5 -106.5t-157.5 -40.5q-62 0 -115 21.5t-95 55.5v-481h-244z" />
    <glyph glyph-name="paragraph" unicode="&#xb6;" horiz-adv-x="1058" 
d="M420 -302v1020q-94 0 -171 46t-123 123.5t-46 172.5q0 94 46 171t123 123t171 46h244v-1702h-244zM734 -302v1702h244v-1702h-244z" />
    <glyph glyph-name="periodcentered" unicode="&#xb7;" horiz-adv-x="411" 
d="M205 474q-52 0 -88.5 36.5t-36.5 89.5q0 52 36.5 89t88.5 37t89 -37t37 -89q0 -53 -37 -89.5t-89 -36.5z" />
    <glyph glyph-name="cedilla" unicode="&#xb8;" horiz-adv-x="1278" 
d="M620 -376q-71 -19 -135 18t-83 108l124 33q5 -19 23 -29t38 -5t30.5 22.5t4.5 38.5q-5 20 -22 28.5t-39 6.5l-128 -5l141 248l112 -66l-38 -65q36 -14 62.5 -44t36.5 -71q19 -71 -18 -135t-109 -83z" />
    <glyph glyph-name="uni00B9" unicode="&#xb9;" horiz-adv-x="451" 
d="M161 818v485h-65l21 146h190v-631h-146z" />
    <glyph glyph-name="ordmasculine" unicode="&#xba;" horiz-adv-x="1120" 
d="M560 -26q-138 0 -251.5 71t-181 190.5t-67.5 264.5q0 110 39 205.5t107.5 168t159.5 113.5t194 41q138 0 251.5 -71t181 -191t67.5 -266q0 -109 -39 -204t-107.5 -167.5t-159 -113.5t-194.5 -41zM560 218q73 0 131 39t91.5 103t33.5 140q0 78 -34.5 142.5t-93 103
t-128.5 38.5q-72 0 -130 -39t-92 -104t-34 -141q0 -79 35 -143t93.5 -101.5t127.5 -37.5z" />
    <glyph glyph-name="guillemotright" unicode="&#xbb;" horiz-adv-x="1196" 
d="M507 261l298 340l-298 338h249l300 -338l-300 -340h-249zM100 261l298 340l-298 338h249l300 -338l-300 -340h-249z" />
    <glyph glyph-name="onequarter" unicode="&#xbc;" horiz-adv-x="1592" 
d="M161 818v485h-65l21 146h190v-631h-146zM171 0l808 1400h202l-808 -1400h-202zM1243 0v98h-246v176l227 357h165v-387h59v-146h-59v-98h-146zM1140 244h116v185z" />
    <glyph glyph-name="onehalf" unicode="&#xbd;" horiz-adv-x="1615" 
d="M161 818v485h-65l21 146h190v-631h-146zM171 0l808 1400h202l-808 -1400h-202zM997 0v129q42 29 90 60.5t95 67t84.5 77t58.5 91.5q0 38 -26 63.5t-64 25.5t-65 -25.5t-27 -63.5h-146q0 65 32 118t86.5 84.5t119.5 31.5q66 0 119 -31.5t85 -84.5t32 -118q0 -41 -19 -78.5
t-50 -72.5t-68 -67t-73 -61h201v-146h-465z" />
    <glyph glyph-name="threequarters" unicode="&#xbe;" horiz-adv-x="1718" 
d="M289 798q-88 0 -152.5 58.5t-64.5 147.5h146q0 -30 20.5 -50t50.5 -20q29 0 49.5 20t20.5 50q0 36 -30.5 65.5t-91.5 29.5v97q60 0 82.5 25.5t22.5 55.5q0 23 -17 38.5t-41 15.5q-22 0 -39 -15.5t-17 -38.5h-146q0 83 59.5 137t142.5 54q85 0 144 -54t59 -137
q0 -36 -11.5 -69t-32.5 -57q31 -29 46.5 -66t15.5 -81q0 -89 -64 -147.5t-152 -58.5zM297 0l808 1400h202l-808 -1400h-202zM1369 0v98h-246v176l227 357h165v-387h59v-146h-59v-98h-146zM1266 244h116v185z" />
    <glyph glyph-name="questiondown" unicode="&#xbf;" horiz-adv-x="1099" 
d="M534 -426q-125 0 -228 61t-164.5 164t-61.5 227q0 129 62.5 237.5t170.5 165.5q40 21 62.5 59t22.5 84h244q0 -113 -56.5 -208t-157.5 -150q-48 -26 -76 -76.5t-28 -111.5q0 -58 28.5 -105t76 -75t105.5 -28t105.5 28t76 75t28.5 105h244q0 -124 -61 -227t-164.5 -164
t-228.5 -61zM511 775q-52 0 -88 36.5t-36 87.5q0 54 36 90.5t88 36.5q53 0 89 -36.5t36 -90.5q0 -51 -36 -87.5t-89 -36.5z" />
    <glyph glyph-name="Agrave" unicode="&#xc0;" horiz-adv-x="1458" 
d="M588 1400h281l509 -1400h-259l-90 248h-600l-90 -248h-259zM518 492h421l-211 577zM467 1798h244l80 -288h-163z" />
    <glyph glyph-name="Aacute" unicode="&#xc1;" horiz-adv-x="1458" 
d="M588 1400h281l509 -1400h-259l-90 248h-600l-90 -248h-259zM518 492h421l-211 577zM665 1510l80 288h244l-162 -288h-162z" />
    <glyph glyph-name="Acircumflex" unicode="&#xc2;" horiz-adv-x="1458" 
d="M588 1400h281l509 -1400h-259l-90 248h-600l-90 -248h-259zM518 492h421l-211 577zM865 1798l194 -288h-163l-168 193l-165 -193h-163l191 288h274z" />
    <glyph glyph-name="Atilde" unicode="&#xc3;" horiz-adv-x="1458" 
d="M588 1400h281l509 -1400h-259l-90 248h-600l-90 -248h-259zM518 492h421l-211 577zM884 1505q-37 0 -87.5 26t-101 58t-88 51.5t-50.5 5.5q-13 -13 -16 -33.5t7 -53.5l-143 -39q-27 78 -13.5 142t60 102.5t120.5 38.5q37 0 84.5 -21.5t95.5 -50t85 -50t53 -21.5
q20 0 26 14t3 34t-10 38l145 47q27 -82 11.5 -147t-63 -103t-118.5 -38z" />
    <glyph glyph-name="Adieresis" unicode="&#xc4;" horiz-adv-x="1458" 
d="M588 1400h281l509 -1400h-259l-90 248h-600l-90 -248h-259zM518 492h421l-211 577zM532 1470q-54 0 -91 36t-37 89t37 89.5t91 36.5q52 0 88.5 -36.5t36.5 -89.5t-36.5 -89t-88.5 -36zM928 1470q-54 0 -91 36t-37 89t37 89.5t91 36.5q52 0 89 -36.5t37 -89.5t-37 -89
t-89 -36z" />
    <glyph glyph-name="Aring" unicode="&#xc5;" horiz-adv-x="1458" 
d="M588 1400h281l509 -1400h-259l-90 248h-600l-90 -248h-259zM518 492h421l-211 577zM729 1468q-77 0 -131.5 56t-54.5 132q0 50 25 92t67.5 67t93.5 25q76 0 130.5 -54.5t54.5 -129.5q0 -78 -54.5 -133t-130.5 -55zM729 1587q27 0 47 20t20 48q0 27 -20 46.5t-47 19.5
q-28 0 -47.5 -19.5t-19.5 -45.5q0 -29 19.5 -49t47.5 -20z" />
    <glyph glyph-name="AE" unicode="&#xc6;" horiz-adv-x="1678" 
d="M80 0l508 1400h990v-244h-494v-334h398v-244h-398v-334h494v-244h-738v248h-411l-90 -248h-259zM518 492h322v664h-80z" />
    <glyph glyph-name="Ccedilla" unicode="&#xc7;" horiz-adv-x="1418" 
d="M768 -26q-142 0 -267 56.5t-219.5 156.5t-148 231.5t-53.5 281.5q0 151 53.5 282.5t148 231t219.5 156t267 56.5q170 0 313 -78.5t237 -209.5l-218 -117q-59 73 -146.5 117t-185.5 44q-92 0 -173 -37.5t-142 -104t-95 -154t-34 -186.5q0 -100 34.5 -187t95.5 -153.5
t141.5 -104t172.5 -37.5q100 0 186.5 44.5t145.5 117.5l218 -118q-94 -130 -237 -209t-313 -79zM775 -376q-71 -19 -135 18t-83 108l124 33q5 -19 23 -29t38 -5t30.5 22.5t4.5 38.5q-5 20 -22 28.5t-39 6.5l-128 -5l141 248l112 -66l-38 -65q36 -14 62.5 -44t36.5 -71
q19 -71 -18 -135t-109 -83z" />
    <glyph glyph-name="Egrave" unicode="&#xc8;" horiz-adv-x="1098" 
d="M120 0v1400h878v-244h-634v-284h503v-244h-503v-384h634v-244h-878zM288 1798h244l80 -288h-163z" />
    <glyph glyph-name="Eacute" unicode="&#xc9;" horiz-adv-x="1098" 
d="M120 0v1400h878v-244h-634v-284h503v-244h-503v-384h634v-244h-878zM486 1510l80 288h244l-162 -288h-162z" />
    <glyph glyph-name="Ecircumflex" unicode="&#xca;" horiz-adv-x="1098" 
d="M120 0v1400h878v-244h-634v-284h503v-244h-503v-384h634v-244h-878zM686 1798l194 -288h-163l-168 193l-165 -193h-163l191 288h274z" />
    <glyph glyph-name="Edieresis" unicode="&#xcb;" horiz-adv-x="1098" 
d="M120 0v1400h878v-244h-634v-284h503v-244h-503v-384h634v-244h-878zM352 1470q-54 0 -91 36t-37 89t37 89.5t91 36.5q52 0 88.5 -36.5t36.5 -89.5t-36.5 -89t-88.5 -36zM748 1470q-54 0 -91 36t-37 89t37 89.5t91 36.5q52 0 89 -36.5t37 -89.5t-37 -89t-89 -36z" />
    <glyph glyph-name="Igrave" unicode="&#xcc;" horiz-adv-x="544" 
d="M150 0v1400h244v-1400h-244zM11 1798h244l80 -288h-163z" />
    <glyph glyph-name="Iacute" unicode="&#xcd;" horiz-adv-x="544" 
d="M150 0v1400h244v-1400h-244zM209 1510l80 288h244l-162 -288h-162z" />
    <glyph glyph-name="Icircumflex" unicode="&#xce;" horiz-adv-x="544" 
d="M150 0v1400h244v-1400h-244zM409 1798l194 -288h-163l-168 193l-165 -193h-163l191 288h274z" />
    <glyph glyph-name="Idieresis" unicode="&#xcf;" horiz-adv-x="544" 
d="M150 0v1400h244v-1400h-244zM75 1470q-54 0 -91 36t-37 89t37 89.5t91 36.5q52 0 88.5 -36.5t36.5 -89.5t-36.5 -89t-88.5 -36zM471 1470q-54 0 -91 36t-37 89t37 89.5t91 36.5q52 0 89 -36.5t37 -89.5t-37 -89t-89 -36z" />
    <glyph glyph-name="Eth" unicode="&#xd0;" horiz-adv-x="1460" 
d="M237 0v628h-137v244h137v528h463q145 0 271.5 -54.5t223 -151t151 -223t54.5 -271.5t-54.5 -271.5t-151 -223t-223 -151t-271.5 -54.5h-463zM481 244h219q95 0 177 35.5t145 99t98.5 146t35.5 175.5q0 95 -36 177.5t-99 145.5t-145.5 98t-175.5 35h-219v-284h276v-244
h-276v-384z" />
    <glyph glyph-name="Ntilde" unicode="&#xd1;" horiz-adv-x="1339" 
d="M120 0v1400h264l591 -959v959h244v-1400h-263l-592 959v-959h-244zM825 1505q-37 0 -87.5 26t-101 58t-88 51.5t-50.5 5.5q-13 -13 -16 -33.5t7 -53.5l-143 -39q-27 78 -13.5 142t60 102.5t120.5 38.5q37 0 84.5 -21.5t95.5 -50t85 -50t53 -21.5q20 0 26 14t3 34t-10 38
l145 47q27 -82 11.5 -147t-63 -103t-118.5 -38z" />
    <glyph glyph-name="Ograve" unicode="&#xd2;" horiz-adv-x="1540" 
d="M770 -26q-142 0 -267 56.5t-220 156.5t-149 231.5t-54 281.5t54 281.5t149 231.5t220 156.5t267 56.5q143 0 268 -56.5t220 -156.5t148.5 -231.5t53.5 -281.5t-53.5 -281.5t-148.5 -231.5t-220 -156.5t-268 -56.5zM770 218q92 0 173 38t142.5 104.5t96 153.5t34.5 186
t-35 186.5t-96.5 153.5t-142 104t-172.5 38t-173 -38t-142.5 -104.5t-96 -153.5t-34.5 -186q0 -100 35 -187t96.5 -153.5t142 -104t172.5 -37.5zM509 1798h244l80 -288h-163z" />
    <glyph glyph-name="Oacute" unicode="&#xd3;" horiz-adv-x="1540" 
d="M770 -26q-142 0 -267 56.5t-220 156.5t-149 231.5t-54 281.5t54 281.5t149 231.5t220 156.5t267 56.5q143 0 268 -56.5t220 -156.5t148.5 -231.5t53.5 -281.5t-53.5 -281.5t-148.5 -231.5t-220 -156.5t-268 -56.5zM770 218q92 0 173 38t142.5 104.5t96 153.5t34.5 186
t-35 186.5t-96.5 153.5t-142 104t-172.5 38t-173 -38t-142.5 -104.5t-96 -153.5t-34.5 -186q0 -100 35 -187t96.5 -153.5t142 -104t172.5 -37.5zM707 1510l80 288h244l-162 -288h-162z" />
    <glyph glyph-name="Ocircumflex" unicode="&#xd4;" horiz-adv-x="1540" 
d="M770 -26q-142 0 -267 56.5t-220 156.5t-149 231.5t-54 281.5t54 281.5t149 231.5t220 156.5t267 56.5q143 0 268 -56.5t220 -156.5t148.5 -231.5t53.5 -281.5t-53.5 -281.5t-148.5 -231.5t-220 -156.5t-268 -56.5zM770 218q92 0 173 38t142.5 104.5t96 153.5t34.5 186
t-35 186.5t-96.5 153.5t-142 104t-172.5 38t-173 -38t-142.5 -104.5t-96 -153.5t-34.5 -186q0 -100 35 -187t96.5 -153.5t142 -104t172.5 -37.5zM907 1798l194 -288h-163l-168 193l-165 -193h-163l191 288h274z" />
    <glyph glyph-name="Otilde" unicode="&#xd5;" horiz-adv-x="1540" 
d="M770 -26q-142 0 -267 56.5t-220 156.5t-149 231.5t-54 281.5t54 281.5t149 231.5t220 156.5t267 56.5q143 0 268 -56.5t220 -156.5t148.5 -231.5t53.5 -281.5t-53.5 -281.5t-148.5 -231.5t-220 -156.5t-268 -56.5zM770 218q92 0 173 38t142.5 104.5t96 153.5t34.5 186
t-35 186.5t-96.5 153.5t-142 104t-172.5 38t-173 -38t-142.5 -104.5t-96 -153.5t-34.5 -186q0 -100 35 -187t96.5 -153.5t142 -104t172.5 -37.5zM925 1505q-37 0 -87.5 26t-101 58t-88 51.5t-50.5 5.5q-13 -13 -16 -33.5t7 -53.5l-143 -39q-27 78 -13.5 142t60 102.5
t120.5 38.5q37 0 84.5 -21.5t95.5 -50t85 -50t53 -21.5q20 0 26 14t3 34t-10 38l145 47q27 -82 11.5 -147t-63 -103t-118.5 -38z" />
    <glyph glyph-name="Odieresis" unicode="&#xd6;" horiz-adv-x="1540" 
d="M770 -26q-142 0 -267 56.5t-220 156.5t-149 231.5t-54 281.5t54 281.5t149 231.5t220 156.5t267 56.5q143 0 268 -56.5t220 -156.5t148.5 -231.5t53.5 -281.5t-53.5 -281.5t-148.5 -231.5t-220 -156.5t-268 -56.5zM770 218q92 0 173 38t142.5 104.5t96 153.5t34.5 186
t-35 186.5t-96.5 153.5t-142 104t-172.5 38t-173 -38t-142.5 -104.5t-96 -153.5t-34.5 -186q0 -100 35 -187t96.5 -153.5t142 -104t172.5 -37.5zM573 1470q-54 0 -91 36t-37 89t37 89.5t91 36.5q52 0 88.5 -36.5t36.5 -89.5t-36.5 -89t-88.5 -36zM969 1470q-54 0 -91 36
t-37 89t37 89.5t91 36.5q52 0 89 -36.5t37 -89.5t-37 -89t-89 -36z" />
    <glyph glyph-name="multiply" unicode="&#xd7;" horiz-adv-x="1039" 
d="M252 160l-172 172l266 268l-266 268l172 172l266 -268l268 268l173 -172l-268 -268l268 -268l-173 -172l-268 268z" />
    <glyph glyph-name="Oslash" unicode="&#xd8;" horiz-adv-x="1540" 
d="M446 -108l-212 122l82 143q-106 99 -171 240t-65 303q0 150 54 281.5t149 231.5t220 156.5t267 56.5q67 0 129.5 -13t120.5 -37l76 132l212 -122l-83 -142q108 -99 171.5 -240t63.5 -304q0 -150 -53.5 -281.5t-148.5 -231.5t-220 -156.5t-268 -56.5q-65 0 -127 13.5
t-121 38.5zM446 382l449 776q-28 12 -60 18t-65 6q-92 0 -173 -38t-142.5 -104.5t-96 -153.5t-34.5 -186q0 -93 33 -175t89 -143zM770 218q92 0 173 38t142.5 104.5t96 153.5t34.5 186q0 93 -32 175.5t-88 143.5l-449 -776q29 -12 60.5 -18.5t62.5 -6.5z" />
    <glyph glyph-name="Ugrave" unicode="&#xd9;" horiz-adv-x="1360" 
d="M681 -26q-168 0 -294.5 82t-196.5 220.5t-70 307.5v816h244v-816q0 -100 37.5 -183.5t108 -133t171.5 -49.5q102 0 172 49.5t106.5 133t36.5 183.5v816h244v-816q0 -127 -40 -237.5t-114 -194.5t-176.5 -131t-228.5 -47zM419 1798h244l80 -288h-163z" />
    <glyph glyph-name="Uacute" unicode="&#xda;" horiz-adv-x="1360" 
d="M681 -26q-168 0 -294.5 82t-196.5 220.5t-70 307.5v816h244v-816q0 -100 37.5 -183.5t108 -133t171.5 -49.5q102 0 172 49.5t106.5 133t36.5 183.5v816h244v-816q0 -127 -40 -237.5t-114 -194.5t-176.5 -131t-228.5 -47zM616 1510l80 288h244l-162 -288h-162z" />
    <glyph glyph-name="Ucircumflex" unicode="&#xdb;" horiz-adv-x="1360" 
d="M681 -26q-168 0 -294.5 82t-196.5 220.5t-70 307.5v816h244v-816q0 -100 37.5 -183.5t108 -133t171.5 -49.5q102 0 172 49.5t106.5 133t36.5 183.5v816h244v-816q0 -127 -40 -237.5t-114 -194.5t-176.5 -131t-228.5 -47zM816 1798l194 -288h-163l-168 193l-165 -193h-163
l191 288h274z" />
    <glyph glyph-name="Udieresis" unicode="&#xdc;" horiz-adv-x="1360" 
d="M681 -26q-168 0 -294.5 82t-196.5 220.5t-70 307.5v816h244v-816q0 -100 37.5 -183.5t108 -133t171.5 -49.5q102 0 172 49.5t106.5 133t36.5 183.5v816h244v-816q0 -127 -40 -237.5t-114 -194.5t-176.5 -131t-228.5 -47zM483 1470q-54 0 -91 36t-37 89t37 89.5t91 36.5
q52 0 88.5 -36.5t36.5 -89.5t-36.5 -89t-88.5 -36zM879 1470q-54 0 -91 36t-37 89t37 89.5t91 36.5q52 0 89 -36.5t37 -89.5t-37 -89t-89 -36z" />
    <glyph glyph-name="Yacute" unicode="&#xdd;" horiz-adv-x="1326" 
d="M978 1400h288l-481 -769v-631h-244v631l-481 769h288l315 -503zM599 1510l80 288h244l-162 -288h-162z" />
    <glyph glyph-name="Thorn" unicode="&#xde;" horiz-adv-x="1087" 
d="M120 0v1400h244v-279h256q114 0 206.5 -57t146.5 -152.5t54 -211.5q0 -117 -55.5 -212.5t-148.5 -152t-203 -56.5h-256v-279h-244zM364 523h230q52 0 95 26t68.5 69.5t25.5 98.5q0 54 -25.5 98t-68.5 70t-95 26h-230v-388z" />
    <glyph glyph-name="germandbls" unicode="&#xdf;" horiz-adv-x="1145" 
d="M120 0v899q0 104 38.5 194.5t107.5 159.5t160 108t195 39q110 0 200 -52t142.5 -142t52.5 -204q0 -49 -13.5 -103t-44.5 -99.5t-84 -71.5q65 -11 106 -45.5t64 -83t32 -102.5t9 -104q0 -113 -55 -201.5t-147.5 -140t-205.5 -51.5h-74l-35 209h85q59 0 107.5 27.5t77.5 73
t29 100.5q0 54 -29 98.5t-77.5 72t-107.5 29.5l-85 3v199l25 4q49 5 89.5 29.5t65 65t24.5 91.5q0 52 -24.5 94.5t-65 68t-89.5 25.5q-63 0 -115.5 -31t-83 -83t-30.5 -116v-960h-244z" />
    <glyph glyph-name="agrave" unicode="&#xe0;" horiz-adv-x="1198" 
d="M874 1000h244v-1000h-244l-11 124q-41 -67 -108.5 -108.5t-159.5 -41.5q-111 0 -208 42t-170.5 116t-115 171t-41.5 208q0 107 39.5 201t110.5 165t164 111t200 40q99 0 177.5 -44t133.5 -112zM589 209q78 0 138 39t94 105.5t34 146.5q0 81 -34 147.5t-94.5 105.5
t-137.5 39t-140.5 -39.5t-101 -105.5t-37.5 -147t38 -147t101.5 -105t139.5 -39zM352 1398h244l80 -288h-163z" />
    <glyph glyph-name="aacute" unicode="&#xe1;" horiz-adv-x="1198" 
d="M874 1000h244v-1000h-244l-11 124q-41 -67 -108.5 -108.5t-159.5 -41.5q-111 0 -208 42t-170.5 116t-115 171t-41.5 208q0 107 39.5 201t110.5 165t164 111t200 40q99 0 177.5 -44t133.5 -112zM589 209q78 0 138 39t94 105.5t34 146.5q0 81 -34 147.5t-94.5 105.5
t-137.5 39t-140.5 -39.5t-101 -105.5t-37.5 -147t38 -147t101.5 -105t139.5 -39zM550 1110l80 288h244l-162 -288h-162z" />
    <glyph glyph-name="acircumflex" unicode="&#xe2;" horiz-adv-x="1198" 
d="M874 1000h244v-1000h-244l-11 124q-41 -67 -108.5 -108.5t-159.5 -41.5q-111 0 -208 42t-170.5 116t-115 171t-41.5 208q0 107 39.5 201t110.5 165t164 111t200 40q99 0 177.5 -44t133.5 -112zM589 209q78 0 138 39t94 105.5t34 146.5q0 81 -34 147.5t-94.5 105.5
t-137.5 39t-140.5 -39.5t-101 -105.5t-37.5 -147t38 -147t101.5 -105t139.5 -39zM750 1398l194 -288h-163l-168 193l-165 -193h-163l191 288h274z" />
    <glyph glyph-name="atilde" unicode="&#xe3;" horiz-adv-x="1198" 
d="M874 1000h244v-1000h-244l-11 124q-41 -67 -108.5 -108.5t-159.5 -41.5q-111 0 -208 42t-170.5 116t-115 171t-41.5 208q0 107 39.5 201t110.5 165t164 111t200 40q99 0 177.5 -44t133.5 -112zM589 209q78 0 138 39t94 105.5t34 146.5q0 81 -34 147.5t-94.5 105.5
t-137.5 39t-140.5 -39.5t-101 -105.5t-37.5 -147t38 -147t101.5 -105t139.5 -39zM769 1105q-37 0 -87.5 26t-101 58t-88 51.5t-50.5 5.5q-13 -13 -16 -33.5t7 -53.5l-143 -39q-27 78 -13.5 142t60 102.5t120.5 38.5q37 0 84.5 -21.5t95.5 -50t85 -50t53 -21.5q20 0 26 14
t3 34t-10 38l145 47q27 -82 11.5 -147t-63 -103t-118.5 -38z" />
    <glyph glyph-name="adieresis" unicode="&#xe4;" horiz-adv-x="1198" 
d="M874 1000h244v-1000h-244l-11 124q-41 -67 -108.5 -108.5t-159.5 -41.5q-111 0 -208 42t-170.5 116t-115 171t-41.5 208q0 107 39.5 201t110.5 165t164 111t200 40q99 0 177.5 -44t133.5 -112zM589 209q78 0 138 39t94 105.5t34 146.5q0 81 -34 147.5t-94.5 105.5
t-137.5 39t-140.5 -39.5t-101 -105.5t-37.5 -147t38 -147t101.5 -105t139.5 -39zM417 1070q-54 0 -91 36t-37 89t37 89.5t91 36.5q52 0 88.5 -36.5t36.5 -89.5t-36.5 -89t-88.5 -36zM813 1070q-54 0 -91 36t-37 89t37 89.5t91 36.5q52 0 89 -36.5t37 -89.5t-37 -89t-89 -36z
" />
    <glyph glyph-name="aring" unicode="&#xe5;" horiz-adv-x="1198" 
d="M874 1000h244v-1000h-244l-11 124q-41 -67 -108.5 -108.5t-159.5 -41.5q-111 0 -208 42t-170.5 116t-115 171t-41.5 208q0 107 39.5 201t110.5 165t164 111t200 40q99 0 177.5 -44t133.5 -112zM589 209q78 0 138 39t94 105.5t34 146.5q0 81 -34 147.5t-94.5 105.5
t-137.5 39t-140.5 -39.5t-101 -105.5t-37.5 -147t38 -147t101.5 -105t139.5 -39zM614 1068q-77 0 -131.5 56t-54.5 132q0 50 25 92t67.5 67t93.5 25q76 0 130.5 -54.5t54.5 -129.5q0 -78 -54.5 -133t-130.5 -55zM614 1187q27 0 47 20t20 48q0 27 -20 46.5t-47 19.5
q-28 0 -47.5 -19.5t-19.5 -45.5q0 -29 19.5 -49t47.5 -20z" />
    <glyph glyph-name="ae" unicode="&#xe6;" horiz-adv-x="1729" 
d="M357 -26q-94 0 -168 42.5t-116.5 114t-42.5 156.5q0 83 42 154.5t115.5 115t167.5 43.5h306q-8 51 -35.5 93t-72 66.5t-103.5 24.5q-78 0 -143 -39l-135 204q63 40 133 59.5t142 19.5q108 0 202 -47t157 -131q43 54 100 94t124 62t140 22q118 0 215 -49.5t165 -135.5
t98.5 -196t13.5 -230h-730q13 -57 46 -101.5t82 -71t112 -26.5t115 31t87 85l249 -58q-61 -133 -182 -217.5t-271 -84.5q-81 0 -154.5 26.5t-134 74t-104.5 111.5q-37 -56 -101 -104.5t-146 -78t-173 -29.5zM357 188q76 0 137.5 33t101.5 86q39 47 64 110h-305
q-48 0 -80 -32.5t-32 -79.5q0 -45 31.5 -81t82.5 -36zM924 600h492q-12 60 -47.5 108.5t-87 77.5t-111.5 29t-111.5 -28.5t-86.5 -77t-48 -109.5z" />
    <glyph glyph-name="ccedilla" unicode="&#xe7;" horiz-adv-x="1019" 
d="M740 301l220 -119q-69 -94 -173 -151t-227 -57q-138 0 -251.5 71t-181 190.5t-67.5 264.5q0 110 39 205.5t107.5 168t159.5 113.5t194 41q123 0 227 -57t173 -153l-220 -118q-35 40 -82.5 62t-97.5 22q-72 0 -130 -39.5t-92 -104t-34 -140.5q0 -75 34 -139.5t92 -103.5
t130 -39q52 0 99 22.5t81 60.5zM567 -376q-71 -19 -135 18t-83 108l124 33q5 -19 23 -29t38 -5t30.5 22.5t4.5 38.5q-5 20 -22 28.5t-39 6.5l-128 -5l141 248l112 -66l-38 -65q36 -14 62.5 -44t36.5 -71q19 -71 -18 -135t-109 -83z" />
    <glyph glyph-name="egrave" unicode="&#xe8;" horiz-adv-x="1119" 
d="M560 -26q-138 0 -251.5 71t-181 191t-67.5 265q0 109 39 204.5t107.5 168t159.5 113.5t194 41q117 0 214.5 -49.5t165.5 -135.5t99 -196t14 -230h-731q14 -56 46 -100.5t81 -71t111 -27.5q64 -1 116.5 30.5t87.5 85.5l249 -58q-61 -133 -182 -217.5t-271 -84.5zM314 600
h492q-11 60 -46.5 108.5t-87.5 77.5t-112 29t-111 -28.5t-86.5 -77t-48.5 -109.5zM298 1398h244l80 -288h-163z" />
    <glyph glyph-name="eacute" unicode="&#xe9;" horiz-adv-x="1119" 
d="M560 -26q-138 0 -251.5 71t-181 191t-67.5 265q0 109 39 204.5t107.5 168t159.5 113.5t194 41q117 0 214.5 -49.5t165.5 -135.5t99 -196t14 -230h-731q14 -56 46 -100.5t81 -71t111 -27.5q64 -1 116.5 30.5t87.5 85.5l249 -58q-61 -133 -182 -217.5t-271 -84.5zM314 600
h492q-11 60 -46.5 108.5t-87.5 77.5t-112 29t-111 -28.5t-86.5 -77t-48.5 -109.5zM496 1110l80 288h244l-162 -288h-162z" />
    <glyph glyph-name="ecircumflex" unicode="&#xea;" horiz-adv-x="1119" 
d="M560 -26q-138 0 -251.5 71t-181 191t-67.5 265q0 109 39 204.5t107.5 168t159.5 113.5t194 41q117 0 214.5 -49.5t165.5 -135.5t99 -196t14 -230h-731q14 -56 46 -100.5t81 -71t111 -27.5q64 -1 116.5 30.5t87.5 85.5l249 -58q-61 -133 -182 -217.5t-271 -84.5zM314 600
h492q-11 60 -46.5 108.5t-87.5 77.5t-112 29t-111 -28.5t-86.5 -77t-48.5 -109.5zM696 1398l194 -288h-163l-168 193l-165 -193h-163l191 288h274z" />
    <glyph glyph-name="edieresis" unicode="&#xeb;" horiz-adv-x="1119" 
d="M560 -26q-138 0 -251.5 71t-181 191t-67.5 265q0 109 39 204.5t107.5 168t159.5 113.5t194 41q117 0 214.5 -49.5t165.5 -135.5t99 -196t14 -230h-731q14 -56 46 -100.5t81 -71t111 -27.5q64 -1 116.5 30.5t87.5 85.5l249 -58q-61 -133 -182 -217.5t-271 -84.5zM314 600
h492q-11 60 -46.5 108.5t-87.5 77.5t-112 29t-111 -28.5t-86.5 -77t-48.5 -109.5zM363 1070q-54 0 -91 36t-37 89t37 89.5t91 36.5q52 0 88.5 -36.5t36.5 -89.5t-36.5 -89t-88.5 -36zM759 1070q-54 0 -91 36t-37 89t37 89.5t91 36.5q52 0 89 -36.5t37 -89.5t-37 -89t-89 -36
z" />
    <glyph glyph-name="igrave" unicode="&#xec;" 
d="M120 1000h244v-1000h-244v1000zM-19 1398h244l80 -288h-163z" />
    <glyph glyph-name="iacute" unicode="&#xed;" 
d="M120 1000h244v-1000h-244v1000zM179 1110l80 288h244l-162 -288h-162z" />
    <glyph glyph-name="icircumflex" unicode="&#xee;" 
d="M120 1000h244v-1000h-244v1000zM379 1398l194 -288h-163l-168 193l-165 -193h-163l191 288h274z" />
    <glyph glyph-name="idieresis" unicode="&#xef;" 
d="M120 1000h244v-1000h-244v1000zM45 1070q-54 0 -91 36t-37 89t37 89.5t91 36.5q52 0 88.5 -36.5t36.5 -89.5t-36.5 -89t-88.5 -36zM441 1070q-54 0 -91 36t-37 89t37 89.5t91 36.5q52 0 89 -36.5t37 -89.5t-37 -89t-89 -36z" />
    <glyph glyph-name="eth" unicode="&#xf0;" horiz-adv-x="1126" 
d="M437 1030l-119 119l439 431l117 -118zM584 -26q-139 0 -253.5 68t-182.5 182t-68 252q0 104 39 195.5t108.5 161t161 108.5t195.5 39q46 0 87.5 -16t71.5 -44q-21 62 -51.5 125t-76.5 117t-112.5 87t-157.5 33l-2 244q168 0 304.5 -82t234.5 -224t150.5 -324t53.5 -382
q0 -158 -65 -280t-178 -191t-259 -69zM584 218q71 0 130 35.5t93.5 94t34.5 128.5q0 71 -35 130t-93.5 94.5t-129.5 35.5q-72 0 -131 -35.5t-94 -94.5t-35 -130q0 -70 35 -129t94 -94t131 -35z" />
    <glyph glyph-name="ntilde" unicode="&#xf1;" horiz-adv-x="1116" 
d="M1036 632v-632h-244v568q0 59 -29 107.5t-77.5 77t-107.5 28.5t-107.5 -28.5t-77 -77t-28.5 -107.5v-568h-244l-1 1000h244l1 -89q51 54 122 85.5t153 31.5q109 0 199 -53.5t143.5 -143t53.5 -199.5zM749 1105q-37 0 -87.5 26t-101 58t-88 51.5t-50.5 5.5
q-13 -13 -16 -33.5t7 -53.5l-143 -39q-27 78 -13.5 142t60 102.5t120.5 38.5q37 0 84.5 -21.5t95.5 -50t85 -50t53 -21.5q20 0 26 14t3 34t-10 38l145 47q27 -82 11.5 -147t-63 -103t-118.5 -38z" />
    <glyph glyph-name="ograve" unicode="&#xf2;" horiz-adv-x="1120" 
d="M560 -26q-138 0 -251.5 71t-181 190.5t-67.5 264.5q0 110 39 205.5t107.5 168t159.5 113.5t194 41q138 0 251.5 -71t181 -191t67.5 -266q0 -109 -39 -204t-107.5 -167.5t-159 -113.5t-194.5 -41zM560 218q73 0 131 39t91.5 103t33.5 140q0 78 -34.5 142.5t-93 103
t-128.5 38.5q-72 0 -130 -39t-92 -104t-34 -141q0 -79 35 -143t93.5 -101.5t127.5 -37.5zM299 1398h244l80 -288h-163z" />
    <glyph glyph-name="oacute" unicode="&#xf3;" horiz-adv-x="1120" 
d="M560 -26q-138 0 -251.5 71t-181 190.5t-67.5 264.5q0 110 39 205.5t107.5 168t159.5 113.5t194 41q138 0 251.5 -71t181 -191t67.5 -266q0 -109 -39 -204t-107.5 -167.5t-159 -113.5t-194.5 -41zM560 218q73 0 131 39t91.5 103t33.5 140q0 78 -34.5 142.5t-93 103
t-128.5 38.5q-72 0 -130 -39t-92 -104t-34 -141q0 -79 35 -143t93.5 -101.5t127.5 -37.5zM497 1110l80 288h244l-162 -288h-162z" />
    <glyph glyph-name="ocircumflex" unicode="&#xf4;" horiz-adv-x="1120" 
d="M560 -26q-138 0 -251.5 71t-181 190.5t-67.5 264.5q0 110 39 205.5t107.5 168t159.5 113.5t194 41q138 0 251.5 -71t181 -191t67.5 -266q0 -109 -39 -204t-107.5 -167.5t-159 -113.5t-194.5 -41zM560 218q73 0 131 39t91.5 103t33.5 140q0 78 -34.5 142.5t-93 103
t-128.5 38.5q-72 0 -130 -39t-92 -104t-34 -141q0 -79 35 -143t93.5 -101.5t127.5 -37.5zM697 1398l194 -288h-163l-168 193l-165 -193h-163l191 288h274z" />
    <glyph glyph-name="otilde" unicode="&#xf5;" horiz-adv-x="1120" 
d="M560 -26q-138 0 -251.5 71t-181 190.5t-67.5 264.5q0 110 39 205.5t107.5 168t159.5 113.5t194 41q138 0 251.5 -71t181 -191t67.5 -266q0 -109 -39 -204t-107.5 -167.5t-159 -113.5t-194.5 -41zM560 218q73 0 131 39t91.5 103t33.5 140q0 78 -34.5 142.5t-93 103
t-128.5 38.5q-72 0 -130 -39t-92 -104t-34 -141q0 -79 35 -143t93.5 -101.5t127.5 -37.5zM715 1105q-37 0 -87.5 26t-101 58t-88 51.5t-50.5 5.5q-13 -13 -16 -33.5t7 -53.5l-143 -39q-27 78 -13.5 142t60 102.5t120.5 38.5q37 0 84.5 -21.5t95.5 -50t85 -50t53 -21.5
q20 0 26 14t3 34t-10 38l145 47q27 -82 11.5 -147t-63 -103t-118.5 -38z" />
    <glyph glyph-name="odieresis" unicode="&#xf6;" horiz-adv-x="1120" 
d="M560 -26q-138 0 -251.5 71t-181 190.5t-67.5 264.5q0 110 39 205.5t107.5 168t159.5 113.5t194 41q138 0 251.5 -71t181 -191t67.5 -266q0 -109 -39 -204t-107.5 -167.5t-159 -113.5t-194.5 -41zM560 218q73 0 131 39t91.5 103t33.5 140q0 78 -34.5 142.5t-93 103
t-128.5 38.5q-72 0 -130 -39t-92 -104t-34 -141q0 -79 35 -143t93.5 -101.5t127.5 -37.5zM363 1070q-54 0 -91 36t-37 89t37 89.5t91 36.5q52 0 88.5 -36.5t36.5 -89.5t-36.5 -89t-88.5 -36zM759 1070q-54 0 -91 36t-37 89t37 89.5t91 36.5q52 0 89 -36.5t37 -89.5t-37 -89
t-89 -36z" />
    <glyph glyph-name="divide" unicode="&#xf7;" horiz-adv-x="1160" 
d="M80 478v244h1000v-244h-1000zM580 1095q55 0 94 -40t39 -95q0 -54 -39 -93.5t-94 -39.5q-57 0 -95.5 39.5t-38.5 93.5q0 55 38.5 95t95.5 40zM580 373q55 0 94.5 -40t39.5 -94q0 -55 -39.5 -94.5t-94.5 -39.5q-57 0 -95.5 39.5t-38.5 94.5q0 54 38.5 94t95.5 40z" />
    <glyph glyph-name="oslash" unicode="&#xf8;" horiz-adv-x="1120" 
d="M342 -75l-172 99l52 90q-74 72 -118 172t-44 214q0 110 39 205.5t107.5 168t159.5 113.5t194 41q45 0 88 -8.5t82 -23.5l49 82l171 -99l-52 -91q75 -72 118.5 -172t43.5 -216q0 -109 -39 -204t-107.5 -167.5t-159 -113.5t-194.5 -41q-45 0 -88 8.5t-83 24.5zM343 320
l277 481q-64 14 -124 -6t-107.5 -65t-75 -108t-27.5 -136q0 -49 15 -91t42 -75zM500 201q67 -13 126.5 6.5t106.5 64t74 107t27 135.5q0 49 -15.5 92t-40.5 77z" />
    <glyph glyph-name="ugrave" unicode="&#xf9;" horiz-adv-x="1076" 
d="M80 370v630h244v-566q0 -59 29 -107.5t77.5 -77t106.5 -28.5q60 0 108 28.5t77 77t29 107.5v566h244l1 -1000h-244l-1 91q-52 -54 -123 -85.5t-152 -31.5q-109 0 -199 53.5t-143.5 143t-53.5 199.5zM306 1400h244l80 -288h-163z" />
    <glyph glyph-name="uacute" unicode="&#xfa;" horiz-adv-x="1076" 
d="M80 370v630h244v-566q0 -59 29 -107.5t77.5 -77t106.5 -28.5q60 0 108 28.5t77 77t29 107.5v566h244l1 -1000h-244l-1 91q-52 -54 -123 -85.5t-152 -31.5q-109 0 -199 53.5t-143.5 143t-53.5 199.5zM504 1112l80 288h244l-162 -288h-162z" />
    <glyph glyph-name="ucircumflex" unicode="&#xfb;" horiz-adv-x="1076" 
d="M80 370v630h244v-566q0 -59 29 -107.5t77.5 -77t106.5 -28.5q60 0 108 28.5t77 77t29 107.5v566h244l1 -1000h-244l-1 91q-52 -54 -123 -85.5t-152 -31.5q-109 0 -199 53.5t-143.5 143t-53.5 199.5zM704 1400l194 -288h-163l-168 193l-165 -193h-163l191 288h274z" />
    <glyph glyph-name="udieresis" unicode="&#xfc;" horiz-adv-x="1076" 
d="M80 370v630h244v-566q0 -59 29 -107.5t77.5 -77t106.5 -28.5q60 0 108 28.5t77 77t29 107.5v566h244l1 -1000h-244l-1 91q-52 -54 -123 -85.5t-152 -31.5q-109 0 -199 53.5t-143.5 143t-53.5 199.5zM371 1072q-54 0 -91 36t-37 89t37 89.5t91 36.5q52 0 88.5 -36.5
t36.5 -89.5t-36.5 -89t-88.5 -36zM767 1072q-54 0 -91 36t-37 89t37 89.5t91 36.5q52 0 89 -36.5t37 -89.5t-37 -89t-89 -36z" />
    <glyph glyph-name="yacute" unicode="&#xfd;" horiz-adv-x="1145" 
d="M806 1000h259l-547 -1500h-259l181 500l-360 1000h267l215 -666zM509 1110l80 288h244l-162 -288h-162z" />
    <glyph glyph-name="thorn" unicode="&#xfe;" horiz-adv-x="1238" 
d="M120 -500v1900h244v-527q49 68 120.5 110.5t167.5 42.5q110 0 205 -41t167.5 -113.5t113 -167.5t40.5 -204t-40.5 -205t-113 -168.5t-167.5 -113.5t-205 -41q-96 0 -167.5 42.5t-120.5 110.5v-625h-244zM649 208q77 0 141 39t102 105.5t38 147.5q0 80 -38 146
t-101.5 105.5t-141.5 39.5q-76 0 -136 -39.5t-94 -105.5t-34 -146t34 -146.5t94 -106t136 -39.5z" />
    <glyph glyph-name="ydieresis" unicode="&#xff;" horiz-adv-x="1145" 
d="M806 1000h259l-547 -1500h-259l181 500l-360 1000h267l215 -666zM376 1070q-54 0 -91 36t-37 89t37 89.5t91 36.5q52 0 88.5 -36.5t36.5 -89.5t-36.5 -89t-88.5 -36zM772 1070q-54 0 -91 36t-37 89t37 89.5t91 36.5q52 0 89 -36.5t37 -89.5t-37 -89t-89 -36z" />
    <glyph glyph-name="Amacron" unicode="&#x100;" horiz-adv-x="1458" 
d="M588 1400h281l509 -1400h-259l-90 248h-600l-90 -248h-259zM518 492h421l-211 577zM391 1727h676v-183h-676v183z" />
    <glyph glyph-name="amacron" unicode="&#x101;" horiz-adv-x="1198" 
d="M874 1000h244v-1000h-244l-11 124q-41 -67 -108.5 -108.5t-159.5 -41.5q-111 0 -208 42t-170.5 116t-115 171t-41.5 208q0 107 39.5 201t110.5 165t164 111t200 40q99 0 177.5 -44t133.5 -112zM589 209q78 0 138 39t94 105.5t34 146.5q0 81 -34 147.5t-94.5 105.5
t-137.5 39t-140.5 -39.5t-101 -105.5t-37.5 -147t38 -147t101.5 -105t139.5 -39zM276 1327h676v-183h-676v183z" />
    <glyph glyph-name="Abreve" unicode="&#x102;" horiz-adv-x="1458" 
d="M588 1400h281l509 -1400h-259l-90 248h-600l-90 -248h-259zM518 492h421l-211 577zM729 1488q-91 0 -166.5 45t-120.5 120.5t-45 166.5h152q0 -49 24.5 -90t65.5 -65.5t90 -24.5q50 0 90.5 24t65 65t24.5 91h152q0 -93 -45 -168.5t-120.5 -119.5t-166.5 -44z" />
    <glyph glyph-name="abreve" unicode="&#x103;" horiz-adv-x="1198" 
d="M874 1000h244v-1000h-244l-11 124q-41 -67 -108.5 -108.5t-159.5 -41.5q-111 0 -208 42t-170.5 116t-115 171t-41.5 208q0 107 39.5 201t110.5 165t164 111t200 40q99 0 177.5 -44t133.5 -112zM589 209q78 0 138 39t94 105.5t34 146.5q0 81 -34 147.5t-94.5 105.5
t-137.5 39t-140.5 -39.5t-101 -105.5t-37.5 -147t38 -147t101.5 -105t139.5 -39zM614 1088q-91 0 -166.5 45t-120.5 120.5t-45 166.5h152q0 -49 24.5 -90t65.5 -65.5t90 -24.5q50 0 90.5 24t65 65t24.5 91h152q0 -93 -45 -168.5t-120.5 -119.5t-166.5 -44z" />
    <glyph glyph-name="Aogonek" unicode="&#x104;" horiz-adv-x="1458" 
d="M588 1400h281l509 -1400h-259l-90 248h-600l-90 -248h-259zM518 492h421l-211 577zM1256 -452q-71 1 -123.5 35t-81.5 88t-29 114q0 45 16.5 87.5t52.5 78.5l168 168l119 -119q-37 -37 -69 -67.5t-55.5 -57t-37 -51t-13.5 -48.5t17 -43.5t46 -20.5q38 0 66.5 27.5
t28.5 68.5h155q0 -70 -34 -129t-93 -95t-133 -36z" />
    <glyph glyph-name="aogonek" unicode="&#x105;" horiz-adv-x="1198" 
d="M874 1000h244v-1000h-244l-11 124q-41 -67 -108.5 -108.5t-159.5 -41.5q-111 0 -208 42t-170.5 116t-115 171t-41.5 208q0 107 39.5 201t110.5 165t164 111t200 40q99 0 177.5 -44t133.5 -112zM589 209q78 0 138 39t94 105.5t34 146.5q0 81 -34 147.5t-94.5 105.5
t-137.5 39t-140.5 -39.5t-101 -105.5t-37.5 -147t38 -147t101.5 -105t139.5 -39zM996 -452q-71 1 -123.5 35t-81.5 88t-29 114q0 45 16.5 87.5t52.5 78.5l168 168l119 -119q-37 -37 -69 -67.5t-55.5 -57t-37 -51t-13.5 -48.5t17 -43.5t46 -20.5q38 0 66.5 27.5t28.5 68.5
h155q0 -70 -34 -129t-93 -95t-133 -36z" />
    <glyph glyph-name="Cacute" unicode="&#x106;" horiz-adv-x="1418" 
d="M768 -26q-142 0 -267 56.5t-219.5 156.5t-148 231.5t-53.5 281.5q0 151 53.5 282.5t148 231t219.5 156t267 56.5q170 0 313 -78.5t237 -209.5l-218 -117q-59 73 -146.5 117t-185.5 44q-92 0 -173 -37.5t-142 -104t-95 -154t-34 -186.5q0 -100 34.5 -187t95.5 -153.5
t141.5 -104t172.5 -37.5q100 0 186.5 44.5t145.5 117.5l218 -118q-94 -130 -237 -209t-313 -79zM705 1510l80 288h244l-162 -288h-162z" />
    <glyph glyph-name="cacute" unicode="&#x107;" horiz-adv-x="1019" 
d="M740 301l220 -119q-69 -94 -173 -151t-227 -57q-138 0 -251.5 71t-181 190.5t-67.5 264.5q0 110 39 205.5t107.5 168t159.5 113.5t194 41q123 0 227 -57t173 -153l-220 -118q-35 40 -82.5 62t-97.5 22q-72 0 -130 -39.5t-92 -104t-34 -140.5q0 -75 34 -139.5t92 -103.5
t130 -39q52 0 99 22.5t81 60.5zM497 1110l80 288h244l-162 -288h-162z" />
    <glyph glyph-name="Ccircumflex" unicode="&#x108;" horiz-adv-x="1418" 
d="M768 -26q-142 0 -267 56.5t-219.5 156.5t-148 231.5t-53.5 281.5q0 151 53.5 282.5t148 231t219.5 156t267 56.5q170 0 313 -78.5t237 -209.5l-218 -117q-59 73 -146.5 117t-185.5 44q-92 0 -173 -37.5t-142 -104t-95 -154t-34 -186.5q0 -100 34.5 -187t95.5 -153.5
t141.5 -104t172.5 -37.5q100 0 186.5 44.5t145.5 117.5l218 -118q-94 -130 -237 -209t-313 -79zM905 1798l194 -288h-163l-168 193l-165 -193h-163l191 288h274z" />
    <glyph glyph-name="ccircumflex" unicode="&#x109;" horiz-adv-x="1019" 
d="M740 301l220 -119q-69 -94 -173 -151t-227 -57q-138 0 -251.5 71t-181 190.5t-67.5 264.5q0 110 39 205.5t107.5 168t159.5 113.5t194 41q123 0 227 -57t173 -153l-220 -118q-35 40 -82.5 62t-97.5 22q-72 0 -130 -39.5t-92 -104t-34 -140.5q0 -75 34 -139.5t92 -103.5
t130 -39q52 0 99 22.5t81 60.5zM697 1398l194 -288h-163l-168 193l-165 -193h-163l191 288h274z" />
    <glyph glyph-name="Cdotaccent" unicode="&#x10a;" horiz-adv-x="1418" 
d="M768 -26q-142 0 -267 56.5t-219.5 156.5t-148 231.5t-53.5 281.5q0 151 53.5 282.5t148 231t219.5 156t267 56.5q170 0 313 -78.5t237 -209.5l-218 -117q-59 73 -146.5 117t-185.5 44q-92 0 -173 -37.5t-142 -104t-95 -154t-34 -186.5q0 -100 34.5 -187t95.5 -153.5
t141.5 -104t172.5 -37.5q100 0 186.5 44.5t145.5 117.5l218 -118q-94 -130 -237 -209t-313 -79zM770 1529q-54 0 -91 35.5t-37 89.5q0 53 37 89t90 36t89.5 -36t36.5 -89q0 -54 -36 -89.5t-89 -35.5z" />
    <glyph glyph-name="cdotaccent" unicode="&#x10b;" horiz-adv-x="1019" 
d="M740 301l220 -119q-69 -94 -173 -151t-227 -57q-138 0 -251.5 71t-181 190.5t-67.5 264.5q0 110 39 205.5t107.5 168t159.5 113.5t194 41q123 0 227 -57t173 -153l-220 -118q-35 40 -82.5 62t-97.5 22q-72 0 -130 -39.5t-92 -104t-34 -140.5q0 -75 34 -139.5t92 -103.5
t130 -39q52 0 99 22.5t81 60.5zM562 1129q-54 0 -91 35.5t-37 89.5q0 53 37 89t90 36t89.5 -36t36.5 -89q0 -54 -36 -89.5t-89 -35.5z" />
    <glyph glyph-name="Ccaron" unicode="&#x10c;" horiz-adv-x="1418" 
d="M768 -26q-142 0 -267 56.5t-219.5 156.5t-148 231.5t-53.5 281.5q0 151 53.5 282.5t148 231t219.5 156t267 56.5q170 0 313 -78.5t237 -209.5l-218 -117q-59 73 -146.5 117t-185.5 44q-92 0 -173 -37.5t-142 -104t-95 -154t-34 -186.5q0 -100 34.5 -187t95.5 -153.5
t141.5 -104t172.5 -37.5q100 0 186.5 44.5t145.5 117.5l218 -118q-94 -130 -237 -209t-313 -79zM632 1510l-194 288h163l167 -193l166 193h163l-191 -288h-274z" />
    <glyph glyph-name="ccaron" unicode="&#x10d;" horiz-adv-x="1019" 
d="M740 301l220 -119q-69 -94 -173 -151t-227 -57q-138 0 -251.5 71t-181 190.5t-67.5 264.5q0 110 39 205.5t107.5 168t159.5 113.5t194 41q123 0 227 -57t173 -153l-220 -118q-35 40 -82.5 62t-97.5 22q-72 0 -130 -39.5t-92 -104t-34 -140.5q0 -75 34 -139.5t92 -103.5
t130 -39q52 0 99 22.5t81 60.5zM424 1110l-194 288h163l167 -193l166 193h163l-191 -288h-274z" />
    <glyph glyph-name="Dcaron" unicode="&#x10e;" horiz-adv-x="1343" 
d="M120 0v1400h464q145 0 271.5 -54.5t223 -151t151 -223t54.5 -271.5t-54.5 -271.5t-151 -223t-223 -151t-271.5 -54.5h-464zM364 244h220q93 0 175.5 35.5t145.5 98t99 145t36 177.5t-36 177t-99 145t-145 98.5t-176 35.5h-220v-912zM516 1510l-194 288h163l167 -193
l166 193h163l-191 -288h-274z" />
    <glyph glyph-name="dcaron" unicode="&#x10f;" horiz-adv-x="1240" 
d="M876 1500h244v-1500h-244v125q-48 -67 -121 -109t-169 -42q-109 0 -204 41t-167.5 113.5t-113.5 167.5t-41 204t41 204t113.5 167.5t167.5 113.5t204 41q96 0 169 -41.5t121 -109.5v625zM589 209q78 0 138 39t94 105.5t34 146.5q0 81 -34 147.5t-94.5 105.5t-137.5 39
t-140.5 -39.5t-101 -105.5t-37.5 -147t38 -147t101.5 -105t139.5 -39zM1177 1212l80 288h244l-162 -288h-162z" />
    <glyph glyph-name="Emacron" unicode="&#x112;" horiz-adv-x="1098" 
d="M120 0v1400h878v-244h-634v-284h503v-244h-503v-384h634v-244h-878zM211 1727h676v-183h-676v183z" />
    <glyph glyph-name="emacron" unicode="&#x113;" horiz-adv-x="1119" 
d="M560 -26q-138 0 -251.5 71t-181 191t-67.5 265q0 109 39 204.5t107.5 168t159.5 113.5t194 41q117 0 214.5 -49.5t165.5 -135.5t99 -196t14 -230h-731q14 -56 46 -100.5t81 -71t111 -27.5q64 -1 116.5 30.5t87.5 85.5l249 -58q-61 -133 -182 -217.5t-271 -84.5zM314 600
h492q-11 60 -46.5 108.5t-87.5 77.5t-112 29t-111 -28.5t-86.5 -77t-48.5 -109.5zM221 1327h676v-183h-676v183z" />
    <glyph glyph-name="Edotaccent" unicode="&#x116;" horiz-adv-x="1098" 
d="M120 0v1400h878v-244h-634v-284h503v-244h-503v-384h634v-244h-878zM551 1529q-54 0 -91 35.5t-37 89.5q0 53 37 89t90 36t89.5 -36t36.5 -89q0 -54 -36 -89.5t-89 -35.5z" />
    <glyph glyph-name="edotaccent" unicode="&#x117;" horiz-adv-x="1119" 
d="M560 -26q-138 0 -251.5 71t-181 191t-67.5 265q0 109 39 204.5t107.5 168t159.5 113.5t194 41q117 0 214.5 -49.5t165.5 -135.5t99 -196t14 -230h-731q14 -56 46 -100.5t81 -71t111 -27.5q64 -1 116.5 30.5t87.5 85.5l249 -58q-61 -133 -182 -217.5t-271 -84.5zM314 600
h492q-11 60 -46.5 108.5t-87.5 77.5t-112 29t-111 -28.5t-86.5 -77t-48.5 -109.5zM561 1129q-54 0 -91 35.5t-37 89.5q0 53 37 89t90 36t89.5 -36t36.5 -89q0 -54 -36 -89.5t-89 -35.5z" />
    <glyph glyph-name="Eogonek" unicode="&#x118;" horiz-adv-x="1098" 
d="M120 0v1400h878v-244h-634v-284h503v-244h-503v-384h634v-244h-878zM768 -452q-71 1 -123.5 35t-81.5 88t-29 114q0 45 16.5 87.5t52.5 78.5l168 168l119 -119q-37 -37 -69 -67.5t-55.5 -57t-37 -51t-13.5 -48.5t17 -43.5t46 -20.5q38 0 66.5 27.5t28.5 68.5h155
q0 -70 -34 -129t-93 -95t-133 -36z" />
    <glyph glyph-name="eogonek" unicode="&#x119;" horiz-adv-x="1119" 
d="M560 -26q-138 0 -251.5 71t-181 191t-67.5 265q0 109 39 204.5t107.5 168t159.5 113.5t194 41q117 0 214.5 -49.5t165.5 -135.5t99 -196t14 -230h-731q14 -56 46 -100.5t81 -71t111 -27.5q64 -1 116.5 30.5t87.5 85.5l249 -58q-61 -133 -182 -217.5t-271 -84.5zM314 600
h492q-11 60 -46.5 108.5t-87.5 77.5t-112 29t-111 -28.5t-86.5 -77t-48.5 -109.5zM593 -452q-71 1 -123.5 35t-81.5 88t-29 114q0 45 16.5 87.5t52.5 78.5l168 168l119 -119q-37 -37 -69 -67.5t-55.5 -57t-37 -51t-13.5 -48.5t17 -43.5t46 -20.5q38 0 66.5 27.5t28.5 68.5
h155q0 -70 -34 -129t-93 -95t-133 -36z" />
    <glyph glyph-name="Ecaron" unicode="&#x11a;" horiz-adv-x="1098" 
d="M120 0v1400h878v-244h-634v-284h503v-244h-503v-384h634v-244h-878zM413 1510l-194 288h163l167 -193l166 193h163l-191 -288h-274z" />
    <glyph glyph-name="ecaron" unicode="&#x11b;" horiz-adv-x="1119" 
d="M560 -26q-138 0 -251.5 71t-181 191t-67.5 265q0 109 39 204.5t107.5 168t159.5 113.5t194 41q117 0 214.5 -49.5t165.5 -135.5t99 -196t14 -230h-731q14 -56 46 -100.5t81 -71t111 -27.5q64 -1 116.5 30.5t87.5 85.5l249 -58q-61 -133 -182 -217.5t-271 -84.5zM314 600
h492q-11 60 -46.5 108.5t-87.5 77.5t-112 29t-111 -28.5t-86.5 -77t-48.5 -109.5zM423 1110l-194 288h163l167 -193l166 193h163l-191 -288h-274z" />
    <glyph glyph-name="Gcircumflex" unicode="&#x11c;" horiz-adv-x="1536" 
d="M768 -26q-146 0 -271.5 57t-218.5 157.5t-145.5 232t-52.5 281.5q0 158 56.5 290t154.5 229t222.5 150t259.5 53q151 0 293.5 -70.5t251.5 -217.5l-218 -117q-67 82 -153.5 122.5t-176.5 40.5q-88 0 -168.5 -36t-143 -101.5t-98.5 -154t-36 -193.5q0 -99 35 -186.5
t96.5 -153t142.5 -102.5t174 -37q62 0 121.5 19.5t112 56.5t94 90t69.5 120h-255v213h542q4 -153 -48 -287t-147 -237t-221 -161t-272 -58zM906 1798l194 -288h-163l-168 193l-165 -193h-163l191 288h274z" />
    <glyph glyph-name="gcircumflex" unicode="&#x11d;" horiz-adv-x="1226" 
d="M862 1000h244v-1019q0 -108 -44 -196.5t-120 -152t-174 -98t-206 -34.5q-105 0 -202 43t-171.5 117.5t-113.5 169.5l223 101q20 -55 60.5 -96.5t93.5 -65t110 -23.5q58 0 111.5 16t96.5 46.5t67.5 74t24.5 98.5v141q-47 -66 -118 -107t-164 -41q-108 0 -202 41
t-165.5 113.5t-112 167.5t-40.5 204t40.5 204t112 167.5t165.5 113.5t202 41q93 0 164 -40.5t118 -106.5v121zM583 209q77 0 136.5 39.5t93.5 106t34 145.5q0 80 -34.5 146t-94 106t-135.5 40q-75 0 -137 -39.5t-99 -105.5t-37 -147t37 -147t99 -105t137 -39zM750 1398
l194 -288h-163l-168 193l-165 -193h-163l191 288h274z" />
    <glyph glyph-name="Gbreve" unicode="&#x11e;" horiz-adv-x="1536" 
d="M768 -26q-146 0 -271.5 57t-218.5 157.5t-145.5 232t-52.5 281.5q0 158 56.5 290t154.5 229t222.5 150t259.5 53q151 0 293.5 -70.5t251.5 -217.5l-218 -117q-67 82 -153.5 122.5t-176.5 40.5q-88 0 -168.5 -36t-143 -101.5t-98.5 -154t-36 -193.5q0 -99 35 -186.5
t96.5 -153t142.5 -102.5t174 -37q62 0 121.5 19.5t112 56.5t94 90t69.5 120h-255v213h542q4 -153 -48 -287t-147 -237t-221 -161t-272 -58zM770 1488q-91 0 -166.5 45t-120.5 120.5t-45 166.5h152q0 -49 24.5 -90t65.5 -65.5t90 -24.5q50 0 90.5 24t65 65t24.5 91h152
q0 -93 -45 -168.5t-120.5 -119.5t-166.5 -44z" />
    <glyph glyph-name="gbreve" unicode="&#x11f;" horiz-adv-x="1226" 
d="M862 1000h244v-1019q0 -108 -44 -196.5t-120 -152t-174 -98t-206 -34.5q-105 0 -202 43t-171.5 117.5t-113.5 169.5l223 101q20 -55 60.5 -96.5t93.5 -65t110 -23.5q58 0 111.5 16t96.5 46.5t67.5 74t24.5 98.5v141q-47 -66 -118 -107t-164 -41q-108 0 -202 41
t-165.5 113.5t-112 167.5t-40.5 204t40.5 204t112 167.5t165.5 113.5t202 41q93 0 164 -40.5t118 -106.5v121zM583 209q77 0 136.5 39.5t93.5 106t34 145.5q0 80 -34.5 146t-94 106t-135.5 40q-75 0 -137 -39.5t-99 -105.5t-37 -147t37 -147t99 -105t137 -39zM613 1088
q-91 0 -166.5 45t-120.5 120.5t-45 166.5h152q0 -49 24.5 -90t65.5 -65.5t90 -24.5q50 0 90.5 24t65 65t24.5 91h152q0 -93 -45 -168.5t-120.5 -119.5t-166.5 -44z" />
    <glyph glyph-name="Gdotaccent" unicode="&#x120;" horiz-adv-x="1536" 
d="M768 -26q-146 0 -271.5 57t-218.5 157.5t-145.5 232t-52.5 281.5q0 158 56.5 290t154.5 229t222.5 150t259.5 53q151 0 293.5 -70.5t251.5 -217.5l-218 -117q-67 82 -153.5 122.5t-176.5 40.5q-88 0 -168.5 -36t-143 -101.5t-98.5 -154t-36 -193.5q0 -99 35 -186.5
t96.5 -153t142.5 -102.5t174 -37q62 0 121.5 19.5t112 56.5t94 90t69.5 120h-255v213h542q4 -153 -48 -287t-147 -237t-221 -161t-272 -58zM771 1529q-54 0 -91 35.5t-37 89.5q0 53 37 89t90 36t89.5 -36t36.5 -89q0 -54 -36 -89.5t-89 -35.5z" />
    <glyph glyph-name="gdotaccent" unicode="&#x121;" horiz-adv-x="1226" 
d="M862 1000h244v-1019q0 -108 -44 -196.5t-120 -152t-174 -98t-206 -34.5q-105 0 -202 43t-171.5 117.5t-113.5 169.5l223 101q20 -55 60.5 -96.5t93.5 -65t110 -23.5q58 0 111.5 16t96.5 46.5t67.5 74t24.5 98.5v141q-47 -66 -118 -107t-164 -41q-108 0 -202 41
t-165.5 113.5t-112 167.5t-40.5 204t40.5 204t112 167.5t165.5 113.5t202 41q93 0 164 -40.5t118 -106.5v121zM583 209q77 0 136.5 39.5t93.5 106t34 145.5q0 80 -34.5 146t-94 106t-135.5 40q-75 0 -137 -39.5t-99 -105.5t-37 -147t37 -147t99 -105t137 -39zM615 1129
q-54 0 -91 35.5t-37 89.5q0 53 37 89t90 36t89.5 -36t36.5 -89q0 -54 -36 -89.5t-89 -35.5z" />
    <glyph glyph-name="uni0122" unicode="&#x122;" horiz-adv-x="1536" 
d="M768 -26q-146 0 -271.5 57t-218.5 157.5t-145.5 232t-52.5 281.5q0 158 56.5 290t154.5 229t222.5 150t259.5 53q151 0 293.5 -70.5t251.5 -217.5l-218 -117q-67 82 -153.5 122.5t-176.5 40.5q-88 0 -168.5 -36t-143 -101.5t-98.5 -154t-36 -193.5q0 -99 35 -186.5
t96.5 -153t142.5 -102.5t174 -37q62 0 121.5 19.5t112 56.5t94 90t69.5 120h-255v213h542q4 -153 -48 -287t-147 -237t-221 -161t-272 -58zM585 -441l62 338h244l-143 -338h-163z" />
    <glyph glyph-name="Hcircumflex" unicode="&#x124;" horiz-adv-x="1308" 
d="M944 1400h244v-1400h-244v628h-580v-628h-244v1400h244v-528h580v528zM790 1798l194 -288h-163l-168 193l-165 -193h-163l191 288h274z" />
    <glyph glyph-name="hcircumflex" unicode="&#x125;" horiz-adv-x="1116" 
d="M1036 632v-632h-244v568q0 59 -29 107.5t-77.5 77t-107.5 28.5t-107.5 -28.5t-77 -77t-28.5 -107.5v-568h-244l-1 1500h244l1 -589q51 54 122 85.5t153 31.5q109 0 199 -53.5t143.5 -143t53.5 -199.5zM745 1823l194 -288h-163l-168 193l-165 -193h-163l191 288h274z" />
    <glyph glyph-name="Itilde" unicode="&#x128;" horiz-adv-x="544" 
d="M150 0v1400h244v-1400h-244zM427 1505q-37 0 -87.5 26t-101 58t-88 51.5t-50.5 5.5q-13 -13 -16 -33.5t7 -53.5l-143 -39q-27 78 -13.5 142t60 102.5t120.5 38.5q37 0 84.5 -21.5t95.5 -50t85 -50t53 -21.5q20 0 26 14t3 34t-10 38l145 47q27 -82 11.5 -147t-63 -103
t-118.5 -38z" />
    <glyph glyph-name="itilde" unicode="&#x129;" 
d="M363 1084q-30 0 -69 20.5t-78 46.5t-68 41.5t-39 4.5t-12 -27.5t5 -42.5l-111 -31q-21 62 -11 113.5t46.5 82.5t94.5 31q28 0 65.5 -17.5t74 -40.5t65.5 -40t41 -17q23 0 22.5 23.5t-8.5 45.5l114 38q32 -99 -9 -165t-123 -66zM120 1000h244v-1000h-244v1000z" />
    <glyph glyph-name="Imacron" unicode="&#x12a;" horiz-adv-x="544" 
d="M150 0v1400h244v-1400h-244zM-66 1727h676v-183h-676v183z" />
    <glyph glyph-name="imacron" unicode="&#x12b;" 
d="M-1 1327h485v-183h-485v183zM120 1000h244v-1000h-244v1000z" />
    <glyph glyph-name="Iogonek" unicode="&#x12e;" horiz-adv-x="544" 
d="M150 0v1400h244v-1400h-244zM272 -452q-71 1 -123.5 35t-81.5 88t-29 114q0 45 16.5 87.5t52.5 78.5l168 168l119 -119q-37 -37 -69 -67.5t-55.5 -57t-37 -51t-13.5 -48.5t17 -43.5t46 -20.5q38 0 66.5 27.5t28.5 68.5h155q0 -70 -34 -129t-93 -95t-133 -36z" />
    <glyph glyph-name="iogonek" unicode="&#x12f;" 
d="M120 1000h244v-1000h-244v1000zM244 1129q-54 0 -91 35.5t-37 89.5q0 53 37 89t90 36t89.5 -36t36.5 -89q0 -54 -36 -89.5t-89 -35.5zM242 -452q-71 1 -123.5 35t-81.5 88t-29 114q0 45 16.5 87.5t52.5 78.5l168 168l119 -119q-37 -37 -69 -67.5t-55.5 -57t-37 -51
t-13.5 -48.5t17 -43.5t46 -20.5q38 0 66.5 27.5t28.5 68.5h155q0 -70 -34 -129t-93 -95t-133 -36z" />
    <glyph glyph-name="Idotaccent" unicode="&#x130;" horiz-adv-x="544" 
d="M150 0v1400h244v-1400h-244zM274 1529q-54 0 -91 35.5t-37 89.5q0 53 37 89t90 36t89.5 -36t36.5 -89q0 -54 -36 -89.5t-89 -35.5z" />
    <glyph glyph-name="dotlessi" unicode="&#x131;" 
d="M120 1000h244v-1000h-244v1000z" />
    <glyph glyph-name="IJ" unicode="&#x132;" horiz-adv-x="1432" 
d="M150 0v1400h244v-1400h-244zM868 -26q-77 0 -150.5 26t-133.5 77l156 188q22 -18 54 -32.5t74 -14.5q55 0 100 28.5t72.5 75t27.5 101.5v977h244v-977q0 -123 -60 -224.5t-161 -163t-223 -61.5z" />
    <glyph glyph-name="ij" unicode="&#x133;" horiz-adv-x="968" 
d="M120 1000h244v-1000h-244v1000zM244 1129q-54 0 -91 35.5t-37 89.5q0 53 37 89t90 36t89.5 -36t36.5 -89q0 -54 -36 -89.5t-89 -35.5zM401 -500v244q57 0 103 26.5t73 72t27 101.5v1056h244v-1056q0 -122 -59.5 -223t-161 -161t-226.5 -60zM728 1129q-54 0 -91 35.5
t-37 89.5q0 53 37 89t90 36t89.5 -36t36.5 -89q0 -54 -36 -89.5t-89 -35.5z" />
    <glyph glyph-name="Jcircumflex" unicode="&#x134;" horiz-adv-x="888" 
d="M324 -26q-77 0 -150.5 26t-133.5 77l156 188q22 -18 54 -32.5t74 -14.5q55 0 100 28.5t72.5 75t27.5 101.5v977h244v-977q0 -123 -60 -224.5t-161 -163t-223 -61.5zM783 1798l194 -288h-163l-168 193l-165 -193h-163l191 288h274z" />
    <glyph glyph-name="jcircumflex" unicode="&#x135;" horiz-adv-x="487" 
d="M-80 -500v244q57 0 103 26.5t73 72t27 101.5v1056h244v-1056q0 -122 -59.5 -223t-161 -161t-226.5 -60zM382 1398l194 -288h-163l-168 193l-165 -193h-163l191 288h274z" />
    <glyph glyph-name="uni0136" unicode="&#x136;" horiz-adv-x="1173" 
d="M1143 0h-318l-393 549l-68 -81v-468h-244v1400h244v-553l463 553h319l-555 -660zM402 -441l62 338h244l-143 -338h-163z" />
    <glyph glyph-name="uni0137" unicode="&#x137;" horiz-adv-x="1070" 
d="M1013 0h-281l-228 393l-140 -167v-226h-244v1500h244v-895l331 395h319l-343 -409zM348 -441l62 338h244l-143 -338h-163z" />
    <glyph glyph-name="Lacute" unicode="&#x139;" horiz-adv-x="1047" 
d="M120 0v1400h244v-1156h583v-244h-827zM179 1510l80 288h244l-162 -288h-162z" />
    <glyph glyph-name="lacute" unicode="&#x13a;" 
d="M120 0v1500h244v-1500h-244zM179 1610l80 288h244l-162 -288h-162z" />
    <glyph glyph-name="uni013B" unicode="&#x13b;" horiz-adv-x="1047" 
d="M120 0v1400h244v-1156h583v-244h-827zM349 -441l62 338h244l-143 -338h-163z" />
    <glyph glyph-name="uni013C" unicode="&#x13c;" 
d="M120 0v1500h244v-1500h-244zM58 -441l62 338h244l-143 -338h-163z" />
    <glyph glyph-name="Lcaron" unicode="&#x13d;" horiz-adv-x="1047" 
d="M120 0v1400h244v-1156h583v-244h-827zM583 1212l80 288h244l-162 -288h-162z" />
    <glyph glyph-name="lcaron" unicode="&#x13e;" 
d="M120 0v1500h244v-1500h-244zM418 1212l80 288h244l-162 -288h-162z" />
    <glyph glyph-name="Nacute" unicode="&#x143;" horiz-adv-x="1339" 
d="M120 0v1400h264l591 -959v959h244v-1400h-263l-592 959v-959h-244zM606 1510l80 288h244l-162 -288h-162z" />
    <glyph glyph-name="nacute" unicode="&#x144;" horiz-adv-x="1116" 
d="M1036 632v-632h-244v568q0 59 -29 107.5t-77.5 77t-107.5 28.5t-107.5 -28.5t-77 -77t-28.5 -107.5v-568h-244l-1 1000h244l1 -89q51 54 122 85.5t153 31.5q109 0 199 -53.5t143.5 -143t53.5 -199.5zM530 1110l80 288h244l-162 -288h-162z" />
    <glyph glyph-name="uni0145" unicode="&#x145;" horiz-adv-x="1339" 
d="M120 0v1400h264l591 -959v959h244v-1400h-263l-592 959v-959h-244zM485 -441l62 338h244l-143 -338h-163z" />
    <glyph glyph-name="uni0146" unicode="&#x146;" horiz-adv-x="1116" 
d="M1036 632v-632h-244v568q0 59 -29 107.5t-77.5 77t-107.5 28.5t-107.5 -28.5t-77 -77t-28.5 -107.5v-568h-244l-1 1000h244l1 -89q51 54 122 85.5t153 31.5q109 0 199 -53.5t143.5 -143t53.5 -199.5zM394 -441l62 338h244l-143 -338h-163z" />
    <glyph glyph-name="Ncaron" unicode="&#x147;" horiz-adv-x="1339" 
d="M120 0v1400h264l591 -959v959h244v-1400h-263l-592 959v-959h-244zM533 1510l-194 288h163l167 -193l166 193h163l-191 -288h-274z" />
    <glyph glyph-name="ncaron" unicode="&#x148;" horiz-adv-x="1116" 
d="M1036 632v-632h-244v568q0 59 -29 107.5t-77.5 77t-107.5 28.5t-107.5 -28.5t-77 -77t-28.5 -107.5v-568h-244l-1 1000h244l1 -89q51 54 122 85.5t153 31.5q109 0 199 -53.5t143.5 -143t53.5 -199.5zM457 1110l-194 288h163l167 -193l166 193h163l-191 -288h-274z" />
    <glyph glyph-name="Omacron" unicode="&#x14c;" horiz-adv-x="1540" 
d="M770 -26q-142 0 -267 56.5t-220 156.5t-149 231.5t-54 281.5t54 281.5t149 231.5t220 156.5t267 56.5q143 0 268 -56.5t220 -156.5t148.5 -231.5t53.5 -281.5t-53.5 -281.5t-148.5 -231.5t-220 -156.5t-268 -56.5zM770 218q92 0 173 38t142.5 104.5t96 153.5t34.5 186
t-35 186.5t-96.5 153.5t-142 104t-172.5 38t-173 -38t-142.5 -104.5t-96 -153.5t-34.5 -186q0 -100 35 -187t96.5 -153.5t142 -104t172.5 -37.5zM432 1727h676v-183h-676v183z" />
    <glyph glyph-name="omacron" unicode="&#x14d;" horiz-adv-x="1120" 
d="M560 -26q-138 0 -251.5 71t-181 190.5t-67.5 264.5q0 110 39 205.5t107.5 168t159.5 113.5t194 41q138 0 251.5 -71t181 -191t67.5 -266q0 -109 -39 -204t-107.5 -167.5t-159 -113.5t-194.5 -41zM560 218q73 0 131 39t91.5 103t33.5 140q0 78 -34.5 142.5t-93 103
t-128.5 38.5q-72 0 -130 -39t-92 -104t-34 -141q0 -79 35 -143t93.5 -101.5t127.5 -37.5zM222 1327h676v-183h-676v183z" />
    <glyph glyph-name="Ohungarumlaut" unicode="&#x150;" horiz-adv-x="1540" 
d="M770 -26q-142 0 -267 56.5t-220 156.5t-149 231.5t-54 281.5t54 281.5t149 231.5t220 156.5t267 56.5q143 0 268 -56.5t220 -156.5t148.5 -231.5t53.5 -281.5t-53.5 -281.5t-148.5 -231.5t-220 -156.5t-268 -56.5zM770 218q92 0 173 38t142.5 104.5t96 153.5t34.5 186
t-35 186.5t-96.5 153.5t-142 104t-172.5 38t-173 -38t-142.5 -104.5t-96 -153.5t-34.5 -186q0 -100 35 -187t96.5 -153.5t142 -104t172.5 -37.5zM884 1510l80 288h244l-162 -288h-162zM549 1510l80 288h244l-162 -288h-162z" />
    <glyph glyph-name="ohungarumlaut" unicode="&#x151;" horiz-adv-x="1120" 
d="M560 -26q-138 0 -251.5 71t-181 190.5t-67.5 264.5q0 110 39 205.5t107.5 168t159.5 113.5t194 41q138 0 251.5 -71t181 -191t67.5 -266q0 -109 -39 -204t-107.5 -167.5t-159 -113.5t-194.5 -41zM560 218q73 0 131 39t91.5 103t33.5 140q0 78 -34.5 142.5t-93 103
t-128.5 38.5q-72 0 -130 -39t-92 -104t-34 -141q0 -79 35 -143t93.5 -101.5t127.5 -37.5zM674 1110l80 288h244l-162 -288h-162zM339 1110l80 288h244l-162 -288h-162z" />
    <glyph glyph-name="OE" unicode="&#x152;" horiz-adv-x="2122" 
d="M770 -26q-142 0 -267 56.5t-220 156.5t-149 231.5t-54 281.5t54 281.5t149 231.5t220 156.5t267 56.5q89 0 170.5 -25t152.5 -69.5t126 -105.5v174h803v-244h-559v-334h463v-244h-463v-334h559v-244h-803v174q-55 -61 -126 -105.5t-152.5 -69.5t-170.5 -25zM770 218
q92 0 173 38t142.5 104.5t96 153.5t34.5 186t-35 186.5t-96.5 153.5t-142 104t-172.5 38t-173 -38t-142.5 -104.5t-96 -153.5t-34.5 -186q0 -100 35 -187t96.5 -153.5t142 -104t172.5 -37.5z" />
    <glyph glyph-name="oe" unicode="&#x153;" horiz-adv-x="1874" 
d="M560 -26q-138 0 -251.5 71t-181 190.5t-67.5 264.5q0 110 39 205.5t107.5 168t159.5 113.5t194 41q77 0 147.5 -24.5t129 -68.5t101.5 -103q43 59 101.5 103t129 68.5t147.5 24.5q116 0 213.5 -49t166 -134.5t99 -195.5t13.5 -231h-730q14 -57 46 -101.5t80.5 -71
t111.5 -27.5q64 0 116.5 31t86.5 85l249 -58q-60 -133 -181 -217.5t-271 -84.5q-77 0 -147.5 24.5t-129 68.5t-101.5 103q-43 -59 -101.5 -103t-129 -68.5t-147.5 -24.5zM560 218q73 0 131 39t91.5 103t33.5 140q0 78 -34.5 142.5t-93 103t-128.5 38.5q-72 0 -130 -39
t-92 -104t-34 -141q0 -79 35 -143t93.5 -101.5t127.5 -37.5zM1069 601h492q-12 60 -47 108.5t-86.5 77t-111.5 28.5q-61 0 -112.5 -28t-86.5 -76.5t-48 -109.5z" />
    <glyph glyph-name="Racute" unicode="&#x154;" horiz-adv-x="1213" 
d="M120 0v1400h537q114 0 206 -57t146 -152.5t54 -211.5q0 -95 -34.5 -174.5t-96 -137.5t-141.5 -88l335 -579h-281l-324 557h-157v-557h-244zM364 801h265q52 0 95 26t69 70t26 98q0 55 -26 99t-69 70t-95 26h-265v-389zM430 1510l80 288h244l-162 -288h-162z" />
    <glyph glyph-name="racute" unicode="&#x155;" horiz-adv-x="770" 
d="M121 0l-1 1000h244l1 -89q51 54 122 85.5t153 31.5q55 0 110 -16l-96 -246q-38 15 -76 15q-59 0 -107.5 -28.5t-77 -77t-28.5 -107.5v-568h-244zM377 1110l80 288h244l-162 -288h-162z" />
    <glyph glyph-name="uni0156" unicode="&#x156;" horiz-adv-x="1213" 
d="M120 0v1400h537q114 0 206 -57t146 -152.5t54 -211.5q0 -95 -34.5 -174.5t-96 -137.5t-141.5 -88l335 -579h-281l-324 557h-157v-557h-244zM364 801h265q52 0 95 26t69 70t26 98q0 55 -26 99t-69 70t-95 26h-265v-389zM419 -441l62 338h244l-143 -338h-163z" />
    <glyph glyph-name="uni0157" unicode="&#x157;" horiz-adv-x="770" 
d="M121 0l-1 1000h244l1 -89q51 54 122 85.5t153 31.5q55 0 110 -16l-96 -246q-38 15 -76 15q-59 0 -107.5 -28.5t-77 -77t-28.5 -107.5v-568h-244zM58 -441l62 338h244l-143 -338h-163z" />
    <glyph glyph-name="Rcaron" unicode="&#x158;" horiz-adv-x="1213" 
d="M120 0v1400h537q114 0 206 -57t146 -152.5t54 -211.5q0 -95 -34.5 -174.5t-96 -137.5t-141.5 -88l335 -579h-281l-324 557h-157v-557h-244zM364 801h265q52 0 95 26t69 70t26 98q0 55 -26 99t-69 70t-95 26h-265v-389zM357 1510l-194 288h163l167 -193l166 193h163
l-191 -288h-274z" />
    <glyph glyph-name="rcaron" unicode="&#x159;" horiz-adv-x="770" 
d="M121 0l-1 1000h244l1 -89q51 54 122 85.5t153 31.5q55 0 110 -16l-96 -246q-38 15 -76 15q-59 0 -107.5 -28.5t-77 -77t-28.5 -107.5v-568h-244zM304 1110l-194 288h163l167 -193l166 193h163l-191 -288h-274z" />
    <glyph glyph-name="Sacute" unicode="&#x15a;" horiz-adv-x="1249" 
d="M624 -26q-116 0 -222.5 36.5t-186.5 105t-115 164.5l229 84q14 -40 57 -73t105 -53t133 -20q73 0 136.5 22.5t102.5 63t39 94.5q0 55 -41 90.5t-105 56.5t-132 32q-149 23 -267 71t-186.5 133t-68.5 220q0 127 73 222t192 148t257 53q115 0 222 -36t187.5 -105
t115.5 -166l-230 -83q-14 40 -57 73t-105 52.5t-133 19.5q-71 1 -134.5 -22.5t-103.5 -63.5t-40 -92q0 -67 37.5 -101t100.5 -49.5t140 -28.5q140 -22 259 -74t191 -138.5t72 -211.5q0 -127 -72 -222.5t-191 -148.5t-259 -53zM561 1510l80 288h244l-162 -288h-162z" />
    <glyph glyph-name="sacute" unicode="&#x15b;" horiz-adv-x="869" 
d="M415 -18q-78 5 -150.5 31.5t-128.5 72.5t-86 110l206 88q12 -20 39 -42.5t64.5 -37.5t82.5 -15q38 0 72.5 10.5t56 32.5t21.5 57q0 37 -25.5 57.5t-64 31t-74.5 19.5q-95 19 -176.5 59t-131 103.5t-49.5 153.5q0 99 52.5 171t137 111t182.5 39q119 0 218.5 -49.5
t157.5 -139.5l-193 -114q-14 24 -39 44.5t-57 34t-67 15.5q-45 2 -82 -8t-59.5 -34t-22.5 -64q0 -38 30 -56.5t72.5 -28.5t81.5 -22q88 -29 165.5 -71t124.5 -103t45 -146q0 -97 -58 -169.5t-149.5 -110.5t-195.5 -30zM371 1110l80 288h244l-162 -288h-162z" />
    <glyph glyph-name="Scircumflex" unicode="&#x15c;" horiz-adv-x="1249" 
d="M624 -26q-116 0 -222.5 36.5t-186.5 105t-115 164.5l229 84q14 -40 57 -73t105 -53t133 -20q73 0 136.5 22.5t102.5 63t39 94.5q0 55 -41 90.5t-105 56.5t-132 32q-149 23 -267 71t-186.5 133t-68.5 220q0 127 73 222t192 148t257 53q115 0 222 -36t187.5 -105
t115.5 -166l-230 -83q-14 40 -57 73t-105 52.5t-133 19.5q-71 1 -134.5 -22.5t-103.5 -63.5t-40 -92q0 -67 37.5 -101t100.5 -49.5t140 -28.5q140 -22 259 -74t191 -138.5t72 -211.5q0 -127 -72 -222.5t-191 -148.5t-259 -53zM761 1798l194 -288h-163l-168 193l-165 -193
h-163l191 288h274z" />
    <glyph glyph-name="scircumflex" unicode="&#x15d;" horiz-adv-x="869" 
d="M415 -18q-78 5 -150.5 31.5t-128.5 72.5t-86 110l206 88q12 -20 39 -42.5t64.5 -37.5t82.5 -15q38 0 72.5 10.5t56 32.5t21.5 57q0 37 -25.5 57.5t-64 31t-74.5 19.5q-95 19 -176.5 59t-131 103.5t-49.5 153.5q0 99 52.5 171t137 111t182.5 39q119 0 218.5 -49.5
t157.5 -139.5l-193 -114q-14 24 -39 44.5t-57 34t-67 15.5q-45 2 -82 -8t-59.5 -34t-22.5 -64q0 -38 30 -56.5t72.5 -28.5t81.5 -22q88 -29 165.5 -71t124.5 -103t45 -146q0 -97 -58 -169.5t-149.5 -110.5t-195.5 -30zM571 1398l194 -288h-163l-168 193l-165 -193h-163
l191 288h274z" />
    <glyph glyph-name="Scedilla" unicode="&#x15e;" horiz-adv-x="1249" 
d="M624 -26q-116 0 -222.5 36.5t-186.5 105t-115 164.5l229 84q14 -40 57 -73t105 -53t133 -20q73 0 136.5 22.5t102.5 63t39 94.5q0 55 -41 90.5t-105 56.5t-132 32q-149 23 -267 71t-186.5 133t-68.5 220q0 127 73 222t192 148t257 53q115 0 222 -36t187.5 -105
t115.5 -166l-230 -83q-14 40 -57 73t-105 52.5t-133 19.5q-71 1 -134.5 -22.5t-103.5 -63.5t-40 -92q0 -67 37.5 -101t100.5 -49.5t140 -28.5q140 -22 259 -74t191 -138.5t72 -211.5q0 -127 -72 -222.5t-191 -148.5t-259 -53zM710 -376q-71 -19 -135 18t-83 108l124 33
q5 -19 23 -29t38 -5t30.5 22.5t4.5 38.5q-5 20 -22 28.5t-39 6.5l-128 -5l141 248l112 -66l-38 -65q36 -14 62.5 -44t36.5 -71q19 -71 -18 -135t-109 -83z" />
    <glyph glyph-name="scedilla" unicode="&#x15f;" horiz-adv-x="869" 
d="M415 -18q-78 5 -150.5 31.5t-128.5 72.5t-86 110l206 88q12 -20 39 -42.5t64.5 -37.5t82.5 -15q38 0 72.5 10.5t56 32.5t21.5 57q0 37 -25.5 57.5t-64 31t-74.5 19.5q-95 19 -176.5 59t-131 103.5t-49.5 153.5q0 99 52.5 171t137 111t182.5 39q119 0 218.5 -49.5
t157.5 -139.5l-193 -114q-14 24 -39 44.5t-57 34t-67 15.5q-45 2 -82 -8t-59.5 -34t-22.5 -64q0 -38 30 -56.5t72.5 -28.5t81.5 -22q88 -29 165.5 -71t124.5 -103t45 -146q0 -97 -58 -169.5t-149.5 -110.5t-195.5 -30zM500 -376q-71 -19 -135 18t-83 108l124 33
q5 -19 23 -29t38 -5t30.5 22.5t4.5 38.5q-5 20 -22 28.5t-39 6.5l-128 -5l141 248l112 -66l-38 -65q36 -14 62.5 -44t36.5 -71q19 -71 -18 -135t-109 -83z" />
    <glyph glyph-name="Scaron" unicode="&#x160;" horiz-adv-x="1249" 
d="M624 -26q-116 0 -222.5 36.5t-186.5 105t-115 164.5l229 84q14 -40 57 -73t105 -53t133 -20q73 0 136.5 22.5t102.5 63t39 94.5q0 55 -41 90.5t-105 56.5t-132 32q-149 23 -267 71t-186.5 133t-68.5 220q0 127 73 222t192 148t257 53q115 0 222 -36t187.5 -105
t115.5 -166l-230 -83q-14 40 -57 73t-105 52.5t-133 19.5q-71 1 -134.5 -22.5t-103.5 -63.5t-40 -92q0 -67 37.5 -101t100.5 -49.5t140 -28.5q140 -22 259 -74t191 -138.5t72 -211.5q0 -127 -72 -222.5t-191 -148.5t-259 -53zM488 1510l-194 288h163l167 -193l166 193h163
l-191 -288h-274z" />
    <glyph glyph-name="scaron" unicode="&#x161;" horiz-adv-x="869" 
d="M415 -18q-78 5 -150.5 31.5t-128.5 72.5t-86 110l206 88q12 -20 39 -42.5t64.5 -37.5t82.5 -15q38 0 72.5 10.5t56 32.5t21.5 57q0 37 -25.5 57.5t-64 31t-74.5 19.5q-95 19 -176.5 59t-131 103.5t-49.5 153.5q0 99 52.5 171t137 111t182.5 39q119 0 218.5 -49.5
t157.5 -139.5l-193 -114q-14 24 -39 44.5t-57 34t-67 15.5q-45 2 -82 -8t-59.5 -34t-22.5 -64q0 -38 30 -56.5t72.5 -28.5t81.5 -22q88 -29 165.5 -71t124.5 -103t45 -146q0 -97 -58 -169.5t-149.5 -110.5t-195.5 -30zM298 1110l-194 288h163l167 -193l166 193h163
l-191 -288h-274z" />
    <glyph glyph-name="uni0162" unicode="&#x162;" horiz-adv-x="1259" 
d="M1180 1400v-244h-428v-1156h-244v1156h-428v244h1100zM637 -376q-71 -19 -135 18t-83 108l124 33q5 -19 23 -29t38 -5t30.5 22.5t4.5 38.5q-5 20 -22 28.5t-39 6.5l-128 -5l141 248l112 -66l-38 -65q36 -14 62.5 -44t36.5 -71q19 -71 -18 -135t-109 -83z" />
    <glyph glyph-name="uni0163" unicode="&#x163;" horiz-adv-x="716" 
d="M656 756h-194v-756h-244v756h-148v244h148v314h244v-314h194v-244zM348 -376q-71 -19 -135 18t-83 108l124 33q5 -19 23 -29t38 -5t30.5 22.5t4.5 38.5q-5 20 -22 28.5t-39 6.5l-128 -5l141 248l112 -66l-38 -65q36 -14 62.5 -44t36.5 -71q19 -71 -18 -135t-109 -83z" />
    <glyph glyph-name="Tcaron" unicode="&#x164;" horiz-adv-x="1259" 
d="M1180 1400v-244h-428v-1156h-244v1156h-428v244h1100zM493 1510l-194 288h163l167 -193l166 193h163l-191 -288h-274z" />
    <glyph glyph-name="tcaron" unicode="&#x165;" horiz-adv-x="716" 
d="M656 756h-194v-756h-244v756h-148v244h148v314h244v-314h194v-244zM531 1212l80 288h244l-162 -288h-162z" />
    <glyph glyph-name="Utilde" unicode="&#x168;" horiz-adv-x="1360" 
d="M681 -26q-168 0 -294.5 82t-196.5 220.5t-70 307.5v816h244v-816q0 -100 37.5 -183.5t108 -133t171.5 -49.5q102 0 172 49.5t106.5 133t36.5 183.5v816h244v-816q0 -127 -40 -237.5t-114 -194.5t-176.5 -131t-228.5 -47zM835 1505q-37 0 -87.5 26t-101 58t-88 51.5
t-50.5 5.5q-13 -13 -16 -33.5t7 -53.5l-143 -39q-27 78 -13.5 142t60 102.5t120.5 38.5q37 0 84.5 -21.5t95.5 -50t85 -50t53 -21.5q20 0 26 14t3 34t-10 38l145 47q27 -82 11.5 -147t-63 -103t-118.5 -38z" />
    <glyph glyph-name="utilde" unicode="&#x169;" horiz-adv-x="1076" 
d="M80 370v630h244v-566q0 -59 29 -107.5t77.5 -77t106.5 -28.5q60 0 108 28.5t77 77t29 107.5v566h244l1 -1000h-244l-1 91q-52 -54 -123 -85.5t-152 -31.5q-109 0 -199 53.5t-143.5 143t-53.5 199.5zM723 1107q-37 0 -87.5 26t-101 58t-88 51.5t-50.5 5.5
q-13 -13 -16 -33.5t7 -53.5l-143 -39q-27 78 -13.5 142t60 102.5t120.5 38.5q37 0 84.5 -21.5t95.5 -50t85 -50t53 -21.5q20 0 26 14t3 34t-10 38l145 47q27 -82 11.5 -147t-63 -103t-118.5 -38z" />
    <glyph glyph-name="Umacron" unicode="&#x16a;" horiz-adv-x="1360" 
d="M681 -26q-168 0 -294.5 82t-196.5 220.5t-70 307.5v816h244v-816q0 -100 37.5 -183.5t108 -133t171.5 -49.5q102 0 172 49.5t106.5 133t36.5 183.5v816h244v-816q0 -127 -40 -237.5t-114 -194.5t-176.5 -131t-228.5 -47zM342 1727h676v-183h-676v183z" />
    <glyph glyph-name="umacron" unicode="&#x16b;" horiz-adv-x="1076" 
d="M80 370v630h244v-566q0 -59 29 -107.5t77.5 -77t106.5 -28.5q60 0 108 28.5t77 77t29 107.5v566h244l1 -1000h-244l-1 91q-52 -54 -123 -85.5t-152 -31.5q-109 0 -199 53.5t-143.5 143t-53.5 199.5zM229 1329h676v-183h-676v183z" />
    <glyph glyph-name="Ubreve" unicode="&#x16c;" horiz-adv-x="1360" 
d="M681 -26q-168 0 -294.5 82t-196.5 220.5t-70 307.5v816h244v-816q0 -100 37.5 -183.5t108 -133t171.5 -49.5q102 0 172 49.5t106.5 133t36.5 183.5v816h244v-816q0 -127 -40 -237.5t-114 -194.5t-176.5 -131t-228.5 -47zM680 1488q-91 0 -166.5 45t-120.5 120.5
t-45 166.5h152q0 -49 24.5 -90t65.5 -65.5t90 -24.5q50 0 90.5 24t65 65t24.5 91h152q0 -93 -45 -168.5t-120.5 -119.5t-166.5 -44z" />
    <glyph glyph-name="ubreve" unicode="&#x16d;" horiz-adv-x="1076" 
d="M80 370v630h244v-566q0 -59 29 -107.5t77.5 -77t106.5 -28.5q60 0 108 28.5t77 77t29 107.5v566h244l1 -1000h-244l-1 91q-52 -54 -123 -85.5t-152 -31.5q-109 0 -199 53.5t-143.5 143t-53.5 199.5zM567 1090q-91 0 -166.5 45t-120.5 120.5t-45 166.5h152q0 -49 24.5 -90
t65.5 -65.5t90 -24.5q50 0 90.5 24t65 65t24.5 91h152q0 -93 -45 -168.5t-120.5 -119.5t-166.5 -44z" />
    <glyph glyph-name="Uring" unicode="&#x16e;" horiz-adv-x="1360" 
d="M681 -26q-168 0 -294.5 82t-196.5 220.5t-70 307.5v816h244v-816q0 -100 37.5 -183.5t108 -133t171.5 -49.5q102 0 172 49.5t106.5 133t36.5 183.5v816h244v-816q0 -127 -40 -237.5t-114 -194.5t-176.5 -131t-228.5 -47zM680 1468q-77 0 -131.5 56t-54.5 132q0 50 25 92
t67.5 67t93.5 25q76 0 130.5 -54.5t54.5 -129.5q0 -78 -54.5 -133t-130.5 -55zM680 1587q27 0 47 20t20 48q0 27 -20 46.5t-47 19.5q-28 0 -47.5 -19.5t-19.5 -45.5q0 -29 19.5 -49t47.5 -20z" />
    <glyph glyph-name="uring" unicode="&#x16f;" horiz-adv-x="1076" 
d="M80 370v630h244v-566q0 -59 29 -107.5t77.5 -77t106.5 -28.5q60 0 108 28.5t77 77t29 107.5v566h244l1 -1000h-244l-1 91q-52 -54 -123 -85.5t-152 -31.5q-109 0 -199 53.5t-143.5 143t-53.5 199.5zM568 1070q-77 0 -131.5 56t-54.5 132q0 50 25 92t67.5 67t93.5 25
q76 0 130.5 -54.5t54.5 -129.5q0 -78 -54.5 -133t-130.5 -55zM568 1189q27 0 47 20t20 48q0 27 -20 46.5t-47 19.5q-28 0 -47.5 -19.5t-19.5 -45.5q0 -29 19.5 -49t47.5 -20z" />
    <glyph glyph-name="Uhungarumlaut" unicode="&#x170;" horiz-adv-x="1360" 
d="M681 -26q-168 0 -294.5 82t-196.5 220.5t-70 307.5v816h244v-816q0 -100 37.5 -183.5t108 -133t171.5 -49.5q102 0 172 49.5t106.5 133t36.5 183.5v816h244v-816q0 -127 -40 -237.5t-114 -194.5t-176.5 -131t-228.5 -47zM794 1510l80 288h244l-162 -288h-162zM459 1510
l80 288h244l-162 -288h-162z" />
    <glyph glyph-name="uhungarumlaut" unicode="&#x171;" horiz-adv-x="1076" 
d="M80 370v630h244v-566q0 -59 29 -107.5t77.5 -77t106.5 -28.5q60 0 108 28.5t77 77t29 107.5v566h244l1 -1000h-244l-1 91q-52 -54 -123 -85.5t-152 -31.5q-109 0 -199 53.5t-143.5 143t-53.5 199.5zM682 1112l80 288h244l-162 -288h-162zM347 1112l80 288h244l-162 -288
h-162z" />
    <glyph glyph-name="Uogonek" unicode="&#x172;" horiz-adv-x="1360" 
d="M681 -26q-168 0 -294.5 82t-196.5 220.5t-70 307.5v816h244v-816q0 -100 37.5 -183.5t108 -133t171.5 -49.5q102 0 172 49.5t106.5 133t36.5 183.5v816h244v-816q0 -127 -40 -237.5t-114 -194.5t-176.5 -131t-228.5 -47zM711 -456q-71 1 -123.5 35t-81.5 88t-29 114
q0 45 16.5 87.5t52.5 78.5l168 168l119 -119q-37 -37 -69 -67.5t-55.5 -57t-37 -51t-13.5 -48.5t17 -43.5t46 -20.5q38 0 66.5 27.5t28.5 68.5h155q0 -70 -34 -129t-93 -95t-133 -36z" />
    <glyph glyph-name="uogonek" unicode="&#x173;" horiz-adv-x="1076" 
d="M80 370v630h244v-566q0 -59 29 -107.5t77.5 -77t106.5 -28.5q60 0 108 28.5t77 77t29 107.5v566h244l1 -1000h-244l-1 91q-52 -54 -123 -85.5t-152 -31.5q-109 0 -199 53.5t-143.5 143t-53.5 199.5zM873 -450q-71 1 -123.5 35t-81.5 88t-29 114q0 45 16.5 87.5t52.5 78.5
l168 168l119 -119q-37 -37 -69 -67.5t-55.5 -57t-37 -51t-13.5 -48.5t17 -43.5t46 -20.5q38 0 66.5 27.5t28.5 68.5h155q0 -70 -34 -129t-93 -95t-133 -36z" />
    <glyph glyph-name="Wcircumflex" unicode="&#x174;" horiz-adv-x="1865" 
d="M439 0l-358 1400h252l244 -957l244 957h223l244 -957l243 957h252l-356 -1400h-277l-218 848l-215 -848h-278zM1069 1798l194 -288h-163l-168 193l-165 -193h-163l191 288h274z" />
    <glyph glyph-name="wcircumflex" unicode="&#x175;" horiz-adv-x="1705" 
d="M636 0h-242l-334 1000h239l217 -647l216 647h241l216 -647l217 647h239l-334 -1000h-242l-217 650zM989 1398l194 -288h-163l-168 193l-165 -193h-163l191 288h274z" />
    <glyph glyph-name="Ycircumflex" unicode="&#x176;" horiz-adv-x="1326" 
d="M978 1400h288l-481 -769v-631h-244v631l-481 769h288l315 -503zM800 1798l194 -288h-163l-168 193l-165 -193h-163l191 288h274z" />
    <glyph glyph-name="ycircumflex" unicode="&#x177;" horiz-adv-x="1145" 
d="M806 1000h259l-547 -1500h-259l181 500l-360 1000h267l215 -666zM709 1398l194 -288h-163l-168 193l-165 -193h-163l191 288h274z" />
    <glyph glyph-name="Ydieresis" unicode="&#x178;" horiz-adv-x="1326" 
d="M978 1400h288l-481 -769v-631h-244v631l-481 769h288l315 -503zM466 1470q-54 0 -91 36t-37 89t37 89.5t91 36.5q52 0 88.5 -36.5t36.5 -89.5t-36.5 -89t-88.5 -36zM862 1470q-54 0 -91 36t-37 89t37 89.5t91 36.5q52 0 89 -36.5t37 -89.5t-37 -89t-89 -36z" />
    <glyph glyph-name="Zacute" unicode="&#x179;" horiz-adv-x="1292" 
d="M80 0v244l803 912h-803v244h1132v-244l-803 -912h803v-244h-1132zM583 1510l80 288h244l-162 -288h-162z" />
    <glyph glyph-name="zacute" unicode="&#x17a;" horiz-adv-x="1014" 
d="M934 756l-503 -512h503v-244h-854v244l503 512h-503v244h854v-244zM444 1110l80 288h244l-162 -288h-162z" />
    <glyph glyph-name="Zdotaccent" unicode="&#x17b;" horiz-adv-x="1292" 
d="M80 0v244l803 912h-803v244h1132v-244l-803 -912h803v-244h-1132zM648 1529q-54 0 -91 35.5t-37 89.5q0 53 37 89t90 36t89.5 -36t36.5 -89q0 -54 -36 -89.5t-89 -35.5z" />
    <glyph glyph-name="zdotaccent" unicode="&#x17c;" horiz-adv-x="1014" 
d="M934 756l-503 -512h503v-244h-854v244l503 512h-503v244h854v-244zM509 1129q-54 0 -91 35.5t-37 89.5q0 53 37 89t90 36t89.5 -36t36.5 -89q0 -54 -36 -89.5t-89 -35.5z" />
    <glyph glyph-name="Zcaron" unicode="&#x17d;" horiz-adv-x="1292" 
d="M80 0v244l803 912h-803v244h1132v-244l-803 -912h803v-244h-1132zM510 1510l-194 288h163l167 -193l166 193h163l-191 -288h-274z" />
    <glyph glyph-name="zcaron" unicode="&#x17e;" horiz-adv-x="1014" 
d="M934 756l-503 -512h503v-244h-854v244l503 512h-503v244h854v-244zM371 1110l-194 288h163l167 -193l166 193h163l-191 -288h-274z" />
    <glyph glyph-name="uni01CD" unicode="&#x1cd;" horiz-adv-x="1458" 
d="M588 1400h281l509 -1400h-259l-90 248h-600l-90 -248h-259zM518 492h421l-211 577zM592 1510l-194 288h163l167 -193l166 193h163l-191 -288h-274z" />
    <glyph glyph-name="uni01CE" unicode="&#x1ce;" horiz-adv-x="1198" 
d="M874 1000h244v-1000h-244l-11 124q-41 -67 -108.5 -108.5t-159.5 -41.5q-111 0 -208 42t-170.5 116t-115 171t-41.5 208q0 107 39.5 201t110.5 165t164 111t200 40q99 0 177.5 -44t133.5 -112zM589 209q78 0 138 39t94 105.5t34 146.5q0 81 -34 147.5t-94.5 105.5
t-137.5 39t-140.5 -39.5t-101 -105.5t-37.5 -147t38 -147t101.5 -105t139.5 -39zM477 1110l-194 288h163l167 -193l166 193h163l-191 -288h-274z" />
    <glyph glyph-name="uni01CF" unicode="&#x1cf;" horiz-adv-x="544" 
d="M150 0v1400h244v-1400h-244zM136 1510l-194 288h163l167 -193l166 193h163l-191 -288h-274z" />
    <glyph glyph-name="uni01D0" unicode="&#x1d0;" 
d="M120 1000h244v-1000h-244v1000zM106 1110l-194 288h163l167 -193l166 193h163l-191 -288h-274z" />
    <glyph glyph-name="uni01D1" unicode="&#x1d1;" horiz-adv-x="1540" 
d="M770 -26q-142 0 -267 56.5t-220 156.5t-149 231.5t-54 281.5t54 281.5t149 231.5t220 156.5t267 56.5q143 0 268 -56.5t220 -156.5t148.5 -231.5t53.5 -281.5t-53.5 -281.5t-148.5 -231.5t-220 -156.5t-268 -56.5zM770 218q92 0 173 38t142.5 104.5t96 153.5t34.5 186
t-35 186.5t-96.5 153.5t-142 104t-172.5 38t-173 -38t-142.5 -104.5t-96 -153.5t-34.5 -186q0 -100 35 -187t96.5 -153.5t142 -104t172.5 -37.5zM634 1510l-194 288h163l167 -193l166 193h163l-191 -288h-274z" />
    <glyph glyph-name="uni01D2" unicode="&#x1d2;" horiz-adv-x="1120" 
d="M560 -26q-138 0 -251.5 71t-181 190.5t-67.5 264.5q0 110 39 205.5t107.5 168t159.5 113.5t194 41q138 0 251.5 -71t181 -191t67.5 -266q0 -109 -39 -204t-107.5 -167.5t-159 -113.5t-194.5 -41zM560 218q73 0 131 39t91.5 103t33.5 140q0 78 -34.5 142.5t-93 103
t-128.5 38.5q-72 0 -130 -39t-92 -104t-34 -141q0 -79 35 -143t93.5 -101.5t127.5 -37.5zM424 1110l-194 288h163l167 -193l166 193h163l-191 -288h-274z" />
    <glyph glyph-name="uni01D3" unicode="&#x1d3;" horiz-adv-x="1360" 
d="M681 -26q-168 0 -294.5 82t-196.5 220.5t-70 307.5v816h244v-816q0 -100 37.5 -183.5t108 -133t171.5 -49.5q102 0 172 49.5t106.5 133t36.5 183.5v816h244v-816q0 -127 -40 -237.5t-114 -194.5t-176.5 -131t-228.5 -47zM543 1510l-194 288h163l167 -193l166 193h163
l-191 -288h-274z" />
    <glyph glyph-name="uni01D4" unicode="&#x1d4;" horiz-adv-x="1076" 
d="M80 370v630h244v-566q0 -59 29 -107.5t77.5 -77t106.5 -28.5q60 0 108 28.5t77 77t29 107.5v566h244l1 -1000h-244l-1 91q-52 -54 -123 -85.5t-152 -31.5q-109 0 -199 53.5t-143.5 143t-53.5 199.5zM431 1112l-194 288h163l167 -193l166 193h163l-191 -288h-274z" />
    <glyph glyph-name="uni01D5" unicode="&#x1d5;" horiz-adv-x="1360" 
d="M681 -26q-168 0 -294.5 82t-196.5 220.5t-70 307.5v816h244v-816q0 -100 37.5 -183.5t108 -133t171.5 -49.5q102 0 172 49.5t106.5 133t36.5 183.5v816h244v-816q0 -127 -40 -237.5t-114 -194.5t-176.5 -131t-228.5 -47zM483 1470q-54 0 -91 36t-37 89t37 89.5t91 36.5
q52 0 88.5 -36.5t36.5 -89.5t-36.5 -89t-88.5 -36zM879 1470q-54 0 -91 36t-37 89t37 89.5t91 36.5q52 0 89 -36.5t37 -89.5t-37 -89t-89 -36zM342 2010h676v-183h-676v183z" />
    <glyph glyph-name="uni01D6" unicode="&#x1d6;" horiz-adv-x="1076" 
d="M80 370v630h244v-566q0 -59 29 -107.5t77.5 -77t106.5 -28.5q60 0 108 28.5t77 77t29 107.5v566h244l1 -1000h-244l-1 91q-52 -54 -123 -85.5t-152 -31.5q-109 0 -199 53.5t-143.5 143t-53.5 199.5zM371 1072q-54 0 -91 36t-37 89t37 89.5t91 36.5q52 0 88.5 -36.5
t36.5 -89.5t-36.5 -89t-88.5 -36zM767 1072q-54 0 -91 36t-37 89t37 89.5t91 36.5q52 0 89 -36.5t37 -89.5t-37 -89t-89 -36zM229 1611h676v-183h-676v183z" />
    <glyph glyph-name="uni01D7" unicode="&#x1d7;" horiz-adv-x="1360" 
d="M681 -26q-168 0 -294.5 82t-196.5 220.5t-70 307.5v816h244v-816q0 -100 37.5 -183.5t108 -133t171.5 -49.5q102 0 172 49.5t106.5 133t36.5 183.5v816h244v-816q0 -127 -40 -237.5t-114 -194.5t-176.5 -131t-228.5 -47zM483 1470q-54 0 -91 36t-37 89t37 89.5t91 36.5
q52 0 88.5 -36.5t36.5 -89.5t-36.5 -89t-88.5 -36zM879 1470q-54 0 -91 36t-37 89t37 89.5t91 36.5q52 0 89 -36.5t37 -89.5t-37 -89t-89 -36zM616 1793l80 288h244l-162 -288h-162z" />
    <glyph glyph-name="uni01D8" unicode="&#x1d8;" horiz-adv-x="1076" 
d="M80 370v630h244v-566q0 -59 29 -107.5t77.5 -77t106.5 -28.5q60 0 108 28.5t77 77t29 107.5v566h244l1 -1000h-244l-1 91q-52 -54 -123 -85.5t-152 -31.5q-109 0 -199 53.5t-143.5 143t-53.5 199.5zM371 1072q-54 0 -91 36t-37 89t37 89.5t91 36.5q52 0 88.5 -36.5
t36.5 -89.5t-36.5 -89t-88.5 -36zM767 1072q-54 0 -91 36t-37 89t37 89.5t91 36.5q52 0 89 -36.5t37 -89.5t-37 -89t-89 -36zM504 1394l80 288h244l-162 -288h-162z" />
    <glyph glyph-name="uni01D9" unicode="&#x1d9;" horiz-adv-x="1360" 
d="M681 -26q-168 0 -294.5 82t-196.5 220.5t-70 307.5v816h244v-816q0 -100 37.5 -183.5t108 -133t171.5 -49.5q102 0 172 49.5t106.5 133t36.5 183.5v816h244v-816q0 -127 -40 -237.5t-114 -194.5t-176.5 -131t-228.5 -47zM483 1470q-54 0 -91 36t-37 89t37 89.5t91 36.5
q52 0 88.5 -36.5t36.5 -89.5t-36.5 -89t-88.5 -36zM879 1470q-54 0 -91 36t-37 89t37 89.5t91 36.5q52 0 89 -36.5t37 -89.5t-37 -89t-89 -36zM543 1793l-194 288h163l167 -193l166 193h163l-191 -288h-274z" />
    <glyph glyph-name="uni01DA" unicode="&#x1da;" horiz-adv-x="1076" 
d="M80 370v630h244v-566q0 -59 29 -107.5t77.5 -77t106.5 -28.5q60 0 108 28.5t77 77t29 107.5v566h244l1 -1000h-244l-1 91q-52 -54 -123 -85.5t-152 -31.5q-109 0 -199 53.5t-143.5 143t-53.5 199.5zM371 1072q-54 0 -91 36t-37 89t37 89.5t91 36.5q52 0 88.5 -36.5
t36.5 -89.5t-36.5 -89t-88.5 -36zM767 1072q-54 0 -91 36t-37 89t37 89.5t91 36.5q52 0 89 -36.5t37 -89.5t-37 -89t-89 -36zM431 1394l-194 288h163l167 -193l166 193h163l-191 -288h-274z" />
    <glyph glyph-name="uni01DB" unicode="&#x1db;" horiz-adv-x="1360" 
d="M681 -26q-168 0 -294.5 82t-196.5 220.5t-70 307.5v816h244v-816q0 -100 37.5 -183.5t108 -133t171.5 -49.5q102 0 172 49.5t106.5 133t36.5 183.5v816h244v-816q0 -127 -40 -237.5t-114 -194.5t-176.5 -131t-228.5 -47zM483 1470q-54 0 -91 36t-37 89t37 89.5t91 36.5
q52 0 88.5 -36.5t36.5 -89.5t-36.5 -89t-88.5 -36zM879 1470q-54 0 -91 36t-37 89t37 89.5t91 36.5q52 0 89 -36.5t37 -89.5t-37 -89t-89 -36zM419 2081h244l80 -288h-163z" />
    <glyph glyph-name="uni01DC" unicode="&#x1dc;" horiz-adv-x="1076" 
d="M80 370v630h244v-566q0 -59 29 -107.5t77.5 -77t106.5 -28.5q60 0 108 28.5t77 77t29 107.5v566h244l1 -1000h-244l-1 91q-52 -54 -123 -85.5t-152 -31.5q-109 0 -199 53.5t-143.5 143t-53.5 199.5zM371 1072q-54 0 -91 36t-37 89t37 89.5t91 36.5q52 0 88.5 -36.5
t36.5 -89.5t-36.5 -89t-88.5 -36zM767 1072q-54 0 -91 36t-37 89t37 89.5t91 36.5q52 0 89 -36.5t37 -89.5t-37 -89t-89 -36zM306 1682h244l80 -288h-163z" />
    <glyph glyph-name="uni01DE" unicode="&#x1de;" horiz-adv-x="1458" 
d="M588 1400h281l509 -1400h-259l-90 248h-600l-90 -248h-259zM518 492h421l-211 577zM532 1470q-54 0 -91 36t-37 89t37 89.5t91 36.5q52 0 88.5 -36.5t36.5 -89.5t-36.5 -89t-88.5 -36zM928 1470q-54 0 -91 36t-37 89t37 89.5t91 36.5q52 0 89 -36.5t37 -89.5t-37 -89
t-89 -36zM391 2010h676v-183h-676v183z" />
    <glyph glyph-name="uni01DF" unicode="&#x1df;" horiz-adv-x="1198" 
d="M874 1000h244v-1000h-244l-11 124q-41 -67 -108.5 -108.5t-159.5 -41.5q-111 0 -208 42t-170.5 116t-115 171t-41.5 208q0 107 39.5 201t110.5 165t164 111t200 40q99 0 177.5 -44t133.5 -112zM589 209q78 0 138 39t94 105.5t34 146.5q0 81 -34 147.5t-94.5 105.5
t-137.5 39t-140.5 -39.5t-101 -105.5t-37.5 -147t38 -147t101.5 -105t139.5 -39zM417 1070q-54 0 -91 36t-37 89t37 89.5t91 36.5q52 0 88.5 -36.5t36.5 -89.5t-36.5 -89t-88.5 -36zM813 1070q-54 0 -91 36t-37 89t37 89.5t91 36.5q52 0 89 -36.5t37 -89.5t-37 -89t-89 -36z
M276 1610h676v-183h-676v183z" />
    <glyph glyph-name="uni01E2" unicode="&#x1e2;" horiz-adv-x="1678" 
d="M80 0l508 1400h990v-244h-494v-334h398v-244h-398v-334h494v-244h-738v248h-411l-90 -248h-259zM518 492h322v664h-80zM745 1727h676v-183h-676v183z" />
    <glyph glyph-name="uni01E3" unicode="&#x1e3;" horiz-adv-x="1729" 
d="M357 -26q-94 0 -168 42.5t-116.5 114t-42.5 156.5q0 83 42 154.5t115.5 115t167.5 43.5h306q-8 51 -35.5 93t-72 66.5t-103.5 24.5q-78 0 -143 -39l-135 204q63 40 133 59.5t142 19.5q108 0 202 -47t157 -131q43 54 100 94t124 62t140 22q118 0 215 -49.5t165 -135.5
t98.5 -196t13.5 -230h-730q13 -57 46 -101.5t82 -71t112 -26.5t115 31t87 85l249 -58q-61 -133 -182 -217.5t-271 -84.5q-81 0 -154.5 26.5t-134 74t-104.5 111.5q-37 -56 -101 -104.5t-146 -78t-173 -29.5zM357 188q76 0 137.5 33t101.5 86q39 47 64 110h-305
q-48 0 -80 -32.5t-32 -79.5q0 -45 31.5 -81t82.5 -36zM924 600h492q-12 60 -47.5 108.5t-87 77.5t-111.5 29t-111.5 -28.5t-86.5 -77t-48 -109.5zM468 1329h676v-183h-676v183z" />
    <glyph glyph-name="Gcaron" unicode="&#x1e6;" horiz-adv-x="1536" 
d="M768 -26q-146 0 -271.5 57t-218.5 157.5t-145.5 232t-52.5 281.5q0 158 56.5 290t154.5 229t222.5 150t259.5 53q151 0 293.5 -70.5t251.5 -217.5l-218 -117q-67 82 -153.5 122.5t-176.5 40.5q-88 0 -168.5 -36t-143 -101.5t-98.5 -154t-36 -193.5q0 -99 35 -186.5
t96.5 -153t142.5 -102.5t174 -37q62 0 121.5 19.5t112 56.5t94 90t69.5 120h-255v213h542q4 -153 -48 -287t-147 -237t-221 -161t-272 -58zM633 1510l-194 288h163l167 -193l166 193h163l-191 -288h-274z" />
    <glyph glyph-name="gcaron" unicode="&#x1e7;" horiz-adv-x="1226" 
d="M862 1000h244v-1019q0 -108 -44 -196.5t-120 -152t-174 -98t-206 -34.5q-105 0 -202 43t-171.5 117.5t-113.5 169.5l223 101q20 -55 60.5 -96.5t93.5 -65t110 -23.5q58 0 111.5 16t96.5 46.5t67.5 74t24.5 98.5v141q-47 -66 -118 -107t-164 -41q-108 0 -202 41
t-165.5 113.5t-112 167.5t-40.5 204t40.5 204t112 167.5t165.5 113.5t202 41q93 0 164 -40.5t118 -106.5v121zM583 209q77 0 136.5 39.5t93.5 106t34 145.5q0 80 -34.5 146t-94 106t-135.5 40q-75 0 -137 -39.5t-99 -105.5t-37 -147t37 -147t99 -105t137 -39zM477 1110
l-194 288h163l167 -193l166 193h163l-191 -288h-274z" />
    <glyph glyph-name="uni01E8" unicode="&#x1e8;" horiz-adv-x="1173" 
d="M1143 0h-318l-393 549l-68 -81v-468h-244v1400h244v-553l463 553h319l-555 -660zM450 1510l-194 288h163l167 -193l166 193h163l-191 -288h-274z" />
    <glyph glyph-name="uni01E9" unicode="&#x1e9;" horiz-adv-x="1070" 
d="M1013 0h-281l-228 393l-140 -167v-226h-244v1500h244v-895l331 395h319l-343 -409zM501 1510l-194 288h163l167 -193l166 193h163l-191 -288h-274z" />
    <glyph glyph-name="uni0218" unicode="&#x218;" horiz-adv-x="1249" 
d="M624 -26q-116 0 -222.5 36.5t-186.5 105t-115 164.5l229 84q14 -40 57 -73t105 -53t133 -20q73 0 136.5 22.5t102.5 63t39 94.5q0 55 -41 90.5t-105 56.5t-132 32q-149 23 -267 71t-186.5 133t-68.5 220q0 127 73 222t192 148t257 53q115 0 222 -36t187.5 -105
t115.5 -166l-230 -83q-14 40 -57 73t-105 52.5t-133 19.5q-71 1 -134.5 -22.5t-103.5 -63.5t-40 -92q0 -67 37.5 -101t100.5 -49.5t140 -28.5q140 -22 259 -74t191 -138.5t72 -211.5q0 -127 -72 -222.5t-191 -148.5t-259 -53zM519 -441l62 338h244l-143 -338h-163z" />
    <glyph glyph-name="uni0219" unicode="&#x219;" horiz-adv-x="869" 
d="M415 -18q-78 5 -150.5 31.5t-128.5 72.5t-86 110l206 88q12 -20 39 -42.5t64.5 -37.5t82.5 -15q38 0 72.5 10.5t56 32.5t21.5 57q0 37 -25.5 57.5t-64 31t-74.5 19.5q-95 19 -176.5 59t-131 103.5t-49.5 153.5q0 99 52.5 171t137 111t182.5 39q119 0 218.5 -49.5
t157.5 -139.5l-193 -114q-14 24 -39 44.5t-57 34t-67 15.5q-45 2 -82 -8t-59.5 -34t-22.5 -64q0 -38 30 -56.5t72.5 -28.5t81.5 -22q88 -29 165.5 -71t124.5 -103t45 -146q0 -97 -58 -169.5t-149.5 -110.5t-195.5 -30zM309 -441l62 338h244l-143 -338h-163z" />
    <glyph glyph-name="uni021A" unicode="&#x21a;" horiz-adv-x="1259" 
d="M1180 1400v-244h-428v-1156h-244v1156h-428v244h1100zM446 -441l62 338h244l-143 -338h-163z" />
    <glyph glyph-name="uni021B" unicode="&#x21b;" horiz-adv-x="716" 
d="M656 756h-194v-756h-244v756h-148v244h148v314h244v-314h194v-244zM156 -441l62 338h244l-143 -338h-163z" />
    <glyph glyph-name="uni022A" unicode="&#x22a;" horiz-adv-x="1540" 
d="M770 -26q-142 0 -267 56.5t-220 156.5t-149 231.5t-54 281.5t54 281.5t149 231.5t220 156.5t267 56.5q143 0 268 -56.5t220 -156.5t148.5 -231.5t53.5 -281.5t-53.5 -281.5t-148.5 -231.5t-220 -156.5t-268 -56.5zM770 218q92 0 173 38t142.5 104.5t96 153.5t34.5 186
t-35 186.5t-96.5 153.5t-142 104t-172.5 38t-173 -38t-142.5 -104.5t-96 -153.5t-34.5 -186q0 -100 35 -187t96.5 -153.5t142 -104t172.5 -37.5zM573 1470q-54 0 -91 36t-37 89t37 89.5t91 36.5q52 0 88.5 -36.5t36.5 -89.5t-36.5 -89t-88.5 -36zM969 1470q-54 0 -91 36
t-37 89t37 89.5t91 36.5q52 0 89 -36.5t37 -89.5t-37 -89t-89 -36zM432 2010h676v-183h-676v183z" />
    <glyph glyph-name="uni022B" unicode="&#x22b;" horiz-adv-x="1120" 
d="M560 -26q-138 0 -251.5 71t-181 190.5t-67.5 264.5q0 110 39 205.5t107.5 168t159.5 113.5t194 41q138 0 251.5 -71t181 -191t67.5 -266q0 -109 -39 -204t-107.5 -167.5t-159 -113.5t-194.5 -41zM560 218q73 0 131 39t91.5 103t33.5 140q0 78 -34.5 142.5t-93 103
t-128.5 38.5q-72 0 -130 -39t-92 -104t-34 -141q0 -79 35 -143t93.5 -101.5t127.5 -37.5zM363 1070q-54 0 -91 36t-37 89t37 89.5t91 36.5q52 0 88.5 -36.5t36.5 -89.5t-36.5 -89t-88.5 -36zM759 1070q-54 0 -91 36t-37 89t37 89.5t91 36.5q52 0 89 -36.5t37 -89.5t-37 -89
t-89 -36zM222 1610h676v-183h-676v183z" />
    <glyph glyph-name="uni0232" unicode="&#x232;" horiz-adv-x="1326" 
d="M978 1400h288l-481 -769v-631h-244v631l-481 769h288l315 -503zM325 1727h676v-183h-676v183z" />
    <glyph glyph-name="uni0233" unicode="&#x233;" horiz-adv-x="1145" 
d="M806 1000h259l-547 -1500h-259l181 500l-360 1000h267l215 -666zM235 1327h676v-183h-676v183z" />
    <glyph glyph-name="uni0237" unicode="&#x237;" horiz-adv-x="487" 
d="M-80 -500v244q57 0 103 26.5t73 72t27 101.5v1056h244v-1056q0 -122 -59.5 -223t-161 -161t-226.5 -60z" />
    <glyph glyph-name="quoteleft" unicode="&#x2bb;" horiz-adv-x="406" 
d="M60 878l143 522h163l-62 -522h-244z" />
    <glyph glyph-name="quoteleft" unicode="&#x2018;" horiz-adv-x="406" 
d="M60 878l143 522h163l-62 -522h-244z" />
    <glyph glyph-name="uni02BC" unicode="&#x2bc;" horiz-adv-x="532" 
d="M40 878l62 522h244l-143 -522h-163z" />
    <glyph glyph-name="circumflex" unicode="&#x2c6;" horiz-adv-x="689" 
d="M480 1398l194 -288h-163l-168 193l-165 -193h-163l191 288h274z" />
    <glyph glyph-name="caron" unicode="&#x2c7;" horiz-adv-x="651" 
d="M190 1110l-194 288h163l167 -193l166 193h163l-191 -288h-274z" />
    <glyph glyph-name="breve" unicode="&#x2d8;" horiz-adv-x="1144" 
d="M572 1088q-91 0 -166.5 45t-120.5 120.5t-45 166.5h152q0 -49 24.5 -90t65.5 -65.5t90 -24.5q50 0 90.5 24t65 65t24.5 91h152q0 -93 -45 -168.5t-120.5 -119.5t-166.5 -44z" />
    <glyph glyph-name="dotaccent" unicode="&#x2d9;" horiz-adv-x="1053" 
d="M528 1129q-54 0 -91 35.5t-37 89.5q0 53 37 89t90 36t89.5 -36t36.5 -89q0 -54 -36 -89.5t-89 -35.5z" />
    <glyph glyph-name="ring" unicode="&#x2da;" horiz-adv-x="1171" 
d="M586 1068q-77 0 -131.5 56t-54.5 132q0 50 25 92t67.5 67t93.5 25q76 0 130.5 -54.5t54.5 -129.5q0 -78 -54.5 -133t-130.5 -55zM586 1187q27 0 47 20t20 48q0 27 -20 46.5t-47 19.5q-28 0 -47.5 -19.5t-19.5 -45.5q0 -29 19.5 -49t47.5 -20z" />
    <glyph glyph-name="ogonek" unicode="&#x2db;" horiz-adv-x="1094" 
d="M534 -452q-71 1 -123.5 35t-81.5 88t-29 114q0 45 16.5 87.5t52.5 78.5l168 168l119 -119q-37 -37 -69 -67.5t-55.5 -57t-37 -51t-13.5 -48.5t17 -43.5t46 -20.5q38 0 66.5 27.5t28.5 68.5h155q0 -70 -34 -129t-93 -95t-133 -36z" />
    <glyph glyph-name="tilde" unicode="&#x2dc;" horiz-adv-x="1251" 
d="M792 1109q-37 0 -87.5 26t-101 58t-88 51.5t-50.5 5.5q-13 -13 -16 -33.5t7 -53.5l-143 -39q-27 78 -13.5 142t60 102.5t120.5 38.5q37 0 84.5 -21.5t95.5 -50t85 -50t53 -21.5q20 0 26 14t3 34t-10 38l145 47q27 -82 11.5 -147t-63 -103t-118.5 -38z" />
    <glyph glyph-name="hungarumlaut" unicode="&#x2dd;" horiz-adv-x="1058" 
d="M536 1110l80 288h244l-162 -288h-162zM200 1110l80 288h244l-162 -288h-162z" />
    <glyph glyph-name="gravecomb" unicode="&#x300;" horiz-adv-x="0" 
d="M292 1398h244l80 -288h-163z" />
    <glyph glyph-name="acutecomb" unicode="&#x301;" horiz-adv-x="0" 
d="M415 1110l80 288h244l-162 -288h-162z" />
    <glyph glyph-name="uni0302" unicode="&#x302;" horiz-adv-x="0" 
d="M480 1398l194 -288h-163l-168 193l-165 -193h-163l191 288h274z" />
    <glyph glyph-name="tildecomb" unicode="&#x303;" horiz-adv-x="0" 
d="M797 1105q-37 0 -87.5 26t-101 58t-88 51.5t-50.5 5.5q-13 -13 -16 -33.5t7 -53.5l-143 -39q-27 78 -13.5 142t60 102.5t120.5 38.5q37 0 84.5 -21.5t95.5 -50t85 -50t53 -21.5q20 0 26 14t3 34t-10 38l145 47q27 -82 11.5 -147t-63 -103t-118.5 -38z" />
    <glyph glyph-name="uni0304" unicode="&#x304;" horiz-adv-x="0" 
d="M262 1327h676v-183h-676v183z" />
    <glyph glyph-name="uni0306" unicode="&#x306;" horiz-adv-x="0" 
d="M572 1088q-91 0 -166.5 45t-120.5 120.5t-45 166.5h152q0 -49 24.5 -90t65.5 -65.5t90 -24.5q50 0 90.5 24t65 65t24.5 91h152q0 -93 -45 -168.5t-120.5 -119.5t-166.5 -44z" />
    <glyph glyph-name="uni0307" unicode="&#x307;" horiz-adv-x="0" 
d="M528 1129q-54 0 -91 35.5t-37 89.5q0 53 37 89t90 36t89.5 -36t36.5 -89q0 -54 -36 -89.5t-89 -35.5z" />
    <glyph glyph-name="uni0308" unicode="&#x308;" horiz-adv-x="0" 
d="M528 1070q-54 0 -91 36t-37 89t37 89.5t91 36.5q52 0 88.5 -36.5t36.5 -89.5t-36.5 -89t-88.5 -36zM924 1070q-54 0 -91 36t-37 89t37 89.5t91 36.5q52 0 89 -36.5t37 -89.5t-37 -89t-89 -36z" />
    <glyph glyph-name="uni030A" unicode="&#x30a;" horiz-adv-x="0" 
d="M586 1068q-77 0 -131.5 56t-54.5 132q0 50 25 92t67.5 67t93.5 25q76 0 130.5 -54.5t54.5 -129.5q0 -78 -54.5 -133t-130.5 -55zM586 1187q27 0 47 20t20 48q0 27 -20 46.5t-47 19.5q-28 0 -47.5 -19.5t-19.5 -45.5q0 -29 19.5 -49t47.5 -20z" />
    <glyph glyph-name="uni030B" unicode="&#x30b;" horiz-adv-x="0" 
d="M536 1110l80 288h244l-162 -288h-162zM200 1110l80 288h244l-162 -288h-162z" />
    <glyph glyph-name="uni030C" unicode="&#x30c;" horiz-adv-x="0" 
d="M190 1110l-194 288h163l167 -193l166 193h163l-191 -288h-274z" />
    <glyph glyph-name="dotbelowcomb" unicode="&#x323;" horiz-adv-x="0" 
d="M528 -440q-54 0 -91 35.5t-37 89.5q0 53 37 89t90 36t89.5 -36t36.5 -89q0 -54 -36 -89.5t-89 -35.5z" />
    <glyph glyph-name="uni0326" unicode="&#x326;" horiz-adv-x="0" 
d="M400 -441l62 338h244l-143 -338h-163z" />
    <glyph glyph-name="uni0327" unicode="&#x327;" horiz-adv-x="0" 
d="M620 -376q-71 -19 -135 18t-83 108l124 33q5 -19 23 -29t38 -5t30.5 22.5t4.5 38.5q-5 20 -22 28.5t-39 6.5l-128 -5l141 248l112 -66l-38 -65q36 -14 62.5 -44t36.5 -71q19 -71 -18 -135t-109 -83z" />
    <glyph glyph-name="uni0328" unicode="&#x328;" horiz-adv-x="0" 
d="M534 -452q-71 1 -123.5 35t-81.5 88t-29 114q0 45 16.5 87.5t52.5 78.5l168 168l119 -119q-37 -37 -69 -67.5t-55.5 -57t-37 -51t-13.5 -48.5t17 -43.5t46 -20.5q38 0 66.5 27.5t28.5 68.5h155q0 -70 -34 -129t-93 -95t-133 -36z" />
    <glyph glyph-name="uni03BC" unicode="&#x3bc;" horiz-adv-x="1134" 
d="M80 -432v1432h244v-511q0 -77 32 -141t89 -101.5t130 -37.5t125.5 37.5t81 101.5t28.5 141v511h244v-1000h-244v119q-49 -66 -118.5 -106.5t-157.5 -40.5q-62 0 -115 21.5t-95 55.5v-481h-244z" />
    <glyph glyph-name="uni1E04" unicode="&#x1e04;" horiz-adv-x="1174" 
d="M120 0v1400h510q111 0 200.5 -45.5t142 -130t52.5 -199.5q0 -51 -15 -103t-46 -93.5t-80 -61.5q65 -16 106 -58t64 -98.5t31.5 -115t8.5 -108.5q0 -111 -55 -198t-147.5 -138t-204.5 -51h-567zM364 209h298q60 0 108 29t77 80t29 116q0 56 -29 106t-77 81t-108 31h-298
v-443zM364 858h238q74 0 126.5 46t52.5 122q0 81 -52.5 122.5t-126.5 41.5h-238v-332zM589 -440q-54 0 -91 35.5t-37 89.5q0 53 37 89t90 36t89.5 -36t36.5 -89q0 -54 -36 -89.5t-89 -35.5z" />
    <glyph glyph-name="uni1E05" unicode="&#x1e05;" horiz-adv-x="1240" 
d="M652 1028q146 0 266 -71t191 -190.5t71 -264.5q0 -109 -41 -205t-113.5 -168.5t-168 -113.5t-205.5 -41q-94 0 -166.5 42.5t-121.5 110.5v-127h-244v1500h244v-625q49 68 121.5 110.5t166.5 42.5zM649 210q78 0 141.5 39.5t101.5 105.5t38 147q0 80 -38 146.5t-102 105.5
t-141 39q-76 0 -136 -39.5t-94 -106t-34 -145.5q0 -81 34 -147.5t94 -105.5t136 -39zM622 -440q-54 0 -91 35.5t-37 89.5q0 53 37 89t90 36t89.5 -36t36.5 -89q0 -54 -36 -89.5t-89 -35.5z" />
    <glyph glyph-name="uni1E0C" unicode="&#x1e0c;" horiz-adv-x="1343" 
d="M120 0v1400h464q145 0 271.5 -54.5t223 -151t151 -223t54.5 -271.5t-54.5 -271.5t-151 -223t-223 -151t-271.5 -54.5h-464zM364 244h220q93 0 175.5 35.5t145.5 98t99 145t36 177.5t-36 177t-99 145t-145 98.5t-176 35.5h-220v-912zM658 -440q-54 0 -91 35.5t-37 89.5
q0 53 37 89t90 36t89.5 -36t36.5 -89q0 -54 -36 -89.5t-89 -35.5z" />
    <glyph glyph-name="uni1E0D" unicode="&#x1e0d;" horiz-adv-x="1240" 
d="M876 1500h244v-1500h-244v125q-48 -67 -121 -109t-169 -42q-109 0 -204 41t-167.5 113.5t-113.5 167.5t-41 204t41 204t113.5 167.5t167.5 113.5t204 41q96 0 169 -41.5t121 -109.5v625zM589 209q78 0 138 39t94 105.5t34 146.5q0 81 -34 147.5t-94.5 105.5t-137.5 39
t-140.5 -39.5t-101 -105.5t-37.5 -147t38 -147t101.5 -105t139.5 -39zM618 -440q-54 0 -91 35.5t-37 89.5q0 53 37 89t90 36t89.5 -36t36.5 -89q0 -54 -36 -89.5t-89 -35.5z" />
    <glyph glyph-name="uni1E20" unicode="&#x1e20;" horiz-adv-x="1536" 
d="M768 -26q-146 0 -271.5 57t-218.5 157.5t-145.5 232t-52.5 281.5q0 158 56.5 290t154.5 229t222.5 150t259.5 53q151 0 293.5 -70.5t251.5 -217.5l-218 -117q-67 82 -153.5 122.5t-176.5 40.5q-88 0 -168.5 -36t-143 -101.5t-98.5 -154t-36 -193.5q0 -99 35 -186.5
t96.5 -153t142.5 -102.5t174 -37q62 0 121.5 19.5t112 56.5t94 90t69.5 120h-255v213h542q4 -153 -48 -287t-147 -237t-221 -161t-272 -58zM432 1727h676v-183h-676v183z" />
    <glyph glyph-name="uni1E21" unicode="&#x1e21;" horiz-adv-x="1226" 
d="M862 1000h244v-1019q0 -108 -44 -196.5t-120 -152t-174 -98t-206 -34.5q-105 0 -202 43t-171.5 117.5t-113.5 169.5l223 101q20 -55 60.5 -96.5t93.5 -65t110 -23.5q58 0 111.5 16t96.5 46.5t67.5 74t24.5 98.5v141q-47 -66 -118 -107t-164 -41q-108 0 -202 41
t-165.5 113.5t-112 167.5t-40.5 204t40.5 204t112 167.5t165.5 113.5t202 41q93 0 164 -40.5t118 -106.5v121zM583 209q77 0 136.5 39.5t93.5 106t34 145.5q0 80 -34.5 146t-94 106t-135.5 40q-75 0 -137 -39.5t-99 -105.5t-37 -147t37 -147t99 -105t137 -39zM275 1327h676
v-183h-676v183z" />
    <glyph glyph-name="uni1E24" unicode="&#x1e24;" horiz-adv-x="1308" 
d="M944 1400h244v-1400h-244v628h-580v-628h-244v1400h244v-528h580v528zM655 -440q-54 0 -91 35.5t-37 89.5q0 53 37 89t90 36t89.5 -36t36.5 -89q0 -54 -36 -89.5t-89 -35.5z" />
    <glyph glyph-name="uni1E25" unicode="&#x1e25;" horiz-adv-x="1116" 
d="M1036 632v-632h-244v568q0 59 -29 107.5t-77.5 77t-107.5 28.5t-107.5 -28.5t-77 -77t-28.5 -107.5v-568h-244l-1 1500h244l1 -589q51 54 122 85.5t153 31.5q109 0 199 -53.5t143.5 -143t53.5 -199.5zM610 -440q-54 0 -91 35.5t-37 89.5q0 53 37 89t90 36t89.5 -36
t36.5 -89q0 -54 -36 -89.5t-89 -35.5z" />
    <glyph glyph-name="uni1E2E" unicode="&#x1e2e;" horiz-adv-x="544" 
d="M150 0v1400h244v-1400h-244zM75 1470q-54 0 -91 36t-37 89t37 89.5t91 36.5q52 0 88.5 -36.5t36.5 -89.5t-36.5 -89t-88.5 -36zM471 1470q-54 0 -91 36t-37 89t37 89.5t91 36.5q52 0 89 -36.5t37 -89.5t-37 -89t-89 -36zM209 1793l80 288h244l-162 -288h-162z" />
    <glyph glyph-name="uni1E2F" unicode="&#x1e2f;" 
d="M120 1000h244v-1000h-244v1000zM45 1070q-54 0 -91 36t-37 89t37 89.5t91 36.5q52 0 88.5 -36.5t36.5 -89.5t-36.5 -89t-88.5 -36zM441 1070q-54 0 -91 36t-37 89t37 89.5t91 36.5q52 0 89 -36.5t37 -89.5t-37 -89t-89 -36zM179 1393l80 288h244l-162 -288h-162z" />
    <glyph glyph-name="uni1E36" unicode="&#x1e36;" horiz-adv-x="1047" 
d="M120 0v1400h244v-1156h583v-244h-827zM535 -440q-54 0 -91 35.5t-37 89.5q0 53 37 89t90 36t89.5 -36t36.5 -89q0 -54 -36 -89.5t-89 -35.5z" />
    <glyph glyph-name="uni1E37" unicode="&#x1e37;" 
d="M120 0v1500h244v-1500h-244zM244 -440q-54 0 -91 35.5t-37 89.5q0 53 37 89t90 36t89.5 -36t36.5 -89q0 -54 -36 -89.5t-89 -35.5z" />
    <glyph glyph-name="uni1E3E" unicode="&#x1e3e;" horiz-adv-x="1870" 
d="M120 0l272 1400h202l341 -897l341 897h202l272 -1400h-249l-168 866l-315 -834h-167l-315 834l-167 -866h-249zM872 1510l80 288h244l-162 -288h-162z" />
    <glyph glyph-name="uni1E3F" unicode="&#x1e3f;" horiz-adv-x="1777" 
d="M120 0v1000h244v-89q51 54 122 85.5t153 31.5q104 0 191.5 -49t139.5 -131q53 82 140 131t191 49q110 0 199.5 -53.5t143 -143t53.5 -199.5v-632h-244v567q0 58 -28.5 106.5t-76 78t-106.5 29.5t-106.5 -28.5t-76.5 -76.5t-29 -109v-567h-244v567q0 61 -28 109t-76 76.5
t-107 28.5q-58 0 -106 -29.5t-76.5 -78t-28.5 -106.5v-567h-244zM907 1110l80 288h244l-162 -288h-162z" />
    <glyph glyph-name="uni1E40" unicode="&#x1e40;" horiz-adv-x="1870" 
d="M120 0l272 1400h202l341 -897l341 897h202l272 -1400h-249l-168 866l-315 -834h-167l-315 834l-167 -866h-249zM937 1529q-54 0 -91 35.5t-37 89.5q0 53 37 89t90 36t89.5 -36t36.5 -89q0 -54 -36 -89.5t-89 -35.5z" />
    <glyph glyph-name="uni1E41" unicode="&#x1e41;" horiz-adv-x="1777" 
d="M120 0v1000h244v-89q51 54 122 85.5t153 31.5q104 0 191.5 -49t139.5 -131q53 82 140 131t191 49q110 0 199.5 -53.5t143 -143t53.5 -199.5v-632h-244v567q0 58 -28.5 106.5t-76 78t-106.5 29.5t-106.5 -28.5t-76.5 -76.5t-29 -109v-567h-244v567q0 61 -28 109t-76 76.5
t-107 28.5q-58 0 -106 -29.5t-76.5 -78t-28.5 -106.5v-567h-244zM972 1129q-54 0 -91 35.5t-37 89.5q0 53 37 89t90 36t89.5 -36t36.5 -89q0 -54 -36 -89.5t-89 -35.5z" />
    <glyph glyph-name="uni1E42" unicode="&#x1e42;" horiz-adv-x="1870" 
d="M120 0l272 1400h202l341 -897l341 897h202l272 -1400h-249l-168 866l-315 -834h-167l-315 834l-167 -866h-249zM937 -440q-54 0 -91 35.5t-37 89.5q0 53 37 89t90 36t89.5 -36t36.5 -89q0 -54 -36 -89.5t-89 -35.5z" />
    <glyph glyph-name="uni1E43" unicode="&#x1e43;" horiz-adv-x="1777" 
d="M120 0v1000h244v-89q51 54 122 85.5t153 31.5q104 0 191.5 -49t139.5 -131q53 82 140 131t191 49q110 0 199.5 -53.5t143 -143t53.5 -199.5v-632h-244v567q0 58 -28.5 106.5t-76 78t-106.5 29.5t-106.5 -28.5t-76.5 -76.5t-29 -109v-567h-244v567q0 61 -28 109t-76 76.5
t-107 28.5q-58 0 -106 -29.5t-76.5 -78t-28.5 -106.5v-567h-244zM910 -440q-54 0 -91 35.5t-37 89.5q0 53 37 89t90 36t89.5 -36t36.5 -89q0 -54 -36 -89.5t-89 -35.5z" />
    <glyph glyph-name="uni1E44" unicode="&#x1e44;" horiz-adv-x="1339" 
d="M120 0v1400h264l591 -959v959h244v-1400h-263l-592 959v-959h-244zM671 1529q-54 0 -91 35.5t-37 89.5q0 53 37 89t90 36t89.5 -36t36.5 -89q0 -54 -36 -89.5t-89 -35.5z" />
    <glyph glyph-name="uni1E45" unicode="&#x1e45;" horiz-adv-x="1116" 
d="M1036 632v-632h-244v568q0 59 -29 107.5t-77.5 77t-107.5 28.5t-107.5 -28.5t-77 -77t-28.5 -107.5v-568h-244l-1 1000h244l1 -89q51 54 122 85.5t153 31.5q109 0 199 -53.5t143.5 -143t53.5 -199.5zM595 1129q-54 0 -91 35.5t-37 89.5q0 53 37 89t90 36t89.5 -36
t36.5 -89q0 -54 -36 -89.5t-89 -35.5z" />
    <glyph glyph-name="uni1E46" unicode="&#x1e46;" horiz-adv-x="1339" 
d="M120 0v1400h264l591 -959v959h244v-1400h-263l-592 959v-959h-244zM671 -440q-54 0 -91 35.5t-37 89.5q0 53 37 89t90 36t89.5 -36t36.5 -89q0 -54 -36 -89.5t-89 -35.5z" />
    <glyph glyph-name="uni1E47" unicode="&#x1e47;" horiz-adv-x="1116" 
d="M1036 632v-632h-244v568q0 59 -29 107.5t-77.5 77t-107.5 28.5t-107.5 -28.5t-77 -77t-28.5 -107.5v-568h-244l-1 1000h244l1 -89q51 54 122 85.5t153 31.5q109 0 199 -53.5t143.5 -143t53.5 -199.5zM580 -440q-54 0 -91 35.5t-37 89.5q0 53 37 89t90 36t89.5 -36
t36.5 -89q0 -54 -36 -89.5t-89 -35.5z" />
    <glyph glyph-name="uni1E62" unicode="&#x1e62;" horiz-adv-x="1249" 
d="M624 -26q-116 0 -222.5 36.5t-186.5 105t-115 164.5l229 84q14 -40 57 -73t105 -53t133 -20q73 0 136.5 22.5t102.5 63t39 94.5q0 55 -41 90.5t-105 56.5t-132 32q-149 23 -267 71t-186.5 133t-68.5 220q0 127 73 222t192 148t257 53q115 0 222 -36t187.5 -105
t115.5 -166l-230 -83q-14 40 -57 73t-105 52.5t-133 19.5q-71 1 -134.5 -22.5t-103.5 -63.5t-40 -92q0 -67 37.5 -101t100.5 -49.5t140 -28.5q140 -22 259 -74t191 -138.5t72 -211.5q0 -127 -72 -222.5t-191 -148.5t-259 -53zM705 -440q-54 0 -91 35.5t-37 89.5q0 53 37 89
t90 36t89.5 -36t36.5 -89q0 -54 -36 -89.5t-89 -35.5z" />
    <glyph glyph-name="uni1E63" unicode="&#x1e63;" horiz-adv-x="869" 
d="M415 -18q-78 5 -150.5 31.5t-128.5 72.5t-86 110l206 88q12 -20 39 -42.5t64.5 -37.5t82.5 -15q38 0 72.5 10.5t56 32.5t21.5 57q0 37 -25.5 57.5t-64 31t-74.5 19.5q-95 19 -176.5 59t-131 103.5t-49.5 153.5q0 99 52.5 171t137 111t182.5 39q119 0 218.5 -49.5
t157.5 -139.5l-193 -114q-14 24 -39 44.5t-57 34t-67 15.5q-45 2 -82 -8t-59.5 -34t-22.5 -64q0 -38 30 -56.5t72.5 -28.5t81.5 -22q88 -29 165.5 -71t124.5 -103t45 -146q0 -97 -58 -169.5t-149.5 -110.5t-195.5 -30zM494 -440q-54 0 -91 35.5t-37 89.5q0 53 37 89t90 36
t89.5 -36t36.5 -89q0 -54 -36 -89.5t-89 -35.5z" />
    <glyph glyph-name="uni1E6C" unicode="&#x1e6c;" horiz-adv-x="1259" 
d="M1180 1400v-244h-428v-1156h-244v1156h-428v244h1100zM631 -440q-54 0 -91 35.5t-37 89.5q0 53 37 89t90 36t89.5 -36t36.5 -89q0 -54 -36 -89.5t-89 -35.5z" />
    <glyph glyph-name="uni1E6D" unicode="&#x1e6d;" horiz-adv-x="716" 
d="M656 756h-194v-756h-244v756h-148v244h148v314h244v-314h194v-244zM342 -440q-54 0 -91 35.5t-37 89.5q0 53 37 89t90 36t89.5 -36t36.5 -89q0 -54 -36 -89.5t-89 -35.5z" />
    <glyph glyph-name="Wgrave" unicode="&#x1e80;" horiz-adv-x="1865" 
d="M439 0l-358 1400h252l244 -957l244 957h223l244 -957l243 957h252l-356 -1400h-277l-218 848l-215 -848h-278zM671 1798h244l80 -288h-163z" />
    <glyph glyph-name="wgrave" unicode="&#x1e81;" horiz-adv-x="1705" 
d="M636 0h-242l-334 1000h239l217 -647l216 647h241l216 -647l217 647h239l-334 -1000h-242l-217 650zM591 1398h244l80 -288h-163z" />
    <glyph glyph-name="Wacute" unicode="&#x1e82;" horiz-adv-x="1865" 
d="M439 0l-358 1400h252l244 -957l244 957h223l244 -957l243 957h252l-356 -1400h-277l-218 848l-215 -848h-278zM869 1510l80 288h244l-162 -288h-162z" />
    <glyph glyph-name="wacute" unicode="&#x1e83;" horiz-adv-x="1705" 
d="M636 0h-242l-334 1000h239l217 -647l216 647h241l216 -647l217 647h239l-334 -1000h-242l-217 650zM789 1110l80 288h244l-162 -288h-162z" />
    <glyph glyph-name="Wdieresis" unicode="&#x1e84;" horiz-adv-x="1865" 
d="M439 0l-358 1400h252l244 -957l244 957h223l244 -957l243 957h252l-356 -1400h-277l-218 848l-215 -848h-278zM736 1470q-54 0 -91 36t-37 89t37 89.5t91 36.5q52 0 88.5 -36.5t36.5 -89.5t-36.5 -89t-88.5 -36zM1132 1470q-54 0 -91 36t-37 89t37 89.5t91 36.5
q52 0 89 -36.5t37 -89.5t-37 -89t-89 -36z" />
    <glyph glyph-name="wdieresis" unicode="&#x1e85;" horiz-adv-x="1705" 
d="M636 0h-242l-334 1000h239l217 -647l216 647h241l216 -647l217 647h239l-334 -1000h-242l-217 650zM656 1070q-54 0 -91 36t-37 89t37 89.5t91 36.5q52 0 88.5 -36.5t36.5 -89.5t-36.5 -89t-88.5 -36zM1052 1070q-54 0 -91 36t-37 89t37 89.5t91 36.5q52 0 89 -36.5
t37 -89.5t-37 -89t-89 -36z" />
    <glyph glyph-name="uni1E92" unicode="&#x1e92;" horiz-adv-x="1292" 
d="M80 0v244l803 912h-803v244h1132v-244l-803 -912h803v-244h-1132zM648 -440q-54 0 -91 35.5t-37 89.5q0 53 37 89t90 36t89.5 -36t36.5 -89q0 -54 -36 -89.5t-89 -35.5z" />
    <glyph glyph-name="uni1E93" unicode="&#x1e93;" horiz-adv-x="1014" 
d="M934 756l-503 -512h503v-244h-854v244l503 512h-503v244h854v-244zM509 -440q-54 0 -91 35.5t-37 89.5q0 53 37 89t90 36t89.5 -36t36.5 -89q0 -54 -36 -89.5t-89 -35.5z" />
    <glyph glyph-name="uni1E97" unicode="&#x1e97;" horiz-adv-x="716" 
d="M656 756h-194v-756h-244v756h-148v244h148v314h244v-314h194v-244zM143 1384q-54 0 -91 36t-37 89t37 89.5t91 36.5q52 0 88.5 -36.5t36.5 -89.5t-36.5 -89t-88.5 -36zM539 1384q-54 0 -91 36t-37 89t37 89.5t91 36.5q52 0 89 -36.5t37 -89.5t-37 -89t-89 -36z" />
    <glyph glyph-name="uni1E9E" unicode="&#x1e9e;" horiz-adv-x="1205" 
d="M120 0v898q0 104 39 195t108 159.5t160 108t194 39.5q102 0 192.5 -41.5t146.5 -112t56 -158.5q0 -47 -27 -91.5t-80 -106.5t-131 -159q69 12 134.5 -11.5t118 -71.5t83.5 -110.5t31 -129.5q0 -99 -41 -175t-109 -128t-151 -78.5t-167 -26.5h-58l-51 209h85
q59 0 122.5 19t107.5 63t44 119q0 74 -44 118t-107.5 63t-123.5 19h-78l-1 92q0 39 19.5 85.5t49 93.5t58.5 89t49 74t20 48q0 44 -27 64.5t-70.5 26.5t-94.5 6q-55 0 -104 -30.5t-79 -82.5t-30 -116v-960h-244z" />
    <glyph glyph-name="uni1EA0" unicode="&#x1ea0;" horiz-adv-x="1458" 
d="M588 1400h281l509 -1400h-259l-90 248h-600l-90 -248h-259zM518 492h421l-211 577zM731 -440q-54 0 -91 35.5t-37 89.5q0 53 37 89t90 36t89.5 -36t36.5 -89q0 -54 -36 -89.5t-89 -35.5z" />
    <glyph glyph-name="uni1EA1" unicode="&#x1ea1;" horiz-adv-x="1198" 
d="M874 1000h244v-1000h-244l-11 124q-41 -67 -108.5 -108.5t-159.5 -41.5q-111 0 -208 42t-170.5 116t-115 171t-41.5 208q0 107 39.5 201t110.5 165t164 111t200 40q99 0 177.5 -44t133.5 -112zM589 209q78 0 138 39t94 105.5t34 146.5q0 81 -34 147.5t-94.5 105.5
t-137.5 39t-140.5 -39.5t-101 -105.5t-37.5 -147t38 -147t101.5 -105t139.5 -39zM615 -440q-54 0 -91 35.5t-37 89.5q0 53 37 89t90 36t89.5 -36t36.5 -89q0 -54 -36 -89.5t-89 -35.5z" />
    <glyph glyph-name="uni1EAC" unicode="&#x1eac;" horiz-adv-x="1458" 
d="M588 1400h281l509 -1400h-259l-90 248h-600l-90 -248h-259zM518 492h421l-211 577zM731 -440q-54 0 -91 35.5t-37 89.5q0 53 37 89t90 36t89.5 -36t36.5 -89q0 -54 -36 -89.5t-89 -35.5zM865 1798l194 -288h-163l-168 193l-165 -193h-163l191 288h274z" />
    <glyph glyph-name="uni1EAD" unicode="&#x1ead;" horiz-adv-x="1198" 
d="M874 1000h244v-1000h-244l-11 124q-41 -67 -108.5 -108.5t-159.5 -41.5q-111 0 -208 42t-170.5 116t-115 171t-41.5 208q0 107 39.5 201t110.5 165t164 111t200 40q99 0 177.5 -44t133.5 -112zM589 209q78 0 138 39t94 105.5t34 146.5q0 81 -34 147.5t-94.5 105.5
t-137.5 39t-140.5 -39.5t-101 -105.5t-37.5 -147t38 -147t101.5 -105t139.5 -39zM615 -440q-54 0 -91 35.5t-37 89.5q0 53 37 89t90 36t89.5 -36t36.5 -89q0 -54 -36 -89.5t-89 -35.5zM750 1398l194 -288h-163l-168 193l-165 -193h-163l191 288h274z" />
    <glyph glyph-name="uni1EB6" unicode="&#x1eb6;" horiz-adv-x="1458" 
d="M588 1400h281l509 -1400h-259l-90 248h-600l-90 -248h-259zM518 492h421l-211 577zM731 -440q-54 0 -91 35.5t-37 89.5q0 53 37 89t90 36t89.5 -36t36.5 -89q0 -54 -36 -89.5t-89 -35.5zM729 1488q-91 0 -166.5 45t-120.5 120.5t-45 166.5h152q0 -49 24.5 -90t65.5 -65.5
t90 -24.5q50 0 90.5 24t65 65t24.5 91h152q0 -93 -45 -168.5t-120.5 -119.5t-166.5 -44z" />
    <glyph glyph-name="uni1EB7" unicode="&#x1eb7;" horiz-adv-x="1198" 
d="M874 1000h244v-1000h-244l-11 124q-41 -67 -108.5 -108.5t-159.5 -41.5q-111 0 -208 42t-170.5 116t-115 171t-41.5 208q0 107 39.5 201t110.5 165t164 111t200 40q99 0 177.5 -44t133.5 -112zM589 209q78 0 138 39t94 105.5t34 146.5q0 81 -34 147.5t-94.5 105.5
t-137.5 39t-140.5 -39.5t-101 -105.5t-37.5 -147t38 -147t101.5 -105t139.5 -39zM615 -440q-54 0 -91 35.5t-37 89.5q0 53 37 89t90 36t89.5 -36t36.5 -89q0 -54 -36 -89.5t-89 -35.5zM614 1088q-91 0 -166.5 45t-120.5 120.5t-45 166.5h152q0 -49 24.5 -90t65.5 -65.5
t90 -24.5q50 0 90.5 24t65 65t24.5 91h152q0 -93 -45 -168.5t-120.5 -119.5t-166.5 -44z" />
    <glyph glyph-name="uni1EB8" unicode="&#x1eb8;" horiz-adv-x="1098" 
d="M120 0v1400h878v-244h-634v-284h503v-244h-503v-384h634v-244h-878zM551 -440q-54 0 -91 35.5t-37 89.5q0 53 37 89t90 36t89.5 -36t36.5 -89q0 -54 -36 -89.5t-89 -35.5z" />
    <glyph glyph-name="uni1EB9" unicode="&#x1eb9;" horiz-adv-x="1119" 
d="M560 -26q-138 0 -251.5 71t-181 191t-67.5 265q0 109 39 204.5t107.5 168t159.5 113.5t194 41q117 0 214.5 -49.5t165.5 -135.5t99 -196t14 -230h-731q14 -56 46 -100.5t81 -71t111 -27.5q64 -1 116.5 30.5t87.5 85.5l249 -58q-61 -133 -182 -217.5t-271 -84.5zM314 600
h492q-11 60 -46.5 108.5t-87.5 77.5t-112 29t-111 -28.5t-86.5 -77t-48.5 -109.5zM561 -440q-54 0 -91 35.5t-37 89.5q0 53 37 89t90 36t89.5 -36t36.5 -89q0 -54 -36 -89.5t-89 -35.5z" />
    <glyph glyph-name="uni1EBC" unicode="&#x1ebc;" horiz-adv-x="1098" 
d="M120 0v1400h878v-244h-634v-284h503v-244h-503v-384h634v-244h-878zM704 1505q-37 0 -87.5 26t-101 58t-88 51.5t-50.5 5.5q-13 -13 -16 -33.5t7 -53.5l-143 -39q-27 78 -13.5 142t60 102.5t120.5 38.5q37 0 84.5 -21.5t95.5 -50t85 -50t53 -21.5q20 0 26 14t3 34t-10 38
l145 47q27 -82 11.5 -147t-63 -103t-118.5 -38z" />
    <glyph glyph-name="uni1EBD" unicode="&#x1ebd;" horiz-adv-x="1119" 
d="M560 -26q-138 0 -251.5 71t-181 191t-67.5 265q0 109 39 204.5t107.5 168t159.5 113.5t194 41q117 0 214.5 -49.5t165.5 -135.5t99 -196t14 -230h-731q14 -56 46 -100.5t81 -71t111 -27.5q64 -1 116.5 30.5t87.5 85.5l249 -58q-61 -133 -182 -217.5t-271 -84.5zM314 600
h492q-11 60 -46.5 108.5t-87.5 77.5t-112 29t-111 -28.5t-86.5 -77t-48.5 -109.5zM715 1105q-37 0 -87.5 26t-101 58t-88 51.5t-50.5 5.5q-13 -13 -16 -33.5t7 -53.5l-143 -39q-27 78 -13.5 142t60 102.5t120.5 38.5q37 0 84.5 -21.5t95.5 -50t85 -50t53 -21.5q20 0 26 14
t3 34t-10 38l145 47q27 -82 11.5 -147t-63 -103t-118.5 -38z" />
    <glyph glyph-name="uni1EC6" unicode="&#x1ec6;" horiz-adv-x="1098" 
d="M120 0v1400h878v-244h-634v-284h503v-244h-503v-384h634v-244h-878zM551 -440q-54 0 -91 35.5t-37 89.5q0 53 37 89t90 36t89.5 -36t36.5 -89q0 -54 -36 -89.5t-89 -35.5zM686 1798l194 -288h-163l-168 193l-165 -193h-163l191 288h274z" />
    <glyph glyph-name="uni1EC7" unicode="&#x1ec7;" horiz-adv-x="1119" 
d="M560 -26q-138 0 -251.5 71t-181 191t-67.5 265q0 109 39 204.5t107.5 168t159.5 113.5t194 41q117 0 214.5 -49.5t165.5 -135.5t99 -196t14 -230h-731q14 -56 46 -100.5t81 -71t111 -27.5q64 -1 116.5 30.5t87.5 85.5l249 -58q-61 -133 -182 -217.5t-271 -84.5zM314 600
h492q-11 60 -46.5 108.5t-87.5 77.5t-112 29t-111 -28.5t-86.5 -77t-48.5 -109.5zM561 -440q-54 0 -91 35.5t-37 89.5q0 53 37 89t90 36t89.5 -36t36.5 -89q0 -54 -36 -89.5t-89 -35.5zM696 1398l194 -288h-163l-168 193l-165 -193h-163l191 288h274z" />
    <glyph glyph-name="uni1ECA" unicode="&#x1eca;" horiz-adv-x="544" 
d="M150 0v1400h244v-1400h-244zM274 -440q-54 0 -91 35.5t-37 89.5q0 53 37 89t90 36t89.5 -36t36.5 -89q0 -54 -36 -89.5t-89 -35.5z" />
    <glyph glyph-name="uni1ECB" unicode="&#x1ecb;" 
d="M120 1000h244v-1000h-244v1000zM244 1129q-54 0 -91 35.5t-37 89.5q0 53 37 89t90 36t89.5 -36t36.5 -89q0 -54 -36 -89.5t-89 -35.5zM245 -440q-54 0 -91 35.5t-37 89.5q0 53 37 89t90 36t89.5 -36t36.5 -89q0 -54 -36 -89.5t-89 -35.5z" />
    <glyph glyph-name="uni1ECC" unicode="&#x1ecc;" horiz-adv-x="1540" 
d="M770 -26q-142 0 -267 56.5t-220 156.5t-149 231.5t-54 281.5t54 281.5t149 231.5t220 156.5t267 56.5q143 0 268 -56.5t220 -156.5t148.5 -231.5t53.5 -281.5t-53.5 -281.5t-148.5 -231.5t-220 -156.5t-268 -56.5zM770 218q92 0 173 38t142.5 104.5t96 153.5t34.5 186
t-35 186.5t-96.5 153.5t-142 104t-172.5 38t-173 -38t-142.5 -104.5t-96 -153.5t-34.5 -186q0 -100 35 -187t96.5 -153.5t142 -104t172.5 -37.5zM772 -440q-54 0 -91 35.5t-37 89.5q0 53 37 89t90 36t89.5 -36t36.5 -89q0 -54 -36 -89.5t-89 -35.5z" />
    <glyph glyph-name="uni1ECD" unicode="&#x1ecd;" horiz-adv-x="1120" 
d="M560 -26q-138 0 -251.5 71t-181 190.5t-67.5 264.5q0 110 39 205.5t107.5 168t159.5 113.5t194 41q138 0 251.5 -71t181 -191t67.5 -266q0 -109 -39 -204t-107.5 -167.5t-159 -113.5t-194.5 -41zM560 218q73 0 131 39t91.5 103t33.5 140q0 78 -34.5 142.5t-93 103
t-128.5 38.5q-72 0 -130 -39t-92 -104t-34 -141q0 -79 35 -143t93.5 -101.5t127.5 -37.5zM562 -440q-54 0 -91 35.5t-37 89.5q0 53 37 89t90 36t89.5 -36t36.5 -89q0 -54 -36 -89.5t-89 -35.5z" />
    <glyph glyph-name="uni1ED8" unicode="&#x1ed8;" horiz-adv-x="1540" 
d="M770 -26q-142 0 -267 56.5t-220 156.5t-149 231.5t-54 281.5t54 281.5t149 231.5t220 156.5t267 56.5q143 0 268 -56.5t220 -156.5t148.5 -231.5t53.5 -281.5t-53.5 -281.5t-148.5 -231.5t-220 -156.5t-268 -56.5zM770 218q92 0 173 38t142.5 104.5t96 153.5t34.5 186
t-35 186.5t-96.5 153.5t-142 104t-172.5 38t-173 -38t-142.5 -104.5t-96 -153.5t-34.5 -186q0 -100 35 -187t96.5 -153.5t142 -104t172.5 -37.5zM772 -440q-54 0 -91 35.5t-37 89.5q0 53 37 89t90 36t89.5 -36t36.5 -89q0 -54 -36 -89.5t-89 -35.5zM907 1798l194 -288h-163
l-168 193l-165 -193h-163l191 288h274z" />
    <glyph glyph-name="uni1ED9" unicode="&#x1ed9;" horiz-adv-x="1120" 
d="M560 -26q-138 0 -251.5 71t-181 190.5t-67.5 264.5q0 110 39 205.5t107.5 168t159.5 113.5t194 41q138 0 251.5 -71t181 -191t67.5 -266q0 -109 -39 -204t-107.5 -167.5t-159 -113.5t-194.5 -41zM560 218q73 0 131 39t91.5 103t33.5 140q0 78 -34.5 142.5t-93 103
t-128.5 38.5q-72 0 -130 -39t-92 -104t-34 -141q0 -79 35 -143t93.5 -101.5t127.5 -37.5zM562 -440q-54 0 -91 35.5t-37 89.5q0 53 37 89t90 36t89.5 -36t36.5 -89q0 -54 -36 -89.5t-89 -35.5zM697 1398l194 -288h-163l-168 193l-165 -193h-163l191 288h274z" />
    <glyph glyph-name="uni1EE4" unicode="&#x1ee4;" horiz-adv-x="1360" 
d="M681 -26q-168 0 -294.5 82t-196.5 220.5t-70 307.5v816h244v-816q0 -100 37.5 -183.5t108 -133t171.5 -49.5q102 0 172 49.5t106.5 133t36.5 183.5v816h244v-816q0 -127 -40 -237.5t-114 -194.5t-176.5 -131t-228.5 -47zM682 -440q-54 0 -91 35.5t-37 89.5q0 53 37 89
t90 36t89.5 -36t36.5 -89q0 -54 -36 -89.5t-89 -35.5z" />
    <glyph glyph-name="uni1EE5" unicode="&#x1ee5;" horiz-adv-x="1076" 
d="M80 370v630h244v-566q0 -59 29 -107.5t77.5 -77t106.5 -28.5q60 0 108 28.5t77 77t29 107.5v566h244l1 -1000h-244l-1 91q-52 -54 -123 -85.5t-152 -31.5q-109 0 -199 53.5t-143.5 143t-53.5 199.5zM569 -438q-54 0 -91 35.5t-37 89.5q0 53 37 89t90 36t89.5 -36
t36.5 -89q0 -54 -36 -89.5t-89 -35.5z" />
    <glyph glyph-name="Ygrave" unicode="&#x1ef2;" horiz-adv-x="1326" 
d="M978 1400h288l-481 -769v-631h-244v631l-481 769h288l315 -503zM401 1798h244l80 -288h-163z" />
    <glyph glyph-name="ygrave" unicode="&#x1ef3;" horiz-adv-x="1145" 
d="M806 1000h259l-547 -1500h-259l181 500l-360 1000h267l215 -666zM311 1398h244l80 -288h-163z" />
    <glyph glyph-name="uni1EF4" unicode="&#x1ef4;" horiz-adv-x="1326" 
d="M978 1400h288l-481 -769v-631h-244v631l-481 769h288l315 -503zM665 -440q-54 0 -91 35.5t-37 89.5q0 53 37 89t90 36t89.5 -36t36.5 -89q0 -54 -36 -89.5t-89 -35.5z" />
    <glyph glyph-name="uni1EF5" unicode="&#x1ef5;" horiz-adv-x="1145" 
d="M806 1000h259l-547 -1500h-259l181 500l-360 1000h267l215 -666zM812 -440q-54 0 -91 35.5t-37 89.5q0 53 37 89t90 36t89.5 -36t36.5 -89q0 -54 -36 -89.5t-89 -35.5z" />
    <glyph glyph-name="uni1EF8" unicode="&#x1ef8;" horiz-adv-x="1326" 
d="M978 1400h288l-481 -769v-631h-244v631l-481 769h288l315 -503zM818 1505q-37 0 -87.5 26t-101 58t-88 51.5t-50.5 5.5q-13 -13 -16 -33.5t7 -53.5l-143 -39q-27 78 -13.5 142t60 102.5t120.5 38.5q37 0 84.5 -21.5t95.5 -50t85 -50t53 -21.5q20 0 26 14t3 34t-10 38
l145 47q27 -82 11.5 -147t-63 -103t-118.5 -38z" />
    <glyph glyph-name="uni1EF9" unicode="&#x1ef9;" horiz-adv-x="1145" 
d="M806 1000h259l-547 -1500h-259l181 500l-360 1000h267l215 -666zM728 1105q-37 0 -87.5 26t-101 58t-88 51.5t-50.5 5.5q-13 -13 -16 -33.5t7 -53.5l-143 -39q-27 78 -13.5 142t60 102.5t120.5 38.5q37 0 84.5 -21.5t95.5 -50t85 -50t53 -21.5q20 0 26 14t3 34t-10 38
l145 47q27 -82 11.5 -147t-63 -103t-118.5 -38z" />
    <glyph glyph-name="uni2002" unicode="&#x2002;" horiz-adv-x="1000" 
 />
    <glyph glyph-name="uni2009" unicode="&#x2009;" horiz-adv-x="400" 
 />
    <glyph glyph-name="uni200B" unicode="&#x200b;" horiz-adv-x="0" 
 />
    <glyph glyph-name="endash" unicode="&#x2013;" horiz-adv-x="1240" 
d="M120 722h1000v-244h-1000v244z" />
    <glyph glyph-name="emdash" unicode="&#x2014;" horiz-adv-x="2040" 
d="M120 722h1800v-244h-1800v244z" />
    <glyph glyph-name="quoteright" unicode="&#x2019;" horiz-adv-x="406" 
d="M40 878l62 522h244l-143 -522h-163z" />
    <glyph glyph-name="quoteright" unicode="&#x2032;" horiz-adv-x="406" 
d="M40 878l62 522h244l-143 -522h-163z" />
    <glyph glyph-name="quotesinglbase" unicode="&#x201a;" horiz-adv-x="457" 
d="M71 -112l62 338h244l-143 -338h-163z" />
    <glyph glyph-name="quotedblleft" unicode="&#x201c;" horiz-adv-x="804" 
d="M120 878l143 522h163l-62 -522h-244zM458 882l143 522h163l-62 -522h-244z" />
    <glyph glyph-name="quotedblright" unicode="&#x201d;" horiz-adv-x="804" 
d="M40 878l62 522h244l-143 -522h-163zM378 878l62 522h244l-143 -522h-163z" />
    <glyph glyph-name="quotedblright" unicode="&#x2033;" horiz-adv-x="804" 
d="M40 878l62 522h244l-143 -522h-163zM378 878l62 522h244l-143 -522h-163z" />
    <glyph glyph-name="quotedblbase" unicode="&#x201e;" horiz-adv-x="825" 
d="M71 -112l62 338h244l-143 -338h-163zM439 -112l62 338h244l-143 -338h-163z" />
    <glyph glyph-name="dagger" unicode="&#x2020;" horiz-adv-x="859" 
d="M80 1033v244h227v223h244v-223h228v-244h-228v-464h-244v464h-227z" />
    <glyph glyph-name="daggerdbl" unicode="&#x2021;" horiz-adv-x="859" 
d="M80 730v242h227v137h-227v244h227v147h244v-147h228v-244h-228v-137h228v-242h-228v-170h-244v170h-227z" />
    <glyph glyph-name="bullet" unicode="&#x2022;" horiz-adv-x="495" 
d="M247 433q-70 0 -118.5 48.5t-48.5 118.5t48.5 118.5t118.5 48.5t119 -48.5t49 -118.5t-49 -118.5t-119 -48.5z" />
    <glyph glyph-name="ellipsis" unicode="&#x2026;" horiz-adv-x="1256" 
d="M205 -26q-52 0 -88.5 36.5t-36.5 89.5q0 51 36.5 88t88.5 37t89 -37t37 -88q0 -53 -37 -89.5t-89 -36.5zM608 -26q-52 0 -88.5 36.5t-36.5 89.5q0 51 36.5 88t88.5 37t89 -37t37 -88q0 -53 -37 -89.5t-89 -36.5zM1010 -26q-52 0 -88.5 36.5t-36.5 89.5q0 51 36.5 88
t88.5 37t89 -37t37 -88q0 -53 -37 -89.5t-89 -36.5z" />
    <glyph glyph-name="perthousand" unicode="&#x2030;" horiz-adv-x="2156" 
d="M209 0l808 1400h282l-808 -1400h-282zM381 793q-82 0 -150.5 39.5t-109.5 107.5t-41 152q0 86 41.5 154t110 107t149.5 39q82 0 150 -40.5t108.5 -108.5t40.5 -151q0 -85 -41.5 -153t-109.5 -107t-148 -39zM381 960q54 0 93 38.5t39 93.5q0 56 -39 94t-93 38
q-55 0 -94.5 -38t-39.5 -94q0 -55 39.5 -93.5t94.5 -38.5zM1113 7q-83 0 -151 41.5t-108 110t-40 147.5q0 86 41.5 154t110 107.5t147.5 39.5q86 0 154 -42t107.5 -110.5t39.5 -148.5q0 -82 -40.5 -150t-109 -108.5t-151.5 -40.5zM1113 174q56 0 95 39t39 93q0 56 -39 95
t-95 39q-54 0 -93 -39t-39 -95q0 -54 39 -93t93 -39zM1775 7q-84 0 -152 41.5t-108 110t-40 147.5q0 86 42 154t110 107.5t148 39.5q86 0 154 -42t107.5 -110.5t39.5 -148.5q0 -82 -40.5 -150t-109 -108.5t-151.5 -40.5zM1775 174q56 0 95 39t39 93q0 56 -39 95t-95 39
q-54 0 -93 -39t-39 -95q0 -54 39 -93t93 -39z" />
    <glyph glyph-name="uni2035" unicode="&#x2035;" horiz-adv-x="546" 
d="M263 878l-143 522h244l62 -522h-163z" />
    <glyph glyph-name="guilsinglleft" unicode="&#x2039;" horiz-adv-x="769" 
d="M420 261l-300 340l300 338h249l-299 -338l299 -340h-249z" />
    <glyph glyph-name="guilsinglright" unicode="&#x203a;" horiz-adv-x="769" 
d="M100 261l298 340l-298 338h249l300 -338l-300 -340h-249z" />
    <glyph glyph-name="fraction" unicode="&#x2044;" horiz-adv-x="450" 
d="M-280 0l808 1400h202l-808 -1400h-202z" />
    <glyph glyph-name="fraction" unicode="&#x2215;" horiz-adv-x="450" 
d="M-280 0l808 1400h202l-808 -1400h-202z" />
    <glyph glyph-name="uni2070" unicode="&#x2070;" horiz-adv-x="648" 
d="M324 798q-69 0 -126.5 44t-91.5 120t-34 172q0 95 34 170.5t91.5 119.5t126.5 44q70 0 127 -44t91 -119.5t34 -170.5q0 -96 -34 -172t-91 -120t-127 -44zM324 934q34 0 57.5 33.5t36 80t12.5 86.5q0 45 -13 90.5t-36.5 76.5t-56.5 31q-36 0 -59.5 -32.5t-35 -78
t-11.5 -87.5q0 -46 12.5 -92t36.5 -77t57 -31z" />
    <glyph glyph-name="uni2074" unicode="&#x2074;" horiz-adv-x="691" 
d="M342 818v98h-246v175l227 358h165v-387h59v-146h-59v-98h-146zM239 1062h116v185z" />
    <glyph glyph-name="uni2075" unicode="&#x2075;" horiz-adv-x="698" 
d="M318 798q-96 0 -165 62.5t-69 159.5h146q0 -36 25.5 -61t62.5 -25t63.5 25t26.5 61t-26.5 60.5t-63.5 27.5q-21 2 -55 0.5t-72 -5t-73 -9.5l33 355h342v-127h-210l-3 -70q124 5 199 -59.5t75 -172.5q0 -97 -69.5 -159.5t-166.5 -62.5z" />
    <glyph glyph-name="uni2076" unicode="&#x2076;" horiz-adv-x="706" 
d="M329 798q-98 0 -165.5 62t-67.5 159q0 28 6.5 53t27.5 66t63.5 113.5t113.5 194.5h169l-118 -201q63 -10 109 -42.5t70.5 -80t24.5 -105.5q0 -65 -32 -114.5t-85 -77t-116 -27.5zM329 934q39 0 65 28.5t20 68.5q-4 33 -29 53.5t-56 20.5q-45 0 -68 -32t-18 -68t31 -53.5
t55 -17.5z" />
    <glyph glyph-name="uni2077" unicode="&#x2077;" horiz-adv-x="669" 
d="M151 818l277 483h-308v146h477v-142l-279 -487h-167z" />
    <glyph glyph-name="uni2078" unicode="&#x2078;" horiz-adv-x="626" 
d="M312 798q-90 0 -153 56.5t-63 145.5q0 44 16 82.5t43 66.5q-21 26 -33.5 58.5t-12.5 67.5q0 85 59.5 140t143.5 55t144.5 -55t60.5 -140q0 -35 -12.5 -67.5t-33.5 -58.5q27 -28 43 -66.5t16 -82.5q0 -89 -63.5 -145.5t-154.5 -56.5zM312 933q30 0 51 19t21 48
q0 30 -21 51t-51 21q-29 0 -49.5 -21t-20.5 -51q0 -29 20.5 -48t49.5 -19zM312 1218q25 0 42 17t17 40q0 25 -17 41t-42 16q-23 0 -40 -16t-17 -41q0 -23 17 -40t40 -17z" />
    <glyph glyph-name="uni2079" unicode="&#x2079;" horiz-adv-x="658" 
d="M156 818l118 204q-49 3 -88.5 26t-66.5 59t-37.5 79t-2.5 88q8 86 73 140t153 54q54 0 99 -20t76 -55t45 -79.5t6 -93.5q-1 -46 -26 -90l-181 -312h-168zM305 1160q26 0 47 13.5t31.5 36.5t7.5 49q-3 31 -30 52t-56 21q-28 0 -48.5 -14t-30.5 -36t-7 -46
q4 -41 32.5 -58.5t53.5 -17.5z" />
    <glyph glyph-name="uni2080" unicode="&#x2080;" horiz-adv-x="648" 
d="M324 -31q-69 0 -126.5 46t-91.5 124t-34 174t34 173t91.5 123.5t126.5 46.5q70 0 127 -46.5t91 -123.5t34 -173t-34 -174t-91 -124t-127 -46zM324 115q34 0 57.5 33t36 79.5t12.5 85.5q0 44 -13 90t-36.5 76.5t-56.5 30.5q-36 0 -59.5 -32t-35 -77.5t-11.5 -87.5
q0 -45 12.5 -91t36.5 -76.5t57 -30.5z" />
    <glyph glyph-name="uni2081" unicode="&#x2081;" horiz-adv-x="451" 
d="M161 0v485h-65l21 146h190v-631h-146z" />
    <glyph glyph-name="uni2082" unicode="&#x2082;" horiz-adv-x="714" 
d="M96 0v129q42 29 90 60.5t95 67t84.5 77t58.5 91.5q0 38 -26 63.5t-64 25.5t-65 -25.5t-27 -63.5h-146q0 65 32 118t86.5 84.5t119.5 31.5q66 0 119 -31.5t85 -84.5t32 -118q0 -41 -19 -78.5t-50 -72.5t-68 -67t-73 -61h201v-146h-465z" />
    <glyph glyph-name="uni2083" unicode="&#x2083;" horiz-adv-x="577" 
d="M289 -31q-59 0 -108.5 29t-79 77.5t-29.5 108.5h146q0 -30 20.5 -49.5t50.5 -19.5q29 0 49.5 19.5t20.5 49.5q0 36 -30.5 65t-91.5 29v98q60 0 82.5 25.5t22.5 55.5q0 22 -17 37.5t-41 15.5q-22 0 -39 -15.5t-17 -37.5h-146q0 83 59.5 141t142.5 58q85 0 144 -58t59 -141
q0 -37 -11.5 -69.5t-32.5 -56.5q31 -30 46.5 -67t15.5 -80q0 -60 -29.5 -108.5t-78.5 -77.5t-108 -29z" />
    <glyph glyph-name="uni2084" unicode="&#x2084;" horiz-adv-x="691" 
d="M342 0v98h-246v176l227 357h165v-387h59v-146h-59v-98h-146zM239 244h116v185z" />
    <glyph glyph-name="uni2085" unicode="&#x2085;" horiz-adv-x="698" 
d="M318 -31q-64 0 -117 31t-85 82.5t-32 116.5h146q0 -35 25.5 -59.5t62.5 -24.5t63.5 24.5t26.5 59.5q0 37 -26.5 62.5t-63.5 25.5l-202 -8l35 349h342v-129h-210l-3 -68l41 2q111 0 172 -67.5t61 -166.5q0 -65 -32 -116.5t-85.5 -82.5t-118.5 -31z" />
    <glyph glyph-name="uni2086" unicode="&#x2086;" horiz-adv-x="682" 
d="M329 -31q-98 0 -165.5 66.5t-67.5 163.5q0 28 6.5 53.5t27.5 66t63.5 113t113.5 195.5h169l-118 -203q63 -10 109 -42.5t70.5 -80t24.5 -104.5q0 -65 -32 -117t-85 -81.5t-116 -29.5zM329 115q39 0 65 28t20 67q-4 34 -29 54t-56 20q-45 0 -67.5 -32t-18.5 -67
q5 -37 31 -53.5t55 -16.5z" />
    <glyph glyph-name="uni2087" unicode="&#x2087;" horiz-adv-x="669" 
d="M148 0l280 485h-308v146h477v-142l-282 -489h-167z" />
    <glyph glyph-name="uni2088" unicode="&#x2088;" horiz-adv-x="626" 
d="M312 -31q-90 0 -153 61t-63 150q0 43 16 82t43 67q-21 26 -33.5 58.5t-12.5 66.5q0 87 59.5 144.5t143.5 57.5t144.5 -57.5t60.5 -144.5q0 -34 -12.5 -66.5t-33.5 -58.5q27 -28 43 -67t16 -82q0 -89 -63.5 -150t-154.5 -61zM312 112q30 0 51 19.5t21 48.5q0 30 -21 50.5
t-51 20.5q-29 0 -49.5 -20.5t-20.5 -50.5q0 -29 20.5 -48.5t49.5 -19.5zM312 397q25 0 42 17.5t17 39.5q0 25 -17 41t-42 16q-23 0 -40 -16t-17 -41q0 -22 17 -39.5t40 -17.5z" />
    <glyph glyph-name="uni2089" unicode="&#x2089;" horiz-adv-x="658" 
d="M156 0l118 204q-49 3 -88.5 26t-66.5 59.5t-37.5 79.5t-2.5 88q6 58 37 103.5t80.5 72t108.5 26.5q66 0 118.5 -31t82.5 -82t32 -112t-32 -120l-182 -314h-168zM305 343q26 0 47 13.5t31.5 36t7.5 48.5q-3 31 -30 52t-56 21q-28 0 -48.5 -14t-30.5 -35.5t-7 -46.5
q4 -41 32.5 -58t53.5 -17z" />
    <glyph glyph-name="Euro" unicode="&#x20ac;" horiz-adv-x="1121" 
d="M1041 -16q-134 -22 -258 5t-227.5 95t-178.5 169.5t-113 229.5h-184v167h154v97h-154v167h184q37 130 113 232.5t180 170.5t227 94.5t257 4.5v-252q-84 23 -161.5 14.5t-145 -43.5t-120.5 -91t-86 -130h271v-167h-321l2 -97h319v-167h-269q34 -75 87.5 -131t121.5 -89.5
t144.5 -41t157.5 14.5v-252z" />
    <glyph glyph-name="trademark" unicode="&#x2122;" horiz-adv-x="3029" 
d="M1180 1400v-244h-428v-1156h-244v1156h-428v244h1100zM1279 0l272 1400h202l341 -897l341 897h202l272 -1400h-249l-168 866l-315 -834h-167l-315 834l-167 -866h-249z" />
    <glyph glyph-name="oneeighth" unicode="&#x215b;" horiz-adv-x="1527" 
d="M161 818v485h-65l21 146h190v-631h-146zM171 0l808 1400h202l-808 -1400h-202zM1213 -31q-90 0 -153 61t-63 150q0 43 16 82t43 67q-21 26 -33.5 58.5t-12.5 66.5q0 87 59.5 144.5t143.5 57.5t144.5 -57.5t60.5 -144.5q0 -34 -12.5 -66.5t-33.5 -58.5q27 -28 43 -67
t16 -82q0 -89 -63.5 -150t-154.5 -61zM1213 112q30 0 51 19.5t21 48.5q0 30 -21 50.5t-51 20.5q-29 0 -49.5 -20.5t-20.5 -50.5q0 -29 20.5 -48.5t49.5 -19.5zM1213 397q25 0 42 17.5t17 39.5q0 25 -17 41t-42 16q-23 0 -40 -16t-17 -41q0 -22 17 -39.5t40 -17.5z" />
    <glyph glyph-name="threeeighths" unicode="&#x215c;" horiz-adv-x="1653" 
d="M289 798q-88 0 -152.5 58.5t-64.5 147.5h146q0 -30 20.5 -50t50.5 -20q29 0 49.5 20t20.5 50q0 36 -30.5 65.5t-91.5 29.5v97q60 0 82.5 25.5t22.5 55.5q0 23 -17 38.5t-41 15.5q-22 0 -39 -15.5t-17 -38.5h-146q0 83 59.5 137t142.5 54q85 0 144 -54t59 -137
q0 -36 -11.5 -69t-32.5 -57q31 -29 46.5 -66t15.5 -81q0 -89 -64 -147.5t-152 -58.5zM297 0l808 1400h202l-808 -1400h-202zM1339 -31q-90 0 -153 61t-63 150q0 43 16 82t43 67q-21 26 -33.5 58.5t-12.5 66.5q0 87 59.5 144.5t143.5 57.5t144.5 -57.5t60.5 -144.5
q0 -34 -12.5 -66.5t-33.5 -58.5q27 -28 43 -67t16 -82q0 -89 -63.5 -150t-154.5 -61zM1339 112q30 0 51 19.5t21 48.5q0 30 -21 50.5t-51 20.5q-29 0 -49.5 -20.5t-20.5 -50.5q0 -29 20.5 -48.5t49.5 -19.5zM1339 397q25 0 42 17.5t17 39.5q0 25 -17 41t-42 16
q-23 0 -40 -16t-17 -41q0 -22 17 -39.5t40 -17.5z" />
    <glyph glyph-name="fiveeighths" unicode="&#x215d;" horiz-adv-x="1773" 
d="M318 798q-96 0 -165 62.5t-69 159.5h146q0 -36 25.5 -61t62.5 -25t63.5 25t26.5 61t-26.5 60.5t-63.5 27.5q-21 2 -55 0.5t-72 -5t-73 -9.5l33 355h342v-127h-210l-3 -70q124 5 199 -59.5t75 -172.5q0 -97 -69.5 -159.5t-166.5 -62.5zM418 0l808 1400h202l-808 -1400
h-202zM1460 -31q-90 0 -153 61t-63 150q0 43 16 82t43 67q-21 26 -33.5 58.5t-12.5 66.5q0 87 59.5 144.5t143.5 57.5t144.5 -57.5t60.5 -144.5q0 -34 -12.5 -66.5t-33.5 -58.5q27 -28 43 -67t16 -82q0 -89 -63.5 -150t-154.5 -61zM1460 112q30 0 51 19.5t21 48.5
q0 30 -21 50.5t-51 20.5q-29 0 -49.5 -20.5t-20.5 -50.5q0 -29 20.5 -48.5t49.5 -19.5zM1460 397q25 0 42 17.5t17 39.5q0 25 -17 41t-42 16q-23 0 -40 -16t-17 -41q0 -22 17 -39.5t40 -17.5z" />
    <glyph glyph-name="seveneighths" unicode="&#x215e;" horiz-adv-x="1745" 
d="M151 818l277 483h-308v146h477v-142l-279 -487h-167zM389 0l808 1400h202l-808 -1400h-202zM1431 -31q-90 0 -153 61t-63 150q0 43 16 82t43 67q-21 26 -33.5 58.5t-12.5 66.5q0 87 59.5 144.5t143.5 57.5t144.5 -57.5t60.5 -144.5q0 -34 -12.5 -66.5t-33.5 -58.5
q27 -28 43 -67t16 -82q0 -89 -63.5 -150t-154.5 -61zM1431 112q30 0 51 19.5t21 48.5q0 30 -21 50.5t-51 20.5q-29 0 -49.5 -20.5t-20.5 -50.5q0 -29 20.5 -48.5t49.5 -19.5zM1431 397q25 0 42 17.5t17 39.5q0 25 -17 41t-42 16q-23 0 -40 -16t-17 -41q0 -22 17 -39.5
t40 -17.5z" />
    <glyph glyph-name="arrowleft" unicode="&#x2190;" horiz-adv-x="1406" 
d="M612 218l-532 532l532 532l172 -172l-237 -238h779v-244h-779l237 -238z" />
    <glyph glyph-name="arrowup" unicode="&#x2191;" horiz-adv-x="1224" 
d="M490 126v780l-237 -237l-173 173l532 532l532 -532l-172 -173l-238 237v-780h-244z" />
    <glyph glyph-name="arrowright" unicode="&#x2192;" horiz-adv-x="1408" 
d="M796 218l-173 172l236 238h-779v244h779l-236 238l173 172l532 -532z" />
    <glyph glyph-name="arrowdown" unicode="&#x2193;" horiz-adv-x="1223" 
d="M610 126l-530 532l172 173l236 -237v780h244v-780l238 237l173 -173z" />
    <glyph glyph-name="arrowboth" unicode="&#x2194;" horiz-adv-x="1843" 
d="M612 218l-532 532l532 532l172 -172l-237 -238h747l-236 238l172 172l533 -532l-533 -532l-172 172l236 238h-747l237 -238z" />
    <glyph glyph-name="arrowupdn" unicode="&#x2195;" horiz-adv-x="1224" 
d="M612 -92l-532 533l172 173l238 -237v746l-238 -236l-172 173l532 532l532 -532l-172 -173l-238 236v-746l238 237l172 -173z" />
    <glyph glyph-name="uni2196" unicode="&#x2196;" horiz-adv-x="1128" 
d="M876 266l-552 552v-336h-244v752h752v-244h-335l551 -552z" />
    <glyph glyph-name="uni2197" unicode="&#x2197;" horiz-adv-x="1128" 
d="M252 267l-172 172l552 550h-338v244h754v-752h-244v336z" />
    <glyph glyph-name="uni2198" unicode="&#x2198;" horiz-adv-x="1128" 
d="M296 267v244h336l-552 550l172 172l552 -550v336h244v-752h-752z" />
    <glyph glyph-name="uni2199" unicode="&#x2199;" horiz-adv-x="1128" 
d="M80 267v752h244v-336l552 550l172 -172l-552 -550h336v-244h-752z" />
    <glyph glyph-name="partialdiff" unicode="&#x2202;" horiz-adv-x="1166" 
d="M584 -26q-139 0 -253.5 68t-182.5 182t-68 252q0 104 39 195.5t108.5 161t161 108.5t195.5 39q46 0 87.5 -16t71.5 -44q-21 62 -51.5 125t-76.5 117t-112.5 87t-157.5 33l-2 244q168 0 304.5 -82t234.5 -224t150.5 -324t53.5 -382q0 -158 -65 -280t-178 -191t-259 -69z
M584 218q71 0 130 35.5t93.5 94t34.5 128.5q0 71 -35 130t-93.5 94.5t-129.5 35.5q-72 0 -131 -35.5t-94 -94.5t-35 -130q0 -70 35 -129t94 -94t131 -35z" />
    <glyph glyph-name="emptyset" unicode="&#x2205;" horiz-adv-x="1160" 
d="M362 -75l-172 99l52 90q-74 72 -118 172t-44 214q0 110 39 205.5t107.5 168t159.5 113.5t194 41q45 0 88 -8.5t82 -23.5l49 82l171 -99l-52 -91q75 -72 118.5 -172t43.5 -216q0 -109 -39 -204t-107.5 -167.5t-159 -113.5t-194.5 -41q-45 0 -88 8.5t-83 24.5zM363 320
l277 481q-64 14 -124 -6t-107.5 -65t-75 -108t-27.5 -136q0 -49 15 -91t42 -75zM520 201q67 -13 126.5 6.5t106.5 64t74 107t27 135.5q0 49 -15.5 92t-40.5 77z" />
    <glyph glyph-name="product" unicode="&#x220f;" horiz-adv-x="1280" 
d="M80 1400h1120v-244h-1120v244zM218 1234h244v-1234h-244v1234zM818 1234h244v-1234h-244v1234z" />
    <glyph glyph-name="summation" unicode="&#x2211;" horiz-adv-x="923" 
d="M80 0v244l232 454l-232 454v244h783v-244h-508l231 -454l-231 -454h508v-244h-783z" />
    <glyph glyph-name="minus" unicode="&#x2212;" horiz-adv-x="1160" 
d="M80 478v244h1000v-244h-1000z" />
    <glyph glyph-name="radical" unicode="&#x221a;" horiz-adv-x="1346" 
d="M901 1400h365v-244h-194l-423 -1156h-311l-258 708h259l155 -422z" />
    <glyph glyph-name="infinity" unicode="&#x221e;" horiz-adv-x="1521" 
d="M438 254q-111 10 -191.5 60.5t-123.5 129.5t-43 174q0 102 45.5 183.5t126 130.5t186.5 50q67 0 122 -20t103.5 -59t97.5 -98q50 59 99 98.5t103 59t116 19.5q115 -1 196 -51.5t123.5 -132.5t42.5 -180q0 -101 -44.5 -183t-125 -130.5t-186.5 -50.5q-67 0 -121.5 19.5
t-103.5 58.5t-99 98q-51 -60 -100 -100.5t-103 -60t-120 -15.5zM436 477q39 0 73 21.5t63 54t54 65.5q-27 36 -56.5 68.5t-62.5 53t-71 18.5q-63 -3 -99 -46t-36 -94q0 -59 38 -99t97 -42zM1087 477q64 4 99.5 46t35.5 95q0 56 -36 97.5t-95 44.5q-40 0 -73 -19.5t-62 -52
t-59 -70.5q22 -27 44 -53t45.5 -46t48.5 -31.5t52 -10.5z" />
    <glyph glyph-name="integral" unicode="&#x222b;" horiz-adv-x="1074" 
d="M355 -26q-81 0 -145 37.5t-99.5 102.5t-30.5 148l155 -12q4 -33 12.5 -56.5t40.5 -24.5t54.5 17t26.5 48l97 988q8 58 48 104.5t97.5 73.5t118.5 26q77 -1 139.5 -42t96.5 -106.5t27 -140.5l-141 13q-5 47 -29 64.5t-56 13.5q-24 -1 -42.5 -19.5t-22.5 -49.5l-95 -982
q-24 -108 -95 -155.5t-157 -47.5z" />
    <glyph glyph-name="approxequal" unicode="&#x2248;" horiz-adv-x="1305" 
d="M921 680q-65 0 -140.5 26.5t-151.5 61t-144 61t-120 26.5q-32 0 -51.5 -16.5t-27 -43.5t-4.5 -56l-238 3q-14 89 23 167t109.5 126.5t164.5 48.5q65 0 133 -27t135.5 -63.5t130.5 -63.5t116 -27q32 0 52 16t28.5 43t4.5 58l240 -2q14 -89 -14 -166t-91.5 -124.5
t-154.5 -47.5zM921 132q-65 0 -140.5 26.5t-151.5 61t-144 61t-120 26.5q-32 0 -51.5 -16.5t-27 -43.5t-4.5 -56l-238 3q-14 89 23 167t109.5 126.5t164.5 48.5q65 0 133 -27t135.5 -63.5t130.5 -63.5t116 -27q32 0 52 16t28.5 43t4.5 58l240 -2q14 -89 -14 -166
t-91.5 -124.5t-154.5 -47.5z" />
    <glyph glyph-name="notequal" unicode="&#x2260;" horiz-adv-x="1160" 
d="M877 1182l-72 -245h275v-244h-347l-54 -186h401v-244h-473l-72 -245h-254l73 245h-274v244h345l54 186h-399v244h471l72 245h254z" />
    <glyph glyph-name="lessequal" unicode="&#x2264;" horiz-adv-x="1160" 
d="M1080 333l-1000 284v406l1000 286v-254l-823 -234l823 -235v-253zM80 0v244h1000v-244h-1000z" />
    <glyph glyph-name="greaterequal" unicode="&#x2265;" horiz-adv-x="1160" 
d="M80 351v254l823 225l-823 225v254l1000 -276v-407zM80 0v244h1000v-244h-1000z" />
    <glyph glyph-name="lozenge" unicode="&#x25ca;" horiz-adv-x="1082" 
d="M328 0l-268 702l266 698h430l266 -698l-268 -702h-426zM541 134l226 568l-226 568l-224 -568z" />
    <glyph glyph-name="uniFFFD" unicode="&#xfffd;" horiz-adv-x="1630" 
d="M816 -26q-54 0 -106 20t-94 62l-414 414q-42 42 -62 94t-20 106t21 106t61 92l414 414q42 42 94 62t106 20t105 -20t93 -62l414 -414q42 -42 62 -93t20 -105t-20 -106t-62 -94l-414 -414q-40 -40 -92 -61t-106 -21zM821 258q35 0 59.5 25t24.5 60t-24.5 58.5t-59.5 23.5
t-59.5 -23.5t-24.5 -58.5t24.5 -60t59.5 -25zM732 514h168v2q0 34 30 52q60 33 95 92t35 130q0 69 -34 126.5t-91 91t-127 33.5q-69 0 -126.5 -33.5t-91 -91t-33.5 -126.5h167q0 35 24.5 59.5t59.5 24.5q36 0 60.5 -24.5t24.5 -59.5q0 -24 -11 -44.5t-30 -30.5
q-57 -28 -88.5 -82t-31.5 -117v-2z" />
    </font>
</defs>
</svg>
