<?xml version="1.0" standalone="no"?>
<!DOCTYPE svg PUBLIC "-//W3C//DTD SVG 1.1//EN" "http://www.w3.org/Graphics/SVG/1.1/DTD/svg11.dtd" >
<svg xmlns="http://www.w3.org/2000/svg" xmlns:xlink="http://www.w3.org/1999/xlink" version="1.1">
<metadata>
Created by FontForge 20201107 at Wed Oct 27 17:11:08 2021
 By 
Copyright 2021 The Urbanist Project Authors (https://github.com/coreyhu/Urbanist)
</metadata>
<defs>
<font id="Urbanist-BlackItalic" horiz-adv-x="1120" >
  <font-face 
    font-family="Urbanist Black"
    font-weight="900"
    font-style="italic"
    font-stretch="normal"
    units-per-em="2000"
    panose-1="2 11 10 4 4 2 0 0 2 3"
    ascent="1600"
    descent="-400"
    x-height="1000"
    cap-height="1400"
    bbox="-398 -500 2865 2118"
    underline-thickness="50"
    underline-position="-125"
    unicode-range="U+000D-FFFD"
  />
<missing-glyph horiz-adv-x="1000" 
d="M100 -500v2400h800v-2400h-800zM200 -400h600v2200h-600v-2200z" />
    <glyph glyph-name=".notdef" horiz-adv-x="1000" 
d="M100 -500v2400h800v-2400h-800zM200 -400h600v2200h-600v-2200z" />
    <glyph glyph-name=".null" horiz-adv-x="1200" 
 />
    <glyph glyph-name=".null" horiz-adv-x="1200" 
 />
    <glyph glyph-name="nonmarkingreturn" unicode="&#xd;" horiz-adv-x="1200" 
 />
    <glyph glyph-name="nonmarkingreturn" unicode="&#xfeff;" horiz-adv-x="1200" 
 />
    <glyph glyph-name="space" unicode=" " horiz-adv-x="480" 
 />
    <glyph glyph-name="exclam" unicode="!" horiz-adv-x="498" 
d="M65 420l137 980h250l-137 -980h-250zM128 -26q-63 0 -100.5 44t-28.5 108q9 62 58.5 105t112.5 43q62 0 99 -43t28 -105q-9 -64 -58 -108t-111 -44z" />
    <glyph glyph-name="quotedbl" unicode="&#x22;" horiz-adv-x="626" 
d="M85 878l73 522h200l-73 -522h-200zM391 878l73 522h200l-73 -522h-200z" />
    <glyph glyph-name="numbersign" unicode="#" horiz-adv-x="1606" 
d="M1469 850h-148l-124 -300h150l-119 -290h-148l-106 -260h-300l106 260h-314l-104 -260h-300l104 260h-148l119 290h148l124 300h-150l119 290h148l106 260h300l-106 -260h314l104 260h300l-104 -260h148zM897 550l124 300h-312l-124 -300h312z" />
    <glyph glyph-name="dollar" unicode="$" horiz-adv-x="1224" 
d="M672 1124q-58 1 -114 -17t-94 -49t-44 -70q-7 -54 21 -80.5t79.5 -37.5t112.5 -20q141 -21 254.5 -75t174 -144t42.5 -219q-16 -115 -87 -205.5t-177 -148.5t-229 -76l-29 -206h-200l29 206q-97 14 -178 54.5t-136.5 104t-74.5 147.5l297 104q6 -29 36.5 -56t81 -44.5
t115.5 -17.5q60 0 115.5 17.5t93 48.5t43.5 72q6 42 -25 69.5t-82 44t-106 24.5q-149 22 -262 72.5t-170.5 139.5t-38.5 226q17 116 87.5 207t177 149t228.5 76l29 204h200l-29 -204q96 -14 178 -55t137.5 -105.5t73.5 -149.5l-297 -102q-6 29 -36.5 55.5t-81 43.5
t-115.5 17z" />
    <glyph glyph-name="percent" unicode="%" horiz-adv-x="1630" 
d="M140 0l1004 1400h346l-1004 -1400h-346zM422 760q-91 0 -160.5 44t-104.5 119.5t-22 168.5q14 96 71 171t139 118t171 43q91 0 160 -44t103.5 -119.5t21.5 -168.5q-13 -95 -70 -170t-139 -118.5t-170 -43.5zM451 960q54 0 98.5 38.5t51.5 93.5q8 56 -25.5 94t-87.5 38
q-55 0 -100 -38t-53 -94q-7 -55 27 -93.5t89 -38.5zM1114 -26q-93 0 -161.5 46.5t-102 122.5t-21.5 163q13 95 70 170.5t139 119.5t170 44q96 0 165 -47t101.5 -123t20.5 -164q-13 -91 -69 -166.5t-138 -120.5t-174 -45zM1142 174q56 0 101 39t52 93q8 56 -26 95t-90 39
q-54 0 -98 -39t-52 -95q-7 -54 26 -93t87 -39z" />
    <glyph glyph-name="ampersand" unicode="&#x26;" horiz-adv-x="1438" 
d="M422 -26q-125 0 -217 61.5t-136.5 162.5t-28.5 220q9 63 27.5 111.5t51 93t84.5 94.5t128 117q-30 35 -50 65.5t-31 62t-13 66t4 76.5q14 99 72 176t141.5 121.5t174.5 44.5q94 0 165.5 -45.5t107 -123t21.5 -173.5q-6 -43 -18.5 -78t-33 -66t-49.5 -61.5t-67 -64.5
l175 -204l308 270l-59 -424l-67 -58l177 -206l-241 -212l-177 206q-78 -68 -135.5 -113t-105.5 -71t-97 -37t-111 -11zM464 274q27 0 48.5 7.5t45 24.5t54.5 44.5t76 67.5l-175 204q-48 -42 -80 -69.5t-51 -47.5t-28.5 -40t-13.5 -47q-6 -43 10.5 -75.5t47 -50.5t66.5 -18z
M566 1000q38 32 57.5 48t27.5 28.5t11 33.5q5 41 -19 60.5t-50 19.5q-30 0 -58 -22.5t-33 -57.5q-3 -21 3 -35t21 -30.5t40 -44.5z" />
    <glyph glyph-name="quotesingle" unicode="'" horiz-adv-x="320" 
d="M85 878l73 522h200l-73 -522h-200z" />
    <glyph glyph-name="parenleft" unicode="(" horiz-adv-x="820" 
d="M306 -112q-90 105 -140.5 219t-63 246t9.5 291q10 68 38 159t69 188t91 183t103 147t105 79h300q-39 -19 -88.5 -79t-100.5 -145t-97 -181t-78 -188t-42 -163q-22 -156 5 -300.5t80.5 -262t108.5 -193.5h-300z" />
    <glyph glyph-name="parenright" unicode=")" horiz-adv-x="820" 
d="M-14 -112q77 76 162.5 193.5t153.5 262t90 300.5q10 71 4 163t-24.5 188t-46 181t-60.5 145t-67 79h300q47 -18 83 -79t61.5 -147t40 -183t17 -188t-7.5 -159q-22 -159 -72 -291t-132 -246t-202 -219h-300z" />
    <glyph glyph-name="asterisk" unicode="*" horiz-adv-x="734" 
d="M282 826l-146 118l105 120l-134 44l87 192l136 -46l20 146h200l-20 -146l146 46l35 -192l-148 -44l71 -120l-178 -118l-69 120z" />
    <glyph glyph-name="plus" unicode="+" horiz-adv-x="1160" 
d="M346 100l49 350h-350l42 300h350l49 350h300l-49 -350h350l-42 -300h-350l-49 -350h-300z" />
    <glyph glyph-name="comma" unicode="," horiz-adv-x="562" 
d="M-34 -112l109 338h300l-209 -338h-200z" />
    <glyph glyph-name="hyphen" unicode="-" horiz-adv-x="880" 
d="M127 750h640l-42 -300h-640z" />
    <glyph glyph-name="period" unicode="." horiz-adv-x="500" 
d="M128 -26q-63 0 -100.5 43.5t-28.5 106.5q9 62 58.5 106t112.5 44q62 0 100 -44t29 -106q-9 -63 -59 -106.5t-112 -43.5z" />
    <glyph glyph-name="slash" unicode="/" horiz-adv-x="866" 
d="M884 1400l-618 -1512h-300l618 1512h300z" />
    <glyph glyph-name="zero" unicode="0" horiz-adv-x="1218" 
d="M508 -26q-120 0 -212.5 56.5t-152.5 156.5t-82 231.5t-1 281.5t80 281.5t147 231.5t196.5 156.5t228.5 56.5t212.5 -56.5t151.5 -156.5t81 -231.5t1 -281.5t-79.5 -281.5t-146.5 -231.5t-196 -156.5t-228 -56.5zM550 274q93 0 161 61t110 158.5t57 206.5q16 115 0 212
t-67.5 155.5t-140.5 58.5q-70 0 -126 -35.5t-97.5 -96t-68 -136.5t-38.5 -158q-15 -108 0.5 -205.5t66.5 -159t143 -61.5z" />
    <glyph glyph-name="one" unicode="1" horiz-adv-x="730" 
d="M172 0l154 1100h-190l122 300h410l-196 -1400h-300z" />
    <glyph glyph-name="two" unicode="2" horiz-adv-x="1172" 
d="M-18 0l37 268q61 35 154 97.5t196 140.5t195.5 158.5t153.5 153t68 122.5q7 51 -12 93.5t-57 67.5t-89 25t-97 -25t-77 -67.5t-38 -93.5h-300q20 138 102 248t201.5 174t250.5 64q133 0 234 -65t151 -175.5t31 -245.5q-9 -67 -35.5 -127.5t-70 -119t-103 -119.5
t-135 -128.5t-166.5 -145.5h420l-42 -300h-972z" />
    <glyph glyph-name="three" unicode="3" horiz-adv-x="1044" 
d="M420 -26q-126 0 -222 62t-144.5 167t-30.5 233h300q-6 -44 11 -81t50.5 -59t77.5 -22t84 22t67.5 59t33.5 81q9 61 -19.5 101.5t-87.5 60.5t-142 20l33 228q110 0 178.5 37.5t78.5 112.5q5 36 -8.5 66t-40.5 48t-63 18q-37 0 -75.5 -18t-66 -48t-32.5 -66h-300
q12 89 59.5 167.5t119.5 138t158 93t175 33.5q117 0 207.5 -58t137 -156t29.5 -218q-10 -70 -50.5 -145t-105.5 -107q50 -20 78 -70.5t37 -114t0 -123.5q-18 -127 -95.5 -232t-191 -167.5t-240.5 -62.5z" />
    <glyph glyph-name="four" unicode="4" horiz-adv-x="1194" 
d="M574 0l43 310h-592l42 300l635 790h368l-111 -790h102l-42 -300h-102l-43 -310h-300zM413 610h246l55 386z" />
    <glyph glyph-name="five" unicode="5" horiz-adv-x="1172" 
d="M460 -26q-139 0 -241 67.5t-151 179t-31 243.5h300q-7 -53 12.5 -96t59.5 -68.5t93 -25.5q52 0 99 25.5t79 68.5t39 96q8 53 -6.5 97.5t-64.5 71.5t-150 27h-370l260 740h706l-42 -300h-462l-49 -140l63 -2q142 -6 241.5 -73t146 -177t27.5 -244q-14 -100 -64.5 -189
t-127 -156.5t-171 -106t-196.5 -38.5z" />
    <glyph glyph-name="six" unicode="6" horiz-adv-x="1110" 
d="M446 -26q-136 0 -240 67.5t-155.5 181t-32.5 251.5q9 65 33.5 128.5t67.5 121.5l485 676h348l-308 -428q75 -9 138 -38.5t112 -76t80 -106.5t43 -130t1 -147q-14 -103 -65.5 -193.5t-130.5 -159.5t-175.5 -108t-200.5 -39zM488 274q58 0 107.5 28.5t82.5 74t40 95.5
q8 55 -12 101t-61.5 73.5t-98.5 27.5q-60 0 -109 -29t-80 -75t-39 -98q-8 -57 14 -101.5t63.5 -70.5t92.5 -26z" />
    <glyph glyph-name="seven" unicode="7" horiz-adv-x="1116" 
d="M-4 0l788 1100h-688l42 300h1036l-42 -300l-790 -1100h-346z" />
    <glyph glyph-name="eight" unicode="8" horiz-adv-x="1110" 
d="M452 -26q-132 0 -231 60.5t-148 163t-32 228.5q13 87 57.5 167t114.5 143q-39 56 -56 123.5t-7 142.5q17 117 90.5 213.5t183 153.5t232.5 57t216 -57t140 -153.5t30 -213.5q-10 -75 -46.5 -142.5t-90.5 -123.5q54 -63 76.5 -143t9.5 -167q-17 -125 -95.5 -227.5
t-195 -163.5t-248.5 -61zM494 274q44 0 83.5 20.5t66 55t31.5 76.5q6 42 -10.5 76.5t-50 55t-77.5 20.5t-83.5 -20.5t-66 -55t-32.5 -76.5q-5 -42 11.5 -76.5t50 -55t77.5 -20.5zM579 878q36 0 68 17t53.5 45t25.5 62q5 34 -8.5 62t-40.5 45t-63 17t-68 -17t-53.5 -45
t-26.5 -62q-4 -34 9.5 -62t40.5 -45t63 -17z" />
    <glyph glyph-name="nine" unicode="9" 
d="M158 0l308 428q-94 11 -169 54t-125.5 110.5t-71.5 152.5t-8 181q14 103 65.5 193.5t130.5 159.5t175.5 108t200.5 39q136 0 240 -67.5t156 -181t32 -251.5q-9 -64 -33.5 -127.5t-67.5 -122.5l-485 -676h-348zM564 726q60 0 109 29t80.5 75t38.5 98q8 57 -14 102
t-63.5 70.5t-92.5 25.5q-58 0 -108 -28.5t-82.5 -74t-39.5 -95.5q-7 -55 12.5 -101t61 -73.5t98.5 -27.5z" />
    <glyph glyph-name="colon" unicode=":" horiz-adv-x="500" 
d="M230 700q-63 0 -100.5 43.5t-28.5 106.5q9 62 58.5 106t112.5 44q62 0 100 -44t29 -106q-9 -63 -59 -106.5t-112 -43.5zM128 -26q-63 0 -100.5 43.5t-28.5 106.5q9 62 58.5 106t112.5 44q62 0 100 -44t29 -106q-9 -63 -59 -106.5t-112 -43.5z" />
    <glyph glyph-name="semicolon" unicode=";" horiz-adv-x="562" 
d="M-34 -112l109 338h300l-209 -338h-200zM292 700q-63 0 -100.5 43.5t-28.5 106.5q9 62 58.5 106t112.5 44q62 0 100 -44t29 -106q-9 -63 -59 -106.5t-112 -43.5z" />
    <glyph glyph-name="less" unicode="&#x3c;" horiz-adv-x="1160" 
d="M991 64l-960 284l70 502l1040 286l-44 -312l-817 -224l754 -224z" />
    <glyph glyph-name="equal" unicode="=" horiz-adv-x="1160" 
d="M14 228l42 300h1000l-42 -300h-1000zM76 672l42 300h1000l-42 -300h-1000z" />
    <glyph glyph-name="greater" unicode="&#x3e;" horiz-adv-x="1160" 
d="M-8 76l44 312l816 212l-756 212l44 312l961 -274l-70 -502z" />
    <glyph glyph-name="question" unicode="?" horiz-adv-x="1164" 
d="M384 400q17 121 92 222.5t190 159.5q45 23 75 66.5t38 97.5q7 50 -12 91t-57 65t-88 24t-94.5 -24t-75 -65t-37.5 -91h-300q19 132 99 241t198.5 174t251.5 65t233.5 -65t150.5 -174t31 -241q-19 -136 -101.5 -251t-207.5 -177q-35 -17 -58 -48.5t-28 -69.5h-300z
M490 -26q-63 0 -100.5 44t-28.5 108q9 62 58.5 105t112.5 43q62 0 99 -43t28 -105q-9 -64 -58 -108t-111 -44z" />
    <glyph glyph-name="at" unicode="@" horiz-adv-x="1890" 
d="M806 -286q-180 0 -327.5 62.5t-250.5 175.5t-148.5 265.5t-20.5 332.5t114.5 337t225 276t302 186t345.5 67q180 0 327.5 -67.5t249.5 -187t146.5 -276.5t19.5 -335q-15 -103 -53.5 -200t-98.5 -174t-137.5 -122.5t-170.5 -45.5q-63 0 -126.5 27t-108 72t-51.5 98
q-41 -25 -90 -39t-103 -14q-109 0 -192 54t-123.5 144.5t-25.5 199.5q16 110 82 200.5t164 144t207 53.5q47 0 106 -10t90 -29l3 18l213 -50l-71 -503q-4 -32 7.5 -49t40.5 -17q38 0 67 44.5t47.5 102t23.5 95.5q17 118 -13.5 221t-97.5 180.5t-163 121t-212 43.5
t-224.5 -44t-197 -121.5t-147 -180t-75.5 -220.5q-16 -117 13.5 -215.5t97 -170t164.5 -111t215 -39.5zM907 371q49 0 93 24.5t74 65t37 89.5q7 50 -11.5 90.5t-56 64.5t-86.5 24t-93 -24t-74 -64.5t-37 -90.5q-7 -49 11.5 -89.5t56 -65t86.5 -24.5z" />
    <glyph glyph-name="A" unicode="A" horiz-adv-x="1514" 
d="M686 1400h338l312 -1400h-318l-49 220h-558l-111 -220h-318zM563 520h338l-105 464z" />
    <glyph glyph-name="B" unicode="B" horiz-adv-x="1206" 
d="M22 0l196 1400h530q115 0 201.5 -47.5t129 -134.5t25.5 -204q-6 -44 -23.5 -92.5t-51.5 -90.5t-90 -66q65 -16 98 -60t44.5 -101.5t9 -116t-9.5 -105.5q-14 -106 -83.5 -192.5t-172.5 -138t-219 -51.5h-584zM357 254h252q52 0 98.5 24.5t78 67.5t38.5 98q7 46 -13 87.5
t-59 67.5t-91 26h-252zM445 875h194q60 0 108.5 40t56.5 101q9 62 -29.5 95t-98.5 33h-194z" />
    <glyph glyph-name="C" unicode="C" horiz-adv-x="1418" 
d="M666 -26q-142 0 -259 56.5t-197.5 156.5t-115.5 231.5t-14 281.5q21 151 93 282.5t180.5 231t241.5 156t275 56.5q170 0 302 -78.5t208 -209.5l-289 -144q-43 60 -111 96t-152 36q-80 0 -155 -33t-137 -91.5t-103 -135.5t-53 -166q-12 -88 7 -165t64 -135.5t111 -92
t146 -33.5q84 0 162 36.5t139 97.5l247 -146q-112 -130 -266 -209t-324 -79z" />
    <glyph glyph-name="D" unicode="D" horiz-adv-x="1344" 
d="M22 0l196 1400h464q145 0 264 -54.5t202 -151t119.5 -223t16.5 -271.5t-92.5 -271.5t-182 -223t-244 -151t-279.5 -54.5h-464zM364 300h164q81 0 157.5 31t140 86t105 127.5t53.5 155.5t-9.5 155t-69 127.5t-115.5 86.5t-150 31h-164z" />
    <glyph glyph-name="E" unicode="E" horiz-adv-x="1112" 
d="M22 0l196 1400h892l-42 -300h-592l-28 -200h456l-42 -300h-456l-42 -300h592l-42 -300h-892z" />
    <glyph glyph-name="F" unicode="F" horiz-adv-x="972" 
d="M22 0l196 1400h832l-42 -300h-532l-28 -200h436l-42 -300h-436l-84 -600h-300z" />
    <glyph glyph-name="G" unicode="G" horiz-adv-x="1537" 
d="M666 -26q-147 0 -264.5 57t-196.5 157.5t-112.5 232.5t-12.5 281q23 161 99 293t188 228.5t244 148.5t265 52q146 0 278.5 -68t224.5 -220l-288 -144q-52 69 -119.5 101.5t-141.5 32.5q-75 0 -149.5 -31t-137.5 -88t-106.5 -136t-57.5 -175q-12 -88 7.5 -165t65.5 -134.5
t112.5 -90t147.5 -32.5q46 0 93 12.5t94 37.5t90.5 64t81.5 92h-188l37 260h542q-15 -157 -84.5 -295.5t-179.5 -244.5t-246.5 -166t-285.5 -60z" />
    <glyph glyph-name="H" unicode="H" horiz-adv-x="1336" 
d="M1014 1400h300l-196 -1400h-300l84 600h-496l-84 -600h-300l196 1400h300l-70 -500h496z" />
    <glyph glyph-name="I" unicode="I" horiz-adv-x="600" 
d="M52 0l196 1400h300l-196 -1400h-300z" />
    <glyph glyph-name="J" unicode="J" horiz-adv-x="934" 
d="M240 -26q-82 0 -156.5 28t-130.5 82l225 230q14 -13 39.5 -26.5t64.5 -13.5q47 0 89.5 23.5t71.5 62.5t35 86l134 954h300l-134 -954q-18 -130 -97 -237t-195 -171t-246 -64z" />
    <glyph glyph-name="K" unicode="K" horiz-adv-x="1230" 
d="M1112 0h-392l-287 506l-47 -48l-64 -458h-300l196 1400h300l-67 -476l465 476h392l-646 -660z" />
    <glyph glyph-name="L" unicode="L" horiz-adv-x="1070" 
d="M22 0l196 1400h300l-154 -1100h550l-42 -300h-850z" />
    <glyph glyph-name="M" unicode="M" horiz-adv-x="1924" 
d="M22 0l468 1400h256l198 -826l430 826h256l76 -1400h-306l-40 756l-392 -756h-208l-180 756l-252 -756h-306z" />
    <glyph glyph-name="N" unicode="N" horiz-adv-x="1376" 
d="M22 0l196 1400h324l392 -858l120 858h300l-196 -1400h-324l-392 858l-120 -858h-300z" />
    <glyph glyph-name="O" unicode="O" horiz-adv-x="1540" 
d="M668 -26q-142 0 -259.5 56.5t-198 156.5t-116 231.5t-14.5 281.5t93 281.5t181.5 231.5t242.5 156.5t275 56.5q143 0 260 -56.5t197.5 -156.5t116 -231.5t14.5 -281.5t-93 -281.5t-181.5 -231.5t-242 -156.5t-275.5 -56.5zM710 274q80 0 155.5 33.5t137.5 92t103.5 135.5
t53.5 165t-7.5 165t-65 135.5t-111.5 92t-146 33.5t-155.5 -33.5t-137.5 -92t-103.5 -135.5t-53.5 -165t7.5 -165t65 -135.5t111.5 -92t146 -33.5z" />
    <glyph glyph-name="P" unicode="P" horiz-adv-x="1140" 
d="M22 0l196 1400h528q115 0 200.5 -58.5t127 -156t24.5 -213.5q-16 -118 -86.5 -215t-172.5 -155t-213 -58h-228l-76 -544h-300zM440 844h194q40 0 76 20.5t61 54.5t30 75q6 41 -9 75t-45.5 54.5t-70.5 20.5h-194z" />
    <glyph glyph-name="Q" unicode="Q" horiz-adv-x="1584" 
d="M1186 -52l-129 148q-87 -54 -185.5 -84t-202.5 -30q-142 0 -259.5 56.5t-198 156t-116 231t-14.5 282.5q21 150 93 281.5t181.5 231.5t242.5 156.5t275 56.5q143 0 260 -56.5t197.5 -156.5t116 -231.5t14.5 -281.5q-15 -109 -58.5 -208.5t-106.5 -185.5l132 -154z
M711 282q41 0 81 9t78 25l-72 84l242 212l63 -74q23 39 37.5 82t20.5 88q12 88 -7.5 165t-65 135.5t-111.5 92t-146 33.5t-155.5 -33.5t-137.5 -92t-103.5 -135.5t-53.5 -165t7.5 -165.5t65 -136t111.5 -91.5t146 -33z" />
    <glyph glyph-name="R" unicode="R" horiz-adv-x="1266" 
d="M22 0l196 1400h570q115 0 200 -58t126 -155.5t24 -214.5q-12 -90 -53.5 -167.5t-105 -137t-143.5 -95.5l252 -572h-346l-240 544h-104l-76 -544h-300zM440 844h234q40 0 76 20.5t61 54.5t30 75q6 41 -9 75t-45.5 54.5t-70.5 20.5h-234z" />
    <glyph glyph-name="S" unicode="S" horiz-adv-x="1264" 
d="M530 -26q-118 0 -221 37.5t-173.5 108t-93.5 168.5l297 104q6 -29 36.5 -56t81 -44.5t115.5 -17.5q60 0 115.5 17.5t93 48.5t43.5 72q6 42 -25 69.5t-82 44t-106 24.5q-149 22 -262 72.5t-170.5 139.5t-38.5 226q19 131 107 229.5t217 153.5t270 55q118 0 221 -37.5
t174.5 -108.5t92.5 -170l-297 -102q-6 29 -36.5 55.5t-81 43.5t-115.5 17q-58 1 -114 -17t-94 -49t-44 -70q-7 -54 21 -80.5t79.5 -37.5t112.5 -20q141 -21 254.5 -75t174 -144t42.5 -219q-18 -131 -105.5 -229.5t-216.5 -153.5t-272 -55z" />
    <glyph glyph-name="T" unicode="T" horiz-adv-x="1260" 
d="M1278 1400l-42 -300h-400l-154 -1100h-300l154 1100h-400l42 300h1100z" />
    <glyph glyph-name="U" unicode="U" horiz-adv-x="1378" 
d="M588 -26q-168 0 -285 82t-170 220.5t-29 307.5l114 816h300l-114 -816q-12 -85 10 -155.5t76.5 -112.5t139.5 -42q86 0 152 41.5t107 112t53 156.5l114 816h300l-114 -816q-18 -127 -75 -237.5t-144 -194.5t-198 -131t-237 -47z" />
    <glyph glyph-name="V" unicode="V" horiz-adv-x="1604" 
d="M510 0l-312 1400h318l236 -1056l532 1056h318l-704 -1400h-388z" />
    <glyph glyph-name="W" unicode="W" horiz-adv-x="1960" 
d="M360 0l-162 1400h310l97 -848l335 848h276l97 -848l335 848h310l-552 -1400h-338l-84 726l-286 -726h-338z" />
    <glyph glyph-name="X" unicode="X" horiz-adv-x="1516" 
d="M-38 0l611 704l-409 696h370l260 -442l384 442h370l-603 -696l413 -704h-372l-263 448l-389 -448h-372z" />
    <glyph glyph-name="Y" unicode="Y" horiz-adv-x="1392" 
d="M1076 1400h354l-594 -770l-88 -630h-300l88 630l-378 770h354l220 -444z" />
    <glyph glyph-name="Z" unicode="Z" horiz-adv-x="1292" 
d="M-18 0l42 300l838 800h-726l42 300h1132l-42 -300l-838 -800h726l-42 -300h-1132z" />
    <glyph glyph-name="bracketleft" unicode="[" horiz-adv-x="696" 
d="M524 188l-42 -300h-476l212 1512h476l-42 -300h-176l-128 -912h176z" />
    <glyph glyph-name="backslash" unicode="\" horiz-adv-x="864" 
d="M370 -112l-192 1512h300l192 -1512h-300z" />
    <glyph glyph-name="bracketright" unicode="]" horiz-adv-x="698" 
d="M-14 -112l42 300h178l128 912h-178l42 300h478l-212 -1512h-478z" />
    <glyph glyph-name="asciicircum" unicode="^" horiz-adv-x="1052" 
d="M122 1000l328 650h420l144 -650h-320l-77 348l-175 -348h-320z" />
    <glyph glyph-name="underscore" unicode="_" horiz-adv-x="1240" 
d="M48 188h1000l-42 -300h-1000z" />
    <glyph glyph-name="grave" unicode="`" horiz-adv-x="1180" 
d="M418 1398h300l40 -288h-200z" />
    <glyph glyph-name="a" unicode="a" horiz-adv-x="1218" 
d="M880 1000h300l-140 -1000h-301l-2 90q-45 -52 -105.5 -84t-135.5 -32q-112 0 -203.5 42t-155 116.5t-91.5 172t-12 209.5q15 107 67.5 200t132 163.5t178 110.5t204.5 40q86 0 151.5 -35.5t113.5 -88.5zM528 262q62 0 117.5 32t93.5 86t47 120t-13.5 120t-69 86
t-108.5 32t-117 -32t-92 -86t-46 -120t13 -120t68 -86t107 -32z" />
    <glyph glyph-name="b" unicode="b" horiz-adv-x="1261" 
d="M719 1028q146 0 256 -71t164.5 -190.5t33.5 -264.5q-15 -109 -69.5 -205t-137.5 -168.5t-184 -113.5t-211 -41q-79 0 -137.5 34t-97.5 86l-13 -94h-300l210 1500h300l-83 -592q54 53 122 86.5t147 33.5zM608 264q62 0 117.5 32t93 86t46.5 120q9 65 -13.5 119t-68.5 86.5
t-108 32.5q-61 0 -116 -32.5t-93 -86.5t-47 -119q-9 -66 13.5 -120t68.5 -86t107 -32z" />
    <glyph glyph-name="c" unicode="c" horiz-adv-x="1020" 
d="M638 328l249 -146q-82 -94 -194 -151t-235 -57q-138 0 -241.5 71t-154 190.5t-30.5 264.5q15 110 67.5 205.5t131.5 168t175.5 113.5t199.5 41q123 0 219.5 -57t151.5 -153l-291 -146q-23 27 -54.5 41.5t-67.5 14.5q-57 0 -106.5 -32t-83 -84t-42.5 -112
q-8 -59 10.5 -110.5t59.5 -83.5t98 -32q36 0 71.5 14.5t66.5 39.5z" />
    <glyph glyph-name="d" unicode="d" horiz-adv-x="1260" 
d="M952 1500h300l-210 -1500h-300l13 92q-54 -52 -122 -85t-149 -33q-109 0 -198.5 41t-151.5 113.5t-89.5 167.5t-12.5 204t69.5 204t137 167.5t183.5 113.5t210 41q81 0 139.5 -32.5t97.5 -85.5zM528 262q62 0 117.5 32t93.5 86t47 120t-13.5 120t-69 86t-108.5 32
t-117 -32t-92 -86t-46 -120t13 -120t68 -86t107 -32z" />
    <glyph glyph-name="e" unicode="e" 
d="M458 -26q-138 0 -241.5 71t-154 191t-30.5 265q15 109 67.5 204.5t131.5 168t175.5 113.5t199.5 41q120 0 212 -52.5t148.5 -142t69 -201.5t-26.5 -231h-667q9 -35 28.5 -63.5t51.5 -45.5t78 -18q44 -1 84.5 19t72.5 54l296 -71q-79 -133 -212 -217.5t-283 -84.5z
M362 621h375q-8 43 -31.5 76t-58 52t-77.5 19q-42 0 -82 -19t-72.5 -52t-53.5 -76z" />
    <glyph glyph-name="f" unicode="f" horiz-adv-x="762" 
d="M512 1182l-26 -182h258l-42 -300h-258l-98 -700h-300l98 700h-94l42 300h94l26 182q13 94 70.5 171.5t142 124t179.5 46.5q69 0 133 -28.5t108 -89.5l-246 -212q-3 15 -14 22.5t-23 7.5q-18 0 -33 -12t-17 -30z" />
    <glyph glyph-name="g" unicode="g" horiz-adv-x="1254" 
d="M876 1000h300l-142 -1010q-16 -114 -74.5 -204.5t-146.5 -154.5t-195 -97.5t-221 -33.5q-106 0 -197 40.5t-157 112.5t-97 167l292 124q15 -45 44.5 -76.5t70 -48.5t87.5 -17q52 0 101.5 11t90.5 34t68 58.5t34 84.5l14 98q-52 -51 -118 -82.5t-146 -31.5
q-109 0 -198.5 41t-151.5 113.5t-89.5 167.5t-12.5 204t69.5 204t137 167.5t183.5 113.5t210 41q80 0 137 -31.5t95 -82.5zM528 262q62 0 117.5 32t93.5 86t47 120t-13.5 120t-69 86t-108.5 32q-61 0 -116 -32t-92.5 -86t-46.5 -120t13 -120t68 -86t107 -32z" />
    <glyph glyph-name="h" unicode="h" horiz-adv-x="1140" 
d="M1051 639l-89 -639h-300l78 555q7 47 -11 85.5t-53 61t-82 22.5t-88.5 -22.5t-69 -61t-34.5 -85.5l-78 -555h-300l209 1500h300l-78 -563q56 43 123.5 67t138.5 24q108 0 188.5 -52.5t121 -140.5t24.5 -196z" />
    <glyph glyph-name="i" unicode="i" horiz-adv-x="540" 
d="M162 1000h300l-140 -1000h-300zM329 1104q-65 0 -103 43t-29 107q9 63 59 106.5t114 43.5q63 0 100.5 -43.5t28.5 -106.5q-9 -64 -57.5 -107t-112.5 -43z" />
    <glyph glyph-name="j" unicode="j" horiz-adv-x="512" 
d="M-249 -500l43 300q47 0 89 23t71 62t36 87l144 1028h300l-144 -1028q-18 -130 -97 -237t-195 -171t-247 -64zM301 1104q-65 0 -103 43t-29 107q9 63 59 106.5t114 43.5q63 0 100.5 -43.5t28.5 -106.5q-9 -64 -57.5 -107t-112.5 -43z" />
    <glyph glyph-name="k" unicode="k" horiz-adv-x="1119" 
d="M977 0h-346l-152 344l-126 -128l-30 -216h-300l210 1500h300l-115 -818l311 318h392l-402 -412z" />
    <glyph glyph-name="l" unicode="l" horiz-adv-x="541" 
d="M23 0l210 1500h300l-210 -1500h-300z" />
    <glyph glyph-name="m" unicode="m" horiz-adv-x="1777" 
d="M22 0l140 1000h300l-9 -63q56 43 123.5 67t138.5 24q100 0 177.5 -45.5t119.5 -121.5q63 76 153 121.5t189 45.5q108 0 188.5 -52.5t121 -140.5t24.5 -196l-89 -639h-300l78 555q7 47 -11 85t-53 61t-82 23t-88.5 -23t-69.5 -61t-35 -85l-78 -555h-300l78 555
q7 47 -10.5 85t-53 61t-82.5 23q-46 0 -87.5 -23t-69.5 -61t-35 -85l-78 -555h-300z" />
    <glyph glyph-name="n" unicode="n" horiz-adv-x="1139" 
d="M1050 639l-89 -639h-300l78 555q7 47 -11 85.5t-53 61t-82 22.5t-88.5 -22.5t-69 -61t-34.5 -85.5l-78 -555h-300l139 1000h300l-8 -63q56 43 123.5 67t138.5 24q108 0 188.5 -52.5t121 -140.5t24.5 -196z" />
    <glyph glyph-name="o" unicode="o" 
d="M458 -26q-138 0 -241.5 71t-154 190.5t-30.5 264.5q15 110 67.5 205.5t131.5 168t175.5 113.5t199.5 41q138 0 241.5 -71t154.5 -191t30 -266q-15 -109 -67.5 -204t-131.5 -167.5t-175 -113.5t-200 -41zM500 274q57 0 106.5 31t83.5 82.5t42 112.5q9 63 -11 115
t-61.5 82.5t-95.5 30.5q-56 0 -106 -31.5t-83.5 -83.5t-42.5 -113q-9 -64 11.5 -115t61.5 -81t95 -30z" />
    <glyph glyph-name="p" unicode="p" horiz-adv-x="1258" 
d="M251 -500h-300l211 1500h300l-13 -94q54 53 121 86.5t148 33.5q110 0 199.5 -41t151.5 -113.5t89 -167.5t12 -204t-69.5 -205t-136.5 -168.5t-183 -113.5t-211 -41q-81 0 -138.5 34t-96.5 86zM673 738q-61 0 -116 -32.5t-92.5 -86.5t-46.5 -119q-9 -66 13 -120t68 -86
t107 -32q62 0 117.5 32t93.5 86t47 120q9 65 -13.5 119t-69 86.5t-108.5 32.5z" />
    <glyph glyph-name="q" unicode="q" horiz-adv-x="1258" 
d="M484 -28q-145 0 -254.5 71t-163.5 191t-34 266q15 109 69.5 204t137 167.5t183.5 113.5t210 41q81 0 138.5 -33.5t96.5 -86.5l13 94h300l-211 -1500h-300l84 592q-54 -52 -121 -86t-148 -34zM595 738q-62 0 -117 -32.5t-92 -86.5t-46 -119q-9 -66 12.5 -120t67.5 -86
t108 -32t117 32t92.5 86t46.5 120q9 65 -13 119t-68 86.5t-108 32.5z" />
    <glyph glyph-name="r" unicode="r" horiz-adv-x="800" 
d="M23 0l139 1000h300l-8 -63q56 43 123.5 67t138.5 24q54 0 108 -16l-161 -304q-32 16 -70 16q-47 0 -88.5 -22.5t-69 -61t-34.5 -85.5l-78 -555h-300z" />
    <glyph glyph-name="s" unicode="s" horiz-adv-x="874" 
d="M307 -18q-75 7 -141 33t-115 71t-72 110l267 108q9 -11 24.5 -27.5t41.5 -29.5t65 -13q26 0 51 5.5t42.5 19.5t21.5 39q4 28 -15 42.5t-46.5 21t-52.5 10.5q-87 14 -162.5 56.5t-118 111t-29.5 160.5q15 103 78 178t154.5 115.5t190.5 40.5q117 0 209.5 -48t144.5 -138
l-256 -140q-10 15 -25.5 30.5t-36 27t-46.5 14.5q-34 3 -62.5 -2.5t-46.5 -22t-23 -47.5q-4 -29 22 -42t60.5 -19t55.5 -13q82 -28 151.5 -73t107 -109t22.5 -150q-14 -100 -84.5 -176t-171 -115t-205.5 -29z" />
    <glyph glyph-name="t" unicode="t" horiz-adv-x="730" 
d="M670 700h-170l-98 -700h-300l98 700h-130l42 300h130l44 314h300l-44 -314h170z" />
    <glyph glyph-name="u" unicode="u" horiz-adv-x="1099" 
d="M33 363l89 637h300l-78 -553q-6 -47 11.5 -85.5t53 -61t81.5 -22.5q47 0 88.5 22.5t69.5 61t34 85.5l78 553h300l-139 -1000h-300l8 65q-56 -43 -123.5 -67t-138.5 -24q-107 0 -188 52.5t-121 140.5t-25 196z" />
    <glyph glyph-name="v" unicode="v" horiz-adv-x="1236" 
d="M714 0h-388l-224 1000h320l146 -656l330 656h320z" />
    <glyph glyph-name="w" unicode="w" horiz-adv-x="1748" 
d="M590 0h-294l-194 1000h294l109 -562l265 562h292l107 -562l267 562h294l-474 -1000h-294l-107 562z" />
    <glyph glyph-name="x" unicode="x" horiz-adv-x="1262" 
d="M-18 0l436 502l-292 498h370l142 -242l212 242h370l-432 -498l296 -502h-370l-148 248l-214 -248h-370z" />
    <glyph glyph-name="y" unicode="y" horiz-adv-x="1206" 
d="M848 1000h320l-759 -1500h-318l251 500l-220 1000h328l99 -590z" />
    <glyph glyph-name="z" unicode="z" horiz-adv-x="1014" 
d="M934 700l-476 -400h420l-42 -300h-854l42 300l476 400h-420l42 300h854z" />
    <glyph glyph-name="braceleft" unicode="{" horiz-adv-x="830" 
d="M490 -112q-97 0 -170 47t-108.5 126.5t-22.5 176.5l34 244q3 24 -14.5 41t-42 32.5t-41.5 36.5t-13 52q4 29 27.5 50t52.5 38.5t51.5 34.5t25.5 37l34 246q14 96 72 175.5t144 127t183 47.5h126l-42 -300h-126q-14 0 -26 -6.5t-20.5 -18t-10.5 -25.5l-36 -256
q-6 -31 -30 -54.5t-46.5 -46t-26.5 -49.5q-4 -30 12.5 -51.5t34 -44t14.5 -54.5l-36 -256q-2 -14 3 -25.5t15.5 -18t24.5 -6.5h126l-42 -300h-126z" />
    <glyph glyph-name="bar" unicode="|" horiz-adv-x="580" 
d="M238 1400h300l-239 -1702h-300z" />
    <glyph glyph-name="braceright" unicode="}" horiz-adv-x="830" 
d="M-14 -112l42 300h126q14 0 26 6.5t20.5 18t10.5 25.5l36 256q7 32 30.5 54.5t46 44t26.5 51.5q4 27 -12.5 49.5t-33.5 46t-15 54.5l36 256q2 14 -3 25.5t-15.5 18t-24.5 6.5h-126l42 300h126q97 0 170 -47.5t109 -127t22 -175.5l-34 -246q-3 -20 15 -37t42 -34.5
t41 -38.5t13 -50q-4 -31 -27.5 -52t-52 -36.5t-51.5 -32.5t-26 -41l-34 -244q-13 -97 -71.5 -176.5t-144.5 -126.5t-183 -47h-126z" />
    <glyph glyph-name="asciitilde" unicode="~" horiz-adv-x="1349" 
d="M952 384q-67 0 -139.5 23t-145 53t-138 53t-118.5 23q-25 0 -39 -12.5t-21 -32.5t-10 -41l-293 8q1 94 53.5 175.5t136.5 132t180 50.5q67 0 131.5 -24t126 -56t119 -56t109.5 -24q25 0 40 12t23 32.5t11 45.5l293 -8q-1 -94 -40.5 -174.5t-111 -130t-167.5 -49.5z" />
    <glyph glyph-name="uni00A0" unicode="&#xa0;" horiz-adv-x="480" 
 />
    <glyph glyph-name="exclamdown" unicode="&#xa1;" horiz-adv-x="498" 
d="M274 1026q63 0 100.5 -43.5t27.5 -108.5q-8 -61 -57.5 -104.5t-112.5 -43.5q-61 0 -98.5 43.5t-29.5 104.5q10 65 59.5 108.5t110.5 43.5zM337 580l-138 -980h-250l138 980h250z" />
    <glyph glyph-name="cent" unicode="&#xa2;" horiz-adv-x="1092" 
d="M384 0l29 208q-110 24 -191.5 94.5t-120 174t-21.5 225.5q17 121 84.5 224.5t168.5 174t218 93.5l29 206h200l-29 -206q102 -21 179 -82t119 -150l-281 -150q-22 42 -64 67t-93 25q-55 0 -105 -27.5t-84 -73.5t-42 -101q-7 -56 14 -102.5t63 -74t97 -27.5q51 0 100 25
t83 67l238 -150q-66 -88 -160 -149.5t-202 -82.5l-29 -208h-200z" />
    <glyph glyph-name="sterling" unicode="&#xa3;" horiz-adv-x="1214" 
d="M6 0l42 300q47 0 100.5 12t97.5 34t64.5 54t1.5 72q-11 24 -32 53t-46 63t-49.5 71t-44 77t-29 81.5t-3.5 82.5q15 108 70 203t137.5 168t183.5 114t209 41q109 0 199 -41t152.5 -113.5t90 -167.5t12.5 -204h-300q9 62 -14.5 113.5t-71 82t-110.5 30.5
q-62 0 -117.5 -30.5t-93.5 -82t-47 -113.5q-7 -52 7 -94t40.5 -80t57 -74.5t56 -77.5t39 -89t4.5 -109q-2 -15 -6 -30t-8 -27.5t-6 -18.5h460l-42 -300h-1004zM68 444l28 200h780l-28 -200h-780z" />
    <glyph glyph-name="currency" unicode="&#xa4;" horiz-adv-x="1050" 
d="M159 255l-122 142l151 132q-21 53 -22.5 112t17 118t55.5 112l-115 134l162 140l113 -132q56 29 117 38.5t119.5 0.5t107.5 -37l151 130l120 -140l-148 -130q23 -54 25 -114.5t-16.5 -121t-56.5 -114.5l110 -128l-160 -142l-110 128q-60 -29 -121 -39t-119 0t-109 41z
M505 539q45 1 83.5 22t65 57t32.5 81q7 48 -10.5 83t-51 54.5t-74.5 20.5q-47 1 -86.5 -22t-64.5 -59.5t-31 -76.5q-6 -44 10 -81t49.5 -58.5t77.5 -20.5z" />
    <glyph glyph-name="yen" unicode="&#xa5;" horiz-adv-x="1392" 
d="M448 0l17 124h-214l28 200h214l9 66h-214l29 200h214l5 40l-378 770h354l220 -444l344 444h354l-594 -770l-5 -40h214l-29 -200h-214l-9 -66h214l-28 -200h-214l-17 -124h-300z" />
    <glyph glyph-name="brokenbar" unicode="&#xa6;" horiz-adv-x="540" 
d="M85 448h300l-106 -750h-300zM218 1400h300l-105 -750h-300z" />
    <glyph glyph-name="section" unicode="&#xa7;" horiz-adv-x="1116" 
d="M394 -356q-117 0 -209.5 48t-144.5 138l255 140q10 -15 25.5 -30.5t36.5 -27t46 -14.5q35 -3 63 2.5t46.5 22t22.5 47.5q5 29 -20.5 44t-59.5 21.5t-57 8.5q-102 11 -176.5 80t-109.5 169.5t-20 206.5q10 68 36 131t66 117t90 96q-25 36 -36.5 81t-4.5 97q15 103 78 178
t154.5 115.5t190.5 40.5q117 0 209.5 -48t144.5 -138l-256 -140q-9 15 -24.5 30.5t-36.5 27t-47 14.5q-34 3 -62.5 -2.5t-46.5 -22t-23 -47.5q-3 -28 20.5 -42t56 -20t55.5 -10q108 -20 183.5 -84t110.5 -160.5t18 -213.5q-9 -68 -35.5 -130.5t-67 -116t-91.5 -95.5
q26 -37 38 -82t5 -98q-14 -103 -77.5 -178t-155 -115.5t-190.5 -40.5zM516 302q43 0 84 29t70 74.5t36 94.5q8 58 -9.5 102.5t-58 70t-102.5 25.5q-38 0 -77.5 -30.5t-68.5 -76t-36 -91.5q-8 -55 8.5 -100t55.5 -71.5t98 -26.5z" />
    <glyph glyph-name="dieresis" unicode="&#xa8;" horiz-adv-x="1542" 
d="M603 1064q-64 0 -102 43t-29 107q9 63 59 106.5t114 43.5q63 0 100.5 -43.5t28.5 -106.5q-9 -64 -58.5 -107t-112.5 -43zM1043 1064q-64 0 -102 43t-29 107q9 63 59 106.5t114 43.5q63 0 100.5 -43.5t28.5 -106.5q-9 -64 -58.5 -107t-112.5 -43z" />
    <glyph glyph-name="copyright" unicode="&#xa9;" horiz-adv-x="1962" 
d="M829 -374q-187 0 -340 70t-259.5 193.5t-153 286.5t-20.5 350t119 350t233.5 286.5t313.5 193.5t360 70t340.5 -69.5t260.5 -193t154 -286.5t21 -350q-26 -188 -119 -351t-235 -286.5t-315 -193.5t-360 -70zM871 -74q128 0 244 47.5t210 131t155 192t78 229.5
q17 123 -14 231.5t-102 191.5t-173.5 130t-228.5 47q-127 0 -243 -47.5t-209.5 -131t-154 -191.5t-77.5 -230q-18 -127 14 -236.5t104 -191t174 -127t223 -45.5zM1058 354l249 -146q-82 -94 -194 -151t-235 -57q-138 0 -241.5 71t-154 190.5t-30.5 264.5q15 110 67.5 205.5
t131.5 168t175.5 113.5t199.5 41q123 0 219.5 -57t151.5 -153l-291 -146q-23 27 -54.5 41.5t-67.5 14.5q-57 0 -106.5 -32t-83 -84t-42.5 -111q-8 -60 10.5 -111.5t59.5 -83.5t98 -32q36 0 71.5 14.5t66.5 39.5z" />
    <glyph glyph-name="ordfeminine" unicode="&#xaa;" horiz-adv-x="1218" 
d="M880 1000h300l-140 -1000h-301l-2 90q-45 -52 -105.5 -84t-135.5 -32q-112 0 -203.5 42t-155 116.5t-91.5 172t-12 209.5q15 107 67.5 200t132 163.5t178 110.5t204.5 40q86 0 151.5 -35.5t113.5 -88.5zM528 262q62 0 117.5 32t93.5 86t47 120t-13.5 120t-69 86
t-108.5 32t-117 -32t-92 -86t-46 -120t13 -120t68 -86t107 -32z" />
    <glyph glyph-name="guillemotleft" unicode="&#xab;" horiz-adv-x="1260" 
d="M358 261l-252 340l348 338h300l-346 -338l250 -340h-300zM798 261l-252 340l348 338h300l-346 -338l250 -340h-300z" />
    <glyph glyph-name="logicalnot" unicode="&#xac;" horiz-adv-x="1050" 
d="M610 275l49 350h-590l43 300h890l-92 -650h-300z" />
    <glyph glyph-name="uni00AD" unicode="&#xad;" horiz-adv-x="880" 
d="M127 750h640l-42 -300h-640z" />
    <glyph glyph-name="registered" unicode="&#xae;" horiz-adv-x="1194" 
d="M549 364q-111 0 -202.5 41.5t-154.5 115.5t-91 171.5t-13 209.5q16 111 71.5 208t139.5 171t187 115.5t214 41.5q113 0 205 -42.5t155 -117t90 -171t12 -205.5q-16 -113 -72 -211t-141 -171.5t-187.5 -114.5t-212.5 -41zM578 574q91 0 171.5 44t135.5 118.5t67 165.5
q13 90 -20.5 164t-102 118t-159.5 44q-90 0 -170 -44t-134.5 -118t-67.5 -164q-12 -91 21.5 -165.5t101 -118.5t157.5 -44zM450 698l62 440h174q57 0 90.5 -41.5t25.5 -100.5q-6 -39 -28.5 -71.5t-55.5 -50.5l78 -176h-126l-70 156h-18l-22 -156h-110zM597 964h64
q11 0 20 9.5t11 22.5q2 14 -4.5 23t-17.5 9h-64z" />
    <glyph glyph-name="macron" unicode="&#xaf;" horiz-adv-x="1200" 
d="M353 1350h676l-31 -220h-676z" />
    <glyph glyph-name="degree" unicode="&#xb0;" horiz-adv-x="1026" 
d="M507 648q-123 0 -213 60.5t-133.5 159t-27.5 212.5q17 117 88.5 215.5t178.5 157.5t228 59q124 0 213 -60.5t131.5 -159t26.5 -212.5q-17 -124 -90 -221.5t-179.5 -154t-222.5 -56.5zM549 948q54 0 98.5 38.5t51.5 93.5q8 56 -25.5 94t-87.5 38q-55 0 -100 -38t-53 -94
q-7 -55 27 -93.5t89 -38.5z" />
    <glyph glyph-name="plusminus" unicode="&#xb1;" horiz-adv-x="1160" 
d="M388 400l49 350h-350l42 300h350l49 350h300l-49 -350h350l-42 -300h-350l-49 -350h-300zM-18 0l42 300h1000l-42 -300h-1000z" />
    <glyph glyph-name="uni00B2" unicode="&#xb2;" horiz-adv-x="727" 
d="M113 818l20 146q47 30 96 57t96 57t89 68t76 89q5 32 -13.5 54.5t-49.5 22.5q-32 0 -57.5 -22.5t-30.5 -54.5h-168q10 68 50.5 120.5t100.5 82.5t127 30q101 0 162 -66t47 -167q-5 -39 -25.5 -72t-50.5 -62.5t-66 -57.5t-73 -57h168l-23 -168h-475z" />
    <glyph glyph-name="uni00B3" unicode="&#xb3;" horiz-adv-x="588" 
d="M309 798q-91 0 -148.5 60t-44.5 152h168q-4 -24 10 -40t37 -16q22 0 39.5 16t21.5 40q4 29 -19.5 56.5t-79.5 27.5l15 105q57 0 78.5 25t24.5 47q2 17 -8 29t-27 12q-16 0 -30 -12t-16 -29h-168q12 86 81 141.5t155 55.5q87 0 140 -55.5t41 -141.5q-4 -32 -17.5 -62.5
t-35.5 -57.5q23 -28 31 -65.5t3 -75.5q-13 -92 -87 -152t-164 -60z" />
    <glyph glyph-name="acute" unicode="&#xb4;" horiz-adv-x="1180" 
d="M538 1110l120 288h300l-220 -288h-200z" />
    <glyph glyph-name="uni00B5" unicode="&#xb5;" horiz-adv-x="1176" 
d="M-79 -432l201 1432h300l-70 -500q-9 -66 10 -120t63.5 -86t110.5 -32q65 0 113.5 32t79 86t39.5 120l70 500h300l-140 -1000h-300l13 92q-54 -52 -121 -86t-148 -34q-45 0 -85 7.5t-75 20.5l-61 -432h-300z" />
    <glyph glyph-name="paragraph" unicode="&#xb6;" horiz-adv-x="1166" 
d="M279 -302l144 1020q-94 0 -165 46t-105.5 123.5t-21.5 172.5q13 94 69.5 171t140 123t177.5 46h300l-239 -1702h-300zM645 -302l239 1702h300l-239 -1702h-300z" />
    <glyph glyph-name="periodcentered" unicode="&#xb7;" horiz-adv-x="460" 
d="M195 450q-63 0 -100.5 43.5t-28.5 106.5q8 62 58 106t113 44q62 0 99.5 -44t29.5 -106q-9 -63 -59 -106.5t-112 -43.5z" />
    <glyph glyph-name="cedilla" unicode="&#xb8;" horiz-adv-x="1310" 
d="M482 -381q-79 -20 -141 19t-72 114l150 39q2 -15 15 -23t29 -4q17 4 27 18t8 30t-14.5 22t-29.5 6h-146l187 265l121 -76l-45 -61q32 -17 52.5 -47t25.5 -71q9 -75 -39.5 -143t-127.5 -88z" />
    <glyph glyph-name="uni00B9" unicode="&#xb9;" horiz-adv-x="466" 
d="M171 818l65 463h-58l47 168h202l-88 -631h-168z" />
    <glyph glyph-name="ordmasculine" unicode="&#xba;" 
d="M458 -26q-138 0 -241.5 71t-154 190.5t-30.5 264.5q15 110 67.5 205.5t131.5 168t175.5 113.5t199.5 41q138 0 241.5 -71t154.5 -191t30 -266q-15 -109 -67.5 -204t-131.5 -167.5t-175 -113.5t-200 -41zM500 274q57 0 106.5 31t83.5 82.5t42 112.5q9 63 -11 115
t-61.5 82.5t-95.5 30.5q-56 0 -106 -31.5t-83.5 -83.5t-42.5 -113q-9 -64 11.5 -115t61.5 -81t95 -30z" />
    <glyph glyph-name="guillemotright" unicode="&#xbb;" horiz-adv-x="1280" 
d="M478 261l346 340l-250 338h300l252 -338l-348 -340h-300zM38 261l346 340l-250 338h300l252 -338l-348 -340h-300z" />
    <glyph glyph-name="onequarter" unicode="&#xbc;" horiz-adv-x="1612" 
d="M171 818l65 463h-58l47 168h202l-88 -631h-168zM68 0l1004 1400h242l-1004 -1400h-242zM1149 0l12 86h-235l28 202l266 343h185l-53 -377h53l-23 -168h-53l-12 -86h-168zM1112 254h89l20 142z" />
    <glyph glyph-name="onehalf" unicode="&#xbd;" horiz-adv-x="1643" 
d="M171 818l65 463h-58l47 168h202l-88 -631h-168zM68 0l1004 1400h242l-1004 -1400h-242zM914 0l20 146q47 30 96 57.5t96 57.5t89 68t76 89q5 32 -13.5 54t-49.5 22q-32 0 -57.5 -22t-30.5 -54h-168q10 67 51 122.5t101.5 88.5t127.5 33t117 -33t75 -88.5t15 -122.5
q-5 -39 -25.5 -72t-50.5 -63t-66 -58t-73 -57h168l-23 -168h-475z" />
    <glyph glyph-name="threequarters" unicode="&#xbe;" horiz-adv-x="1734" 
d="M309 798q-91 0 -148.5 60t-44.5 152h168q-4 -24 10 -40t37 -16q22 0 39.5 16t21.5 40q4 29 -19.5 56.5t-79.5 27.5l15 105q57 0 78.5 25t24.5 47q2 17 -8 29t-27 12q-16 0 -30 -12t-16 -29h-168q12 86 81 141.5t155 55.5q87 0 140 -55.5t41 -141.5q-4 -32 -17.5 -62.5
t-35.5 -57.5q23 -28 31 -65.5t3 -75.5q-13 -92 -87 -152t-164 -60zM190 0l1004 1400h242l-1004 -1400h-242zM1271 0l12 86h-235l28 202l266 343h185l-53 -377h53l-23 -168h-53l-12 -86h-168zM1234 254h89l20 142z" />
    <glyph glyph-name="questiondown" unicode="&#xbf;" horiz-adv-x="1164" 
d="M404 -426q-133 0 -233.5 65t-150 174t-31.5 241q20 137 102 252t206 176q36 17 59 48.5t28 69.5h300q-17 -121 -92 -222.5t-190 -159.5q-45 -22 -75 -66t-38 -98q-7 -50 12 -91t57 -65t88 -24t94.5 24t75 65t37.5 91h300q-18 -132 -98.5 -241t-199 -174t-251.5 -65z
M536 726q-61 0 -98.5 43.5t-29.5 104.5q10 65 59.5 108.5t110.5 43.5q63 0 100.5 -43.5t27.5 -108.5q-8 -61 -57.5 -104.5t-112.5 -43.5z" />
    <glyph glyph-name="Agrave" unicode="&#xc0;" horiz-adv-x="1514" 
d="M686 1400h338l312 -1400h-318l-49 220h-558l-111 -220h-318zM563 520h338l-105 464zM613 1798h300l40 -288h-200z" />
    <glyph glyph-name="Aacute" unicode="&#xc1;" horiz-adv-x="1514" 
d="M686 1400h338l312 -1400h-318l-49 220h-558l-111 -220h-318zM563 520h338l-105 464zM791 1510l120 288h300l-220 -288h-200z" />
    <glyph glyph-name="Acircumflex" unicode="&#xc2;" horiz-adv-x="1514" 
d="M686 1400h338l312 -1400h-318l-49 220h-558l-111 -220h-318zM563 520h338l-105 464zM1080 1798l154 -288h-200l-137 188l-187 -188h-200l230 288h340z" />
    <glyph glyph-name="Atilde" unicode="&#xc3;" horiz-adv-x="1514" 
d="M686 1400h338l312 -1400h-318l-49 220h-558l-111 -220h-318zM563 520h338l-105 464zM1024 1491q-38 0 -87.5 27.5t-97.5 60t-82.5 51t-42.5 1.5q-9 -18 -7.5 -35t5.5 -47l-174 -46q-18 89 4 160t78 112.5t138 41.5q36 0 82 -21.5t90.5 -49.5t78 -49.5t43.5 -21.5
q19 0 23 12t0.5 30.5t-8.5 37.5l180 56q18 -94 -7 -166t-82 -113t-134 -41z" />
    <glyph glyph-name="Adieresis" unicode="&#xc4;" horiz-adv-x="1514" 
d="M686 1400h338l312 -1400h-318l-49 220h-558l-111 -220h-318zM563 520h338l-105 464zM645 1464q-64 0 -102 43t-29 107q9 63 59 106.5t114 43.5q63 0 100.5 -43.5t28.5 -106.5q-9 -64 -58.5 -107t-112.5 -43zM1085 1464q-64 0 -102 43t-29 107q9 63 59 106.5t114 43.5
q63 0 100.5 -43.5t28.5 -106.5q-9 -64 -58.5 -107t-112.5 -43z" />
    <glyph glyph-name="Aring" unicode="&#xc5;" horiz-adv-x="1514" 
d="M686 1400h338l312 -1400h-318l-49 220h-558l-111 -220h-318zM563 520h338l-105 464zM863 1454q-82 0 -132.5 60t-39.5 142q8 54 41 99t82.5 72t104.5 27q83 0 133 -58.5t39 -139.5q-12 -84 -78.5 -143t-149.5 -59zM882 1594q25 0 45 18t24 43q3 24 -12 41.5t-40 17.5
t-45 -17t-23 -41q-4 -26 11 -44t40 -18z" />
    <glyph glyph-name="AE" unicode="&#xc6;" horiz-adv-x="1710" 
d="M-18 0l704 1400h1022l-42 -300h-452l-35 -250h356l-42 -300h-356l-35 -250h452l-42 -300h-752l31 220h-380l-111 -220h-318zM563 520h270l81 580h-60z" />
    <glyph glyph-name="Ccedilla" unicode="&#xc7;" horiz-adv-x="1418" 
d="M666 -26q-142 0 -259 56.5t-197.5 156.5t-115.5 231.5t-14 281.5q21 151 93 282.5t180.5 231t241.5 156t275 56.5q170 0 302 -78.5t208 -209.5l-289 -144q-43 60 -111 96t-152 36q-80 0 -155 -33t-137 -91.5t-103 -135.5t-53 -166q-12 -88 7 -165t64 -135.5t111 -92
t146 -33.5q84 0 162 36.5t139 97.5l247 -146q-112 -130 -266 -209t-324 -79zM627 -381q-79 -20 -141 19t-72 114l150 39q2 -15 15 -23t29 -4q17 4 27 18t8 30t-14.5 22t-29.5 6h-146l187 265l121 -76l-45 -61q32 -17 52.5 -47t25.5 -71q9 -75 -39.5 -143t-127.5 -88z" />
    <glyph glyph-name="Egrave" unicode="&#xc8;" horiz-adv-x="1112" 
d="M22 0l196 1400h892l-42 -300h-592l-28 -200h456l-42 -300h-456l-42 -300h592l-42 -300h-892zM412 1798h300l40 -288h-200z" />
    <glyph glyph-name="Eacute" unicode="&#xc9;" horiz-adv-x="1112" 
d="M22 0l196 1400h892l-42 -300h-592l-28 -200h456l-42 -300h-456l-42 -300h592l-42 -300h-892zM590 1510l120 288h300l-220 -288h-200z" />
    <glyph glyph-name="Ecircumflex" unicode="&#xca;" horiz-adv-x="1112" 
d="M22 0l196 1400h892l-42 -300h-592l-28 -200h456l-42 -300h-456l-42 -300h592l-42 -300h-892zM879 1798l154 -288h-200l-137 188l-187 -188h-200l230 288h340z" />
    <glyph glyph-name="Edieresis" unicode="&#xcb;" horiz-adv-x="1112" 
d="M22 0l196 1400h892l-42 -300h-592l-28 -200h456l-42 -300h-456l-42 -300h592l-42 -300h-892zM444 1464q-64 0 -102 43t-29 107q9 63 59 106.5t114 43.5q63 0 100.5 -43.5t28.5 -106.5q-9 -64 -58.5 -107t-112.5 -43zM884 1464q-64 0 -102 43t-29 107q9 63 59 106.5
t114 43.5q63 0 100.5 -43.5t28.5 -106.5q-9 -64 -58.5 -107t-112.5 -43z" />
    <glyph glyph-name="Igrave" unicode="&#xcc;" horiz-adv-x="600" 
d="M52 0l196 1400h300l-196 -1400h-300zM156 1798h300l40 -288h-200z" />
    <glyph glyph-name="Iacute" unicode="&#xcd;" horiz-adv-x="600" 
d="M52 0l196 1400h300l-196 -1400h-300zM334 1510l120 288h300l-220 -288h-200z" />
    <glyph glyph-name="Icircumflex" unicode="&#xce;" horiz-adv-x="600" 
d="M52 0l196 1400h300l-196 -1400h-300zM623 1798l154 -288h-200l-137 188l-187 -188h-200l230 288h340z" />
    <glyph glyph-name="Idieresis" unicode="&#xcf;" horiz-adv-x="600" 
d="M52 0l196 1400h300l-196 -1400h-300zM188 1464q-64 0 -102 43t-29 107q9 63 59 106.5t114 43.5q63 0 100.5 -43.5t28.5 -106.5q-9 -64 -58.5 -107t-112.5 -43zM628 1464q-64 0 -102 43t-29 107q9 63 59 106.5t114 43.5q63 0 100.5 -43.5t28.5 -106.5q-9 -64 -58.5 -107
t-112.5 -43z" />
    <glyph glyph-name="Eth" unicode="&#xd0;" horiz-adv-x="1462" 
d="M142 0l84 600h-140l42 300h140l70 500h462q145 0 264 -54.5t202 -151t119.5 -223t16.5 -271.5t-92.5 -271.5t-182 -223t-244 -151t-279.5 -54.5h-462zM484 300h162q83 0 159.5 31t139.5 86.5t104 128t53 154.5q12 83 -9 155t-68.5 127.5t-115.5 86.5t-151 31h-162
l-28 -200h238l-42 -300h-238z" />
    <glyph glyph-name="Ntilde" unicode="&#xd1;" horiz-adv-x="1376" 
d="M22 0l196 1400h324l392 -858l120 858h300l-196 -1400h-324l-392 858l-120 -858h-300zM955 1491q-38 0 -87.5 27.5t-97.5 60t-82.5 51t-42.5 1.5q-9 -18 -7.5 -35t5.5 -47l-174 -46q-18 89 4 160t78 112.5t138 41.5q36 0 82 -21.5t90.5 -49.5t78 -49.5t43.5 -21.5
q19 0 23 12t0.5 30.5t-8.5 37.5l180 56q18 -94 -7 -166t-82 -113t-134 -41z" />
    <glyph glyph-name="Ograve" unicode="&#xd2;" horiz-adv-x="1540" 
d="M668 -26q-142 0 -259.5 56.5t-198 156.5t-116 231.5t-14.5 281.5t93 281.5t181.5 231.5t242.5 156.5t275 56.5q143 0 260 -56.5t197.5 -156.5t116 -231.5t14.5 -281.5t-93 -281.5t-181.5 -231.5t-242 -156.5t-275.5 -56.5zM710 274q80 0 155.5 33.5t137.5 92t103.5 135.5
t53.5 165t-7.5 165t-65 135.5t-111.5 92t-146 33.5t-155.5 -33.5t-137.5 -92t-103.5 -135.5t-53.5 -165t7.5 -165t65 -135.5t111.5 -92t146 -33.5zM626 1798h300l40 -288h-200z" />
    <glyph glyph-name="Oacute" unicode="&#xd3;" horiz-adv-x="1540" 
d="M668 -26q-142 0 -259.5 56.5t-198 156.5t-116 231.5t-14.5 281.5t93 281.5t181.5 231.5t242.5 156.5t275 56.5q143 0 260 -56.5t197.5 -156.5t116 -231.5t14.5 -281.5t-93 -281.5t-181.5 -231.5t-242 -156.5t-275.5 -56.5zM710 274q80 0 155.5 33.5t137.5 92t103.5 135.5
t53.5 165t-7.5 165t-65 135.5t-111.5 92t-146 33.5t-155.5 -33.5t-137.5 -92t-103.5 -135.5t-53.5 -165t7.5 -165t65 -135.5t111.5 -92t146 -33.5zM804 1510l120 288h300l-220 -288h-200z" />
    <glyph glyph-name="Ocircumflex" unicode="&#xd4;" horiz-adv-x="1540" 
d="M668 -26q-142 0 -259.5 56.5t-198 156.5t-116 231.5t-14.5 281.5t93 281.5t181.5 231.5t242.5 156.5t275 56.5q143 0 260 -56.5t197.5 -156.5t116 -231.5t14.5 -281.5t-93 -281.5t-181.5 -231.5t-242 -156.5t-275.5 -56.5zM710 274q80 0 155.5 33.5t137.5 92t103.5 135.5
t53.5 165t-7.5 165t-65 135.5t-111.5 92t-146 33.5t-155.5 -33.5t-137.5 -92t-103.5 -135.5t-53.5 -165t7.5 -165t65 -135.5t111.5 -92t146 -33.5zM1093 1798l154 -288h-200l-137 188l-187 -188h-200l230 288h340z" />
    <glyph glyph-name="Otilde" unicode="&#xd5;" horiz-adv-x="1540" 
d="M668 -26q-142 0 -259.5 56.5t-198 156.5t-116 231.5t-14.5 281.5t93 281.5t181.5 231.5t242.5 156.5t275 56.5q143 0 260 -56.5t197.5 -156.5t116 -231.5t14.5 -281.5t-93 -281.5t-181.5 -231.5t-242 -156.5t-275.5 -56.5zM710 274q80 0 155.5 33.5t137.5 92t103.5 135.5
t53.5 165t-7.5 165t-65 135.5t-111.5 92t-146 33.5t-155.5 -33.5t-137.5 -92t-103.5 -135.5t-53.5 -165t7.5 -165t65 -135.5t111.5 -92t146 -33.5zM1037 1491q-38 0 -87.5 27.5t-97.5 60t-82.5 51t-42.5 1.5q-9 -18 -7.5 -35t5.5 -47l-174 -46q-18 89 4 160t78 112.5
t138 41.5q36 0 82 -21.5t90.5 -49.5t78 -49.5t43.5 -21.5q19 0 23 12t0.5 30.5t-8.5 37.5l180 56q18 -94 -7 -166t-82 -113t-134 -41z" />
    <glyph glyph-name="Odieresis" unicode="&#xd6;" horiz-adv-x="1540" 
d="M668 -26q-142 0 -259.5 56.5t-198 156.5t-116 231.5t-14.5 281.5t93 281.5t181.5 231.5t242.5 156.5t275 56.5q143 0 260 -56.5t197.5 -156.5t116 -231.5t14.5 -281.5t-93 -281.5t-181.5 -231.5t-242 -156.5t-275.5 -56.5zM710 274q80 0 155.5 33.5t137.5 92t103.5 135.5
t53.5 165t-7.5 165t-65 135.5t-111.5 92t-146 33.5t-155.5 -33.5t-137.5 -92t-103.5 -135.5t-53.5 -165t7.5 -165t65 -135.5t111.5 -92t146 -33.5zM658 1464q-64 0 -102 43t-29 107q9 63 59 106.5t114 43.5q63 0 100.5 -43.5t28.5 -106.5q-9 -64 -58.5 -107t-112.5 -43z
M1098 1464q-64 0 -102 43t-29 107q9 63 59 106.5t114 43.5q63 0 100.5 -43.5t28.5 -106.5q-9 -64 -58.5 -107t-112.5 -43z" />
    <glyph glyph-name="multiply" unicode="&#xd7;" horiz-adv-x="1078" 
d="M213 140l-182 212l281 248l-211 248l242 212l211 -248l283 248l182 -212l-283 -248l213 -248l-242 -212l-213 248z" />
    <glyph glyph-name="Oslash" unicode="&#xd8;" horiz-adv-x="1540" 
d="M354 -122l-238 150l104 148q-83 99 -122.5 234.5t-17.5 289.5q21 150 93 281.5t181.5 231.5t242.5 156.5t275 56.5q60 0 114.5 -10t104.5 -28l97 134l238 -150l-106 -146q85 -100 123.5 -235.5t16.5 -290.5q-21 -150 -93 -281.5t-181.5 -231.5t-242 -156.5t-275.5 -56.5
q-58 0 -112 10.5t-104 29.5zM419 452l480 668q-16 3 -33.5 4.5t-35.5 1.5q-80 0 -155.5 -33.5t-137.5 -92t-103.5 -135.5t-53.5 -165q-10 -69 1 -132t38 -116zM710 274q80 0 155.5 33.5t137.5 92t103.5 135.5t53.5 165q10 69 0 132.5t-37 115.5l-480 -666q16 -4 33.5 -6
t33.5 -2z" />
    <glyph glyph-name="Ugrave" unicode="&#xd9;" horiz-adv-x="1378" 
d="M588 -26q-168 0 -285 82t-170 220.5t-29 307.5l114 816h300l-114 -816q-12 -85 10 -155.5t76.5 -112.5t139.5 -42q86 0 152 41.5t107 112t53 156.5l114 816h300l-114 -816q-18 -127 -75 -237.5t-144 -194.5t-198 -131t-237 -47zM545 1798h300l40 -288h-200z" />
    <glyph glyph-name="Uacute" unicode="&#xda;" horiz-adv-x="1378" 
d="M588 -26q-168 0 -285 82t-170 220.5t-29 307.5l114 816h300l-114 -816q-12 -85 10 -155.5t76.5 -112.5t139.5 -42q86 0 152 41.5t107 112t53 156.5l114 816h300l-114 -816q-18 -127 -75 -237.5t-144 -194.5t-198 -131t-237 -47zM723 1510l120 288h300l-220 -288h-200z
" />
    <glyph glyph-name="Ucircumflex" unicode="&#xdb;" horiz-adv-x="1378" 
d="M588 -26q-168 0 -285 82t-170 220.5t-29 307.5l114 816h300l-114 -816q-12 -85 10 -155.5t76.5 -112.5t139.5 -42q86 0 152 41.5t107 112t53 156.5l114 816h300l-114 -816q-18 -127 -75 -237.5t-144 -194.5t-198 -131t-237 -47zM1012 1798l154 -288h-200l-137 188
l-187 -188h-200l230 288h340z" />
    <glyph glyph-name="Udieresis" unicode="&#xdc;" horiz-adv-x="1378" 
d="M588 -26q-168 0 -285 82t-170 220.5t-29 307.5l114 816h300l-114 -816q-12 -85 10 -155.5t76.5 -112.5t139.5 -42q86 0 152 41.5t107 112t53 156.5l114 816h300l-114 -816q-18 -127 -75 -237.5t-144 -194.5t-198 -131t-237 -47zM577 1464q-64 0 -102 43t-29 107
q9 63 59 106.5t114 43.5q63 0 100.5 -43.5t28.5 -106.5q-9 -64 -58.5 -107t-112.5 -43zM1017 1464q-64 0 -102 43t-29 107q9 63 59 106.5t114 43.5q63 0 100.5 -43.5t28.5 -106.5q-9 -64 -58.5 -107t-112.5 -43z" />
    <glyph glyph-name="Yacute" unicode="&#xdd;" horiz-adv-x="1392" 
d="M1076 1400h354l-594 -770l-88 -630h-300l88 630l-378 770h354l220 -444zM730 1510l120 288h300l-220 -288h-200z" />
    <glyph glyph-name="Thorn" unicode="&#xde;" 
d="M22 0l196 1400h300l-38 -272h228q115 0 200.5 -58.5t127 -156t24.5 -213.5q-16 -118 -86.5 -215t-172.5 -155t-213 -58h-228l-38 -272h-300zM402 572h194q40 0 76 20.5t61 54.5t30 75q6 41 -9 75t-45.5 54.5t-70.5 20.5h-194z" />
    <glyph glyph-name="germandbls" unicode="&#xdf;" horiz-adv-x="1186" 
d="M22 0l122 870q15 110 69.5 206t137.5 168.5t185 114t212 41.5q115 0 200.5 -52.5t127.5 -144.5t25 -209q-6 -44 -24 -95.5t-52 -96t-90 -68.5q65 -9 99.5 -44t47 -84.5t11 -103t-8.5 -100.5q-16 -116 -86 -207t-173 -143t-219 -52h-74l-5 254h82q52 0 98 23.5t77 62
t37 84.5q7 46 -13.5 83.5t-59.5 61t-91 25.5l-81 4l34 242l24 4q41 7 77 26.5t60.5 51t29.5 72.5q6 41 -9 75t-45.5 54.5t-70.5 20.5q-54 0 -101.5 -26t-79.5 -70t-40 -98l-133 -950h-300z" />
    <glyph glyph-name="agrave" unicode="&#xe0;" horiz-adv-x="1218" 
d="M880 1000h300l-140 -1000h-301l-2 90q-45 -52 -105.5 -84t-135.5 -32q-112 0 -203.5 42t-155 116.5t-91.5 172t-12 209.5q15 107 67.5 200t132 163.5t178 110.5t204.5 40q86 0 151.5 -35.5t113.5 -88.5zM528 262q62 0 117.5 32t93.5 86t47 120t-13.5 120t-69 86
t-108.5 32t-117 -32t-92 -86t-46 -120t13 -120t68 -86t107 -32zM423 1398h300l40 -288h-200z" />
    <glyph glyph-name="aacute" unicode="&#xe1;" horiz-adv-x="1218" 
d="M880 1000h300l-140 -1000h-301l-2 90q-45 -52 -105.5 -84t-135.5 -32q-112 0 -203.5 42t-155 116.5t-91.5 172t-12 209.5q15 107 67.5 200t132 163.5t178 110.5t204.5 40q86 0 151.5 -35.5t113.5 -88.5zM528 262q62 0 117.5 32t93.5 86t47 120t-13.5 120t-69 86
t-108.5 32t-117 -32t-92 -86t-46 -120t13 -120t68 -86t107 -32zM601 1110l120 288h300l-220 -288h-200z" />
    <glyph glyph-name="acircumflex" unicode="&#xe2;" horiz-adv-x="1218" 
d="M880 1000h300l-140 -1000h-301l-2 90q-45 -52 -105.5 -84t-135.5 -32q-112 0 -203.5 42t-155 116.5t-91.5 172t-12 209.5q15 107 67.5 200t132 163.5t178 110.5t204.5 40q86 0 151.5 -35.5t113.5 -88.5zM528 262q62 0 117.5 32t93.5 86t47 120t-13.5 120t-69 86
t-108.5 32t-117 -32t-92 -86t-46 -120t13 -120t68 -86t107 -32zM890 1398l154 -288h-200l-137 188l-187 -188h-200l230 288h340z" />
    <glyph glyph-name="atilde" unicode="&#xe3;" horiz-adv-x="1218" 
d="M880 1000h300l-140 -1000h-301l-2 90q-45 -52 -105.5 -84t-135.5 -32q-112 0 -203.5 42t-155 116.5t-91.5 172t-12 209.5q15 107 67.5 200t132 163.5t178 110.5t204.5 40q86 0 151.5 -35.5t113.5 -88.5zM528 262q62 0 117.5 32t93.5 86t47 120t-13.5 120t-69 86
t-108.5 32t-117 -32t-92 -86t-46 -120t13 -120t68 -86t107 -32zM834 1091q-38 0 -87.5 27.5t-97.5 60t-82.5 51t-42.5 1.5q-9 -18 -7.5 -35t5.5 -47l-174 -46q-18 89 4 160t78 112.5t138 41.5q36 0 82 -21.5t90.5 -49.5t78 -49.5t43.5 -21.5q19 0 23 12t0.5 30.5t-8.5 37.5
l180 56q18 -94 -7 -166t-82 -113t-134 -41z" />
    <glyph glyph-name="adieresis" unicode="&#xe4;" horiz-adv-x="1218" 
d="M880 1000h300l-140 -1000h-301l-2 90q-45 -52 -105.5 -84t-135.5 -32q-112 0 -203.5 42t-155 116.5t-91.5 172t-12 209.5q15 107 67.5 200t132 163.5t178 110.5t204.5 40q86 0 151.5 -35.5t113.5 -88.5zM528 262q62 0 117.5 32t93.5 86t47 120t-13.5 120t-69 86
t-108.5 32t-117 -32t-92 -86t-46 -120t13 -120t68 -86t107 -32zM455 1064q-64 0 -102 43t-29 107q9 63 59 106.5t114 43.5q63 0 100.5 -43.5t28.5 -106.5q-9 -64 -58.5 -107t-112.5 -43zM895 1064q-64 0 -102 43t-29 107q9 63 59 106.5t114 43.5q63 0 100.5 -43.5
t28.5 -106.5q-9 -64 -58.5 -107t-112.5 -43z" />
    <glyph glyph-name="aring" unicode="&#xe5;" horiz-adv-x="1218" 
d="M880 1000h300l-140 -1000h-301l-2 90q-45 -52 -105.5 -84t-135.5 -32q-112 0 -203.5 42t-155 116.5t-91.5 172t-12 209.5q15 107 67.5 200t132 163.5t178 110.5t204.5 40q86 0 151.5 -35.5t113.5 -88.5zM528 262q62 0 117.5 32t93.5 86t47 120t-13.5 120t-69 86
t-108.5 32t-117 -32t-92 -86t-46 -120t13 -120t68 -86t107 -32zM673 1054q-82 0 -132.5 60t-39.5 142q8 54 41 99t82.5 72t104.5 27q83 0 133 -58.5t39 -139.5q-12 -84 -78.5 -143t-149.5 -59zM692 1194q25 0 45 18t24 43q3 24 -12 41.5t-40 17.5t-45 -17t-23 -41
q-4 -26 11 -44t40 -18z" />
    <glyph glyph-name="ae" unicode="&#xe6;" horiz-adv-x="1703" 
d="M268 -26q-98 0 -168.5 45t-104 119t-21.5 160t67 159.5t138.5 118.5t179.5 45h261q-7 31 -25 55t-45.5 38t-65.5 14q-80 0 -149 -42l-131 249q74 47 155.5 70t162.5 23q95 0 176 -35t136 -101q51 42 108.5 72.5t120 47t126.5 16.5q121 0 213 -52.5t148 -142t68.5 -201.5
t-26.5 -231h-667q9 -36 28.5 -64.5t52.5 -45.5t80 -17q43 0 83 20t71 53l296 -71q-79 -133 -212 -217.5t-283 -84.5q-73 0 -137 21t-116.5 59.5t-91.5 90.5q-42 -42 -109.5 -81t-149.5 -64.5t-169 -25.5zM305 234q56 0 105.5 18.5t91.5 52.5q49 38 86 96h-260
q-33 0 -59.5 -23.5t-31.5 -56.5q-4 -33 15.5 -60t52.5 -27zM945 621h375q-8 43 -31.5 76t-58 52t-77.5 19q-42 0 -82 -19t-72.5 -52t-53.5 -76z" />
    <glyph glyph-name="ccedilla" unicode="&#xe7;" horiz-adv-x="1019" 
d="M638 328l249 -146q-82 -94 -194 -151t-235 -57q-138 0 -241.5 71t-154 190.5t-30.5 264.5q15 110 67.5 205.5t131.5 168t175.5 113.5t199.5 41q123 0 219.5 -57t151.5 -153l-291 -146q-23 27 -54.5 41.5t-67.5 14.5q-57 0 -106.5 -32t-83 -84t-42.5 -112
q-8 -59 10.5 -110.5t59.5 -83.5t98 -32q36 0 71.5 14.5t66.5 39.5zM419 -381q-79 -20 -141 19t-72 114l150 39q2 -15 15 -23t29 -4q17 4 27 18t8 30t-14.5 22t-29.5 6h-146l187 265l121 -76l-45 -61q32 -17 52.5 -47t25.5 -71q9 -75 -39.5 -143t-127.5 -88z" />
    <glyph glyph-name="egrave" unicode="&#xe8;" 
d="M458 -26q-138 0 -241.5 71t-154 191t-30.5 265q15 109 67.5 204.5t131.5 168t175.5 113.5t199.5 41q120 0 212 -52.5t148.5 -142t69 -201.5t-26.5 -231h-667q9 -35 28.5 -63.5t51.5 -45.5t78 -18q44 -1 84.5 19t72.5 54l296 -71q-79 -133 -212 -217.5t-283 -84.5z
M362 621h375q-8 43 -31.5 76t-58 52t-77.5 19q-42 0 -82 -19t-72.5 -52t-53.5 -76zM360 1398h300l40 -288h-200z" />
    <glyph glyph-name="eacute" unicode="&#xe9;" 
d="M458 -26q-138 0 -241.5 71t-154 191t-30.5 265q15 109 67.5 204.5t131.5 168t175.5 113.5t199.5 41q120 0 212 -52.5t148.5 -142t69 -201.5t-26.5 -231h-667q9 -35 28.5 -63.5t51.5 -45.5t78 -18q44 -1 84.5 19t72.5 54l296 -71q-79 -133 -212 -217.5t-283 -84.5z
M362 621h375q-8 43 -31.5 76t-58 52t-77.5 19q-42 0 -82 -19t-72.5 -52t-53.5 -76zM538 1110l120 288h300l-220 -288h-200z" />
    <glyph glyph-name="ecircumflex" unicode="&#xea;" 
d="M458 -26q-138 0 -241.5 71t-154 191t-30.5 265q15 109 67.5 204.5t131.5 168t175.5 113.5t199.5 41q120 0 212 -52.5t148.5 -142t69 -201.5t-26.5 -231h-667q9 -35 28.5 -63.5t51.5 -45.5t78 -18q44 -1 84.5 19t72.5 54l296 -71q-79 -133 -212 -217.5t-283 -84.5z
M362 621h375q-8 43 -31.5 76t-58 52t-77.5 19q-42 0 -82 -19t-72.5 -52t-53.5 -76zM827 1398l154 -288h-200l-137 188l-187 -188h-200l230 288h340z" />
    <glyph glyph-name="edieresis" unicode="&#xeb;" 
d="M458 -26q-138 0 -241.5 71t-154 191t-30.5 265q15 109 67.5 204.5t131.5 168t175.5 113.5t199.5 41q120 0 212 -52.5t148.5 -142t69 -201.5t-26.5 -231h-667q9 -35 28.5 -63.5t51.5 -45.5t78 -18q44 -1 84.5 19t72.5 54l296 -71q-79 -133 -212 -217.5t-283 -84.5z
M362 621h375q-8 43 -31.5 76t-58 52t-77.5 19q-42 0 -82 -19t-72.5 -52t-53.5 -76zM392 1064q-64 0 -102 43t-29 107q9 63 59 106.5t114 43.5q63 0 100.5 -43.5t28.5 -106.5q-9 -64 -58.5 -107t-112.5 -43zM832 1064q-64 0 -102 43t-29 107q9 63 59 106.5t114 43.5
q63 0 100.5 -43.5t28.5 -106.5q-9 -64 -58.5 -107t-112.5 -43z" />
    <glyph glyph-name="igrave" unicode="&#xec;" horiz-adv-x="540" 
d="M162 1000h300l-140 -1000h-300zM70 1398h300l40 -288h-200z" />
    <glyph glyph-name="iacute" unicode="&#xed;" horiz-adv-x="540" 
d="M162 1000h300l-140 -1000h-300zM248 1110l120 288h300l-220 -288h-200z" />
    <glyph glyph-name="icircumflex" unicode="&#xee;" horiz-adv-x="540" 
d="M162 1000h300l-140 -1000h-300zM537 1398l154 -288h-200l-137 188l-187 -188h-200l230 288h340z" />
    <glyph glyph-name="idieresis" unicode="&#xef;" horiz-adv-x="540" 
d="M162 1000h300l-140 -1000h-300zM102 1064q-64 0 -102 43t-29 107q9 63 59 106.5t114 43.5q63 0 100.5 -43.5t28.5 -106.5q-9 -64 -58.5 -107t-112.5 -43zM542 1064q-64 0 -102 43t-29 107q9 63 59 106.5t114 43.5q63 0 100.5 -43.5t28.5 -106.5q-9 -64 -58.5 -107
t-112.5 -43z" />
    <glyph glyph-name="eth" unicode="&#xf0;" horiz-adv-x="1126" 
d="M485 1018l-122 142l498 432l120 -142zM482 -26q-139 0 -244 68t-156.5 182t-32.5 252q15 104 66.5 195.5t130.5 161t176 108.5t201 39q20 0 40 -1.5t39 -6.5q-15 41 -31 87t-44.5 87.5t-78.5 67.5t-132 26l40 300q173 0 299.5 -84.5t204 -229.5t103 -329.5t-2.5 -384.5
q-22 -157 -104.5 -278.5t-205.5 -190.5t-268 -69zM524 274q55 0 105 27.5t84 73.5t42 101q8 56 -13.5 102.5t-63.5 74t-97 27.5q-56 0 -106 -27.5t-84 -74t-42 -102.5q-8 -55 13 -101t63.5 -73.5t98.5 -27.5z" />
    <glyph glyph-name="ntilde" unicode="&#xf1;" horiz-adv-x="1139" 
d="M1050 639l-89 -639h-300l78 555q7 47 -11 85.5t-53 61t-82 22.5t-88.5 -22.5t-69 -61t-34.5 -85.5l-78 -555h-300l139 1000h300l-8 -63q56 43 123.5 67t138.5 24q108 0 188.5 -52.5t121 -140.5t24.5 -196zM821 1091q-38 0 -87.5 27.5t-97.5 60t-82.5 51t-42.5 1.5
q-9 -18 -7.5 -35t5.5 -47l-174 -46q-18 89 4 160t78 112.5t138 41.5q36 0 82 -21.5t90.5 -49.5t78 -49.5t43.5 -21.5q19 0 23 12t0.5 30.5t-8.5 37.5l180 56q18 -94 -7 -166t-82 -113t-134 -41z" />
    <glyph glyph-name="ograve" unicode="&#xf2;" 
d="M458 -26q-138 0 -241.5 71t-154 190.5t-30.5 264.5q15 110 67.5 205.5t131.5 168t175.5 113.5t199.5 41q138 0 241.5 -71t154.5 -191t30 -266q-15 -109 -67.5 -204t-131.5 -167.5t-175 -113.5t-200 -41zM500 274q57 0 106.5 31t83.5 82.5t42 112.5q9 63 -11 115
t-61.5 82.5t-95.5 30.5q-56 0 -106 -31.5t-83.5 -83.5t-42.5 -113q-9 -64 11.5 -115t61.5 -81t95 -30zM360 1398h300l40 -288h-200z" />
    <glyph glyph-name="oacute" unicode="&#xf3;" 
d="M458 -26q-138 0 -241.5 71t-154 190.5t-30.5 264.5q15 110 67.5 205.5t131.5 168t175.5 113.5t199.5 41q138 0 241.5 -71t154.5 -191t30 -266q-15 -109 -67.5 -204t-131.5 -167.5t-175 -113.5t-200 -41zM500 274q57 0 106.5 31t83.5 82.5t42 112.5q9 63 -11 115
t-61.5 82.5t-95.5 30.5q-56 0 -106 -31.5t-83.5 -83.5t-42.5 -113q-9 -64 11.5 -115t61.5 -81t95 -30zM538 1110l120 288h300l-220 -288h-200z" />
    <glyph glyph-name="ocircumflex" unicode="&#xf4;" 
d="M458 -26q-138 0 -241.5 71t-154 190.5t-30.5 264.5q15 110 67.5 205.5t131.5 168t175.5 113.5t199.5 41q138 0 241.5 -71t154.5 -191t30 -266q-15 -109 -67.5 -204t-131.5 -167.5t-175 -113.5t-200 -41zM500 274q57 0 106.5 31t83.5 82.5t42 112.5q9 63 -11 115
t-61.5 82.5t-95.5 30.5q-56 0 -106 -31.5t-83.5 -83.5t-42.5 -113q-9 -64 11.5 -115t61.5 -81t95 -30zM827 1398l154 -288h-200l-137 188l-187 -188h-200l230 288h340z" />
    <glyph glyph-name="otilde" unicode="&#xf5;" 
d="M458 -26q-138 0 -241.5 71t-154 190.5t-30.5 264.5q15 110 67.5 205.5t131.5 168t175.5 113.5t199.5 41q138 0 241.5 -71t154.5 -191t30 -266q-15 -109 -67.5 -204t-131.5 -167.5t-175 -113.5t-200 -41zM500 274q57 0 106.5 31t83.5 82.5t42 112.5q9 63 -11 115
t-61.5 82.5t-95.5 30.5q-56 0 -106 -31.5t-83.5 -83.5t-42.5 -113q-9 -64 11.5 -115t61.5 -81t95 -30zM771 1091q-38 0 -87.5 27.5t-97.5 60t-82.5 51t-42.5 1.5q-9 -18 -7.5 -35t5.5 -47l-174 -46q-18 89 4 160t78 112.5t138 41.5q36 0 82 -21.5t90.5 -49.5t78 -49.5
t43.5 -21.5q19 0 23 12t0.5 30.5t-8.5 37.5l180 56q18 -94 -7 -166t-82 -113t-134 -41z" />
    <glyph glyph-name="odieresis" unicode="&#xf6;" 
d="M458 -26q-138 0 -241.5 71t-154 190.5t-30.5 264.5q15 110 67.5 205.5t131.5 168t175.5 113.5t199.5 41q138 0 241.5 -71t154.5 -191t30 -266q-15 -109 -67.5 -204t-131.5 -167.5t-175 -113.5t-200 -41zM500 274q57 0 106.5 31t83.5 82.5t42 112.5q9 63 -11 115
t-61.5 82.5t-95.5 30.5q-56 0 -106 -31.5t-83.5 -83.5t-42.5 -113q-9 -64 11.5 -115t61.5 -81t95 -30zM392 1064q-64 0 -102 43t-29 107q9 63 59 106.5t114 43.5q63 0 100.5 -43.5t28.5 -106.5q-9 -64 -58.5 -107t-112.5 -43zM832 1064q-64 0 -102 43t-29 107q9 63 59 106.5
t114 43.5q63 0 100.5 -43.5t28.5 -106.5q-9 -64 -58.5 -107t-112.5 -43z" />
    <glyph glyph-name="divide" unicode="&#xf7;" horiz-adv-x="1160" 
d="M45 450l42 300h1000l-42 -300h-1000zM638 1110q62 0 99.5 -44t29.5 -106q-9 -61 -59.5 -105.5t-112.5 -44.5q-63 0 -100 44.5t-28 105.5q8 62 58 106t113 44zM536 390q62 0 100 -44t29 -106q-8 -61 -58.5 -105.5t-112.5 -44.5q-63 0 -100 44.5t-29 105.5q9 62 58.5 106
t112.5 44z" />
    <glyph glyph-name="oslash" unicode="&#xf8;" 
d="M250 -86l-192 120l68 94q-58 72 -83.5 168t-10.5 204q15 110 67.5 205.5t131.5 168t175.5 113.5t199.5 41q39 0 76.5 -6t70.5 -18l62 84l191 -120l-68 -94q58 -72 83.5 -168t10.5 -206q-15 -109 -67.5 -204t-131.5 -167.5t-175 -113.5t-200 -41q-40 0 -77 6t-72 18z
M309 380l276 386q-50 -1 -97 -24.5t-85.5 -63t-64 -90t-33.5 -106.5q-4 -28 -2.5 -53t6.5 -49zM479 236q52 2 99 24.5t84.5 61.5t62.5 89.5t33 106.5q5 29 3.5 54.5t-6.5 49.5z" />
    <glyph glyph-name="ugrave" unicode="&#xf9;" horiz-adv-x="1099" 
d="M33 363l89 637h300l-78 -553q-6 -47 11.5 -85.5t53 -61t81.5 -22.5q47 0 88.5 22.5t69.5 61t34 85.5l78 553h300l-139 -1000h-300l8 65q-56 -43 -123.5 -67t-138.5 -24q-107 0 -188 52.5t-121 140.5t-25 196zM388 1400h300l40 -288h-200z" />
    <glyph glyph-name="uacute" unicode="&#xfa;" horiz-adv-x="1099" 
d="M33 363l89 637h300l-78 -553q-6 -47 11.5 -85.5t53 -61t81.5 -22.5q47 0 88.5 22.5t69.5 61t34 85.5l78 553h300l-139 -1000h-300l8 65q-56 -43 -123.5 -67t-138.5 -24q-107 0 -188 52.5t-121 140.5t-25 196zM566 1112l120 288h300l-220 -288h-200z" />
    <glyph glyph-name="ucircumflex" unicode="&#xfb;" horiz-adv-x="1099" 
d="M33 363l89 637h300l-78 -553q-6 -47 11.5 -85.5t53 -61t81.5 -22.5q47 0 88.5 22.5t69.5 61t34 85.5l78 553h300l-139 -1000h-300l8 65q-56 -43 -123.5 -67t-138.5 -24q-107 0 -188 52.5t-121 140.5t-25 196zM855 1400l154 -288h-200l-137 188l-187 -188h-200l230 288
h340z" />
    <glyph glyph-name="udieresis" unicode="&#xfc;" horiz-adv-x="1099" 
d="M33 363l89 637h300l-78 -553q-6 -47 11.5 -85.5t53 -61t81.5 -22.5q47 0 88.5 22.5t69.5 61t34 85.5l78 553h300l-139 -1000h-300l8 65q-56 -43 -123.5 -67t-138.5 -24q-107 0 -188 52.5t-121 140.5t-25 196zM420 1066q-64 0 -102 43t-29 107q9 63 59 106.5t114 43.5
q63 0 100.5 -43.5t28.5 -106.5q-9 -64 -58.5 -107t-112.5 -43zM860 1066q-64 0 -102 43t-29 107q9 63 59 106.5t114 43.5q63 0 100.5 -43.5t28.5 -106.5q-9 -64 -58.5 -107t-112.5 -43z" />
    <glyph glyph-name="yacute" unicode="&#xfd;" horiz-adv-x="1206" 
d="M848 1000h320l-759 -1500h-318l251 500l-220 1000h328l99 -590zM581 1110l120 288h300l-220 -288h-200z" />
    <glyph glyph-name="thorn" unicode="&#xfe;" horiz-adv-x="1258" 
d="M-49 -500l267 1900h300l-69 -494q54 53 121 86.5t148 33.5q110 0 199.5 -41t151.5 -113.5t89 -167.5t12 -204t-69.5 -205t-136.5 -168.5t-183 -113.5t-211 -41q-81 0 -138.5 34t-96.5 86l-84 -592h-300zM606 262q62 0 117.5 32t93.5 86t47 120q9 65 -13.5 119t-69 86.5
t-108.5 32.5q-61 0 -116 -32.5t-92.5 -86.5t-46.5 -119q-9 -66 13 -120t68 -86t107 -32z" />
    <glyph glyph-name="ydieresis" unicode="&#xff;" horiz-adv-x="1206" 
d="M848 1000h320l-759 -1500h-318l251 500l-220 1000h328l99 -590zM435 1064q-64 0 -102 43t-29 107q9 63 59 106.5t114 43.5q63 0 100.5 -43.5t28.5 -106.5q-9 -64 -58.5 -107t-112.5 -43zM875 1064q-64 0 -102 43t-29 107q9 63 59 106.5t114 43.5q63 0 100.5 -43.5
t28.5 -106.5q-9 -64 -58.5 -107t-112.5 -43z" />
    <glyph glyph-name="Amacron" unicode="&#x100;" horiz-adv-x="1514" 
d="M686 1400h338l312 -1400h-318l-49 220h-558l-111 -220h-318zM563 520h338l-105 464zM566 1750h676l-31 -220h-676z" />
    <glyph glyph-name="amacron" unicode="&#x101;" horiz-adv-x="1218" 
d="M880 1000h300l-140 -1000h-301l-2 90q-45 -52 -105.5 -84t-135.5 -32q-112 0 -203.5 42t-155 116.5t-91.5 172t-12 209.5q15 107 67.5 200t132 163.5t178 110.5t204.5 40q86 0 151.5 -35.5t113.5 -88.5zM528 262q62 0 117.5 32t93.5 86t47 120t-13.5 120t-69 86
t-108.5 32t-117 -32t-92 -86t-46 -120t13 -120t68 -86t107 -32zM376 1350h676l-31 -220h-676z" />
    <glyph glyph-name="Abreve" unicode="&#x102;" horiz-adv-x="1514" 
d="M686 1400h338l312 -1400h-318l-49 220h-558l-111 -220h-318zM563 520h338l-105 464zM868 1488q-91 0 -160 45t-103.5 120.5t-22.5 166.5h180q-5 -41 10.5 -75.5t47 -55.5t73.5 -21t79.5 20t62.5 54.5t31 77.5h180q-13 -93 -68 -168.5t-136.5 -119.5t-173.5 -44z" />
    <glyph glyph-name="abreve" unicode="&#x103;" horiz-adv-x="1218" 
d="M880 1000h300l-140 -1000h-301l-2 90q-45 -52 -105.5 -84t-135.5 -32q-112 0 -203.5 42t-155 116.5t-91.5 172t-12 209.5q15 107 67.5 200t132 163.5t178 110.5t204.5 40q86 0 151.5 -35.5t113.5 -88.5zM528 262q62 0 117.5 32t93.5 86t47 120t-13.5 120t-69 86
t-108.5 32t-117 -32t-92 -86t-46 -120t13 -120t68 -86t107 -32zM678 1088q-91 0 -160 45t-103.5 120.5t-22.5 166.5h180q-5 -41 10.5 -75.5t47 -55.5t73.5 -21t79.5 20t62.5 54.5t31 77.5h180q-13 -93 -68 -168.5t-136.5 -119.5t-173.5 -44z" />
    <glyph glyph-name="Aogonek" unicode="&#x104;" horiz-adv-x="1514" 
d="M686 1400h338l312 -1400h-318l-49 220h-558l-111 -220h-318zM563 520h338l-105 464zM1144 -476q-80 0 -134 38t-77.5 99t-14.5 128q7 50 32.5 97.5t70.5 87.5l192 168l122 -142q-31 -27 -64.5 -55t-63 -56.5t-49.5 -56.5t-24 -55q-3 -22 10 -40t39 -18q38 0 68.5 27
t35.5 65h184q-10 -76 -57 -141.5t-117.5 -105.5t-152.5 -40z" />
    <glyph glyph-name="aogonek" unicode="&#x105;" horiz-adv-x="1218" 
d="M880 1000h300l-140 -1000h-301l-2 90q-45 -52 -105.5 -84t-135.5 -32q-112 0 -203.5 42t-155 116.5t-91.5 172t-12 209.5q15 107 67.5 200t132 163.5t178 110.5t204.5 40q86 0 151.5 -35.5t113.5 -88.5zM528 262q62 0 117.5 32t93.5 86t47 120t-13.5 120t-69 86
t-108.5 32t-117 -32t-92 -86t-46 -120t13 -120t68 -86t107 -32zM848 -476q-80 0 -134 38t-77.5 99t-14.5 128q7 50 32.5 97.5t70.5 87.5l192 168l122 -142q-31 -27 -64.5 -55t-63 -56.5t-49.5 -56.5t-24 -55q-3 -22 10 -40t39 -18q38 0 68.5 27t35.5 65h184
q-10 -76 -57 -141.5t-117.5 -105.5t-152.5 -40z" />
    <glyph glyph-name="Cacute" unicode="&#x106;" horiz-adv-x="1418" 
d="M666 -26q-142 0 -259 56.5t-197.5 156.5t-115.5 231.5t-14 281.5q21 151 93 282.5t180.5 231t241.5 156t275 56.5q170 0 302 -78.5t208 -209.5l-289 -144q-43 60 -111 96t-152 36q-80 0 -155 -33t-137 -91.5t-103 -135.5t-53 -166q-12 -88 7 -165t64 -135.5t111 -92
t146 -33.5q84 0 162 36.5t139 97.5l247 -146q-112 -130 -266 -209t-324 -79zM802 1510l120 288h300l-220 -288h-200z" />
    <glyph glyph-name="cacute" unicode="&#x107;" horiz-adv-x="1019" 
d="M638 328l249 -146q-82 -94 -194 -151t-235 -57q-138 0 -241.5 71t-154 190.5t-30.5 264.5q15 110 67.5 205.5t131.5 168t175.5 113.5t199.5 41q123 0 219.5 -57t151.5 -153l-291 -146q-23 27 -54.5 41.5t-67.5 14.5q-57 0 -106.5 -32t-83 -84t-42.5 -112
q-8 -59 10.5 -110.5t59.5 -83.5t98 -32q36 0 71.5 14.5t66.5 39.5zM538 1110l120 288h300l-220 -288h-200z" />
    <glyph glyph-name="Ccircumflex" unicode="&#x108;" horiz-adv-x="1418" 
d="M666 -26q-142 0 -259 56.5t-197.5 156.5t-115.5 231.5t-14 281.5q21 151 93 282.5t180.5 231t241.5 156t275 56.5q170 0 302 -78.5t208 -209.5l-289 -144q-43 60 -111 96t-152 36q-80 0 -155 -33t-137 -91.5t-103 -135.5t-53 -166q-12 -88 7 -165t64 -135.5t111 -92
t146 -33.5q84 0 162 36.5t139 97.5l247 -146q-112 -130 -266 -209t-324 -79zM1091 1798l154 -288h-200l-137 188l-187 -188h-200l230 288h340z" />
    <glyph glyph-name="ccircumflex" unicode="&#x109;" horiz-adv-x="1019" 
d="M638 328l249 -146q-82 -94 -194 -151t-235 -57q-138 0 -241.5 71t-154 190.5t-30.5 264.5q15 110 67.5 205.5t131.5 168t175.5 113.5t199.5 41q123 0 219.5 -57t151.5 -153l-291 -146q-23 27 -54.5 41.5t-67.5 14.5q-57 0 -106.5 -32t-83 -84t-42.5 -112
q-8 -59 10.5 -110.5t59.5 -83.5t98 -32q36 0 71.5 14.5t66.5 39.5zM827 1398l154 -288h-200l-137 188l-187 -188h-200l230 288h340z" />
    <glyph glyph-name="Cdotaccent" unicode="&#x10a;" horiz-adv-x="1418" 
d="M666 -26q-142 0 -259 56.5t-197.5 156.5t-115.5 231.5t-14 281.5q21 151 93 282.5t180.5 231t241.5 156t275 56.5q170 0 302 -78.5t208 -209.5l-289 -144q-43 60 -111 96t-152 36q-80 0 -155 -33t-137 -91.5t-103 -135.5t-53 -166q-12 -88 7 -165t64 -135.5t111 -92
t146 -33.5q84 0 162 36.5t139 97.5l247 -146q-112 -130 -266 -209t-324 -79zM883 1504q-65 0 -103 43t-29 107q9 63 59 106.5t114 43.5q63 0 100.5 -43.5t28.5 -106.5q-9 -64 -57.5 -107t-112.5 -43z" />
    <glyph glyph-name="cdotaccent" unicode="&#x10b;" horiz-adv-x="1019" 
d="M638 328l249 -146q-82 -94 -194 -151t-235 -57q-138 0 -241.5 71t-154 190.5t-30.5 264.5q15 110 67.5 205.5t131.5 168t175.5 113.5t199.5 41q123 0 219.5 -57t151.5 -153l-291 -146q-23 27 -54.5 41.5t-67.5 14.5q-57 0 -106.5 -32t-83 -84t-42.5 -112
q-8 -59 10.5 -110.5t59.5 -83.5t98 -32q36 0 71.5 14.5t66.5 39.5zM619 1104q-65 0 -103 43t-29 107q9 63 59 106.5t114 43.5q63 0 100.5 -43.5t28.5 -106.5q-9 -64 -57.5 -107t-112.5 -43z" />
    <glyph glyph-name="Ccaron" unicode="&#x10c;" horiz-adv-x="1418" 
d="M666 -26q-142 0 -259 56.5t-197.5 156.5t-115.5 231.5t-14 281.5q21 151 93 282.5t180.5 231t241.5 156t275 56.5q170 0 302 -78.5t208 -209.5l-289 -144q-43 60 -111 96t-152 36q-80 0 -155 -33t-137 -91.5t-103 -135.5t-53 -166q-12 -88 7 -165t64 -135.5t111 -92
t146 -33.5q84 0 162 36.5t139 97.5l247 -146q-112 -130 -266 -209t-324 -79zM713 1510l-154 288h200l137 -188l187 188h200l-230 -288h-340z" />
    <glyph glyph-name="ccaron" unicode="&#x10d;" horiz-adv-x="1019" 
d="M638 328l249 -146q-82 -94 -194 -151t-235 -57q-138 0 -241.5 71t-154 190.5t-30.5 264.5q15 110 67.5 205.5t131.5 168t175.5 113.5t199.5 41q123 0 219.5 -57t151.5 -153l-291 -146q-23 27 -54.5 41.5t-67.5 14.5q-57 0 -106.5 -32t-83 -84t-42.5 -112
q-8 -59 10.5 -110.5t59.5 -83.5t98 -32q36 0 71.5 14.5t66.5 39.5zM449 1110l-154 288h200l137 -188l187 188h200l-230 -288h-340z" />
    <glyph glyph-name="Dcaron" unicode="&#x10e;" horiz-adv-x="1343" 
d="M22 0l196 1400h464q145 0 264 -54.5t202 -151t119.5 -223t16.5 -271.5t-92.5 -271.5t-182 -223t-244 -151t-279.5 -54.5h-464zM364 300h164q81 0 157.5 31t140 86t105 127.5t53.5 155.5t-9.5 155t-69 127.5t-115.5 86.5t-150 31h-164zM597 1510l-154 288h200l137 -188
l187 188h200l-230 -288h-340z" />
    <glyph glyph-name="dcaron" unicode="&#x10f;" horiz-adv-x="1260" 
d="M952 1500h300l-210 -1500h-300l13 92q-54 -52 -122 -85t-149 -33q-109 0 -198.5 41t-151.5 113.5t-89.5 167.5t-12.5 204t69.5 204t137 167.5t183.5 113.5t210 41q81 0 139.5 -32.5t97.5 -85.5zM528 262q62 0 117.5 32t93.5 86t47 120t-13.5 120t-69 86t-108.5 32
t-117 -32t-92 -86t-46 -120t13 -120t68 -86t107 -32zM1252 1212l120 288h300l-220 -288h-200z" />
    <glyph glyph-name="Emacron" unicode="&#x112;" horiz-adv-x="1112" 
d="M22 0l196 1400h892l-42 -300h-592l-28 -200h456l-42 -300h-456l-42 -300h592l-42 -300h-892zM365 1750h676l-31 -220h-676z" />
    <glyph glyph-name="emacron" unicode="&#x113;" 
d="M458 -26q-138 0 -241.5 71t-154 191t-30.5 265q15 109 67.5 204.5t131.5 168t175.5 113.5t199.5 41q120 0 212 -52.5t148.5 -142t69 -201.5t-26.5 -231h-667q9 -35 28.5 -63.5t51.5 -45.5t78 -18q44 -1 84.5 19t72.5 54l296 -71q-79 -133 -212 -217.5t-283 -84.5z
M362 621h375q-8 43 -31.5 76t-58 52t-77.5 19q-42 0 -82 -19t-72.5 -52t-53.5 -76zM312 1350h676l-31 -220h-676z" />
    <glyph glyph-name="Edotaccent" unicode="&#x116;" horiz-adv-x="1112" 
d="M22 0l196 1400h892l-42 -300h-592l-28 -200h456l-42 -300h-456l-42 -300h592l-42 -300h-892zM671 1504q-65 0 -103 43t-29 107q9 63 59 106.5t114 43.5q63 0 100.5 -43.5t28.5 -106.5q-9 -64 -57.5 -107t-112.5 -43z" />
    <glyph glyph-name="edotaccent" unicode="&#x117;" 
d="M458 -26q-138 0 -241.5 71t-154 191t-30.5 265q15 109 67.5 204.5t131.5 168t175.5 113.5t199.5 41q120 0 212 -52.5t148.5 -142t69 -201.5t-26.5 -231h-667q9 -35 28.5 -63.5t51.5 -45.5t78 -18q44 -1 84.5 19t72.5 54l296 -71q-79 -133 -212 -217.5t-283 -84.5z
M362 621h375q-8 43 -31.5 76t-58 52t-77.5 19q-42 0 -82 -19t-72.5 -52t-53.5 -76zM619 1104q-65 0 -103 43t-29 107q9 63 59 106.5t114 43.5q63 0 100.5 -43.5t28.5 -106.5q-9 -64 -57.5 -107t-112.5 -43z" />
    <glyph glyph-name="Eogonek" unicode="&#x118;" horiz-adv-x="1112" 
d="M22 0l196 1400h892l-42 -300h-592l-28 -200h456l-42 -300h-456l-42 -300h592l-42 -300h-892zM620 -476q-80 0 -134 38t-77.5 99t-14.5 128q7 50 32.5 97.5t70.5 87.5l192 168l122 -142q-31 -27 -64.5 -55t-63 -56.5t-49.5 -56.5t-24 -55q-3 -22 10 -40t39 -18
q38 0 68.5 27t35.5 65h184q-10 -76 -57 -141.5t-117.5 -105.5t-152.5 -40z" />
    <glyph glyph-name="eogonek" unicode="&#x119;" 
d="M458 -26q-138 0 -241.5 71t-154 191t-30.5 265q15 109 67.5 204.5t131.5 168t175.5 113.5t199.5 41q120 0 212 -52.5t148.5 -142t69 -201.5t-26.5 -231h-667q9 -35 28.5 -63.5t51.5 -45.5t78 -18q44 -1 84.5 19t72.5 54l296 -71q-79 -133 -212 -217.5t-283 -84.5z
M362 621h375q-8 43 -31.5 76t-58 52t-77.5 19q-42 0 -82 -19t-72.5 -52t-53.5 -76zM425 -476q-80 0 -134 38t-77.5 99t-14.5 128q7 50 32.5 97.5t70.5 87.5l192 168l122 -142q-31 -27 -64.5 -55t-63 -56.5t-49.5 -56.5t-24 -55q-3 -22 10 -40t39 -18q38 0 68.5 27t35.5 65
h184q-10 -76 -57 -141.5t-117.5 -105.5t-152.5 -40z" />
    <glyph glyph-name="Ecaron" unicode="&#x11a;" horiz-adv-x="1112" 
d="M22 0l196 1400h892l-42 -300h-592l-28 -200h456l-42 -300h-456l-42 -300h592l-42 -300h-892zM501 1510l-154 288h200l137 -188l187 188h200l-230 -288h-340z" />
    <glyph glyph-name="ecaron" unicode="&#x11b;" 
d="M458 -26q-138 0 -241.5 71t-154 191t-30.5 265q15 109 67.5 204.5t131.5 168t175.5 113.5t199.5 41q120 0 212 -52.5t148.5 -142t69 -201.5t-26.5 -231h-667q9 -35 28.5 -63.5t51.5 -45.5t78 -18q44 -1 84.5 19t72.5 54l296 -71q-79 -133 -212 -217.5t-283 -84.5z
M362 621h375q-8 43 -31.5 76t-58 52t-77.5 19q-42 0 -82 -19t-72.5 -52t-53.5 -76zM449 1110l-154 288h200l137 -188l187 188h200l-230 -288h-340z" />
    <glyph glyph-name="Gcircumflex" unicode="&#x11c;" horiz-adv-x="1536" 
d="M666 -26q-147 0 -264.5 57t-196.5 157.5t-112.5 232.5t-12.5 281q23 161 99 293t188 228.5t244 148.5t265 52q146 0 278.5 -68t224.5 -220l-288 -144q-52 69 -119.5 101.5t-141.5 32.5q-75 0 -149.5 -31t-137.5 -88t-106.5 -136t-57.5 -175q-12 -88 7.5 -165t65.5 -134.5
t112.5 -90t147.5 -32.5q46 0 93 12.5t94 37.5t90.5 64t81.5 92h-188l37 260h542q-15 -157 -84.5 -295.5t-179.5 -244.5t-246.5 -166t-285.5 -60zM1092 1798l154 -288h-200l-137 188l-187 -188h-200l230 288h340z" />
    <glyph glyph-name="gcircumflex" unicode="&#x11d;" horiz-adv-x="1254" 
d="M876 1000h300l-142 -1010q-16 -114 -74.5 -204.5t-146.5 -154.5t-195 -97.5t-221 -33.5q-106 0 -197 40.5t-157 112.5t-97 167l292 124q15 -45 44.5 -76.5t70 -48.5t87.5 -17q52 0 101.5 11t90.5 34t68 58.5t34 84.5l14 98q-52 -51 -118 -82.5t-146 -31.5
q-109 0 -198.5 41t-151.5 113.5t-89.5 167.5t-12.5 204t69.5 204t137 167.5t183.5 113.5t210 41q80 0 137 -31.5t95 -82.5zM528 262q62 0 117.5 32t93.5 86t47 120t-13.5 120t-69 86t-108.5 32q-61 0 -116 -32t-92.5 -86t-46.5 -120t13 -120t68 -86t107 -32zM894 1398
l154 -288h-200l-137 188l-187 -188h-200l230 288h340z" />
    <glyph glyph-name="Gbreve" unicode="&#x11e;" horiz-adv-x="1536" 
d="M666 -26q-147 0 -264.5 57t-196.5 157.5t-112.5 232.5t-12.5 281q23 161 99 293t188 228.5t244 148.5t265 52q146 0 278.5 -68t224.5 -220l-288 -144q-52 69 -119.5 101.5t-141.5 32.5q-75 0 -149.5 -31t-137.5 -88t-106.5 -136t-57.5 -175q-12 -88 7.5 -165t65.5 -134.5
t112.5 -90t147.5 -32.5q46 0 93 12.5t94 37.5t90.5 64t81.5 92h-188l37 260h542q-15 -157 -84.5 -295.5t-179.5 -244.5t-246.5 -166t-285.5 -60zM881 1488q-91 0 -160 45t-103.5 120.5t-22.5 166.5h180q-5 -41 10.5 -75.5t47 -55.5t73.5 -21t79.5 20t62.5 54.5t31 77.5h180
q-13 -93 -68 -168.5t-136.5 -119.5t-173.5 -44z" />
    <glyph glyph-name="gbreve" unicode="&#x11f;" horiz-adv-x="1254" 
d="M876 1000h300l-142 -1010q-16 -114 -74.5 -204.5t-146.5 -154.5t-195 -97.5t-221 -33.5q-106 0 -197 40.5t-157 112.5t-97 167l292 124q15 -45 44.5 -76.5t70 -48.5t87.5 -17q52 0 101.5 11t90.5 34t68 58.5t34 84.5l14 98q-52 -51 -118 -82.5t-146 -31.5
q-109 0 -198.5 41t-151.5 113.5t-89.5 167.5t-12.5 204t69.5 204t137 167.5t183.5 113.5t210 41q80 0 137 -31.5t95 -82.5zM528 262q62 0 117.5 32t93.5 86t47 120t-13.5 120t-69 86t-108.5 32q-61 0 -116 -32t-92.5 -86t-46.5 -120t13 -120t68 -86t107 -32zM682 1088
q-91 0 -160 45t-103.5 120.5t-22.5 166.5h180q-5 -41 10.5 -75.5t47 -55.5t73.5 -21t79.5 20t62.5 54.5t31 77.5h180q-13 -93 -68 -168.5t-136.5 -119.5t-173.5 -44z" />
    <glyph glyph-name="Gdotaccent" unicode="&#x120;" horiz-adv-x="1536" 
d="M666 -26q-147 0 -264.5 57t-196.5 157.5t-112.5 232.5t-12.5 281q23 161 99 293t188 228.5t244 148.5t265 52q146 0 278.5 -68t224.5 -220l-288 -144q-52 69 -119.5 101.5t-141.5 32.5q-75 0 -149.5 -31t-137.5 -88t-106.5 -136t-57.5 -175q-12 -88 7.5 -165t65.5 -134.5
t112.5 -90t147.5 -32.5q46 0 93 12.5t94 37.5t90.5 64t81.5 92h-188l37 260h542q-15 -157 -84.5 -295.5t-179.5 -244.5t-246.5 -166t-285.5 -60zM884 1504q-65 0 -103 43t-29 107q9 63 59 106.5t114 43.5q63 0 100.5 -43.5t28.5 -106.5q-9 -64 -57.5 -107t-112.5 -43z" />
    <glyph glyph-name="gdotaccent" unicode="&#x121;" horiz-adv-x="1254" 
d="M876 1000h300l-142 -1010q-16 -114 -74.5 -204.5t-146.5 -154.5t-195 -97.5t-221 -33.5q-106 0 -197 40.5t-157 112.5t-97 167l292 124q15 -45 44.5 -76.5t70 -48.5t87.5 -17q52 0 101.5 11t90.5 34t68 58.5t34 84.5l14 98q-52 -51 -118 -82.5t-146 -31.5
q-109 0 -198.5 41t-151.5 113.5t-89.5 167.5t-12.5 204t69.5 204t137 167.5t183.5 113.5t210 41q80 0 137 -31.5t95 -82.5zM528 262q62 0 117.5 32t93.5 86t47 120t-13.5 120t-69 86t-108.5 32q-61 0 -116 -32t-92.5 -86t-46.5 -120t13 -120t68 -86t107 -32zM686 1104
q-65 0 -103 43t-29 107q9 63 59 106.5t114 43.5q63 0 100.5 -43.5t28.5 -106.5q-9 -64 -57.5 -107t-112.5 -43z" />
    <glyph glyph-name="uni0122" unicode="&#x122;" horiz-adv-x="1536" 
d="M666 -26q-147 0 -264.5 57t-196.5 157.5t-112.5 232.5t-12.5 281q23 161 99 293t188 228.5t244 148.5t265 52q146 0 278.5 -68t224.5 -220l-288 -144q-52 69 -119.5 101.5t-141.5 32.5q-75 0 -149.5 -31t-137.5 -88t-106.5 -136t-57.5 -175q-12 -88 7.5 -165t65.5 -134.5
t112.5 -90t147.5 -32.5q46 0 93 12.5t94 37.5t90.5 64t81.5 92h-188l37 260h542q-15 -157 -84.5 -295.5t-179.5 -244.5t-246.5 -166t-285.5 -60zM397 -441l109 338h300l-209 -338h-200z" />
    <glyph glyph-name="Hcircumflex" unicode="&#x124;" horiz-adv-x="1336" 
d="M1014 1400h300l-196 -1400h-300l84 600h-496l-84 -600h-300l196 1400h300l-70 -500h496zM991 1798l154 -288h-200l-137 188l-187 -188h-200l230 288h340z" />
    <glyph glyph-name="hcircumflex" unicode="&#x125;" horiz-adv-x="1140" 
d="M1051 639l-89 -639h-300l78 555q7 47 -11 85.5t-53 61t-82 22.5t-88.5 -22.5t-69 -61t-34.5 -85.5l-78 -555h-300l209 1500h300l-78 -563q56 43 123.5 67t138.5 24q108 0 188.5 -52.5t121 -140.5t24.5 -196zM958 1823l154 -288h-200l-137 188l-187 -188h-200l230 288h340
z" />
    <glyph glyph-name="Itilde" unicode="&#x128;" horiz-adv-x="600" 
d="M52 0l196 1400h300l-196 -1400h-300zM567 1491q-38 0 -87.5 27.5t-97.5 60t-82.5 51t-42.5 1.5q-9 -18 -7.5 -35t5.5 -47l-174 -46q-18 89 4 160t78 112.5t138 41.5q36 0 82 -21.5t90.5 -49.5t78 -49.5t43.5 -21.5q19 0 23 12t0.5 30.5t-8.5 37.5l180 56q18 -94 -7 -166
t-82 -113t-134 -41z" />
    <glyph glyph-name="itilde" unicode="&#x129;" horiz-adv-x="540" 
d="M447 1073q-31 0 -70.5 21.5t-77.5 48t-65.5 41.5t-34.5 1q-7 -15 -6 -28.5t4 -37.5l-139 -37q-15 72 3 128.5t63 90t110 33.5q29 0 66 -17.5t72.5 -40t62 -39.5t34.5 -17q23 0 20.5 20.5t-8.5 43.5l144 45q22 -113 -32 -184.5t-146 -71.5zM162 1000h300l-140 -1000h-300z
" />
    <glyph glyph-name="Imacron" unicode="&#x12a;" horiz-adv-x="600" 
d="M52 0l196 1400h300l-196 -1400h-300zM109 1750h676l-31 -220h-676z" />
    <glyph glyph-name="imacron" unicode="&#x12b;" horiz-adv-x="540" 
d="M81 1350h541l-25 -220h-541zM162 1000h300l-140 -1000h-300z" />
    <glyph glyph-name="Iogonek" unicode="&#x12e;" horiz-adv-x="600" 
d="M52 0l196 1400h300l-196 -1400h-300zM160 -476q-80 0 -134 38t-77.5 99t-14.5 128q7 50 32.5 97.5t70.5 87.5l192 168l122 -142q-31 -27 -64.5 -55t-63 -56.5t-49.5 -56.5t-24 -55q-3 -22 10 -40t39 -18q38 0 68.5 27t35.5 65h184q-10 -76 -57 -141.5t-117.5 -105.5
t-152.5 -40z" />
    <glyph glyph-name="iogonek" unicode="&#x12f;" horiz-adv-x="540" 
d="M162 1000h300l-140 -1000h-300zM329 1104q-65 0 -103 43t-29 107q9 63 59 106.5t114 43.5q63 0 100.5 -43.5t28.5 -106.5q-9 -64 -57.5 -107t-112.5 -43zM130 -476q-80 0 -134 38t-77.5 99t-14.5 128q7 50 32.5 97.5t70.5 87.5l192 168l122 -142q-31 -27 -64.5 -55
t-63 -56.5t-49.5 -56.5t-24 -55q-3 -22 10 -40t39 -18q38 0 68.5 27t35.5 65h184q-10 -76 -57 -141.5t-117.5 -105.5t-152.5 -40z" />
    <glyph glyph-name="Idotaccent" unicode="&#x130;" horiz-adv-x="600" 
d="M52 0l196 1400h300l-196 -1400h-300zM415 1504q-65 0 -103 43t-29 107q9 63 59 106.5t114 43.5q63 0 100.5 -43.5t28.5 -106.5q-9 -64 -57.5 -107t-112.5 -43z" />
    <glyph glyph-name="dotlessi" unicode="&#x131;" horiz-adv-x="540" 
d="M162 1000h300l-140 -1000h-300z" />
    <glyph glyph-name="IJ" unicode="&#x132;" horiz-adv-x="1534" 
d="M52 0l196 1400h300l-196 -1400h-300zM840 -26q-82 0 -156.5 28t-130.5 82l225 230q14 -13 39.5 -26.5t64.5 -13.5q47 0 89.5 23.5t71.5 62.5t35 86l134 954h300l-134 -954q-18 -130 -97 -237t-195 -171t-246 -64z" />
    <glyph glyph-name="ij" unicode="&#x133;" horiz-adv-x="1072" 
d="M162 1000h300l-140 -1000h-300zM329 1104q-65 0 -103 43t-29 107q9 63 59 106.5t114 43.5q63 0 100.5 -43.5t28.5 -106.5q-9 -64 -57.5 -107t-112.5 -43zM311 -500l43 300q47 0 89 23t71 62t36 87l144 1028h300l-144 -1028q-18 -130 -97 -237t-195 -171t-247 -64z
M861 1104q-65 0 -103 43t-29 107q9 63 59 106.5t114 43.5q63 0 100.5 -43.5t28.5 -106.5q-9 -64 -57.5 -107t-112.5 -43z" />
    <glyph glyph-name="Jcircumflex" unicode="&#x134;" horiz-adv-x="934" 
d="M240 -26q-82 0 -156.5 28t-130.5 82l225 230q14 -13 39.5 -26.5t64.5 -13.5q47 0 89.5 23.5t71.5 62.5t35 86l134 954h300l-134 -954q-18 -130 -97 -237t-195 -171t-246 -64zM987 1798l154 -288h-200l-137 188l-187 -188h-200l230 288h340z" />
    <glyph glyph-name="jcircumflex" unicode="&#x135;" horiz-adv-x="512" 
d="M-249 -500l43 300q47 0 89 23t71 62t36 87l144 1028h300l-144 -1028q-18 -130 -97 -237t-195 -171t-247 -64zM509 1398l154 -288h-200l-137 188l-187 -188h-200l230 288h340z" />
    <glyph glyph-name="uni0136" unicode="&#x136;" horiz-adv-x="1230" 
d="M1112 0h-392l-287 506l-47 -48l-64 -458h-300l196 1400h300l-67 -476l465 476h392l-646 -660zM243 -441l109 338h300l-209 -338h-200z" />
    <glyph glyph-name="uni0137" unicode="&#x137;" horiz-adv-x="1119" 
d="M977 0h-346l-152 344l-126 -128l-30 -216h-300l210 1500h300l-115 -818l311 318h392l-402 -412zM188 -441l109 338h300l-209 -338h-200z" />
    <glyph glyph-name="Lacute" unicode="&#x139;" horiz-adv-x="1070" 
d="M22 0l196 1400h300l-154 -1100h550l-42 -300h-850zM304 1510l120 288h300l-220 -288h-200z" />
    <glyph glyph-name="lacute" unicode="&#x13a;" horiz-adv-x="541" 
d="M23 0l210 1500h300l-210 -1500h-300zM319 1610l120 288h300l-220 -288h-200z" />
    <glyph glyph-name="uni013B" unicode="&#x13b;" horiz-adv-x="1070" 
d="M22 0l196 1400h300l-154 -1100h550l-42 -300h-850zM173 -441l109 338h300l-209 -338h-200z" />
    <glyph glyph-name="uni013C" unicode="&#x13c;" horiz-adv-x="541" 
d="M23 0l210 1500h300l-210 -1500h-300zM-101 -441l109 338h300l-209 -338h-200z" />
    <glyph glyph-name="Lcaron" unicode="&#x13d;" horiz-adv-x="1070" 
d="M22 0l196 1400h300l-154 -1100h550l-42 -300h-850zM666 1212l120 288h300l-220 -288h-200z" />
    <glyph glyph-name="lcaron" unicode="&#x13e;" horiz-adv-x="541" 
d="M23 0l210 1500h300l-210 -1500h-300zM533 1212l120 288h300l-220 -288h-200z" />
    <glyph glyph-name="Nacute" unicode="&#x143;" horiz-adv-x="1376" 
d="M22 0l196 1400h324l392 -858l120 858h300l-196 -1400h-324l-392 858l-120 -858h-300zM722 1510l120 288h300l-220 -288h-200z" />
    <glyph glyph-name="nacute" unicode="&#x144;" horiz-adv-x="1139" 
d="M1050 639l-89 -639h-300l78 555q7 47 -11 85.5t-53 61t-82 22.5t-88.5 -22.5t-69 -61t-34.5 -85.5l-78 -555h-300l139 1000h300l-8 -63q56 43 123.5 67t138.5 24q108 0 188.5 -52.5t121 -140.5t24.5 -196zM588 1110l120 288h300l-220 -288h-200z" />
    <glyph glyph-name="uni0145" unicode="&#x145;" horiz-adv-x="1376" 
d="M22 0l196 1400h324l392 -858l120 858h300l-196 -1400h-324l-392 858l-120 -858h-300zM316 -441l109 338h300l-209 -338h-200z" />
    <glyph glyph-name="uni0146" unicode="&#x146;" horiz-adv-x="1139" 
d="M1050 639l-89 -639h-300l78 555q7 47 -11 85.5t-53 61t-82 22.5t-88.5 -22.5t-69 -61t-34.5 -85.5l-78 -555h-300l139 1000h300l-8 -63q56 43 123.5 67t138.5 24q108 0 188.5 -52.5t121 -140.5t24.5 -196zM218 -441l109 338h300l-209 -338h-200z" />
    <glyph glyph-name="Ncaron" unicode="&#x147;" horiz-adv-x="1376" 
d="M22 0l196 1400h324l392 -858l120 858h300l-196 -1400h-324l-392 858l-120 -858h-300zM633 1510l-154 288h200l137 -188l187 188h200l-230 -288h-340z" />
    <glyph glyph-name="ncaron" unicode="&#x148;" horiz-adv-x="1139" 
d="M1050 639l-89 -639h-300l78 555q7 47 -11 85.5t-53 61t-82 22.5t-88.5 -22.5t-69 -61t-34.5 -85.5l-78 -555h-300l139 1000h300l-8 -63q56 43 123.5 67t138.5 24q108 0 188.5 -52.5t121 -140.5t24.5 -196zM499 1110l-154 288h200l137 -188l187 188h200l-230 -288h-340z
" />
    <glyph glyph-name="Omacron" unicode="&#x14c;" horiz-adv-x="1540" 
d="M668 -26q-142 0 -259.5 56.5t-198 156.5t-116 231.5t-14.5 281.5t93 281.5t181.5 231.5t242.5 156.5t275 56.5q143 0 260 -56.5t197.5 -156.5t116 -231.5t14.5 -281.5t-93 -281.5t-181.5 -231.5t-242 -156.5t-275.5 -56.5zM710 274q80 0 155.5 33.5t137.5 92t103.5 135.5
t53.5 165t-7.5 165t-65 135.5t-111.5 92t-146 33.5t-155.5 -33.5t-137.5 -92t-103.5 -135.5t-53.5 -165t7.5 -165t65 -135.5t111.5 -92t146 -33.5zM579 1750h676l-31 -220h-676z" />
    <glyph glyph-name="omacron" unicode="&#x14d;" 
d="M458 -26q-138 0 -241.5 71t-154 190.5t-30.5 264.5q15 110 67.5 205.5t131.5 168t175.5 113.5t199.5 41q138 0 241.5 -71t154.5 -191t30 -266q-15 -109 -67.5 -204t-131.5 -167.5t-175 -113.5t-200 -41zM500 274q57 0 106.5 31t83.5 82.5t42 112.5q9 63 -11 115
t-61.5 82.5t-95.5 30.5q-56 0 -106 -31.5t-83.5 -83.5t-42.5 -113q-9 -64 11.5 -115t61.5 -81t95 -30zM313 1350h676l-31 -220h-676z" />
    <glyph glyph-name="Ohungarumlaut" unicode="&#x150;" horiz-adv-x="1540" 
d="M668 -26q-142 0 -259.5 56.5t-198 156.5t-116 231.5t-14.5 281.5t93 281.5t181.5 231.5t242.5 156.5t275 56.5q143 0 260 -56.5t197.5 -156.5t116 -231.5t14.5 -281.5t-93 -281.5t-181.5 -231.5t-242 -156.5t-275.5 -56.5zM710 274q80 0 155.5 33.5t137.5 92t103.5 135.5
t53.5 165t-7.5 165t-65 135.5t-111.5 92t-146 33.5t-155.5 -33.5t-137.5 -92t-103.5 -135.5t-53.5 -165t7.5 -165t65 -135.5t111.5 -92t146 -33.5zM999 1510l120 288h300l-220 -288h-200zM631 1510l120 288h300l-220 -288h-200z" />
    <glyph glyph-name="ohungarumlaut" unicode="&#x151;" 
d="M458 -26q-138 0 -241.5 71t-154 190.5t-30.5 264.5q15 110 67.5 205.5t131.5 168t175.5 113.5t199.5 41q138 0 241.5 -71t154.5 -191t30 -266q-15 -109 -67.5 -204t-131.5 -167.5t-175 -113.5t-200 -41zM500 274q57 0 106.5 31t83.5 82.5t42 112.5q9 63 -11 115
t-61.5 82.5t-95.5 30.5q-56 0 -106 -31.5t-83.5 -83.5t-42.5 -113q-9 -64 11.5 -115t61.5 -81t95 -30zM733 1110l120 288h300l-220 -288h-200zM365 1110l120 288h300l-220 -288h-200z" />
    <glyph glyph-name="OE" unicode="&#x152;" horiz-adv-x="2096" 
d="M668 -26q-142 0 -259.5 56.5t-198 156.5t-116 231.5t-14.5 281.5t93 281.5t181.5 231.5t242.5 156.5t275 56.5q73 0 140 -15.5t126.5 -44.5t109.5 -70l14 104h832l-42 -300h-532l-35 -250h436l-42 -300h-436l-35 -250h532l-42 -300h-832l14 104q-61 -41 -128.5 -70
t-139 -44.5t-144.5 -15.5zM710 274q80 0 155.5 33.5t137.5 92t103.5 135.5t53.5 165t-7.5 165t-65 135.5t-111.5 92t-146 33.5t-155.5 -33.5t-137.5 -92t-103.5 -135.5t-53.5 -165t7.5 -165t65 -135.5t111.5 -92t146 -33.5z" />
    <glyph glyph-name="oe" unicode="&#x153;" horiz-adv-x="1819" 
d="M458 -26q-138 0 -241.5 71t-154 190.5t-30.5 264.5q15 110 67.5 205.5t131.5 168t175.5 113.5t199.5 41q68 0 128.5 -18.5t111.5 -52t89 -79.5q52 46 112 79.5t125.5 52t133.5 18.5q119 0 211 -52t148.5 -141t69 -201t-26.5 -232h-666q9 -36 28 -64.5t51 -45.5t79 -18
q44 0 84.5 20t72.5 54l295 -72q-79 -133 -211.5 -217.5t-282.5 -84.5q-68 0 -128.5 18.5t-111 52t-89.5 79.5q-51 -46 -111.5 -79.5t-126 -52t-133.5 -18.5zM500 274q57 0 106.5 31t83.5 82.5t42 112.5q9 63 -11 115t-61.5 82.5t-95.5 30.5q-56 0 -106 -31.5t-83.5 -83.5
t-42.5 -113q-9 -64 11.5 -115t61.5 -81t95 -30zM1061 622h374q-8 43 -30.5 76t-57 51.5t-77.5 18.5t-83.5 -18.5t-73 -51.5t-52.5 -76z" />
    <glyph glyph-name="Racute" unicode="&#x154;" horiz-adv-x="1266" 
d="M22 0l196 1400h570q115 0 200 -58t126 -155.5t24 -214.5q-12 -90 -53.5 -167.5t-105 -137t-143.5 -95.5l252 -572h-346l-240 544h-104l-76 -544h-300zM440 844h234q40 0 76 20.5t61 54.5t30 75q6 41 -9 75t-45.5 54.5t-70.5 20.5h-234zM558 1510l120 288h300l-220 -288
h-200z" />
    <glyph glyph-name="racute" unicode="&#x155;" horiz-adv-x="800" 
d="M23 0l139 1000h300l-8 -63q56 43 123.5 67t138.5 24q54 0 108 -16l-161 -304q-32 16 -70 16q-47 0 -88.5 -22.5t-69 -61t-34.5 -85.5l-78 -555h-300zM443 1110l120 288h300l-220 -288h-200z" />
    <glyph glyph-name="uni0156" unicode="&#x156;" horiz-adv-x="1266" 
d="M22 0l196 1400h570q115 0 200 -58t126 -155.5t24 -214.5q-12 -90 -53.5 -167.5t-105 -137t-143.5 -95.5l252 -572h-346l-240 544h-104l-76 -544h-300zM440 844h234q40 0 76 20.5t61 54.5t30 75q6 41 -9 75t-45.5 54.5t-70.5 20.5h-234zM261 -441l109 338h300l-209 -338
h-200z" />
    <glyph glyph-name="uni0157" unicode="&#x157;" horiz-adv-x="800" 
d="M23 0l139 1000h300l-8 -63q56 43 123.5 67t138.5 24q54 0 108 -16l-161 -304q-32 16 -70 16q-47 0 -88.5 -22.5t-69 -61t-34.5 -85.5l-78 -555h-300zM-102 -441l109 338h300l-209 -338h-200z" />
    <glyph glyph-name="Rcaron" unicode="&#x158;" horiz-adv-x="1266" 
d="M22 0l196 1400h570q115 0 200 -58t126 -155.5t24 -214.5q-12 -90 -53.5 -167.5t-105 -137t-143.5 -95.5l252 -572h-346l-240 544h-104l-76 -544h-300zM440 844h234q40 0 76 20.5t61 54.5t30 75q6 41 -9 75t-45.5 54.5t-70.5 20.5h-234zM469 1510l-154 288h200l137 -188
l187 188h200l-230 -288h-340z" />
    <glyph glyph-name="rcaron" unicode="&#x159;" horiz-adv-x="800" 
d="M23 0l139 1000h300l-8 -63q56 43 123.5 67t138.5 24q54 0 108 -16l-161 -304q-32 16 -70 16q-47 0 -88.5 -22.5t-69 -61t-34.5 -85.5l-78 -555h-300zM354 1110l-154 288h200l137 -188l187 188h200l-230 -288h-340z" />
    <glyph glyph-name="Sacute" unicode="&#x15a;" horiz-adv-x="1264" 
d="M530 -26q-118 0 -221 37.5t-173.5 108t-93.5 168.5l297 104q6 -29 36.5 -56t81 -44.5t115.5 -17.5q60 0 115.5 17.5t93 48.5t43.5 72q6 42 -25 69.5t-82 44t-106 24.5q-149 22 -262 72.5t-170.5 139.5t-38.5 226q19 131 107 229.5t217 153.5t270 55q118 0 221 -37.5
t174.5 -108.5t92.5 -170l-297 -102q-6 29 -36.5 55.5t-81 43.5t-115.5 17q-58 1 -114 -17t-94 -49t-44 -70q-7 -54 21 -80.5t79.5 -37.5t112.5 -20q141 -21 254.5 -75t174 -144t42.5 -219q-18 -131 -105.5 -229.5t-216.5 -153.5t-272 -55zM666 1510l120 288h300l-220 -288
h-200z" />
    <glyph glyph-name="sacute" unicode="&#x15b;" horiz-adv-x="874" 
d="M307 -18q-75 7 -141 33t-115 71t-72 110l267 108q9 -11 24.5 -27.5t41.5 -29.5t65 -13q26 0 51 5.5t42.5 19.5t21.5 39q4 28 -15 42.5t-46.5 21t-52.5 10.5q-87 14 -162.5 56.5t-118 111t-29.5 160.5q15 103 78 178t154.5 115.5t190.5 40.5q117 0 209.5 -48t144.5 -138
l-256 -140q-10 15 -25.5 30.5t-36 27t-46.5 14.5q-34 3 -62.5 -2.5t-46.5 -22t-23 -47.5q-4 -29 22 -42t60.5 -19t55.5 -13q82 -28 151.5 -73t107 -109t22.5 -150q-14 -100 -84.5 -176t-171 -115t-205.5 -29zM415 1110l120 288h300l-220 -288h-200z" />
    <glyph glyph-name="Scircumflex" unicode="&#x15c;" horiz-adv-x="1264" 
d="M530 -26q-118 0 -221 37.5t-173.5 108t-93.5 168.5l297 104q6 -29 36.5 -56t81 -44.5t115.5 -17.5q60 0 115.5 17.5t93 48.5t43.5 72q6 42 -25 69.5t-82 44t-106 24.5q-149 22 -262 72.5t-170.5 139.5t-38.5 226q19 131 107 229.5t217 153.5t270 55q118 0 221 -37.5
t174.5 -108.5t92.5 -170l-297 -102q-6 29 -36.5 55.5t-81 43.5t-115.5 17q-58 1 -114 -17t-94 -49t-44 -70q-7 -54 21 -80.5t79.5 -37.5t112.5 -20q141 -21 254.5 -75t174 -144t42.5 -219q-18 -131 -105.5 -229.5t-216.5 -153.5t-272 -55zM955 1798l154 -288h-200l-137 188
l-187 -188h-200l230 288h340z" />
    <glyph glyph-name="scircumflex" unicode="&#x15d;" horiz-adv-x="874" 
d="M307 -18q-75 7 -141 33t-115 71t-72 110l267 108q9 -11 24.5 -27.5t41.5 -29.5t65 -13q26 0 51 5.5t42.5 19.5t21.5 39q4 28 -15 42.5t-46.5 21t-52.5 10.5q-87 14 -162.5 56.5t-118 111t-29.5 160.5q15 103 78 178t154.5 115.5t190.5 40.5q117 0 209.5 -48t144.5 -138
l-256 -140q-10 15 -25.5 30.5t-36 27t-46.5 14.5q-34 3 -62.5 -2.5t-46.5 -22t-23 -47.5q-4 -29 22 -42t60.5 -19t55.5 -13q82 -28 151.5 -73t107 -109t22.5 -150q-14 -100 -84.5 -176t-171 -115t-205.5 -29zM704 1398l154 -288h-200l-137 188l-187 -188h-200l230 288h340z
" />
    <glyph glyph-name="Scedilla" unicode="&#x15e;" horiz-adv-x="1264" 
d="M530 -26q-118 0 -221 37.5t-173.5 108t-93.5 168.5l297 104q6 -29 36.5 -56t81 -44.5t115.5 -17.5q60 0 115.5 17.5t93 48.5t43.5 72q6 42 -25 69.5t-82 44t-106 24.5q-149 22 -262 72.5t-170.5 139.5t-38.5 226q19 131 107 229.5t217 153.5t270 55q118 0 221 -37.5
t174.5 -108.5t92.5 -170l-297 -102q-6 29 -36.5 55.5t-81 43.5t-115.5 17q-58 1 -114 -17t-94 -49t-44 -70q-7 -54 21 -80.5t79.5 -37.5t112.5 -20q141 -21 254.5 -75t174 -144t42.5 -219q-18 -131 -105.5 -229.5t-216.5 -153.5t-272 -55zM574 -381q-79 -20 -141 19t-72 114
l150 39q2 -15 15 -23t29 -4q17 4 27 18t8 30t-14.5 22t-29.5 6h-146l187 265l121 -76l-45 -61q32 -17 52.5 -47t25.5 -71q9 -75 -39.5 -143t-127.5 -88z" />
    <glyph glyph-name="scedilla" unicode="&#x15f;" horiz-adv-x="874" 
d="M307 -18q-75 7 -141 33t-115 71t-72 110l267 108q9 -11 24.5 -27.5t41.5 -29.5t65 -13q26 0 51 5.5t42.5 19.5t21.5 39q4 28 -15 42.5t-46.5 21t-52.5 10.5q-87 14 -162.5 56.5t-118 111t-29.5 160.5q15 103 78 178t154.5 115.5t190.5 40.5q117 0 209.5 -48t144.5 -138
l-256 -140q-10 15 -25.5 30.5t-36 27t-46.5 14.5q-34 3 -62.5 -2.5t-46.5 -22t-23 -47.5q-4 -29 22 -42t60.5 -19t55.5 -13q82 -28 151.5 -73t107 -109t22.5 -150q-14 -100 -84.5 -176t-171 -115t-205.5 -29zM353 -381q-79 -20 -141 19t-72 114l150 39q2 -15 15 -23t29 -4
q17 4 27 18t8 30t-14.5 22t-29.5 6h-146l187 265l121 -76l-45 -61q32 -17 52.5 -47t25.5 -71q9 -75 -39.5 -143t-127.5 -88z" />
    <glyph glyph-name="Scaron" unicode="&#x160;" horiz-adv-x="1264" 
d="M530 -26q-118 0 -221 37.5t-173.5 108t-93.5 168.5l297 104q6 -29 36.5 -56t81 -44.5t115.5 -17.5q60 0 115.5 17.5t93 48.5t43.5 72q6 42 -25 69.5t-82 44t-106 24.5q-149 22 -262 72.5t-170.5 139.5t-38.5 226q19 131 107 229.5t217 153.5t270 55q118 0 221 -37.5
t174.5 -108.5t92.5 -170l-297 -102q-6 29 -36.5 55.5t-81 43.5t-115.5 17q-58 1 -114 -17t-94 -49t-44 -70q-7 -54 21 -80.5t79.5 -37.5t112.5 -20q141 -21 254.5 -75t174 -144t42.5 -219q-18 -131 -105.5 -229.5t-216.5 -153.5t-272 -55zM577 1510l-154 288h200l137 -188
l187 188h200l-230 -288h-340z" />
    <glyph glyph-name="scaron" unicode="&#x161;" horiz-adv-x="874" 
d="M307 -18q-75 7 -141 33t-115 71t-72 110l267 108q9 -11 24.5 -27.5t41.5 -29.5t65 -13q26 0 51 5.5t42.5 19.5t21.5 39q4 28 -15 42.5t-46.5 21t-52.5 10.5q-87 14 -162.5 56.5t-118 111t-29.5 160.5q15 103 78 178t154.5 115.5t190.5 40.5q117 0 209.5 -48t144.5 -138
l-256 -140q-10 15 -25.5 30.5t-36 27t-46.5 14.5q-34 3 -62.5 -2.5t-46.5 -22t-23 -47.5q-4 -29 22 -42t60.5 -19t55.5 -13q82 -28 151.5 -73t107 -109t22.5 -150q-14 -100 -84.5 -176t-171 -115t-205.5 -29zM326 1110l-154 288h200l137 -188l187 188h200l-230 -288h-340z
" />
    <glyph glyph-name="uni0162" unicode="&#x162;" horiz-adv-x="1259" 
d="M1278 1400l-42 -300h-400l-154 -1100h-300l154 1100h-400l42 300h1100zM489 -381q-79 -20 -141 19t-72 114l150 39q2 -15 15 -23t29 -4q17 4 27 18t8 30t-14.5 22t-29.5 6h-146l187 265l121 -76l-45 -61q32 -17 52.5 -47t25.5 -71q9 -75 -39.5 -143t-127.5 -88z" />
    <glyph glyph-name="uni0163" unicode="&#x163;" horiz-adv-x="730" 
d="M670 700h-170l-98 -700h-300l98 700h-130l42 300h130l44 314h300l-44 -314h170zM210 -381q-79 -20 -141 19t-72 114l150 39q2 -15 15 -23t29 -4q17 4 27 18t8 30t-14.5 22t-29.5 6h-146l187 265l121 -76l-45 -61q32 -17 52.5 -47t25.5 -71q9 -75 -39.5 -143t-127.5 -88z
" />
    <glyph glyph-name="Tcaron" unicode="&#x164;" horiz-adv-x="1259" 
d="M1278 1400l-42 -300h-400l-154 -1100h-300l154 1100h-400l42 300h1100zM575 1510l-154 288h200l137 -188l187 188h200l-230 -288h-340z" />
    <glyph glyph-name="tcaron" unicode="&#x165;" horiz-adv-x="730" 
d="M670 700h-170l-98 -700h-300l98 700h-130l42 300h130l44 314h300l-44 -314h170zM610 1212l120 288h300l-220 -288h-200z" />
    <glyph glyph-name="Utilde" unicode="&#x168;" horiz-adv-x="1378" 
d="M588 -26q-168 0 -285 82t-170 220.5t-29 307.5l114 816h300l-114 -816q-12 -85 10 -155.5t76.5 -112.5t139.5 -42q86 0 152 41.5t107 112t53 156.5l114 816h300l-114 -816q-18 -127 -75 -237.5t-144 -194.5t-198 -131t-237 -47zM956 1491q-38 0 -87.5 27.5t-97.5 60
t-82.5 51t-42.5 1.5q-9 -18 -7.5 -35t5.5 -47l-174 -46q-18 89 4 160t78 112.5t138 41.5q36 0 82 -21.5t90.5 -49.5t78 -49.5t43.5 -21.5q19 0 23 12t0.5 30.5t-8.5 37.5l180 56q18 -94 -7 -166t-82 -113t-134 -41z" />
    <glyph glyph-name="utilde" unicode="&#x169;" horiz-adv-x="1099" 
d="M33 363l89 637h300l-78 -553q-6 -47 11.5 -85.5t53 -61t81.5 -22.5q47 0 88.5 22.5t69.5 61t34 85.5l78 553h300l-139 -1000h-300l8 65q-56 -43 -123.5 -67t-138.5 -24q-107 0 -188 52.5t-121 140.5t-25 196zM799 1093q-38 0 -87.5 27.5t-97.5 60t-82.5 51t-42.5 1.5
q-9 -18 -7.5 -35t5.5 -47l-174 -46q-18 89 4 160t78 112.5t138 41.5q36 0 82 -21.5t90.5 -49.5t78 -49.5t43.5 -21.5q19 0 23 12t0.5 30.5t-8.5 37.5l180 56q18 -94 -7 -166t-82 -113t-134 -41z" />
    <glyph glyph-name="Umacron" unicode="&#x16a;" horiz-adv-x="1378" 
d="M588 -26q-168 0 -285 82t-170 220.5t-29 307.5l114 816h300l-114 -816q-12 -85 10 -155.5t76.5 -112.5t139.5 -42q86 0 152 41.5t107 112t53 156.5l114 816h300l-114 -816q-18 -127 -75 -237.5t-144 -194.5t-198 -131t-237 -47zM498 1750h676l-31 -220h-676z" />
    <glyph glyph-name="umacron" unicode="&#x16b;" horiz-adv-x="1099" 
d="M33 363l89 637h300l-78 -553q-6 -47 11.5 -85.5t53 -61t81.5 -22.5q47 0 88.5 22.5t69.5 61t34 85.5l78 553h300l-139 -1000h-300l8 65q-56 -43 -123.5 -67t-138.5 -24q-107 0 -188 52.5t-121 140.5t-25 196zM341 1352h676l-31 -220h-676z" />
    <glyph glyph-name="Ubreve" unicode="&#x16c;" horiz-adv-x="1378" 
d="M588 -26q-168 0 -285 82t-170 220.5t-29 307.5l114 816h300l-114 -816q-12 -85 10 -155.5t76.5 -112.5t139.5 -42q86 0 152 41.5t107 112t53 156.5l114 816h300l-114 -816q-18 -127 -75 -237.5t-144 -194.5t-198 -131t-237 -47zM800 1488q-91 0 -160 45t-103.5 120.5
t-22.5 166.5h180q-5 -41 10.5 -75.5t47 -55.5t73.5 -21t79.5 20t62.5 54.5t31 77.5h180q-13 -93 -68 -168.5t-136.5 -119.5t-173.5 -44z" />
    <glyph glyph-name="ubreve" unicode="&#x16d;" horiz-adv-x="1099" 
d="M33 363l89 637h300l-78 -553q-6 -47 11.5 -85.5t53 -61t81.5 -22.5q47 0 88.5 22.5t69.5 61t34 85.5l78 553h300l-139 -1000h-300l8 65q-56 -43 -123.5 -67t-138.5 -24q-107 0 -188 52.5t-121 140.5t-25 196zM643 1090q-91 0 -160 45t-103.5 120.5t-22.5 166.5h180
q-5 -41 10.5 -75.5t47 -55.5t73.5 -21t79.5 20t62.5 54.5t31 77.5h180q-13 -93 -68 -168.5t-136.5 -119.5t-173.5 -44z" />
    <glyph glyph-name="Uring" unicode="&#x16e;" horiz-adv-x="1378" 
d="M588 -26q-168 0 -285 82t-170 220.5t-29 307.5l114 816h300l-114 -816q-12 -85 10 -155.5t76.5 -112.5t139.5 -42q86 0 152 41.5t107 112t53 156.5l114 816h300l-114 -816q-18 -127 -75 -237.5t-144 -194.5t-198 -131t-237 -47zM795 1454q-82 0 -132.5 60t-39.5 142
q8 54 41 99t82.5 72t104.5 27q83 0 133 -58.5t39 -139.5q-12 -84 -78.5 -143t-149.5 -59zM814 1594q25 0 45 18t24 43q3 24 -12 41.5t-40 17.5t-45 -17t-23 -41q-4 -26 11 -44t40 -18z" />
    <glyph glyph-name="uring" unicode="&#x16f;" horiz-adv-x="1099" 
d="M33 363l89 637h300l-78 -553q-6 -47 11.5 -85.5t53 -61t81.5 -22.5q47 0 88.5 22.5t69.5 61t34 85.5l78 553h300l-139 -1000h-300l8 65q-56 -43 -123.5 -67t-138.5 -24q-107 0 -188 52.5t-121 140.5t-25 196zM638 1056q-82 0 -132.5 60t-39.5 142q8 54 41 99t82.5 72
t104.5 27q83 0 133 -58.5t39 -139.5q-12 -84 -78.5 -143t-149.5 -59zM657 1196q25 0 45 18t24 43q3 24 -12 41.5t-40 17.5t-45 -17t-23 -41q-4 -26 11 -44t40 -18z" />
    <glyph glyph-name="Uhungarumlaut" unicode="&#x170;" horiz-adv-x="1378" 
d="M588 -26q-168 0 -285 82t-170 220.5t-29 307.5l114 816h300l-114 -816q-12 -85 10 -155.5t76.5 -112.5t139.5 -42q86 0 152 41.5t107 112t53 156.5l114 816h300l-114 -816q-18 -127 -75 -237.5t-144 -194.5t-198 -131t-237 -47zM918 1510l120 288h300l-220 -288h-200z
M550 1510l120 288h300l-220 -288h-200z" />
    <glyph glyph-name="uhungarumlaut" unicode="&#x171;" horiz-adv-x="1099" 
d="M33 363l89 637h300l-78 -553q-6 -47 11.5 -85.5t53 -61t81.5 -22.5q47 0 88.5 22.5t69.5 61t34 85.5l78 553h300l-139 -1000h-300l8 65q-56 -43 -123.5 -67t-138.5 -24q-107 0 -188 52.5t-121 140.5t-25 196zM761 1112l120 288h300l-220 -288h-200zM393 1112l120 288h300
l-220 -288h-200z" />
    <glyph glyph-name="Uogonek" unicode="&#x172;" horiz-adv-x="1378" 
d="M588 -26q-168 0 -285 82t-170 220.5t-29 307.5l114 816h300l-114 -816q-12 -85 10 -155.5t76.5 -112.5t139.5 -42q86 0 152 41.5t107 112t53 156.5l114 816h300l-114 -816q-18 -127 -75 -237.5t-144 -194.5t-198 -131t-237 -47zM572 -476q-80 0 -134 38t-77.5 99
t-14.5 128q7 50 32.5 97.5t70.5 87.5l192 168l122 -142q-31 -27 -64.5 -55t-63 -56.5t-49.5 -56.5t-24 -55q-3 -22 10 -40t39 -18q38 0 68.5 27t35.5 65h184q-10 -76 -57 -141.5t-117.5 -105.5t-152.5 -40z" />
    <glyph glyph-name="uogonek" unicode="&#x173;" horiz-adv-x="1099" 
d="M33 363l89 637h300l-78 -553q-6 -47 11.5 -85.5t53 -61t81.5 -22.5q47 0 88.5 22.5t69.5 61t34 85.5l78 553h300l-139 -1000h-300l8 65q-56 -43 -123.5 -67t-138.5 -24q-107 0 -188 52.5t-121 140.5t-25 196zM729 -474q-80 0 -134 38t-77.5 99t-14.5 128q7 50 32.5 97.5
t70.5 87.5l192 168l122 -142q-31 -27 -64.5 -55t-63 -56.5t-49.5 -56.5t-24 -55q-3 -22 10 -40t39 -18q38 0 68.5 27t35.5 65h184q-10 -76 -57 -141.5t-117.5 -105.5t-152.5 -40z" />
    <glyph glyph-name="Wcircumflex" unicode="&#x174;" horiz-adv-x="1960" 
d="M360 0l-162 1400h310l97 -848l335 848h276l97 -848l335 848h310l-552 -1400h-338l-84 726l-286 -726h-338zM1303 1798l154 -288h-200l-137 188l-187 -188h-200l230 288h340z" />
    <glyph glyph-name="wcircumflex" unicode="&#x175;" horiz-adv-x="1748" 
d="M590 0h-294l-194 1000h294l109 -562l265 562h292l107 -562l267 562h294l-474 -1000h-294l-107 562zM1141 1398l154 -288h-200l-137 188l-187 -188h-200l230 288h340z" />
    <glyph glyph-name="Ycircumflex" unicode="&#x176;" horiz-adv-x="1392" 
d="M1076 1400h354l-594 -770l-88 -630h-300l88 630l-378 770h354l220 -444zM1020 1798l154 -288h-200l-137 188l-187 -188h-200l230 288h340z" />
    <glyph glyph-name="ycircumflex" unicode="&#x177;" horiz-adv-x="1206" 
d="M848 1000h320l-759 -1500h-318l251 500l-220 1000h328l99 -590zM870 1398l154 -288h-200l-137 188l-187 -188h-200l230 288h340z" />
    <glyph glyph-name="Ydieresis" unicode="&#x178;" horiz-adv-x="1392" 
d="M1076 1400h354l-594 -770l-88 -630h-300l88 630l-378 770h354l220 -444zM584 1464q-64 0 -102 43t-29 107q9 63 59 106.5t114 43.5q63 0 100.5 -43.5t28.5 -106.5q-9 -64 -58.5 -107t-112.5 -43zM1024 1464q-64 0 -102 43t-29 107q9 63 59 106.5t114 43.5
q63 0 100.5 -43.5t28.5 -106.5q-9 -64 -58.5 -107t-112.5 -43z" />
    <glyph glyph-name="Zacute" unicode="&#x179;" horiz-adv-x="1292" 
d="M-18 0l42 300l838 800h-726l42 300h1132l-42 -300l-838 -800h726l-42 -300h-1132zM680 1510l120 288h300l-220 -288h-200z" />
    <glyph glyph-name="zacute" unicode="&#x17a;" horiz-adv-x="1014" 
d="M934 700l-476 -400h420l-42 -300h-854l42 300l476 400h-420l42 300h854zM485 1110l120 288h300l-220 -288h-200z" />
    <glyph glyph-name="Zdotaccent" unicode="&#x17b;" horiz-adv-x="1292" 
d="M-18 0l42 300l838 800h-726l42 300h1132l-42 -300l-838 -800h726l-42 -300h-1132zM761 1504q-65 0 -103 43t-29 107q9 63 59 106.5t114 43.5q63 0 100.5 -43.5t28.5 -106.5q-9 -64 -57.5 -107t-112.5 -43z" />
    <glyph glyph-name="zdotaccent" unicode="&#x17c;" horiz-adv-x="1014" 
d="M934 700l-476 -400h420l-42 -300h-854l42 300l476 400h-420l42 300h854zM566 1104q-65 0 -103 43t-29 107q9 63 59 106.5t114 43.5q63 0 100.5 -43.5t28.5 -106.5q-9 -64 -57.5 -107t-112.5 -43z" />
    <glyph glyph-name="Zcaron" unicode="&#x17d;" horiz-adv-x="1292" 
d="M-18 0l42 300l838 800h-726l42 300h1132l-42 -300l-838 -800h726l-42 -300h-1132zM591 1510l-154 288h200l137 -188l187 188h200l-230 -288h-340z" />
    <glyph glyph-name="zcaron" unicode="&#x17e;" horiz-adv-x="1014" 
d="M934 700l-476 -400h420l-42 -300h-854l42 300l476 400h-420l42 300h854zM396 1110l-154 288h200l137 -188l187 188h200l-230 -288h-340z" />
    <glyph glyph-name="uni01CD" unicode="&#x1cd;" horiz-adv-x="1514" 
d="M686 1400h338l312 -1400h-318l-49 220h-558l-111 -220h-318zM563 520h338l-105 464zM702 1510l-154 288h200l137 -188l187 188h200l-230 -288h-340z" />
    <glyph glyph-name="uni01CE" unicode="&#x1ce;" horiz-adv-x="1218" 
d="M880 1000h300l-140 -1000h-301l-2 90q-45 -52 -105.5 -84t-135.5 -32q-112 0 -203.5 42t-155 116.5t-91.5 172t-12 209.5q15 107 67.5 200t132 163.5t178 110.5t204.5 40q86 0 151.5 -35.5t113.5 -88.5zM528 262q62 0 117.5 32t93.5 86t47 120t-13.5 120t-69 86
t-108.5 32t-117 -32t-92 -86t-46 -120t13 -120t68 -86t107 -32zM512 1110l-154 288h200l137 -188l187 188h200l-230 -288h-340z" />
    <glyph glyph-name="uni01CF" unicode="&#x1cf;" horiz-adv-x="600" 
d="M52 0l196 1400h300l-196 -1400h-300zM245 1510l-154 288h200l137 -188l187 188h200l-230 -288h-340z" />
    <glyph glyph-name="uni01D0" unicode="&#x1d0;" horiz-adv-x="540" 
d="M162 1000h300l-140 -1000h-300zM159 1110l-154 288h200l137 -188l187 188h200l-230 -288h-340z" />
    <glyph glyph-name="uni01D1" unicode="&#x1d1;" horiz-adv-x="1540" 
d="M668 -26q-142 0 -259.5 56.5t-198 156.5t-116 231.5t-14.5 281.5t93 281.5t181.5 231.5t242.5 156.5t275 56.5q143 0 260 -56.5t197.5 -156.5t116 -231.5t14.5 -281.5t-93 -281.5t-181.5 -231.5t-242 -156.5t-275.5 -56.5zM710 274q80 0 155.5 33.5t137.5 92t103.5 135.5
t53.5 165t-7.5 165t-65 135.5t-111.5 92t-146 33.5t-155.5 -33.5t-137.5 -92t-103.5 -135.5t-53.5 -165t7.5 -165t65 -135.5t111.5 -92t146 -33.5zM715 1510l-154 288h200l137 -188l187 188h200l-230 -288h-340z" />
    <glyph glyph-name="uni01D2" unicode="&#x1d2;" 
d="M458 -26q-138 0 -241.5 71t-154 190.5t-30.5 264.5q15 110 67.5 205.5t131.5 168t175.5 113.5t199.5 41q138 0 241.5 -71t154.5 -191t30 -266q-15 -109 -67.5 -204t-131.5 -167.5t-175 -113.5t-200 -41zM500 274q57 0 106.5 31t83.5 82.5t42 112.5q9 63 -11 115
t-61.5 82.5t-95.5 30.5q-56 0 -106 -31.5t-83.5 -83.5t-42.5 -113q-9 -64 11.5 -115t61.5 -81t95 -30zM449 1110l-154 288h200l137 -188l187 188h200l-230 -288h-340z" />
    <glyph glyph-name="uni01D3" unicode="&#x1d3;" horiz-adv-x="1378" 
d="M588 -26q-168 0 -285 82t-170 220.5t-29 307.5l114 816h300l-114 -816q-12 -85 10 -155.5t76.5 -112.5t139.5 -42q86 0 152 41.5t107 112t53 156.5l114 816h300l-114 -816q-18 -127 -75 -237.5t-144 -194.5t-198 -131t-237 -47zM634 1510l-154 288h200l137 -188l187 188
h200l-230 -288h-340z" />
    <glyph glyph-name="uni01D4" unicode="&#x1d4;" horiz-adv-x="1099" 
d="M33 363l89 637h300l-78 -553q-6 -47 11.5 -85.5t53 -61t81.5 -22.5q47 0 88.5 22.5t69.5 61t34 85.5l78 553h300l-139 -1000h-300l8 65q-56 -43 -123.5 -67t-138.5 -24q-107 0 -188 52.5t-121 140.5t-25 196zM477 1112l-154 288h200l137 -188l187 188h200l-230 -288h-340
z" />
    <glyph glyph-name="uni01D5" unicode="&#x1d5;" horiz-adv-x="1378" 
d="M588 -26q-168 0 -285 82t-170 220.5t-29 307.5l114 816h300l-114 -816q-12 -85 10 -155.5t76.5 -112.5t139.5 -42q86 0 152 41.5t107 112t53 156.5l114 816h300l-114 -816q-18 -127 -75 -237.5t-144 -194.5t-198 -131t-237 -47zM577 1464q-64 0 -102 43t-29 107
q9 63 59 106.5t114 43.5q63 0 100.5 -43.5t28.5 -106.5q-9 -64 -58.5 -107t-112.5 -43zM1017 1464q-64 0 -102 43t-29 107q9 63 59 106.5t114 43.5q63 0 100.5 -43.5t28.5 -106.5q-9 -64 -58.5 -107t-112.5 -43zM543 2070h676l-31 -220h-676z" />
    <glyph glyph-name="uni01D6" unicode="&#x1d6;" horiz-adv-x="1099" 
d="M33 363l89 637h300l-78 -553q-6 -47 11.5 -85.5t53 -61t81.5 -22.5q47 0 88.5 22.5t69.5 61t34 85.5l78 553h300l-139 -1000h-300l8 65q-56 -43 -123.5 -67t-138.5 -24q-107 0 -188 52.5t-121 140.5t-25 196zM420 1066q-64 0 -102 43t-29 107q9 63 59 106.5t114 43.5
q63 0 100.5 -43.5t28.5 -106.5q-9 -64 -58.5 -107t-112.5 -43zM860 1066q-64 0 -102 43t-29 107q9 63 59 106.5t114 43.5q63 0 100.5 -43.5t28.5 -106.5q-9 -64 -58.5 -107t-112.5 -43zM386 1672h676l-31 -220h-676z" />
    <glyph glyph-name="uni01D7" unicode="&#x1d7;" horiz-adv-x="1378" 
d="M588 -26q-168 0 -285 82t-170 220.5t-29 307.5l114 816h300l-114 -816q-12 -85 10 -155.5t76.5 -112.5t139.5 -42q86 0 152 41.5t107 112t53 156.5l114 816h300l-114 -816q-18 -127 -75 -237.5t-144 -194.5t-198 -131t-237 -47zM577 1464q-64 0 -102 43t-29 107
q9 63 59 106.5t114 43.5q63 0 100.5 -43.5t28.5 -106.5q-9 -64 -58.5 -107t-112.5 -43zM1017 1464q-64 0 -102 43t-29 107q9 63 59 106.5t114 43.5q63 0 100.5 -43.5t28.5 -106.5q-9 -64 -58.5 -107t-112.5 -43zM768 1830l120 288h300l-220 -288h-200z" />
    <glyph glyph-name="uni01D8" unicode="&#x1d8;" horiz-adv-x="1099" 
d="M33 363l89 637h300l-78 -553q-6 -47 11.5 -85.5t53 -61t81.5 -22.5q47 0 88.5 22.5t69.5 61t34 85.5l78 553h300l-139 -1000h-300l8 65q-56 -43 -123.5 -67t-138.5 -24q-107 0 -188 52.5t-121 140.5t-25 196zM420 1066q-64 0 -102 43t-29 107q9 63 59 106.5t114 43.5
q63 0 100.5 -43.5t28.5 -106.5q-9 -64 -58.5 -107t-112.5 -43zM860 1066q-64 0 -102 43t-29 107q9 63 59 106.5t114 43.5q63 0 100.5 -43.5t28.5 -106.5q-9 -64 -58.5 -107t-112.5 -43zM611 1432l120 288h300l-220 -288h-200z" />
    <glyph glyph-name="uni01D9" unicode="&#x1d9;" horiz-adv-x="1378" 
d="M588 -26q-168 0 -285 82t-170 220.5t-29 307.5l114 816h300l-114 -816q-12 -85 10 -155.5t76.5 -112.5t139.5 -42q86 0 152 41.5t107 112t53 156.5l114 816h300l-114 -816q-18 -127 -75 -237.5t-144 -194.5t-198 -131t-237 -47zM577 1464q-64 0 -102 43t-29 107
q9 63 59 106.5t114 43.5q63 0 100.5 -43.5t28.5 -106.5q-9 -64 -58.5 -107t-112.5 -43zM1017 1464q-64 0 -102 43t-29 107q9 63 59 106.5t114 43.5q63 0 100.5 -43.5t28.5 -106.5q-9 -64 -58.5 -107t-112.5 -43zM679 1830l-154 288h200l137 -188l187 188h200l-230 -288h-340
z" />
    <glyph glyph-name="uni01DA" unicode="&#x1da;" horiz-adv-x="1099" 
d="M33 363l89 637h300l-78 -553q-6 -47 11.5 -85.5t53 -61t81.5 -22.5q47 0 88.5 22.5t69.5 61t34 85.5l78 553h300l-139 -1000h-300l8 65q-56 -43 -123.5 -67t-138.5 -24q-107 0 -188 52.5t-121 140.5t-25 196zM420 1066q-64 0 -102 43t-29 107q9 63 59 106.5t114 43.5
q63 0 100.5 -43.5t28.5 -106.5q-9 -64 -58.5 -107t-112.5 -43zM860 1066q-64 0 -102 43t-29 107q9 63 59 106.5t114 43.5q63 0 100.5 -43.5t28.5 -106.5q-9 -64 -58.5 -107t-112.5 -43zM522 1432l-154 288h200l137 -188l187 188h200l-230 -288h-340z" />
    <glyph glyph-name="uni01DB" unicode="&#x1db;" horiz-adv-x="1378" 
d="M588 -26q-168 0 -285 82t-170 220.5t-29 307.5l114 816h300l-114 -816q-12 -85 10 -155.5t76.5 -112.5t139.5 -42q86 0 152 41.5t107 112t53 156.5l114 816h300l-114 -816q-18 -127 -75 -237.5t-144 -194.5t-198 -131t-237 -47zM577 1464q-64 0 -102 43t-29 107
q9 63 59 106.5t114 43.5q63 0 100.5 -43.5t28.5 -106.5q-9 -64 -58.5 -107t-112.5 -43zM1017 1464q-64 0 -102 43t-29 107q9 63 59 106.5t114 43.5q63 0 100.5 -43.5t28.5 -106.5q-9 -64 -58.5 -107t-112.5 -43zM590 2118h300l40 -288h-200z" />
    <glyph glyph-name="uni01DC" unicode="&#x1dc;" horiz-adv-x="1099" 
d="M33 363l89 637h300l-78 -553q-6 -47 11.5 -85.5t53 -61t81.5 -22.5q47 0 88.5 22.5t69.5 61t34 85.5l78 553h300l-139 -1000h-300l8 65q-56 -43 -123.5 -67t-138.5 -24q-107 0 -188 52.5t-121 140.5t-25 196zM420 1066q-64 0 -102 43t-29 107q9 63 59 106.5t114 43.5
q63 0 100.5 -43.5t28.5 -106.5q-9 -64 -58.5 -107t-112.5 -43zM860 1066q-64 0 -102 43t-29 107q9 63 59 106.5t114 43.5q63 0 100.5 -43.5t28.5 -106.5q-9 -64 -58.5 -107t-112.5 -43zM433 1720h300l40 -288h-200z" />
    <glyph glyph-name="uni01DE" unicode="&#x1de;" horiz-adv-x="1514" 
d="M686 1400h338l312 -1400h-318l-49 220h-558l-111 -220h-318zM563 520h338l-105 464zM645 1464q-64 0 -102 43t-29 107q9 63 59 106.5t114 43.5q63 0 100.5 -43.5t28.5 -106.5q-9 -64 -58.5 -107t-112.5 -43zM1085 1464q-64 0 -102 43t-29 107q9 63 59 106.5t114 43.5
q63 0 100.5 -43.5t28.5 -106.5q-9 -64 -58.5 -107t-112.5 -43zM611 2070h676l-31 -220h-676z" />
    <glyph glyph-name="uni01DF" unicode="&#x1df;" horiz-adv-x="1218" 
d="M880 1000h300l-140 -1000h-301l-2 90q-45 -52 -105.5 -84t-135.5 -32q-112 0 -203.5 42t-155 116.5t-91.5 172t-12 209.5q15 107 67.5 200t132 163.5t178 110.5t204.5 40q86 0 151.5 -35.5t113.5 -88.5zM528 262q62 0 117.5 32t93.5 86t47 120t-13.5 120t-69 86
t-108.5 32t-117 -32t-92 -86t-46 -120t13 -120t68 -86t107 -32zM455 1064q-64 0 -102 43t-29 107q9 63 59 106.5t114 43.5q63 0 100.5 -43.5t28.5 -106.5q-9 -64 -58.5 -107t-112.5 -43zM895 1064q-64 0 -102 43t-29 107q9 63 59 106.5t114 43.5q63 0 100.5 -43.5
t28.5 -106.5q-9 -64 -58.5 -107t-112.5 -43zM421 1670h676l-31 -220h-676z" />
    <glyph glyph-name="uni01E2" unicode="&#x1e2;" horiz-adv-x="1710" 
d="M-18 0l704 1400h1022l-42 -300h-452l-35 -250h356l-42 -300h-356l-35 -250h452l-42 -300h-752l31 220h-380l-111 -220h-318zM563 520h270l81 580h-60zM908 1750h676l-31 -220h-676z" />
    <glyph glyph-name="uni01E3" unicode="&#x1e3;" horiz-adv-x="1703" 
d="M268 -26q-98 0 -168.5 45t-104 119t-21.5 160t67 159.5t138.5 118.5t179.5 45h261q-7 31 -25 55t-45.5 38t-65.5 14q-80 0 -149 -42l-131 249q74 47 155.5 70t162.5 23q95 0 176 -35t136 -101q51 42 108.5 72.5t120 47t126.5 16.5q121 0 213 -52.5t148 -142t68.5 -201.5
t-26.5 -231h-667q9 -36 28.5 -64.5t52.5 -45.5t80 -17q43 0 83 20t71 53l296 -71q-79 -133 -212 -217.5t-283 -84.5q-73 0 -137 21t-116.5 59.5t-91.5 90.5q-42 -42 -109.5 -81t-149.5 -64.5t-169 -25.5zM305 234q56 0 105.5 18.5t91.5 52.5q49 38 86 96h-260
q-33 0 -59.5 -23.5t-31.5 -56.5q-4 -33 15.5 -60t52.5 -27zM945 621h375q-8 43 -31.5 76t-58 52t-77.5 19q-42 0 -82 -19t-72.5 -52t-53.5 -76zM560 1352h676l-31 -220h-676z" />
    <glyph glyph-name="Gcaron" unicode="&#x1e6;" horiz-adv-x="1536" 
d="M666 -26q-147 0 -264.5 57t-196.5 157.5t-112.5 232.5t-12.5 281q23 161 99 293t188 228.5t244 148.5t265 52q146 0 278.5 -68t224.5 -220l-288 -144q-52 69 -119.5 101.5t-141.5 32.5q-75 0 -149.5 -31t-137.5 -88t-106.5 -136t-57.5 -175q-12 -88 7.5 -165t65.5 -134.5
t112.5 -90t147.5 -32.5q46 0 93 12.5t94 37.5t90.5 64t81.5 92h-188l37 260h542q-15 -157 -84.5 -295.5t-179.5 -244.5t-246.5 -166t-285.5 -60zM714 1510l-154 288h200l137 -188l187 188h200l-230 -288h-340z" />
    <glyph glyph-name="gcaron" unicode="&#x1e7;" horiz-adv-x="1254" 
d="M876 1000h300l-142 -1010q-16 -114 -74.5 -204.5t-146.5 -154.5t-195 -97.5t-221 -33.5q-106 0 -197 40.5t-157 112.5t-97 167l292 124q15 -45 44.5 -76.5t70 -48.5t87.5 -17q52 0 101.5 11t90.5 34t68 58.5t34 84.5l14 98q-52 -51 -118 -82.5t-146 -31.5
q-109 0 -198.5 41t-151.5 113.5t-89.5 167.5t-12.5 204t69.5 204t137 167.5t183.5 113.5t210 41q80 0 137 -31.5t95 -82.5zM528 262q62 0 117.5 32t93.5 86t47 120t-13.5 120t-69 86t-108.5 32q-61 0 -116 -32t-92.5 -86t-46.5 -120t13 -120t68 -86t107 -32zM516 1110
l-154 288h200l137 -188l187 188h200l-230 -288h-340z" />
    <glyph glyph-name="uni01E8" unicode="&#x1e8;" horiz-adv-x="1230" 
d="M1112 0h-392l-287 506l-47 -48l-64 -458h-300l196 1400h300l-67 -476l465 476h392l-646 -660zM560 1510l-154 288h200l137 -188l187 188h200l-230 -288h-340z" />
    <glyph glyph-name="uni01E9" unicode="&#x1e9;" horiz-adv-x="1119" 
d="M977 0h-346l-152 344l-126 -128l-30 -216h-300l210 1500h300l-115 -818l311 318h392l-402 -412zM636 1510l-154 288h200l137 -188l187 188h200l-230 -288h-340z" />
    <glyph glyph-name="uni0218" unicode="&#x218;" horiz-adv-x="1264" 
d="M530 -26q-118 0 -221 37.5t-173.5 108t-93.5 168.5l297 104q6 -29 36.5 -56t81 -44.5t115.5 -17.5q60 0 115.5 17.5t93 48.5t43.5 72q6 42 -25 69.5t-82 44t-106 24.5q-149 22 -262 72.5t-170.5 139.5t-38.5 226q19 131 107 229.5t217 153.5t270 55q118 0 221 -37.5
t174.5 -108.5t92.5 -170l-297 -102q-6 29 -36.5 55.5t-81 43.5t-115.5 17q-58 1 -114 -17t-94 -49t-44 -70q-7 -54 21 -80.5t79.5 -37.5t112.5 -20q141 -21 254.5 -75t174 -144t42.5 -219q-18 -131 -105.5 -229.5t-216.5 -153.5t-272 -55zM343 -441l109 338h300l-209 -338
h-200z" />
    <glyph glyph-name="uni0219" unicode="&#x219;" horiz-adv-x="874" 
d="M307 -18q-75 7 -141 33t-115 71t-72 110l267 108q9 -11 24.5 -27.5t41.5 -29.5t65 -13q26 0 51 5.5t42.5 19.5t21.5 39q4 28 -15 42.5t-46.5 21t-52.5 10.5q-87 14 -162.5 56.5t-118 111t-29.5 160.5q15 103 78 178t154.5 115.5t190.5 40.5q117 0 209.5 -48t144.5 -138
l-256 -140q-10 15 -25.5 30.5t-36 27t-46.5 14.5q-34 3 -62.5 -2.5t-46.5 -22t-23 -47.5q-4 -29 22 -42t60.5 -19t55.5 -13q82 -28 151.5 -73t107 -109t22.5 -150q-14 -100 -84.5 -176t-171 -115t-205.5 -29zM122 -441l109 338h300l-209 -338h-200z" />
    <glyph glyph-name="uni021A" unicode="&#x21a;" horiz-adv-x="1259" 
d="M1278 1400l-42 -300h-400l-154 -1100h-300l154 1100h-400l42 300h1100zM258 -441l109 338h300l-209 -338h-200z" />
    <glyph glyph-name="uni021B" unicode="&#x21b;" horiz-adv-x="730" 
d="M670 700h-170l-98 -700h-300l98 700h-130l42 300h130l44 314h300l-44 -314h170zM-22 -441l109 338h300l-209 -338h-200z" />
    <glyph glyph-name="uni022A" unicode="&#x22a;" horiz-adv-x="1540" 
d="M668 -26q-142 0 -259.5 56.5t-198 156.5t-116 231.5t-14.5 281.5t93 281.5t181.5 231.5t242.5 156.5t275 56.5q143 0 260 -56.5t197.5 -156.5t116 -231.5t14.5 -281.5t-93 -281.5t-181.5 -231.5t-242 -156.5t-275.5 -56.5zM710 274q80 0 155.5 33.5t137.5 92t103.5 135.5
t53.5 165t-7.5 165t-65 135.5t-111.5 92t-146 33.5t-155.5 -33.5t-137.5 -92t-103.5 -135.5t-53.5 -165t7.5 -165t65 -135.5t111.5 -92t146 -33.5zM658 1464q-64 0 -102 43t-29 107q9 63 59 106.5t114 43.5q63 0 100.5 -43.5t28.5 -106.5q-9 -64 -58.5 -107t-112.5 -43z
M1098 1464q-64 0 -102 43t-29 107q9 63 59 106.5t114 43.5q63 0 100.5 -43.5t28.5 -106.5q-9 -64 -58.5 -107t-112.5 -43zM624 2070h676l-31 -220h-676z" />
    <glyph glyph-name="uni022B" unicode="&#x22b;" 
d="M458 -26q-138 0 -241.5 71t-154 190.5t-30.5 264.5q15 110 67.5 205.5t131.5 168t175.5 113.5t199.5 41q138 0 241.5 -71t154.5 -191t30 -266q-15 -109 -67.5 -204t-131.5 -167.5t-175 -113.5t-200 -41zM500 274q57 0 106.5 31t83.5 82.5t42 112.5q9 63 -11 115
t-61.5 82.5t-95.5 30.5q-56 0 -106 -31.5t-83.5 -83.5t-42.5 -113q-9 -64 11.5 -115t61.5 -81t95 -30zM392 1064q-64 0 -102 43t-29 107q9 63 59 106.5t114 43.5q63 0 100.5 -43.5t28.5 -106.5q-9 -64 -58.5 -107t-112.5 -43zM832 1064q-64 0 -102 43t-29 107q9 63 59 106.5
t114 43.5q63 0 100.5 -43.5t28.5 -106.5q-9 -64 -58.5 -107t-112.5 -43zM358 1670h676l-31 -220h-676z" />
    <glyph glyph-name="uni0232" unicode="&#x232;" horiz-adv-x="1392" 
d="M1076 1400h354l-594 -770l-88 -630h-300l88 630l-378 770h354l220 -444zM505 1750h676l-31 -220h-676z" />
    <glyph glyph-name="uni0233" unicode="&#x233;" horiz-adv-x="1206" 
d="M848 1000h320l-759 -1500h-318l251 500l-220 1000h328l99 -590zM356 1350h676l-31 -220h-676z" />
    <glyph glyph-name="uni0237" unicode="&#x237;" horiz-adv-x="512" 
d="M-249 -500l43 300q47 0 89 23t71 62t36 87l144 1028h300l-144 -1028q-18 -130 -97 -237t-195 -171t-247 -64z" />
    <glyph glyph-name="quoteleft" unicode="&#x2bb;" horiz-adv-x="462" 
d="M85 878l235 522h200l-135 -522h-300z" />
    <glyph glyph-name="quoteleft" unicode="&#x2018;" horiz-adv-x="462" 
d="M85 878l235 522h200l-135 -522h-300z" />
    <glyph glyph-name="uni02BC" unicode="&#x2bc;" horiz-adv-x="602" 
d="M65 878l135 522h300l-235 -522h-200z" />
    <glyph glyph-name="circumflex" unicode="&#x2c6;" horiz-adv-x="756" 
d="M644 1398l154 -288h-200l-137 188l-187 -188h-200l230 288h340z" />
    <glyph glyph-name="caron" unicode="&#x2c7;" horiz-adv-x="716" 
d="M248 1110l-154 288h200l137 -188l187 188h200l-230 -288h-340z" />
    <glyph glyph-name="breve" unicode="&#x2d8;" horiz-adv-x="1144" 
d="M627 1088q-91 0 -160 45t-103.5 120.5t-22.5 166.5h180q-5 -41 10.5 -75.5t47 -55.5t73.5 -21t79.5 20t62.5 54.5t31 77.5h180q-13 -93 -68 -168.5t-136.5 -119.5t-173.5 -44z" />
    <glyph glyph-name="dotaccent" unicode="&#x2d9;" horiz-adv-x="1102" 
d="M610 1104q-65 0 -103 43t-29 107q9 63 59 106.5t114 43.5q63 0 100.5 -43.5t28.5 -106.5q-9 -64 -57.5 -107t-112.5 -43z" />
    <glyph glyph-name="ring" unicode="&#x2da;" horiz-adv-x="1200" 
d="M650 1054q-82 0 -132.5 60t-39.5 142q8 54 41 99t82.5 72t104.5 27q83 0 133 -58.5t39 -139.5q-12 -84 -78.5 -143t-149.5 -59zM669 1194q25 0 45 18t24 43q3 24 -12 41.5t-40 17.5t-45 -17t-23 -41q-4 -26 11 -44t40 -18z" />
    <glyph glyph-name="ogonek" unicode="&#x2db;" horiz-adv-x="1150" 
d="M398 -476q-80 0 -134 38t-77.5 99t-14.5 128q7 50 32.5 97.5t70.5 87.5l192 168l122 -142q-31 -27 -64.5 -55t-63 -56.5t-49.5 -56.5t-24 -55q-3 -22 10 -40t39 -18q38 0 68.5 27t35.5 65h184q-10 -76 -57 -141.5t-117.5 -105.5t-152.5 -40z" />
    <glyph glyph-name="tilde" unicode="&#x2dc;" horiz-adv-x="1280" 
d="M865 1091q-38 0 -87.5 27.5t-97.5 60t-82.5 51t-42.5 1.5q-9 -18 -7.5 -35t5.5 -47l-174 -46q-18 89 4 160t78 112.5t138 41.5q36 0 82 -21.5t90.5 -49.5t78 -49.5t43.5 -21.5q19 0 23 12t0.5 30.5t-8.5 37.5l180 56q18 -94 -7 -166t-82 -113t-134 -41z" />
    <glyph glyph-name="hungarumlaut" unicode="&#x2dd;" horiz-adv-x="1147" 
d="M626 1110l120 288h300l-220 -288h-200zM258 1110l120 288h300l-220 -288h-200z" />
    <glyph glyph-name="gravecomb" unicode="&#x300;" horiz-adv-x="0" 
d="M418 1398h300l40 -288h-200z" />
    <glyph glyph-name="acutecomb" unicode="&#x301;" horiz-adv-x="0" 
d="M538 1110l120 288h300l-220 -288h-200z" />
    <glyph glyph-name="uni0302" unicode="&#x302;" horiz-adv-x="0" 
d="M644 1398l154 -288h-200l-137 188l-187 -188h-200l230 288h340z" />
    <glyph glyph-name="tildecomb" unicode="&#x303;" horiz-adv-x="0" 
d="M865 1091q-38 0 -87.5 27.5t-97.5 60t-82.5 51t-42.5 1.5q-9 -18 -7.5 -35t5.5 -47l-174 -46q-18 89 4 160t78 112.5t138 41.5q36 0 82 -21.5t90.5 -49.5t78 -49.5t43.5 -21.5q19 0 23 12t0.5 30.5t-8.5 37.5l180 56q18 -94 -7 -166t-82 -113t-134 -41z" />
    <glyph glyph-name="uni0304" unicode="&#x304;" horiz-adv-x="0" 
d="M353 1350h676l-31 -220h-676z" />
    <glyph glyph-name="uni0306" unicode="&#x306;" horiz-adv-x="0" 
d="M627 1088q-91 0 -160 45t-103.5 120.5t-22.5 166.5h180q-5 -41 10.5 -75.5t47 -55.5t73.5 -21t79.5 20t62.5 54.5t31 77.5h180q-13 -93 -68 -168.5t-136.5 -119.5t-173.5 -44z" />
    <glyph glyph-name="uni0307" unicode="&#x307;" horiz-adv-x="0" 
d="M610 1104q-65 0 -103 43t-29 107q9 63 59 106.5t114 43.5q63 0 100.5 -43.5t28.5 -106.5q-9 -64 -57.5 -107t-112.5 -43z" />
    <glyph glyph-name="uni0308" unicode="&#x308;" horiz-adv-x="0" 
d="M603 1064q-64 0 -102 43t-29 107q9 63 59 106.5t114 43.5q63 0 100.5 -43.5t28.5 -106.5q-9 -64 -58.5 -107t-112.5 -43zM1043 1064q-64 0 -102 43t-29 107q9 63 59 106.5t114 43.5q63 0 100.5 -43.5t28.5 -106.5q-9 -64 -58.5 -107t-112.5 -43z" />
    <glyph glyph-name="uni030A" unicode="&#x30a;" horiz-adv-x="0" 
d="M650 1054q-82 0 -132.5 60t-39.5 142q8 54 41 99t82.5 72t104.5 27q83 0 133 -58.5t39 -139.5q-12 -84 -78.5 -143t-149.5 -59zM669 1194q25 0 45 18t24 43q3 24 -12 41.5t-40 17.5t-45 -17t-23 -41q-4 -26 11 -44t40 -18z" />
    <glyph glyph-name="uni030B" unicode="&#x30b;" horiz-adv-x="0" 
d="M626 1110l120 288h300l-220 -288h-200zM258 1110l120 288h300l-220 -288h-200z" />
    <glyph glyph-name="uni030C" unicode="&#x30c;" horiz-adv-x="0" 
d="M248 1110l-154 288h200l137 -188l187 188h200l-230 -288h-340z" />
    <glyph glyph-name="dotbelowcomb" unicode="&#x323;" horiz-adv-x="0" 
d="M610 -465q-65 0 -103 43t-29 107q9 63 59 106.5t114 43.5q63 0 100.5 -43.5t28.5 -106.5q-9 -64 -57.5 -107t-112.5 -43z" />
    <glyph glyph-name="uni0326" unicode="&#x326;" horiz-adv-x="0" 
d="M240 -441l109 338h300l-209 -338h-200z" />
    <glyph glyph-name="uni0327" unicode="&#x327;" horiz-adv-x="0" 
d="M482 -381q-79 -20 -141 19t-72 114l150 39q2 -15 15 -23t29 -4q17 4 27 18t8 30t-14.5 22t-29.5 6h-146l187 265l121 -76l-45 -61q32 -17 52.5 -47t25.5 -71q9 -75 -39.5 -143t-127.5 -88z" />
    <glyph glyph-name="uni0328" unicode="&#x328;" horiz-adv-x="0" 
d="M398 -476q-80 0 -134 38t-77.5 99t-14.5 128q7 50 32.5 97.5t70.5 87.5l192 168l122 -142q-31 -27 -64.5 -55t-63 -56.5t-49.5 -56.5t-24 -55q-3 -22 10 -40t39 -18q38 0 68.5 27t35.5 65h184q-10 -76 -57 -141.5t-117.5 -105.5t-152.5 -40z" />
    <glyph glyph-name="uni03BC" unicode="&#x3bc;" horiz-adv-x="1176" 
d="M-79 -432l201 1432h300l-70 -500q-9 -66 10 -120t63.5 -86t110.5 -32q65 0 113.5 32t79 86t39.5 120l70 500h300l-140 -1000h-300l13 92q-54 -52 -121 -86t-148 -34q-45 0 -85 7.5t-75 20.5l-61 -432h-300z" />
    <glyph glyph-name="uni1E04" unicode="&#x1e04;" horiz-adv-x="1206" 
d="M22 0l196 1400h530q115 0 201.5 -47.5t129 -134.5t25.5 -204q-6 -44 -23.5 -92.5t-51.5 -90.5t-90 -66q65 -16 98 -60t44.5 -101.5t9 -116t-9.5 -105.5q-14 -106 -83.5 -192.5t-172.5 -138t-219 -51.5h-584zM357 254h252q52 0 98.5 24.5t78 67.5t38.5 98q7 46 -13 87.5
t-59 67.5t-91 26h-252zM445 875h194q60 0 108.5 40t56.5 101q9 62 -29.5 95t-98.5 33h-194zM440 -465q-65 0 -103 43t-29 107q9 63 59 106.5t114 43.5q63 0 100.5 -43.5t28.5 -106.5q-9 -64 -57.5 -107t-112.5 -43z" />
    <glyph glyph-name="uni1E05" unicode="&#x1e05;" horiz-adv-x="1261" 
d="M719 1028q146 0 256 -71t164.5 -190.5t33.5 -264.5q-15 -109 -69.5 -205t-137.5 -168.5t-184 -113.5t-211 -41q-79 0 -137.5 34t-97.5 86l-13 -94h-300l210 1500h300l-83 -592q54 53 122 86.5t147 33.5zM608 264q62 0 117.5 32t93 86t46.5 120q9 65 -13.5 119t-68.5 86.5
t-108 32.5q-61 0 -116 -32.5t-93 -86.5t-47 -119q-9 -66 13.5 -120t68.5 -86t107 -32zM468 -465q-65 0 -103 43t-29 107q9 63 59 106.5t114 43.5q63 0 100.5 -43.5t28.5 -106.5q-9 -64 -57.5 -107t-112.5 -43z" />
    <glyph glyph-name="uni1E0C" unicode="&#x1e0c;" horiz-adv-x="1343" 
d="M22 0l196 1400h464q145 0 264 -54.5t202 -151t119.5 -223t16.5 -271.5t-92.5 -271.5t-182 -223t-244 -151t-279.5 -54.5h-464zM364 300h164q81 0 157.5 31t140 86t105 127.5t53.5 155.5t-9.5 155t-69 127.5t-115.5 86.5t-150 31h-164zM489 -465q-65 0 -103 43t-29 107
q9 63 59 106.5t114 43.5q63 0 100.5 -43.5t28.5 -106.5q-9 -64 -57.5 -107t-112.5 -43z" />
    <glyph glyph-name="uni1E0D" unicode="&#x1e0d;" horiz-adv-x="1260" 
d="M952 1500h300l-210 -1500h-300l13 92q-54 -52 -122 -85t-149 -33q-109 0 -198.5 41t-151.5 113.5t-89.5 167.5t-12.5 204t69.5 204t137 167.5t183.5 113.5t210 41q81 0 139.5 -32.5t97.5 -85.5zM528 262q62 0 117.5 32t93.5 86t47 120t-13.5 120t-69 86t-108.5 32
t-117 -32t-92 -86t-46 -120t13 -120t68 -86t107 -32zM457 -465q-65 0 -103 43t-29 107q9 63 59 106.5t114 43.5q63 0 100.5 -43.5t28.5 -106.5q-9 -64 -57.5 -107t-112.5 -43z" />
    <glyph glyph-name="uni1E20" unicode="&#x1e20;" horiz-adv-x="1536" 
d="M666 -26q-147 0 -264.5 57t-196.5 157.5t-112.5 232.5t-12.5 281q23 161 99 293t188 228.5t244 148.5t265 52q146 0 278.5 -68t224.5 -220l-288 -144q-52 69 -119.5 101.5t-141.5 32.5q-75 0 -149.5 -31t-137.5 -88t-106.5 -136t-57.5 -175q-12 -88 7.5 -165t65.5 -134.5
t112.5 -90t147.5 -32.5q46 0 93 12.5t94 37.5t90.5 64t81.5 92h-188l37 260h542q-15 -157 -84.5 -295.5t-179.5 -244.5t-246.5 -166t-285.5 -60zM579 1750h676l-31 -220h-676z" />
    <glyph glyph-name="uni1E21" unicode="&#x1e21;" horiz-adv-x="1254" 
d="M876 1000h300l-142 -1010q-16 -114 -74.5 -204.5t-146.5 -154.5t-195 -97.5t-221 -33.5q-106 0 -197 40.5t-157 112.5t-97 167l292 124q15 -45 44.5 -76.5t70 -48.5t87.5 -17q52 0 101.5 11t90.5 34t68 58.5t34 84.5l14 98q-52 -51 -118 -82.5t-146 -31.5
q-109 0 -198.5 41t-151.5 113.5t-89.5 167.5t-12.5 204t69.5 204t137 167.5t183.5 113.5t210 41q80 0 137 -31.5t95 -82.5zM528 262q62 0 117.5 32t93.5 86t47 120t-13.5 120t-69 86t-108.5 32q-61 0 -116 -32t-92.5 -86t-46.5 -120t13 -120t68 -86t107 -32zM380 1350h676
l-31 -220h-676z" />
    <glyph glyph-name="uni1E24" unicode="&#x1e24;" horiz-adv-x="1336" 
d="M1014 1400h300l-196 -1400h-300l84 600h-496l-84 -600h-300l196 1400h300l-70 -500h496zM505 -465q-65 0 -103 43t-29 107q9 63 59 106.5t114 43.5q63 0 100.5 -43.5t28.5 -106.5q-9 -64 -57.5 -107t-112.5 -43z" />
    <glyph glyph-name="uni1E25" unicode="&#x1e25;" horiz-adv-x="1140" 
d="M1051 639l-89 -639h-300l78 555q7 47 -11 85.5t-53 61t-82 22.5t-88.5 -22.5t-69 -61t-34.5 -85.5l-78 -555h-300l209 1500h300l-78 -563q56 43 123.5 67t138.5 24q108 0 188.5 -52.5t121 -140.5t24.5 -196zM468 -465q-65 0 -103 43t-29 107q9 63 59 106.5t114 43.5
q63 0 100.5 -43.5t28.5 -106.5q-9 -64 -57.5 -107t-112.5 -43z" />
    <glyph glyph-name="uni1E2E" unicode="&#x1e2e;" horiz-adv-x="600" 
d="M52 0l196 1400h300l-196 -1400h-300zM188 1464q-64 0 -102 43t-29 107q9 63 59 106.5t114 43.5q63 0 100.5 -43.5t28.5 -106.5q-9 -64 -58.5 -107t-112.5 -43zM628 1464q-64 0 -102 43t-29 107q9 63 59 106.5t114 43.5q63 0 100.5 -43.5t28.5 -106.5q-9 -64 -58.5 -107
t-112.5 -43zM379 1830l120 288h300l-220 -288h-200z" />
    <glyph glyph-name="uni1E2F" unicode="&#x1e2f;" horiz-adv-x="540" 
d="M162 1000h300l-140 -1000h-300zM102 1064q-64 0 -102 43t-29 107q9 63 59 106.5t114 43.5q63 0 100.5 -43.5t28.5 -106.5q-9 -64 -58.5 -107t-112.5 -43zM542 1064q-64 0 -102 43t-29 107q9 63 59 106.5t114 43.5q63 0 100.5 -43.5t28.5 -106.5q-9 -64 -58.5 -107
t-112.5 -43zM293 1430l120 288h300l-220 -288h-200z" />
    <glyph glyph-name="uni1E36" unicode="&#x1e36;" horiz-adv-x="1070" 
d="M22 0l196 1400h300l-154 -1100h550l-42 -300h-850zM382 -465q-65 0 -103 43t-29 107q9 63 59 106.5t114 43.5q63 0 100.5 -43.5t28.5 -106.5q-9 -64 -57.5 -107t-112.5 -43z" />
    <glyph glyph-name="uni1E37" unicode="&#x1e37;" horiz-adv-x="541" 
d="M23 0l210 1500h300l-210 -1500h-300zM108 -465q-65 0 -103 43t-29 107q9 63 59 106.5t114 43.5q63 0 100.5 -43.5t28.5 -106.5q-9 -64 -57.5 -107t-112.5 -43z" />
    <glyph glyph-name="uni1E3E" unicode="&#x1e3e;" horiz-adv-x="1924" 
d="M22 0l468 1400h256l198 -826l430 826h256l76 -1400h-306l-40 756l-392 -756h-208l-180 756l-252 -756h-306zM996 1510l120 288h300l-220 -288h-200z" />
    <glyph glyph-name="uni1E3F" unicode="&#x1e3f;" horiz-adv-x="1776" 
d="M22 0l140 1000h300l-9 -63q56 43 123.5 67t138.5 24q100 0 177.5 -45.5t119.5 -121.5q63 76 153 121.5t189 45.5q108 0 188.5 -52.5t121 -140.5t24.5 -196l-89 -639h-300l78 555q7 47 -11 85t-53 61t-82 23t-88.5 -23t-69.5 -61t-35 -85l-78 -555h-300l78 555
q7 47 -10.5 85t-53 61t-82.5 23q-46 0 -87.5 -23t-69.5 -61t-35 -85l-78 -555h-300zM967 1110l120 288h300l-220 -288h-200z" />
    <glyph glyph-name="uni1E40" unicode="&#x1e40;" horiz-adv-x="1924" 
d="M22 0l468 1400h256l198 -826l430 826h256l76 -1400h-306l-40 756l-392 -756h-208l-180 756l-252 -756h-306zM1077 1504q-65 0 -103 43t-29 107q9 63 59 106.5t114 43.5q63 0 100.5 -43.5t28.5 -106.5q-9 -64 -57.5 -107t-112.5 -43z" />
    <glyph glyph-name="uni1E41" unicode="&#x1e41;" horiz-adv-x="1776" 
d="M22 0l140 1000h300l-9 -63q56 43 123.5 67t138.5 24q100 0 177.5 -45.5t119.5 -121.5q63 76 153 121.5t189 45.5q108 0 188.5 -52.5t121 -140.5t24.5 -196l-89 -639h-300l78 555q7 47 -11 85t-53 61t-82 23t-88.5 -23t-69.5 -61t-35 -85l-78 -555h-300l78 555
q7 47 -10.5 85t-53 61t-82.5 23q-46 0 -87.5 -23t-69.5 -61t-35 -85l-78 -555h-300zM1048 1104q-65 0 -103 43t-29 107q9 63 59 106.5t114 43.5q63 0 100.5 -43.5t28.5 -106.5q-9 -64 -57.5 -107t-112.5 -43z" />
    <glyph glyph-name="uni1E42" unicode="&#x1e42;" horiz-adv-x="1924" 
d="M22 0l468 1400h256l198 -826l430 826h256l76 -1400h-306l-40 756l-392 -756h-208l-180 756l-252 -756h-306zM799 -465q-65 0 -103 43t-29 107q9 63 59 106.5t114 43.5q63 0 100.5 -43.5t28.5 -106.5q-9 -64 -57.5 -107t-112.5 -43z" />
    <glyph glyph-name="uni1E43" unicode="&#x1e43;" horiz-adv-x="1776" 
d="M22 0l140 1000h300l-9 -63q56 43 123.5 67t138.5 24q100 0 177.5 -45.5t119.5 -121.5q63 76 153 121.5t189 45.5q108 0 188.5 -52.5t121 -140.5t24.5 -196l-89 -639h-300l78 555q7 47 -11 85t-53 61t-82 23t-88.5 -23t-69.5 -61t-35 -85l-78 -555h-300l78 555
q7 47 -10.5 85t-53 61t-82.5 23q-46 0 -87.5 -23t-69.5 -61t-35 -85l-78 -555h-300zM745 -465q-65 0 -103 43t-29 107q9 63 59 106.5t114 43.5q63 0 100.5 -43.5t28.5 -106.5q-9 -64 -57.5 -107t-112.5 -43z" />
    <glyph glyph-name="uni1E44" unicode="&#x1e44;" horiz-adv-x="1376" 
d="M22 0l196 1400h324l392 -858l120 858h300l-196 -1400h-324l-392 858l-120 -858h-300zM803 1504q-65 0 -103 43t-29 107q9 63 59 106.5t114 43.5q63 0 100.5 -43.5t28.5 -106.5q-9 -64 -57.5 -107t-112.5 -43z" />
    <glyph glyph-name="uni1E45" unicode="&#x1e45;" horiz-adv-x="1139" 
d="M1050 639l-89 -639h-300l78 555q7 47 -11 85.5t-53 61t-82 22.5t-88.5 -22.5t-69 -61t-34.5 -85.5l-78 -555h-300l139 1000h300l-8 -63q56 43 123.5 67t138.5 24q108 0 188.5 -52.5t121 -140.5t24.5 -196zM669 1104q-65 0 -103 43t-29 107q9 63 59 106.5t114 43.5
q63 0 100.5 -43.5t28.5 -106.5q-9 -64 -57.5 -107t-112.5 -43z" />
    <glyph glyph-name="uni1E46" unicode="&#x1e46;" horiz-adv-x="1376" 
d="M22 0l196 1400h324l392 -858l120 858h300l-196 -1400h-324l-392 858l-120 -858h-300zM525 -465q-65 0 -103 43t-29 107q9 63 59 106.5t114 43.5q63 0 100.5 -43.5t28.5 -106.5q-9 -64 -57.5 -107t-112.5 -43z" />
    <glyph glyph-name="uni1E47" unicode="&#x1e47;" horiz-adv-x="1139" 
d="M1050 639l-89 -639h-300l78 555q7 47 -11 85.5t-53 61t-82 22.5t-88.5 -22.5t-69 -61t-34.5 -85.5l-78 -555h-300l139 1000h300l-8 -63q56 43 123.5 67t138.5 24q108 0 188.5 -52.5t121 -140.5t24.5 -196zM427 -465q-65 0 -103 43t-29 107q9 63 59 106.5t114 43.5
q63 0 100.5 -43.5t28.5 -106.5q-9 -64 -57.5 -107t-112.5 -43z" />
    <glyph glyph-name="uni1E62" unicode="&#x1e62;" horiz-adv-x="1264" 
d="M530 -26q-118 0 -221 37.5t-173.5 108t-93.5 168.5l297 104q6 -29 36.5 -56t81 -44.5t115.5 -17.5q60 0 115.5 17.5t93 48.5t43.5 72q6 42 -25 69.5t-82 44t-106 24.5q-149 22 -262 72.5t-170.5 139.5t-38.5 226q19 131 107 229.5t217 153.5t270 55q118 0 221 -37.5
t174.5 -108.5t92.5 -170l-297 -102q-6 29 -36.5 55.5t-81 43.5t-115.5 17q-58 1 -114 -17t-94 -49t-44 -70q-7 -54 21 -80.5t79.5 -37.5t112.5 -20q141 -21 254.5 -75t174 -144t42.5 -219q-18 -131 -105.5 -229.5t-216.5 -153.5t-272 -55zM552 -465q-65 0 -103 43t-29 107
q9 63 59 106.5t114 43.5q63 0 100.5 -43.5t28.5 -106.5q-9 -64 -57.5 -107t-112.5 -43z" />
    <glyph glyph-name="uni1E63" unicode="&#x1e63;" horiz-adv-x="874" 
d="M307 -18q-75 7 -141 33t-115 71t-72 110l267 108q9 -11 24.5 -27.5t41.5 -29.5t65 -13q26 0 51 5.5t42.5 19.5t21.5 39q4 28 -15 42.5t-46.5 21t-52.5 10.5q-87 14 -162.5 56.5t-118 111t-29.5 160.5q15 103 78 178t154.5 115.5t190.5 40.5q117 0 209.5 -48t144.5 -138
l-256 -140q-10 15 -25.5 30.5t-36 27t-46.5 14.5q-34 3 -62.5 -2.5t-46.5 -22t-23 -47.5q-4 -29 22 -42t60.5 -19t55.5 -13q82 -28 151.5 -73t107 -109t22.5 -150q-14 -100 -84.5 -176t-171 -115t-205.5 -29zM331 -465q-65 0 -103 43t-29 107q9 63 59 106.5t114 43.5
q63 0 100.5 -43.5t28.5 -106.5q-9 -64 -57.5 -107t-112.5 -43z" />
    <glyph glyph-name="uni1E6C" unicode="&#x1e6c;" horiz-adv-x="1259" 
d="M1278 1400l-42 -300h-400l-154 -1100h-300l154 1100h-400l42 300h1100zM467 -465q-65 0 -103 43t-29 107q9 63 59 106.5t114 43.5q63 0 100.5 -43.5t28.5 -106.5q-9 -64 -57.5 -107t-112.5 -43z" />
    <glyph glyph-name="uni1E6D" unicode="&#x1e6d;" horiz-adv-x="730" 
d="M670 700h-170l-98 -700h-300l98 700h-130l42 300h130l44 314h300l-44 -314h170zM187 -465q-65 0 -103 43t-29 107q9 63 59 106.5t114 43.5q63 0 100.5 -43.5t28.5 -106.5q-9 -64 -57.5 -107t-112.5 -43z" />
    <glyph glyph-name="Wgrave" unicode="&#x1e80;" horiz-adv-x="1960" 
d="M360 0l-162 1400h310l97 -848l335 848h276l97 -848l335 848h310l-552 -1400h-338l-84 726l-286 -726h-338zM836 1798h300l40 -288h-200z" />
    <glyph glyph-name="wgrave" unicode="&#x1e81;" horiz-adv-x="1748" 
d="M590 0h-294l-194 1000h294l109 -562l265 562h292l107 -562l267 562h294l-474 -1000h-294l-107 562zM674 1398h300l40 -288h-200z" />
    <glyph glyph-name="Wacute" unicode="&#x1e82;" horiz-adv-x="1960" 
d="M360 0l-162 1400h310l97 -848l335 848h276l97 -848l335 848h310l-552 -1400h-338l-84 726l-286 -726h-338zM1014 1510l120 288h300l-220 -288h-200z" />
    <glyph glyph-name="wacute" unicode="&#x1e83;" horiz-adv-x="1748" 
d="M590 0h-294l-194 1000h294l109 -562l265 562h292l107 -562l267 562h294l-474 -1000h-294l-107 562zM852 1110l120 288h300l-220 -288h-200z" />
    <glyph glyph-name="Wdieresis" unicode="&#x1e84;" horiz-adv-x="1960" 
d="M360 0l-162 1400h310l97 -848l335 848h276l97 -848l335 848h310l-552 -1400h-338l-84 726l-286 -726h-338zM868 1464q-64 0 -102 43t-29 107q9 63 59 106.5t114 43.5q63 0 100.5 -43.5t28.5 -106.5q-9 -64 -58.5 -107t-112.5 -43zM1308 1464q-64 0 -102 43t-29 107
q9 63 59 106.5t114 43.5q63 0 100.5 -43.5t28.5 -106.5q-9 -64 -58.5 -107t-112.5 -43z" />
    <glyph glyph-name="wdieresis" unicode="&#x1e85;" horiz-adv-x="1748" 
d="M590 0h-294l-194 1000h294l109 -562l265 562h292l107 -562l267 562h294l-474 -1000h-294l-107 562zM706 1064q-64 0 -102 43t-29 107q9 63 59 106.5t114 43.5q63 0 100.5 -43.5t28.5 -106.5q-9 -64 -58.5 -107t-112.5 -43zM1146 1064q-64 0 -102 43t-29 107
q9 63 59 106.5t114 43.5q63 0 100.5 -43.5t28.5 -106.5q-9 -64 -58.5 -107t-112.5 -43z" />
    <glyph glyph-name="uni1E92" unicode="&#x1e92;" horiz-adv-x="1292" 
d="M-18 0l42 300l838 800h-726l42 300h1132l-42 -300l-838 -800h726l-42 -300h-1132zM483 -465q-65 0 -103 43t-29 107q9 63 59 106.5t114 43.5q63 0 100.5 -43.5t28.5 -106.5q-9 -64 -57.5 -107t-112.5 -43z" />
    <glyph glyph-name="uni1E93" unicode="&#x1e93;" horiz-adv-x="1014" 
d="M934 700l-476 -400h420l-42 -300h-854l42 300l476 400h-420l42 300h854zM344 -465q-65 0 -103 43t-29 107q9 63 59 106.5t114 43.5q63 0 100.5 -43.5t28.5 -106.5q-9 -64 -57.5 -107t-112.5 -43z" />
    <glyph glyph-name="uni1E97" unicode="&#x1e97;" horiz-adv-x="730" 
d="M670 700h-170l-98 -700h-300l98 700h-130l42 300h130l44 314h300l-44 -314h170zM226 1378q-64 0 -102 43t-29 107q9 63 59 106.5t114 43.5q63 0 100.5 -43.5t28.5 -106.5q-9 -64 -58.5 -107t-112.5 -43zM666 1378q-64 0 -102 43t-29 107q9 63 59 106.5t114 43.5
q63 0 100.5 -43.5t28.5 -106.5q-9 -64 -58.5 -107t-112.5 -43z" />
    <glyph glyph-name="uni1E9E" unicode="&#x1e9e;" horiz-adv-x="1246" 
d="M22 0l122 870q15 110 70 206t138 168.5t185 114t211 41.5q104 0 191 -45.5t135.5 -121t35.5 -165.5q-7 -48 -40 -91.5t-91.5 -100t-141.5 -142.5q69 14 128.5 -9.5t103.5 -71.5t65.5 -108.5t12.5 -122.5q-14 -102 -67 -180.5t-130.5 -132.5t-167 -81.5t-176.5 -27.5h-54
l-25 254h82q52 0 112 15t105.5 52t54.5 103q10 66 -25.5 103t-91 52t-107.5 15h-82l16 110q6 46 30 94t55 93t61.5 82.5t51.5 64t22 36.5q5 37 -16 51.5t-58.5 16.5t-80.5 2t-86.5 -26t-75 -70t-39.5 -98l-133 -950h-300z" />
    <glyph glyph-name="uni1EA0" unicode="&#x1ea0;" horiz-adv-x="1514" 
d="M686 1400h338l312 -1400h-318l-49 220h-558l-111 -220h-318zM563 520h338l-105 464zM593 -465q-65 0 -103 43t-29 107q9 63 59 106.5t114 43.5q63 0 100.5 -43.5t28.5 -106.5q-9 -64 -57.5 -107t-112.5 -43z" />
    <glyph glyph-name="uni1EA1" unicode="&#x1ea1;" horiz-adv-x="1218" 
d="M880 1000h300l-140 -1000h-301l-2 90q-45 -52 -105.5 -84t-135.5 -32q-112 0 -203.5 42t-155 116.5t-91.5 172t-12 209.5q15 107 67.5 200t132 163.5t178 110.5t204.5 40q86 0 151.5 -35.5t113.5 -88.5zM528 262q62 0 117.5 32t93.5 86t47 120t-13.5 120t-69 86
t-108.5 32t-117 -32t-92 -86t-46 -120t13 -120t68 -86t107 -32zM460 -465q-65 0 -103 43t-29 107q9 63 59 106.5t114 43.5q63 0 100.5 -43.5t28.5 -106.5q-9 -64 -57.5 -107t-112.5 -43z" />
    <glyph glyph-name="uni1EAC" unicode="&#x1eac;" horiz-adv-x="1514" 
d="M686 1400h338l312 -1400h-318l-49 220h-558l-111 -220h-318zM563 520h338l-105 464zM593 -465q-65 0 -103 43t-29 107q9 63 59 106.5t114 43.5q63 0 100.5 -43.5t28.5 -106.5q-9 -64 -57.5 -107t-112.5 -43zM1080 1798l154 -288h-200l-137 188l-187 -188h-200l230 288
h340z" />
    <glyph glyph-name="uni1EAD" unicode="&#x1ead;" horiz-adv-x="1218" 
d="M880 1000h300l-140 -1000h-301l-2 90q-45 -52 -105.5 -84t-135.5 -32q-112 0 -203.5 42t-155 116.5t-91.5 172t-12 209.5q15 107 67.5 200t132 163.5t178 110.5t204.5 40q86 0 151.5 -35.5t113.5 -88.5zM528 262q62 0 117.5 32t93.5 86t47 120t-13.5 120t-69 86
t-108.5 32t-117 -32t-92 -86t-46 -120t13 -120t68 -86t107 -32zM460 -465q-65 0 -103 43t-29 107q9 63 59 106.5t114 43.5q63 0 100.5 -43.5t28.5 -106.5q-9 -64 -57.5 -107t-112.5 -43zM890 1398l154 -288h-200l-137 188l-187 -188h-200l230 288h340z" />
    <glyph glyph-name="uni1EB6" unicode="&#x1eb6;" horiz-adv-x="1514" 
d="M686 1400h338l312 -1400h-318l-49 220h-558l-111 -220h-318zM563 520h338l-105 464zM593 -465q-65 0 -103 43t-29 107q9 63 59 106.5t114 43.5q63 0 100.5 -43.5t28.5 -106.5q-9 -64 -57.5 -107t-112.5 -43zM868 1488q-91 0 -160 45t-103.5 120.5t-22.5 166.5h180
q-5 -41 10.5 -75.5t47 -55.5t73.5 -21t79.5 20t62.5 54.5t31 77.5h180q-13 -93 -68 -168.5t-136.5 -119.5t-173.5 -44z" />
    <glyph glyph-name="uni1EB7" unicode="&#x1eb7;" horiz-adv-x="1218" 
d="M880 1000h300l-140 -1000h-301l-2 90q-45 -52 -105.5 -84t-135.5 -32q-112 0 -203.5 42t-155 116.5t-91.5 172t-12 209.5q15 107 67.5 200t132 163.5t178 110.5t204.5 40q86 0 151.5 -35.5t113.5 -88.5zM528 262q62 0 117.5 32t93.5 86t47 120t-13.5 120t-69 86
t-108.5 32t-117 -32t-92 -86t-46 -120t13 -120t68 -86t107 -32zM460 -465q-65 0 -103 43t-29 107q9 63 59 106.5t114 43.5q63 0 100.5 -43.5t28.5 -106.5q-9 -64 -57.5 -107t-112.5 -43zM678 1088q-91 0 -160 45t-103.5 120.5t-22.5 166.5h180q-5 -41 10.5 -75.5t47 -55.5
t73.5 -21t79.5 20t62.5 54.5t31 77.5h180q-13 -93 -68 -168.5t-136.5 -119.5t-173.5 -44z" />
    <glyph glyph-name="uni1EB8" unicode="&#x1eb8;" horiz-adv-x="1112" 
d="M22 0l196 1400h892l-42 -300h-592l-28 -200h456l-42 -300h-456l-42 -300h592l-42 -300h-892zM393 -465q-65 0 -103 43t-29 107q9 63 59 106.5t114 43.5q63 0 100.5 -43.5t28.5 -106.5q-9 -64 -57.5 -107t-112.5 -43z" />
    <glyph glyph-name="uni1EB9" unicode="&#x1eb9;" 
d="M458 -26q-138 0 -241.5 71t-154 191t-30.5 265q15 109 67.5 204.5t131.5 168t175.5 113.5t199.5 41q120 0 212 -52.5t148.5 -142t69 -201.5t-26.5 -231h-667q9 -35 28.5 -63.5t51.5 -45.5t78 -18q44 -1 84.5 19t72.5 54l296 -71q-79 -133 -212 -217.5t-283 -84.5z
M362 621h375q-8 43 -31.5 76t-58 52t-77.5 19q-42 0 -82 -19t-72.5 -52t-53.5 -76zM397 -465q-65 0 -103 43t-29 107q9 63 59 106.5t114 43.5q63 0 100.5 -43.5t28.5 -106.5q-9 -64 -57.5 -107t-112.5 -43z" />
    <glyph glyph-name="uni1EBC" unicode="&#x1ebc;" horiz-adv-x="1112" 
d="M22 0l196 1400h892l-42 -300h-592l-28 -200h456l-42 -300h-456l-42 -300h592l-42 -300h-892zM823 1491q-38 0 -87.5 27.5t-97.5 60t-82.5 51t-42.5 1.5q-9 -18 -7.5 -35t5.5 -47l-174 -46q-18 89 4 160t78 112.5t138 41.5q36 0 82 -21.5t90.5 -49.5t78 -49.5t43.5 -21.5
q19 0 23 12t0.5 30.5t-8.5 37.5l180 56q18 -94 -7 -166t-82 -113t-134 -41z" />
    <glyph glyph-name="uni1EBD" unicode="&#x1ebd;" 
d="M458 -26q-138 0 -241.5 71t-154 191t-30.5 265q15 109 67.5 204.5t131.5 168t175.5 113.5t199.5 41q120 0 212 -52.5t148.5 -142t69 -201.5t-26.5 -231h-667q9 -35 28.5 -63.5t51.5 -45.5t78 -18q44 -1 84.5 19t72.5 54l296 -71q-79 -133 -212 -217.5t-283 -84.5z
M362 621h375q-8 43 -31.5 76t-58 52t-77.5 19q-42 0 -82 -19t-72.5 -52t-53.5 -76zM771 1091q-38 0 -87.5 27.5t-97.5 60t-82.5 51t-42.5 1.5q-9 -18 -7.5 -35t5.5 -47l-174 -46q-18 89 4 160t78 112.5t138 41.5q36 0 82 -21.5t90.5 -49.5t78 -49.5t43.5 -21.5q19 0 23 12
t0.5 30.5t-8.5 37.5l180 56q18 -94 -7 -166t-82 -113t-134 -41z" />
    <glyph glyph-name="uni1EC6" unicode="&#x1ec6;" horiz-adv-x="1112" 
d="M22 0l196 1400h892l-42 -300h-592l-28 -200h456l-42 -300h-456l-42 -300h592l-42 -300h-892zM393 -465q-65 0 -103 43t-29 107q9 63 59 106.5t114 43.5q63 0 100.5 -43.5t28.5 -106.5q-9 -64 -57.5 -107t-112.5 -43zM879 1798l154 -288h-200l-137 188l-187 -188h-200
l230 288h340z" />
    <glyph glyph-name="uni1EC7" unicode="&#x1ec7;" 
d="M458 -26q-138 0 -241.5 71t-154 191t-30.5 265q15 109 67.5 204.5t131.5 168t175.5 113.5t199.5 41q120 0 212 -52.5t148.5 -142t69 -201.5t-26.5 -231h-667q9 -35 28.5 -63.5t51.5 -45.5t78 -18q44 -1 84.5 19t72.5 54l296 -71q-79 -133 -212 -217.5t-283 -84.5z
M362 621h375q-8 43 -31.5 76t-58 52t-77.5 19q-42 0 -82 -19t-72.5 -52t-53.5 -76zM397 -465q-65 0 -103 43t-29 107q9 63 59 106.5t114 43.5q63 0 100.5 -43.5t28.5 -106.5q-9 -64 -57.5 -107t-112.5 -43zM827 1398l154 -288h-200l-137 188l-187 -188h-200l230 288h340z
" />
    <glyph glyph-name="uni1ECA" unicode="&#x1eca;" horiz-adv-x="600" 
d="M52 0l196 1400h300l-196 -1400h-300zM137 -465q-65 0 -103 43t-29 107q9 63 59 106.5t114 43.5q63 0 100.5 -43.5t28.5 -106.5q-9 -64 -57.5 -107t-112.5 -43z" />
    <glyph glyph-name="uni1ECB" unicode="&#x1ecb;" horiz-adv-x="540" 
d="M162 1000h300l-140 -1000h-300zM329 1104q-65 0 -103 43t-29 107q9 63 59 106.5t114 43.5q63 0 100.5 -43.5t28.5 -106.5q-9 -64 -57.5 -107t-112.5 -43zM107 -465q-65 0 -103 43t-29 107q9 63 59 106.5t114 43.5q63 0 100.5 -43.5t28.5 -106.5q-9 -64 -57.5 -107
t-112.5 -43z" />
    <glyph glyph-name="uni1ECC" unicode="&#x1ecc;" horiz-adv-x="1540" 
d="M668 -26q-142 0 -259.5 56.5t-198 156.5t-116 231.5t-14.5 281.5t93 281.5t181.5 231.5t242.5 156.5t275 56.5q143 0 260 -56.5t197.5 -156.5t116 -231.5t14.5 -281.5t-93 -281.5t-181.5 -231.5t-242 -156.5t-275.5 -56.5zM710 274q80 0 155.5 33.5t137.5 92t103.5 135.5
t53.5 165t-7.5 165t-65 135.5t-111.5 92t-146 33.5t-155.5 -33.5t-137.5 -92t-103.5 -135.5t-53.5 -165t7.5 -165t65 -135.5t111.5 -92t146 -33.5zM607 -465q-65 0 -103 43t-29 107q9 63 59 106.5t114 43.5q63 0 100.5 -43.5t28.5 -106.5q-9 -64 -57.5 -107t-112.5 -43z" />
    <glyph glyph-name="uni1ECD" unicode="&#x1ecd;" 
d="M458 -26q-138 0 -241.5 71t-154 190.5t-30.5 264.5q15 110 67.5 205.5t131.5 168t175.5 113.5t199.5 41q138 0 241.5 -71t154.5 -191t30 -266q-15 -109 -67.5 -204t-131.5 -167.5t-175 -113.5t-200 -41zM500 274q57 0 106.5 31t83.5 82.5t42 112.5q9 63 -11 115
t-61.5 82.5t-95.5 30.5q-56 0 -106 -31.5t-83.5 -83.5t-42.5 -113q-9 -64 11.5 -115t61.5 -81t95 -30zM397 -465q-65 0 -103 43t-29 107q9 63 59 106.5t114 43.5q63 0 100.5 -43.5t28.5 -106.5q-9 -64 -57.5 -107t-112.5 -43z" />
    <glyph glyph-name="uni1ED8" unicode="&#x1ed8;" horiz-adv-x="1540" 
d="M668 -26q-142 0 -259.5 56.5t-198 156.5t-116 231.5t-14.5 281.5t93 281.5t181.5 231.5t242.5 156.5t275 56.5q143 0 260 -56.5t197.5 -156.5t116 -231.5t14.5 -281.5t-93 -281.5t-181.5 -231.5t-242 -156.5t-275.5 -56.5zM710 274q80 0 155.5 33.5t137.5 92t103.5 135.5
t53.5 165t-7.5 165t-65 135.5t-111.5 92t-146 33.5t-155.5 -33.5t-137.5 -92t-103.5 -135.5t-53.5 -165t7.5 -165t65 -135.5t111.5 -92t146 -33.5zM607 -465q-65 0 -103 43t-29 107q9 63 59 106.5t114 43.5q63 0 100.5 -43.5t28.5 -106.5q-9 -64 -57.5 -107t-112.5 -43z
M1093 1798l154 -288h-200l-137 188l-187 -188h-200l230 288h340z" />
    <glyph glyph-name="uni1ED9" unicode="&#x1ed9;" 
d="M458 -26q-138 0 -241.5 71t-154 190.5t-30.5 264.5q15 110 67.5 205.5t131.5 168t175.5 113.5t199.5 41q138 0 241.5 -71t154.5 -191t30 -266q-15 -109 -67.5 -204t-131.5 -167.5t-175 -113.5t-200 -41zM500 274q57 0 106.5 31t83.5 82.5t42 112.5q9 63 -11 115
t-61.5 82.5t-95.5 30.5q-56 0 -106 -31.5t-83.5 -83.5t-42.5 -113q-9 -64 11.5 -115t61.5 -81t95 -30zM397 -465q-65 0 -103 43t-29 107q9 63 59 106.5t114 43.5q63 0 100.5 -43.5t28.5 -106.5q-9 -64 -57.5 -107t-112.5 -43zM827 1398l154 -288h-200l-137 188l-187 -188
h-200l230 288h340z" />
    <glyph glyph-name="uni1EE4" unicode="&#x1ee4;" horiz-adv-x="1378" 
d="M588 -26q-168 0 -285 82t-170 220.5t-29 307.5l114 816h300l-114 -816q-12 -85 10 -155.5t76.5 -112.5t139.5 -42q86 0 152 41.5t107 112t53 156.5l114 816h300l-114 -816q-18 -127 -75 -237.5t-144 -194.5t-198 -131t-237 -47zM526 -465q-65 0 -103 43t-29 107
q9 63 59 106.5t114 43.5q63 0 100.5 -43.5t28.5 -106.5q-9 -64 -57.5 -107t-112.5 -43z" />
    <glyph glyph-name="uni1EE5" unicode="&#x1ee5;" horiz-adv-x="1099" 
d="M33 363l89 637h300l-78 -553q-6 -47 11.5 -85.5t53 -61t81.5 -22.5q47 0 88.5 22.5t69.5 61t34 85.5l78 553h300l-139 -1000h-300l8 65q-56 -43 -123.5 -67t-138.5 -24q-107 0 -188 52.5t-121 140.5t-25 196zM425 -463q-65 0 -103 43t-29 107q9 63 59 106.5t114 43.5
q63 0 100.5 -43.5t28.5 -106.5q-9 -64 -57.5 -107t-112.5 -43z" />
    <glyph glyph-name="Ygrave" unicode="&#x1ef2;" horiz-adv-x="1392" 
d="M1076 1400h354l-594 -770l-88 -630h-300l88 630l-378 770h354l220 -444zM552 1798h300l40 -288h-200z" />
    <glyph glyph-name="ygrave" unicode="&#x1ef3;" horiz-adv-x="1206" 
d="M848 1000h320l-759 -1500h-318l251 500l-220 1000h328l99 -590zM403 1398h300l40 -288h-200z" />
    <glyph glyph-name="uni1EF4" unicode="&#x1ef4;" horiz-adv-x="1392" 
d="M1076 1400h354l-594 -770l-88 -630h-300l88 630l-378 770h354l220 -444zM533 -465q-65 0 -103 43t-29 107q9 63 59 106.5t114 43.5q63 0 100.5 -43.5t28.5 -106.5q-9 -64 -57.5 -107t-112.5 -43z" />
    <glyph glyph-name="uni1EF5" unicode="&#x1ef5;" horiz-adv-x="1206" 
d="M848 1000h320l-759 -1500h-318l251 500l-220 1000h328l99 -590zM702 -465q-65 0 -103 43t-29 107q9 63 59 106.5t114 43.5q63 0 100.5 -43.5t28.5 -106.5q-9 -64 -57.5 -107t-112.5 -43z" />
    <glyph glyph-name="uni1EF8" unicode="&#x1ef8;" horiz-adv-x="1392" 
d="M1076 1400h354l-594 -770l-88 -630h-300l88 630l-378 770h354l220 -444zM963 1491q-38 0 -87.5 27.5t-97.5 60t-82.5 51t-42.5 1.5q-9 -18 -7.5 -35t5.5 -47l-174 -46q-18 89 4 160t78 112.5t138 41.5q36 0 82 -21.5t90.5 -49.5t78 -49.5t43.5 -21.5q19 0 23 12t0.5 30.5
t-8.5 37.5l180 56q18 -94 -7 -166t-82 -113t-134 -41z" />
    <glyph glyph-name="uni1EF9" unicode="&#x1ef9;" horiz-adv-x="1206" 
d="M848 1000h320l-759 -1500h-318l251 500l-220 1000h328l99 -590zM814 1091q-38 0 -87.5 27.5t-97.5 60t-82.5 51t-42.5 1.5q-9 -18 -7.5 -35t5.5 -47l-174 -46q-18 89 4 160t78 112.5t138 41.5q36 0 82 -21.5t90.5 -49.5t78 -49.5t43.5 -21.5q19 0 23 12t0.5 30.5
t-8.5 37.5l180 56q18 -94 -7 -166t-82 -113t-134 -41z" />
    <glyph glyph-name="uni2002" unicode="&#x2002;" horiz-adv-x="1000" 
 />
    <glyph glyph-name="uni2009" unicode="&#x2009;" horiz-adv-x="400" 
 />
    <glyph glyph-name="uni200B" unicode="&#x200b;" horiz-adv-x="0" 
 />
    <glyph glyph-name="endash" unicode="&#x2013;" horiz-adv-x="1240" 
d="M127 750h1000l-42 -300h-1000z" />
    <glyph glyph-name="emdash" unicode="&#x2014;" horiz-adv-x="2040" 
d="M127 750h1800l-42 -300h-1800z" />
    <glyph glyph-name="quoteright" unicode="&#x2019;" horiz-adv-x="462" 
d="M65 878l135 522h300l-235 -522h-200z" />
    <glyph glyph-name="quoteright" unicode="&#x2032;" horiz-adv-x="462" 
d="M65 878l135 522h300l-235 -522h-200z" />
    <glyph glyph-name="quotesinglbase" unicode="&#x201a;" horiz-adv-x="522" 
d="M-34 -112l109 338h300l-209 -338h-200z" />
    <glyph glyph-name="quotedblleft" unicode="&#x201c;" horiz-adv-x="888" 
d="M145 878l235 522h200l-135 -522h-300zM511 882l235 522h200l-135 -522h-300z" />
    <glyph glyph-name="quotedblright" unicode="&#x201d;" horiz-adv-x="888" 
d="M65 878l135 522h300l-235 -522h-200zM431 878l135 522h300l-235 -522h-200z" />
    <glyph glyph-name="quotedblright" unicode="&#x2033;" horiz-adv-x="888" 
d="M65 878l135 522h300l-235 -522h-200zM431 878l135 522h300l-235 -522h-200z" />
    <glyph glyph-name="quotedblbase" unicode="&#x201e;" horiz-adv-x="942" 
d="M-34 -112l109 338h300l-209 -338h-200zM386 -112l109 338h300l-209 -338h-200z" />
    <glyph glyph-name="dagger" unicode="&#x2020;" horiz-adv-x="896" 
d="M122 1000l42 300h218l28 200h300l-28 -200h218l-42 -300h-218l-62 -440h-300l62 440h-218z" />
    <glyph glyph-name="daggerdbl" unicode="&#x2021;" horiz-adv-x="896" 
d="M80 702l42 298h218l14 100h-218l42 300h218l14 100h300l-14 -100h218l-42 -300h-218l-14 -100h218l-42 -298h-218l-20 -142h-300l20 142h-218z" />
    <glyph glyph-name="bullet" unicode="&#x2022;" horiz-adv-x="560" 
d="M238 400q-84 0 -134 58t-38 142q11 83 77.5 141.5t150.5 58.5q83 0 133 -58.5t39 -141.5q-12 -84 -78.5 -142t-149.5 -58z" />
    <glyph glyph-name="ellipsis" unicode="&#x2026;" horiz-adv-x="1380" 
d="M128 -26q-63 0 -100.5 43.5t-28.5 106.5q9 62 58.5 106t112.5 44q62 0 100 -44t29 -106q-9 -63 -59 -106.5t-112 -43.5zM568 -26q-63 0 -100.5 43.5t-28.5 106.5q9 62 58.5 106t112.5 44q62 0 100 -44t29 -106q-9 -63 -59 -106.5t-112 -43.5zM1008 -26q-63 0 -100.5 43.5
t-28.5 106.5q9 62 58.5 106t112.5 44q62 0 100 -44t29 -106q-9 -63 -59 -106.5t-112 -43.5z" />
    <glyph glyph-name="perthousand" unicode="&#x2030;" horiz-adv-x="2350" 
d="M140 0l1004 1400h346l-1004 -1400h-346zM422 760q-91 0 -160.5 44t-104.5 119.5t-22 168.5q14 96 71 171t139 118t171 43q91 0 160 -44.5t103.5 -120t21.5 -167.5q-13 -95 -70 -170t-139 -118.5t-170 -43.5zM451 960q54 0 98.5 38.5t51.5 93.5q8 56 -25.5 94t-87.5 38
q-55 0 -100 -38t-53 -94q-7 -55 27 -93.5t89 -38.5zM1114 -26q-93 0 -161.5 46.5t-102 122.5t-21.5 163q13 95 70 170.5t139 119.5t170 44q96 0 165 -47t101.5 -123t20.5 -164q-13 -91 -69 -166.5t-138 -120.5t-174 -45zM1142 174q56 0 101 39t52 93q8 56 -26 95t-90 39
q-54 0 -98 -39t-52 -95q-7 -54 26 -93t87 -39zM1834 -26q-93 0 -161.5 46.5t-102 122.5t-21.5 163q13 95 70 170.5t139 119.5t170 44q96 0 165 -47t101.5 -123t20.5 -164q-13 -91 -69 -166.5t-138 -120.5t-174 -45zM1862 174q56 0 101 39t52 93q8 56 -26 95t-90 39
q-54 0 -98 -39t-52 -95q-7 -54 26 -93t87 -39z" />
    <glyph glyph-name="uni2035" unicode="&#x2035;" horiz-adv-x="602" 
d="M307 878l-89 522h300l-11 -522h-200z" />
    <glyph glyph-name="guilsinglleft" unicode="&#x2039;" horiz-adv-x="820" 
d="M358 261l-252 340l348 338h300l-346 -338l250 -340h-300z" />
    <glyph glyph-name="guilsinglright" unicode="&#x203a;" horiz-adv-x="820" 
d="M38 261l346 340l-250 338h300l252 -338l-348 -340h-300z" />
    <glyph glyph-name="fraction" unicode="&#x2044;" horiz-adv-x="450" 
d="M-398 0l1004 1400h242l-1004 -1400h-242z" />
    <glyph glyph-name="fraction" unicode="&#x2215;" horiz-adv-x="450" 
d="M-398 0l1004 1400h242l-1004 -1400h-242z" />
    <glyph glyph-name="uni2070" unicode="&#x2070;" horiz-adv-x="648" 
d="M338 798q-69 0 -120.5 44t-74.5 120t-10 172q14 95 58.5 170.5t108 119.5t132.5 44q70 0 121 -44t74.5 -119.5t9.5 -170.5q-13 -96 -58 -172t-108 -120t-133 -44zM360 954q28 0 51 31.5t38.5 74t19.5 74.5q6 38 1.5 79t-19 70t-41.5 29q-30 0 -52.5 -30t-37 -71.5
t-19.5 -76.5q-5 -39 -1.5 -81t18.5 -70.5t42 -28.5z" />
    <glyph glyph-name="uni2074" unicode="&#x2074;" horiz-adv-x="696" 
d="M348 818l12 86h-235l28 202l266 343h185l-53 -377h53l-23 -168h-53l-12 -86h-168zM311 1072h89l20 142z" />
    <glyph glyph-name="uni2075" unicode="&#x2075;" horiz-adv-x="706" 
d="M336 798q-97 0 -158.5 63.5t-47.5 162.5h168q-4 -28 13.5 -49t46.5 -21q30 0 54 21t28 49q4 29 -14.5 47.5t-48.5 22.5q-16 2 -53 1.5t-79.5 -3t-75.5 -6.5l85 363h341l-20 -144h-188l-6 -43q121 0 181 -67t46 -171q-14 -99 -93.5 -162.5t-178.5 -63.5z" />
    <glyph glyph-name="uni2076" unicode="&#x2076;" horiz-adv-x="706" 
d="M343 798q-97 0 -156.5 61t-45.5 160q4 27 13.5 51t35.5 63.5t79 113t143 199.5h195l-146 -201q56 -19 91 -52.5t48.5 -78t6.5 -97.5q-9 -65 -48 -114.5t-95.5 -77t-120.5 -27.5zM365 954q31 0 53.5 24.5t19.5 55.5q-2 21 -17 34.5t-38 13.5q-38 0 -58 -27t-17 -53
q2 -28 20.5 -38t36.5 -10z" />
    <glyph glyph-name="uni2077" unicode="&#x2077;" horiz-adv-x="686" 
d="M173 818l328 460h-300l24 168h494l-23 -163l-331 -465h-192z" />
    <glyph glyph-name="uni2078" unicode="&#x2078;" horiz-adv-x="636" 
d="M331 798q-92 0 -148.5 57.5t-43.5 149.5q6 41 24.5 78t45.5 66q-14 25 -19.5 56.5t-1.5 63.5q12 88 81.5 144.5t155.5 56.5t140.5 -56.5t42.5 -144.5q-4 -32 -18.5 -63.5t-36.5 -56.5q20 -29 28 -66t2 -78q-13 -92 -85.5 -149.5t-166.5 -57.5zM352 952q23 0 41.5 15.5
t21.5 37.5q3 23 -10.5 39t-36.5 16q-22 0 -40 -16t-21 -39q-3 -22 10 -37.5t35 -15.5zM391 1228q18 0 32.5 12.5t16.5 28.5q2 18 -8.5 30.5t-28.5 12.5q-16 0 -30.5 -12.5t-16.5 -30.5q-2 -16 8.5 -28.5t26.5 -12.5z" />
    <glyph glyph-name="uni2079" unicode="&#x2079;" horiz-adv-x="658" 
d="M147 818l145 204q-40 10 -69 32t-47.5 52.5t-25 66.5t-1.5 74q14 95 90.5 158t173.5 63q50 0 90 -17t67.5 -47.5t39 -70.5t5.5 -86q-8 -58 -48 -115l-226 -314h-194zM373 1182q18 0 34 9.5t27 25t13 33.5q4 23 -14.5 42.5t-41.5 19.5q-21 0 -37 -10.5t-25.5 -25.5
t-11.5 -31q-5 -36 16.5 -49.5t39.5 -13.5z" />
    <glyph glyph-name="uni2080" unicode="&#x2080;" horiz-adv-x="648" 
d="M221 -31q-69 0 -120 47t-73.5 126t-9.5 175q14 95 59 173t109 125t133 47q70 0 120.5 -47t73.5 -125t9 -173q-13 -96 -58.5 -175t-109 -126t-133.5 -47zM245 137q28 0 51 31.5t38.5 74t19.5 74.5q6 37 1.5 78t-19 70t-41.5 29q-30 0 -52.5 -30t-37 -71t-19.5 -76
q-5 -39 -1.5 -81t18.5 -70.5t42 -28.5z" />
    <glyph glyph-name="uni2081" unicode="&#x2081;" horiz-adv-x="466" 
d="M56 0l65 463h-58l47 168h202l-88 -631h-168z" />
    <glyph glyph-name="uni2082" unicode="&#x2082;" horiz-adv-x="727" 
d="M-2 0l20 146q47 30 96 57.5t96 57.5t89 68t76 89q5 32 -13.5 54t-49.5 22q-32 0 -57.5 -22t-30.5 -54h-168q10 67 51 122.5t101.5 88.5t127.5 33t117 -33t75 -88.5t15 -122.5q-5 -39 -25.5 -72t-50.5 -63t-66 -58t-73 -57h168l-23 -168h-475z" />
    <glyph glyph-name="uni2083" unicode="&#x2083;" horiz-adv-x="588" 
d="M192 -31q-61 0 -107.5 30.5t-69.5 81t-14 111.5h168q-4 -23 10 -39t37 -16q22 0 39.5 16t21.5 39q4 29 -19.5 56.5t-79.5 27.5l15 106q57 0 78.5 25t24.5 47q2 16 -8 28t-27 12q-16 0 -30 -12t-16 -28h-168q13 86 82.5 147t155.5 61q87 0 139.5 -61t39.5 -147
q-4 -33 -17 -63t-35 -57q23 -29 30.5 -66.5t2.5 -75.5q-9 -61 -46.5 -111.5t-92 -81t-114.5 -30.5z" />
    <glyph glyph-name="uni2084" unicode="&#x2084;" horiz-adv-x="696" 
d="M233 0l12 86h-235l28 202l266 343h185l-53 -377h53l-23 -168h-53l-12 -86h-168zM196 254h89l20 142z" />
    <glyph glyph-name="uni2085" unicode="&#x2085;" horiz-adv-x="706" 
d="M219 -31q-65 0 -114.5 32t-74 85.5t-15.5 119.5h168q-4 -28 13.5 -48.5t46.5 -20.5q30 0 54 20.5t28 48.5q4 29 -14.5 49.5t-48.5 20.5h-209l86 355h341l-20 -146h-188l-6 -41h24q117 0 167 -68.5t36 -169.5q-9 -66 -49.5 -119.5t-99.5 -85.5t-125 -32z" />
    <glyph glyph-name="uni2086" unicode="&#x2086;" horiz-adv-x="682" 
d="M226 -31q-97 0 -155.5 67t-44.5 166q4 27 13.5 51t35.5 63.5t79 113t143 199.5h195l-146 -202q56 -19 91 -52.5t48.5 -78t6.5 -97.5q-9 -64 -48.5 -116.5t-96.5 -83t-121 -30.5zM250 137q31 0 53.5 24t19.5 55q-2 22 -17 35t-38 13q-38 0 -57 -27t-17 -52q2 -29 20 -38.5
t36 -9.5z" />
    <glyph glyph-name="uni2087" unicode="&#x2087;" horiz-adv-x="686" 
d="M55 0l332 463h-300l23 168h494l-23 -163l-334 -468h-192z" />
    <glyph glyph-name="uni2088" unicode="&#x2088;" horiz-adv-x="636" 
d="M214 -31q-92 0 -147.5 63.5t-42.5 154.5q6 41 24.5 78.5t45.5 65.5q-14 26 -19.5 57t-1.5 63q13 89 83 150t156 61t140 -61t41 -150q-4 -32 -18.5 -63t-36.5 -57q20 -28 28 -65.5t2 -78.5q-13 -91 -86.5 -154.5t-167.5 -63.5zM237 134q23 0 41.5 15.5t21.5 37.5
q3 23 -10.5 39t-36.5 16q-22 0 -40 -16t-21 -39q-3 -22 10 -37.5t35 -15.5zM276 410q18 0 32.5 12.5t16.5 28.5q2 18 -8.5 30.5t-28.5 12.5q-16 0 -30.5 -12.5t-16.5 -30.5q-2 -16 8.5 -28.5t26.5 -12.5z" />
    <glyph glyph-name="uni2089" unicode="&#x2089;" horiz-adv-x="658" 
d="M32 0l145 204q-40 10 -69 32t-47.5 53t-25 67t-1.5 74q9 64 47.5 116.5t96 84t122.5 31.5q66 0 113.5 -31.5t70.5 -83t16.5 -113t-48.5 -120.5l-226 -314h-194zM258 365q18 0 34 9.5t27 24.5t13 33q4 23 -14.5 42.5t-41.5 19.5q-21 0 -37 -10.5t-25.5 -25.5t-11.5 -31
q-5 -36 16.5 -49t39.5 -13z" />
    <glyph glyph-name="Euro" unicode="&#x20ac;" horiz-adv-x="1096" 
d="M915 -16q-136 -21 -254 5t-211 91.5t-154.5 163.5t-84.5 222h-164l28 200h128l9 64h-128l28 200h164q57 126 146.5 225t201 165t237.5 91.5t256 4.5l-44 -310q-67 22 -133 19t-127.5 -27.5t-115 -67t-95.5 -100.5h238l-28 -200h-300l-7 -64h298l-28 -200h-236
q28 -59 70.5 -101t97.5 -65t118.5 -25t133.5 19z" />
    <glyph glyph-name="trademark" unicode="&#x2122;" horiz-adv-x="3084" 
d="M1278 1400l-42 -300h-400l-154 -1100h-300l154 1100h-400l42 300h1100zM1181 0l468 1400h256l198 -826l430 826h256l76 -1400h-306l-40 756l-392 -756h-208l-180 756l-252 -756h-306z" />
    <glyph glyph-name="oneeighth" unicode="&#x215b;" horiz-adv-x="1552" 
d="M171 818l65 463h-58l47 168h202l-88 -631h-168zM68 0l1004 1400h242l-1004 -1400h-242zM1130 -31q-92 0 -147.5 63.5t-42.5 154.5q6 41 24.5 78.5t45.5 65.5q-14 26 -19.5 57t-1.5 63q13 89 83 150t156 61t140 -61t41 -150q-4 -32 -18.5 -63t-36.5 -57q20 -28 28 -65.5
t2 -78.5q-13 -91 -86.5 -154.5t-167.5 -63.5zM1153 134q23 0 41.5 15.5t21.5 37.5q3 23 -10.5 39t-36.5 16q-22 0 -40 -16t-21 -39q-3 -22 10 -37.5t35 -15.5zM1192 410q18 0 32.5 12.5t16.5 28.5q2 18 -8.5 30.5t-28.5 12.5q-16 0 -30.5 -12.5t-16.5 -30.5
q-2 -16 8.5 -28.5t26.5 -12.5z" />
    <glyph glyph-name="threeeighths" unicode="&#x215c;" horiz-adv-x="1674" 
d="M309 798q-91 0 -148.5 60t-44.5 152h168q-4 -24 10 -40t37 -16q22 0 39.5 16t21.5 40q4 29 -19.5 56.5t-79.5 27.5l15 105q57 0 78.5 25t24.5 47q2 17 -8 29t-27 12q-16 0 -30 -12t-16 -29h-168q12 86 81 141.5t155 55.5q87 0 140 -55.5t41 -141.5q-4 -32 -17.5 -62.5
t-35.5 -57.5q23 -28 31 -65.5t3 -75.5q-13 -92 -87 -152t-164 -60zM190 0l1004 1400h242l-1004 -1400h-242zM1252 -31q-92 0 -147.5 63.5t-42.5 154.5q6 41 24.5 78.5t45.5 65.5q-14 26 -19.5 57t-1.5 63q13 89 83 150t156 61t140 -61t41 -150q-4 -32 -18.5 -63t-36.5 -57
q20 -28 28 -65.5t2 -78.5q-13 -91 -86.5 -154.5t-167.5 -63.5zM1275 134q23 0 41.5 15.5t21.5 37.5q3 23 -10.5 39t-36.5 16q-22 0 -40 -16t-21 -39q-3 -22 10 -37.5t35 -15.5zM1314 410q18 0 32.5 12.5t16.5 28.5q2 18 -8.5 30.5t-28.5 12.5q-16 0 -30.5 -12.5t-16.5 -30.5
q-2 -16 8.5 -28.5t26.5 -12.5z" />
    <glyph glyph-name="fiveeighths" unicode="&#x215d;" horiz-adv-x="1792" 
d="M336 798q-97 0 -158.5 63.5t-47.5 162.5h168q-4 -28 13.5 -49t46.5 -21q30 0 54 21t28 49q4 29 -14.5 47.5t-48.5 22.5q-16 2 -53 1.5t-79.5 -3t-75.5 -6.5l85 363h341l-20 -144h-188l-6 -43q121 0 181 -67t46 -171q-14 -99 -93.5 -162.5t-178.5 -63.5zM308 0l1004 1400
h242l-1004 -1400h-242zM1370 -31q-92 0 -147.5 63.5t-42.5 154.5q6 41 24.5 78.5t45.5 65.5q-14 26 -19.5 57t-1.5 63q13 89 83 150t156 61t140 -61t41 -150q-4 -32 -18.5 -63t-36.5 -57q20 -28 28 -65.5t2 -78.5q-13 -91 -86.5 -154.5t-167.5 -63.5zM1393 134
q23 0 41.5 15.5t21.5 37.5q3 23 -10.5 39t-36.5 16q-22 0 -40 -16t-21 -39q-3 -22 10 -37.5t35 -15.5zM1432 410q18 0 32.5 12.5t16.5 28.5q2 18 -8.5 30.5t-28.5 12.5q-16 0 -30.5 -12.5t-16.5 -30.5q-2 -16 8.5 -28.5t26.5 -12.5z" />
    <glyph glyph-name="seveneighths" unicode="&#x215e;" horiz-adv-x="1772" 
d="M173 818l328 460h-300l24 168h494l-23 -163l-331 -465h-192zM288 0l1004 1400h242l-1004 -1400h-242zM1350 -31q-92 0 -147.5 63.5t-42.5 154.5q6 41 24.5 78.5t45.5 65.5q-14 26 -19.5 57t-1.5 63q13 89 83 150t156 61t140 -61t41 -150q-4 -32 -18.5 -63t-36.5 -57
q20 -28 28 -65.5t2 -78.5q-13 -91 -86.5 -154.5t-167.5 -63.5zM1373 134q23 0 41.5 15.5t21.5 37.5q3 23 -10.5 39t-36.5 16q-22 0 -40 -16t-21 -39q-3 -22 10 -37.5t35 -15.5zM1412 410q18 0 32.5 12.5t16.5 28.5q2 18 -8.5 30.5t-28.5 12.5q-16 0 -30.5 -12.5t-16.5 -30.5
q-2 -16 8.5 -28.5t26.5 -12.5z" />
    <glyph glyph-name="arrowleft" unicode="&#x2190;" horiz-adv-x="1426" 
d="M561 198l-474 552l630 552l182 -212l-217 -190h692l-42 -300h-692l163 -190z" />
    <glyph glyph-name="arrowup" unicode="&#x2191;" horiz-adv-x="1264" 
d="M400 116l97 692l-216 -188l-182 212l629 552l475 -552l-242 -212l-164 188l-97 -692h-300z" />
    <glyph glyph-name="arrowright" unicode="&#x2192;" horiz-adv-x="1428" 
d="M725 198l-182 212l215 190h-692l42 300h692l-161 190l242 212l474 -552z" />
    <glyph glyph-name="arrowdown" unicode="&#x2193;" horiz-adv-x="1262" 
d="M548 116l-472 552l241 212l162 -188l97 692h300l-97 -692l216 188l183 -212z" />
    <glyph glyph-name="arrowboth" unicode="&#x2194;" horiz-adv-x="1928" 
d="M561 198l-474 552l630 552l182 -212l-217 -190h618l-161 190l242 212l474 -552l-630 -552l-182 212l215 190h-618l163 -190z" />
    <glyph glyph-name="arrowupdn" unicode="&#x2195;" horiz-adv-x="1264" 
d="M515 -134l-475 552l242 212l164 -188l86 616l-216 -188l-182 212l629 552l475 -552l-242 -212l-164 188l-86 -616l216 188l182 -212z" />
    <glyph glyph-name="uni2196" unicode="&#x2196;" horiz-adv-x="1162" 
d="M807 249l-422 490l-37 -268h-300l109 780h780l-42 -300h-268l421 -490z" />
    <glyph glyph-name="uni2197" unicode="&#x2197;" horiz-adv-x="1162" 
d="M229 250l-182 212l558 488h-270l42 300h782l-109 -780h-300l37 268z" />
    <glyph glyph-name="uni2198" unicode="&#x2198;" horiz-adv-x="1162" 
d="M239 250l42 300h268l-421 488l241 212l422 -488l37 268h300l-109 -780h-780z" />
    <glyph glyph-name="uni2199" unicode="&#x2199;" horiz-adv-x="1162" 
d="M17 250l109 780h300l-37 -268l558 488l183 -212l-559 -488h268l-42 -300h-780z" />
    <glyph glyph-name="partialdiff" unicode="&#x2202;" horiz-adv-x="1166" 
d="M482 -26q-139 0 -244 68t-156.5 182t-32.5 252q15 104 66.5 195.5t130.5 161t176 108.5t201 39q20 0 40 -1.5t39 -6.5q-15 41 -31 87t-44.5 87.5t-78.5 67.5t-132 26l40 300q173 0 299.5 -84.5t204 -229.5t103 -329.5t-2.5 -384.5q-22 -157 -104.5 -278.5t-205.5 -190.5
t-268 -69zM524 274q55 0 105 27.5t84 73.5t42 101q8 56 -13.5 102.5t-63.5 74t-97 27.5q-56 0 -106 -27.5t-84 -74t-42 -102.5q-8 -55 13 -101t63.5 -73.5t98.5 -27.5z" />
    <glyph glyph-name="emptyset" unicode="&#x2205;" horiz-adv-x="1160" 
d="M270 -86l-192 120l68 94q-58 72 -83.5 168t-10.5 204q15 110 67.5 205.5t131.5 168t175.5 113.5t199.5 41q39 0 76.5 -6t70.5 -18l62 84l191 -120l-68 -94q58 -72 83.5 -168t10.5 -206q-15 -109 -67.5 -204t-131.5 -167.5t-175 -113.5t-200 -41q-40 0 -77 6t-72 18z
M329 380l276 386q-50 -1 -97 -24.5t-85.5 -63t-64 -90t-33.5 -106.5q-4 -28 -2.5 -53t6.5 -49zM499 236q52 2 99 24.5t84.5 61.5t62.5 89.5t33 106.5q5 29 3.5 54.5t-6.5 49.5z" />
    <glyph glyph-name="product" unicode="&#x220f;" horiz-adv-x="1280" 
d="M178 1400h1120l-42 -300h-1120zM259 1194h300l-167 -1194h-300zM859 1194h300l-167 -1194h-300z" />
    <glyph glyph-name="summation" unicode="&#x2211;" horiz-adv-x="906" 
d="M-18 0l42 300l260 398l-148 398l42 300h766l-42 -300h-428l146 -398l-258 -398h428l-42 -300h-766z" />
    <glyph glyph-name="minus" unicode="&#x2212;" horiz-adv-x="1160" 
d="M45 450l42 300h1000l-42 -300h-1000z" />
    <glyph glyph-name="radical" unicode="&#x221a;" horiz-adv-x="1378" 
d="M1016 1400h380l-42 -300h-170l-556 -1100h-388l-159 708h318l83 -364z" />
    <glyph glyph-name="infinity" unicode="&#x221e;" horiz-adv-x="1548" 
d="M400 228q-120 10 -199 63t-113 136.5t-20 186.5q16 109 76.5 196.5t154.5 138.5t209 51q62 0 114 -18t94.5 -53t77.5 -85q53 52 106.5 86.5t109.5 52t116 17.5q122 0 200.5 -53.5t111.5 -141.5t18 -191q-15 -110 -75.5 -197.5t-154 -138t-208.5 -50.5q-63 0 -115 18
t-94.5 52.5t-79.5 83.5q-51 -52 -104.5 -88t-109.5 -53.5t-115 -12.5zM434 500q29 0 62.5 22t61.5 49t40 43q-9 18 -30 45.5t-47.5 48t-54.5 18.5q-56 -1 -89.5 -37t-38.5 -75q-7 -48 19 -81t77 -33zM1060 500q56 2 89 37t39 77q6 44 -17 79t-67 35q-34 0 -66.5 -18.5
t-60.5 -45t-49 -50.5q7 -13 20.5 -32.5t31.5 -38.5t38.5 -31.5t41.5 -11.5z" />
    <glyph glyph-name="integral" unicode="&#x222b;" horiz-adv-x="1179" 
d="M300 -26q-95 0 -163.5 42.5t-99.5 117.5t-12 172l182 -14q1 -34 3 -58t35 -24t58 17.5t33 48.5l224 920q18 64 71 116t123.5 83t139.5 31q90 0 155.5 -47.5t94.5 -124t9 -162.5l-164 16q0 51 -23.5 67.5t-55.5 10.5q-22 -3 -42 -20t-30 -50l-220 -914
q-47 -123 -136 -175.5t-182 -52.5z" />
    <glyph glyph-name="approxequal" unicode="&#x2248;" horiz-adv-x="1349" 
d="M912 658q-67 0 -139.5 23t-145 53t-138 53t-118.5 23q-25 0 -39 -12.5t-21 -32.5t-10 -41l-293 8q1 94 53.5 175.5t136.5 132t180 50.5q67 0 131.5 -24t126 -56t119 -56t109.5 -24q25 0 40 12t23 32.5t11 45.5l293 -8q-1 -94 -40.5 -174.5t-111 -130t-167.5 -49.5z
M912 110q-67 0 -139.5 23t-145 53t-138 53t-118.5 23q-25 0 -39 -12.5t-21 -32.5t-10 -41l-293 8q1 94 53.5 175.5t136.5 132t180 50.5q67 0 131.5 -24t126 -56t119 -56t109.5 -24q25 0 40 12t23 32.5t11 45.5l293 -8q-1 -94 -40.5 -174.5t-111 -130t-167.5 -49.5z" />
    <glyph glyph-name="notequal" unicode="&#x2260;" horiz-adv-x="1160" 
d="M974 1182l-92 -210h236l-42 -300h-324l-62 -144h366l-42 -300h-454l-92 -210h-312l92 210h-234l42 300h322l62 144h-364l42 300h452l92 210h312z" />
    <glyph glyph-name="lessequal" unicode="&#x2264;" horiz-adv-x="1160" 
d="M1028 328l-960 284l70 502l1040 286l-43 -312l-818 -224l755 -224zM-18 0l42 300h1000l-42 -300h-1000z" />
    <glyph glyph-name="greaterequal" unicode="&#x2265;" horiz-adv-x="1160" 
d="M31 352l44 312l816 212l-756 212l43 312l962 -274l-71 -502zM-18 0l42 300h1000l-42 -300h-1000z" />
    <glyph glyph-name="lozenge" unicode="&#x25ca;" horiz-adv-x="1200" 
d="M230 0l-170 702l364 698h548l168 -698l-366 -702h-544zM520 134l306 568l-146 568l-304 -568z" />
    <glyph glyph-name="uniFFFD" unicode="&#xfffd;" horiz-adv-x="1630" 
d="M714 -26q-54 0 -103 20t-86 62l-355 414q-36 42 -48.5 94t-5.5 106q8 54 36 106t74 92l472 414q48 42 102.5 62t108.5 20t102.5 -20t84.5 -62l356 -414q36 -42 49 -93t5 -105q-7 -54 -34.5 -106t-75.5 -94l-473 -414q-46 -40 -100.5 -61t-108.5 -21zM754 230
q42 0 75 29.5t39 72.5q6 41 -19 69.5t-67 28.5t-75 -28.5t-39 -69.5q-6 -43 19 -72.5t67 -29.5zM688 512h200v2q3 25 27 38q68 36 114.5 98.5t56.5 137.5q11 74 -17 135t-83.5 97t-129.5 36t-140 -36t-110.5 -97t-55.5 -135h200q5 29 27.5 48.5t50.5 19.5q29 0 46 -19.5
t12 -48.5q-2 -19 -13 -35.5t-27 -24.5q-66 -30 -107 -88t-51 -126v-2z" />
    </font>
</defs>
</svg>
