<?xml version="1.0" standalone="no"?>
<!DOCTYPE svg PUBLIC "-//W3C//DTD SVG 1.1//EN" "http://www.w3.org/Graphics/SVG/1.1/DTD/svg11.dtd" >
<svg xmlns="http://www.w3.org/2000/svg" xmlns:xlink="http://www.w3.org/1999/xlink" version="1.1">
<metadata>
Created by FontForge 20201107 at Wed Oct 27 17:11:08 2021
 By 
Copyright 2021 The Urbanist Project Authors (https://github.com/coreyhu/Urbanist)
</metadata>
<defs>
<font id="Urbanist-Black" horiz-adv-x="1120" >
  <font-face 
    font-family="Urbanist Black"
    font-weight="900"
    font-stretch="normal"
    units-per-em="2000"
    panose-1="2 11 10 4 4 2 0 0 2 3"
    ascent="1600"
    descent="-400"
    x-height="1000"
    cap-height="1400"
    bbox="-300 -500 2963 2118"
    underline-thickness="50"
    underline-position="-125"
    unicode-range="U+000D-FFFD"
  />
<missing-glyph horiz-adv-x="1000" 
d="M100 -500v2400h800v-2400h-800zM200 -400h600v2200h-600v-2200z" />
    <glyph glyph-name=".notdef" horiz-adv-x="1000" 
d="M100 -500v2400h800v-2400h-800zM200 -400h600v2200h-600v-2200z" />
    <glyph glyph-name=".null" horiz-adv-x="1200" 
 />
    <glyph glyph-name=".null" horiz-adv-x="1200" 
 />
    <glyph glyph-name="nonmarkingreturn" unicode="&#xd;" horiz-adv-x="1200" 
 />
    <glyph glyph-name="nonmarkingreturn" unicode="&#xfeff;" horiz-adv-x="1200" 
 />
    <glyph glyph-name="space" unicode=" " horiz-adv-x="480" 
 />
    <glyph glyph-name="exclam" unicode="!" horiz-adv-x="498" 
d="M104 420v980h250v-980h-250zM230 -26q-63 0 -106.5 44t-43.5 108q0 62 43.5 105t106.5 43q62 0 105 -43t43 -105q0 -64 -43 -108t-105 -44z" />
    <glyph glyph-name="quotedbl" unicode="&#x22;" horiz-adv-x="626" 
d="M60 878v522h200v-522h-200zM366 878v522h200v-522h-200z" />
    <glyph glyph-name="numbersign" unicode="#" horiz-adv-x="1606" 
d="M1448 850h-148l-82 -300h150l-78 -290h-148l-70 -260h-300l70 260h-314l-68 -260h-300l68 260h-148l78 290h148l82 300h-150l78 290h148l70 260h300l-70 -260h314l68 260h300l-68 -260h148zM918 550l82 300h-312l-82 -300h312z" />
    <glyph glyph-name="dollar" unicode="$" horiz-adv-x="1224" 
d="M612 1124q-58 1 -111 -17t-87 -49t-34 -70q0 -54 32 -80.5t84.5 -37.5t115.5 -20q144 -21 265 -75t194 -144t73 -219q0 -115 -58 -205.5t-156 -148.5t-218 -76v-206h-200v206q-99 14 -186 54.5t-151 104t-95 147.5l282 104q10 -29 44.5 -56t87.5 -44.5t118 -17.5
q60 0 113 17.5t86 48.5t33 72q0 42 -34.5 69.5t-88 44t-109.5 24.5q-152 22 -272.5 72.5t-190 139.5t-69.5 226q0 116 58 207t156 149t218 76v204h200v-204q98 -14 185.5 -55t152 -105.5t94.5 -149.5l-282 -102q-10 29 -44.5 55.5t-87.5 43.5t-118 17z" />
    <glyph glyph-name="percent" unicode="%" horiz-adv-x="1630" 
d="M238 0l808 1400h346l-808 -1400h-346zM414 760q-91 0 -167 44t-121.5 119.5t-45.5 168.5q0 96 46.5 171t122.5 118t165 43q91 0 166.5 -44t120.5 -119.5t45 -168.5q0 -95 -46.5 -170t-122 -118.5t-163.5 -43.5zM414 960q54 0 93 38.5t39 93.5q0 56 -39 94t-93 38
q-55 0 -94.5 -38t-39.5 -94q0 -55 39.5 -93.5t94.5 -38.5zM1216 -26q-93 0 -168.5 46.5t-119.5 122.5t-44 163q0 95 46.5 170.5t122 119.5t163.5 44q96 0 171.5 -47t119 -123t43.5 -164q0 -91 -45 -166.5t-121 -120.5t-168 -45zM1216 174q56 0 95 39t39 93q0 56 -39 95
t-95 39q-54 0 -93 -39t-39 -95q0 -54 39 -93t93 -39z" />
    <glyph glyph-name="ampersand" unicode="&#x26;" horiz-adv-x="1438" 
d="M524 -26q-125 0 -225.5 61.5t-159.5 162.5t-59 220q0 63 11.5 111.5t38 93t71 94.5t111.5 117q-34 35 -58.5 65.5t-40 62t-22.5 66t-7 76.5q0 99 47 176t124.5 121.5t168.5 44.5q94 0 171.5 -45.5t124 -123t46.5 -173.5q0 -43 -7.5 -78t-23.5 -66t-40.5 -61.5
t-58.5 -64.5l204 -204l270 270v-424l-58 -58l206 -206l-212 -212l-206 206q-68 -68 -119 -113t-95.5 -71t-92 -37t-109.5 -11zM524 274q27 0 47.5 7.5t41.5 24.5t48 44.5t67 67.5l-204 204q-42 -42 -70 -69.5t-44 -47.5t-23 -40t-7 -47q0 -43 21 -75.5t54 -50.5t69 -18z
M524 1000q33 32 50.5 48t23.5 28.5t6 33.5q0 41 -27 60.5t-53 19.5q-30 0 -55 -22.5t-25 -57.5q0 -21 8 -35t25.5 -30.5t46.5 -44.5z" />
    <glyph glyph-name="quotesingle" unicode="'" horiz-adv-x="320" 
d="M60 878v522h200v-522h-200z" />
    <glyph glyph-name="parenleft" unicode="(" horiz-adv-x="820" 
d="M420 -112q-105 105 -171 219t-97.5 246t-31.5 291q0 68 15.5 159t43 188t65 183t82.5 147t94 79h300q-37 -19 -78 -79t-80.5 -145t-71.5 -181t-51 -188t-19 -163q0 -156 47.5 -300.5t117 -262t135.5 -193.5h-300z" />
    <glyph glyph-name="parenright" unicode=")" horiz-adv-x="820" 
d="M100 -112q66 76 135.5 193.5t117 262t47.5 300.5q0 71 -19 163t-51 188t-71.5 181t-80.5 145t-78 79h300q49 -18 94 -79t82.5 -147t65 -183t43 -188t15.5 -159q0 -159 -31 -291t-97.5 -246t-171.5 -219h-300z" />
    <glyph glyph-name="asterisk" unicode="*" horiz-adv-x="734" 
d="M264 826l-162 118l88 120l-140 44l60 192l142 -46v146h200v-146l140 46l62 -192l-142 -44l88 -120l-162 -118l-86 120z" />
    <glyph glyph-name="plus" unicode="+" horiz-adv-x="1160" 
d="M430 100v350h-350v300h350v350h300v-350h350v-300h-350v-350h-300z" />
    <glyph glyph-name="comma" unicode="," horiz-adv-x="562" 
d="M80 -112l62 338h300l-162 -338h-200z" />
    <glyph glyph-name="hyphen" unicode="-" horiz-adv-x="880" 
d="M120 750h640v-300h-640v300z" />
    <glyph glyph-name="period" unicode="." horiz-adv-x="500" 
d="M230 -26q-63 0 -106.5 43.5t-43.5 106.5q0 62 43.5 106t106.5 44q62 0 106 -44t44 -106q0 -63 -44 -106.5t-106 -43.5z" />
    <glyph glyph-name="slash" unicode="/" horiz-adv-x="866" 
d="M786 1400l-406 -1512h-300l406 1512h300z" />
    <glyph glyph-name="zero" unicode="0" horiz-adv-x="1218" 
d="M610 -26q-120 0 -220.5 56.5t-174.5 156.5t-114.5 231.5t-40.5 281.5t40.5 281.5t114.5 231.5t174.5 156.5t220.5 56.5t220.5 -56.5t173.5 -156.5t113.5 -231.5t40.5 -281.5t-40.5 -281.5t-113.5 -231.5t-173.5 -156.5t-220.5 -56.5zM610 274q93 0 152.5 61t87.5 158.5
t28 206.5q0 115 -30 212t-89.5 155.5t-148.5 58.5q-70 0 -121 -35.5t-84 -96t-49 -136.5t-16 -158q0 -108 29 -205.5t89 -159t152 -61.5z" />
    <glyph glyph-name="one" unicode="1" horiz-adv-x="730" 
d="M270 0v1100h-190l80 300h410v-1400h-300z" />
    <glyph glyph-name="two" unicode="2" horiz-adv-x="1172" 
d="M80 0v268q56 35 140 97.5t176.5 140.5t173 158.5t131.5 153t51 122.5q0 51 -25 93.5t-66.5 67.5t-92.5 25t-93 -25t-67.5 -67.5t-25.5 -93.5h-300q0 138 67 248t177.5 174t241.5 64q133 0 243 -65t175.5 -175.5t65.5 -245.5q0 -67 -18 -127.5t-52.5 -119t-85.5 -119.5
t-117.5 -128.5t-146.5 -145.5h420v-300h-972z" />
    <glyph glyph-name="three" unicode="3" horiz-adv-x="1044" 
d="M522 -26q-126 0 -231 62t-168 167t-63 233h300q0 -44 22 -81t59 -59t81 -22t81 22t59 59t22 81q0 61 -34 101.5t-95.5 60.5t-144.5 20v228q110 0 173 37.5t63 112.5q0 36 -17.5 66t-47 48t-65.5 18q-37 0 -73 -18t-59.5 -48t-23.5 -66h-300q0 89 36.5 167.5t100 138
t145 93t170.5 33.5q117 0 216 -58t158.5 -156t59.5 -218q0 -70 -30 -145t-90 -107q52 -20 87 -70.5t53 -114t18 -123.5q0 -127 -62.5 -232t-167.5 -167.5t-232 -62.5z" />
    <glyph glyph-name="four" unicode="4" horiz-adv-x="1194" 
d="M672 0v310h-592v300l524 790h368v-790h102v-300h-102v-310h-300zM426 610h246v386z" />
    <glyph glyph-name="five" unicode="5" horiz-adv-x="1172" 
d="M562 -26q-139 0 -250.5 67.5t-176.5 179t-65 243.5h300q0 -53 26 -96t69.5 -68.5t96.5 -25.5q52 0 95 25.5t69 68.5t26 96t-20.5 97.5t-74 71.5t-153.5 27h-370l156 740h706v-300h-462l-30 -140l64 -2q142 -6 251 -73t171 -177t62 -244q0 -100 -38 -189t-105 -156.5
t-156 -106t-191 -38.5z" />
    <glyph glyph-name="six" unicode="6" horiz-adv-x="1110" 
d="M548 -26q-136 0 -249 67.5t-181 181t-68 251.5q0 65 16 128.5t50 121.5l390 676h348l-248 -428q76 -9 143.5 -38.5t122.5 -76t95 -106.5t61.5 -130t21.5 -147q0 -103 -39 -193.5t-108 -159.5t-160 -108t-195 -39zM548 274q58 0 103.5 28.5t72 74t26.5 95.5q0 55 -26 101
t-71.5 73.5t-102.5 27.5q-60 0 -105 -29t-70 -75t-25 -98q0 -57 28.5 -101.5t73.5 -70.5t96 -26z" />
    <glyph glyph-name="seven" unicode="7" horiz-adv-x="1116" 
d="M94 0l634 1100h-688v300h1036v-300l-636 -1100h-346z" />
    <glyph glyph-name="eight" unicode="8" horiz-adv-x="1110" 
d="M554 -26q-132 0 -239.5 60.5t-171 163t-63.5 228.5q0 87 33.5 167t94.5 143q-46 56 -73 123.5t-27 142.5q0 117 60.5 213.5t161.5 153.5t224 57t224 -57t161.5 -153.5t60.5 -213.5q0 -75 -26.5 -142.5t-73.5 -123.5q63 -63 96.5 -143t33.5 -167q0 -125 -64 -227.5
t-172 -163.5t-240 -61zM554 274q44 0 80.5 20.5t58 55t21.5 76.5t-21.5 76.5t-58 55t-80.5 20.5t-80.5 -20.5t-58 -55t-21.5 -76.5t21.5 -76.5t58 -55t80.5 -20.5zM554 878q36 0 65.5 17t47 45t17.5 62t-17.5 62t-47 45t-65.5 17t-65.5 -17t-47 -45t-17.5 -62t17.5 -62
t47 -45t65.5 -17z" />
    <glyph glyph-name="nine" unicode="9" 
d="M256 0l248 428q-95 11 -176 54t-141 110.5t-93.5 152.5t-33.5 181q0 103 39 193.5t108 159.5t160 108t195 39q136 0 249 -67.5t181 -181t68 -251.5q0 -64 -15.5 -127.5t-50.5 -122.5l-390 -676h-348zM560 726q60 0 105 29t70 75t25 98q0 57 -28 102t-73.5 70.5
t-96.5 25.5q-58 0 -103.5 -28.5t-72 -74t-26.5 -95.5q0 -55 26.5 -101t71.5 -73.5t102 -27.5z" />
    <glyph glyph-name="colon" unicode=":" horiz-adv-x="500" 
d="M230 700q-63 0 -106.5 43.5t-43.5 106.5q0 62 43.5 106t106.5 44q62 0 106 -44t44 -106q0 -63 -44 -106.5t-106 -43.5zM230 -26q-63 0 -106.5 43.5t-43.5 106.5q0 62 43.5 106t106.5 44q62 0 106 -44t44 -106q0 -63 -44 -106.5t-106 -43.5z" />
    <glyph glyph-name="semicolon" unicode=";" horiz-adv-x="562" 
d="M80 -112l62 338h300l-162 -338h-200zM292 700q-63 0 -106.5 43.5t-43.5 106.5q0 62 43.5 106t106.5 44q62 0 106 -44t44 -106q0 -63 -44 -106.5t-106 -43.5z" />
    <glyph glyph-name="less" unicode="&#x3c;" horiz-adv-x="1160" 
d="M1080 64l-1000 284v502l1000 286v-312l-786 -224l786 -224v-312z" />
    <glyph glyph-name="equal" unicode="=" horiz-adv-x="1160" 
d="M80 228v300h1000v-300h-1000zM80 672v300h1000v-300h-1000z" />
    <glyph glyph-name="greater" unicode="&#x3e;" horiz-adv-x="1160" 
d="M80 76v312l786 212l-786 212v312l1000 -274v-502z" />
    <glyph glyph-name="question" unicode="?" horiz-adv-x="1164" 
d="M426 400q0 121 61 222.5t167 159.5q42 23 66 66.5t24 97.5q0 50 -24.5 91t-66 65t-91.5 24t-91.5 -24t-66 -65t-24.5 -91h-300q0 132 65 241t174.5 174t242.5 65t242.5 -65t174.5 -174t65 -241q0 -136 -66 -251t-182 -177q-33 -17 -51.5 -48.5t-18.5 -69.5h-300zM592 -26
q-63 0 -106.5 44t-43.5 108q0 62 43.5 105t106.5 43q62 0 105 -43t43 -105q0 -64 -43 -108t-105 -44z" />
    <glyph glyph-name="at" unicode="@" horiz-adv-x="1890" 
d="M945 -286q-180 0 -336.5 62.5t-275.5 175.5t-186 265.5t-67 332.5t67 337t186 276t276 186t336 67q180 0 337 -67.5t275.5 -187t185.5 -276.5t67 -335q0 -103 -25 -200t-74 -174t-120.5 -122.5t-164.5 -45.5q-63 0 -130.5 27t-118 72t-64.5 98q-38 -25 -85 -39t-101 -14
q-109 0 -199.5 54t-144 144.5t-53.5 199.5q0 110 53.5 200.5t144 144t199.5 53.5q47 0 107.5 -10t94.5 -29v18l220 -50v-503q0 -32 14 -49t43 -17q38 0 61 44.5t33 102t10 95.5q0 118 -44.5 221t-122.5 180.5t-180 121t-218 43.5t-218.5 -44t-180.5 -121.5t-122 -180
t-44 -220.5q0 -117 43.5 -215.5t121 -170t180 -111t220.5 -39.5v-300zM953 371q49 0 89.5 24.5t65 65t24.5 89.5q0 50 -24.5 90.5t-65 64.5t-89.5 24t-89.5 -24t-65 -64.5t-24.5 -90.5q0 -49 24.5 -89.5t65 -65t89.5 -24.5z" />
    <glyph glyph-name="A" unicode="A" horiz-adv-x="1514" 
d="M588 1400h338l508 -1400h-318l-80 220h-558l-80 -220h-318zM588 520h338l-170 464z" />
    <glyph glyph-name="B" unicode="B" horiz-adv-x="1206" 
d="M120 0v1400h530q115 0 208 -47.5t147.5 -134.5t54.5 -204q0 -44 -11 -92.5t-39 -90.5t-80 -66q67 -16 106 -60t58.5 -101.5t25.5 -116t6 -105.5q0 -106 -57 -192.5t-153 -138t-212 -51.5h-584zM420 254h252q52 0 94.5 24.5t68 67.5t25.5 98q0 46 -25.5 87.5t-68 67.5
t-94.5 26h-252v-371zM420 875h194q60 0 103 40t43 101q0 62 -43 95t-103 33h-194v-269z" />
    <glyph glyph-name="C" unicode="C" horiz-adv-x="1418" 
d="M768 -26q-142 0 -267 56.5t-219.5 156.5t-148 231.5t-53.5 281.5q0 151 53.5 282.5t148 231t219.5 156t267 56.5q170 0 313 -78.5t237 -209.5l-268 -144q-52 60 -125 96t-157 36q-80 0 -150.5 -33t-124 -91.5t-83.5 -135.5t-30 -166q0 -88 30 -165t83.5 -135.5t124 -92
t150.5 -33.5q84 0 157 36.5t125 97.5l268 -146q-94 -130 -237 -209t-313 -79z" />
    <glyph glyph-name="D" unicode="D" horiz-adv-x="1344" 
d="M120 0v1400h464q145 0 271.5 -54.5t223 -151t151 -223t54.5 -271.5t-54.5 -271.5t-151 -223t-223 -151t-271.5 -54.5h-464zM420 300h164q81 0 153 31t128 86t87.5 127.5t31.5 155.5t-31.5 155t-87 127.5t-127.5 86.5t-154 31h-164v-800z" />
    <glyph glyph-name="E" unicode="E" horiz-adv-x="1112" 
d="M120 0v1400h892v-300h-592v-200h456v-300h-456v-300h592v-300h-892z" />
    <glyph glyph-name="F" unicode="F" horiz-adv-x="972" 
d="M120 0v1400h832v-300h-532v-200h436v-300h-436v-600h-300z" />
    <glyph glyph-name="G" unicode="G" horiz-adv-x="1537" 
d="M768 -26q-147 0 -272.5 57t-218.5 157.5t-145 232.5t-52 281q0 161 57.5 293t156 228.5t223 148.5t257.5 52q146 0 288 -68t256 -220l-268 -144q-61 69 -133.5 101.5t-146.5 32.5q-75 0 -145 -31t-125 -88t-87.5 -136t-32.5 -175q0 -88 30.5 -165t84.5 -134.5t125 -90
t152 -32.5q46 0 91.5 12.5t88.5 37.5t81 64t69 92h-188v260h542q8 -157 -42.5 -295.5t-145.5 -244.5t-223 -166t-277 -60z" />
    <glyph glyph-name="H" unicode="H" horiz-adv-x="1336" 
d="M916 1400h300v-1400h-300v600h-496v-600h-300v1400h300v-500h496v500z" />
    <glyph glyph-name="I" unicode="I" horiz-adv-x="600" 
d="M150 0v1400h300v-1400h-300z" />
    <glyph glyph-name="J" unicode="J" horiz-adv-x="934" 
d="M342 -26q-82 0 -160.5 28t-141.5 82l192 230q17 -13 44 -26.5t66 -13.5q47 0 86 23.5t62.5 62.5t23.5 86v954h300v-954q0 -130 -64 -237t-171 -171t-237 -64z" />
    <glyph glyph-name="K" unicode="K" horiz-adv-x="1230" 
d="M1210 0h-392l-358 506l-40 -48v-458h-300v1400h300v-476l398 476h392l-554 -660z" />
    <glyph glyph-name="L" unicode="L" horiz-adv-x="1070" 
d="M120 0v1400h300v-1100h550v-300h-850z" />
    <glyph glyph-name="M" unicode="M" horiz-adv-x="1924" 
d="M120 0l272 1400h256l314 -826l314 826h256l272 -1400h-306l-146 756l-286 -756h-208l-286 756l-146 -756h-306z" />
    <glyph glyph-name="N" unicode="N" horiz-adv-x="1376" 
d="M120 0v1400h324l512 -858v858h300v-1400h-324l-512 858v-858h-300z" />
    <glyph glyph-name="O" unicode="O" horiz-adv-x="1540" 
d="M770 -26q-142 0 -267 56.5t-220 156.5t-149 231.5t-54 281.5t54 281.5t149 231.5t220 156.5t267 56.5q143 0 268 -56.5t220 -156.5t148.5 -231.5t53.5 -281.5t-53.5 -281.5t-148.5 -231.5t-220 -156.5t-268 -56.5zM770 274q80 0 150.5 33.5t124.5 92t84.5 135.5t30.5 165
t-30.5 165t-84.5 135.5t-124.5 92t-150.5 33.5t-150.5 -33.5t-124.5 -92t-84.5 -135.5t-30.5 -165t30.5 -165t84.5 -135.5t124.5 -92t150.5 -33.5z" />
    <glyph glyph-name="P" unicode="P" horiz-adv-x="1140" 
d="M120 0v1400h528q115 0 208.5 -58.5t148.5 -156t55 -213.5q0 -118 -56.5 -215t-150.5 -155t-205 -58h-228v-544h-300zM420 844h194q40 0 73 20.5t53 54.5t20 75t-20 75t-53 54.5t-73 20.5h-194v-300z" />
    <glyph glyph-name="Q" unicode="Q" horiz-adv-x="1584" 
d="M1292 -52l-150 148q-79 -54 -173.5 -84t-198.5 -30q-142 0 -267 56.5t-220 156t-149 231t-54 282.5q0 150 54 281.5t149 231.5t220 156.5t267 56.5q143 0 268 -56.5t220 -156.5t148.5 -231.5t53.5 -281.5q0 -109 -29.5 -208.5t-80.5 -185.5l154 -154zM770 282
q41 0 79.5 9t74.5 25l-84 84l212 212l74 -74q17 39 25.5 82t8.5 88q0 88 -30.5 165t-84.5 135.5t-124.5 92t-150.5 33.5t-150.5 -33.5t-124.5 -92t-84.5 -135.5t-30.5 -165t30.5 -165.5t84.5 -136t124.5 -91.5t150.5 -33z" />
    <glyph glyph-name="R" unicode="R" horiz-adv-x="1266" 
d="M120 0v1400h570q115 0 208 -58t147.5 -155.5t54.5 -214.5q0 -90 -30 -167.5t-85.5 -137t-130.5 -95.5l332 -572h-346l-316 544h-104v-544h-300zM420 844h234q40 0 73 20.5t53 54.5t20 75t-20 75t-53 54.5t-73 20.5h-234v-300z" />
    <glyph glyph-name="S" unicode="S" horiz-adv-x="1264" 
d="M632 -26q-118 0 -226 37.5t-189 108t-117 168.5l282 104q10 -29 44.5 -56t87.5 -44.5t118 -17.5q60 0 113 17.5t86 48.5t33 72q0 42 -34.5 69.5t-88 44t-109.5 24.5q-152 22 -272.5 72.5t-190 139.5t-69.5 226q0 131 74 229.5t195.5 153.5t262.5 55q118 0 226.5 -37.5
t189.5 -108.5t116 -170l-282 -102q-10 29 -44.5 55.5t-87.5 43.5t-118 17q-58 1 -111 -17t-87 -49t-34 -70q0 -54 32 -80.5t84.5 -37.5t115.5 -20q144 -21 265 -75t194 -144t73 -219q0 -131 -73.5 -229.5t-194.5 -153.5t-264 -55z" />
    <glyph glyph-name="T" unicode="T" horiz-adv-x="1260" 
d="M1180 1400v-300h-400v-1100h-300v1100h-400v300h1100z" />
    <glyph glyph-name="U" unicode="U" horiz-adv-x="1378" 
d="M690 -26q-168 0 -296.5 82t-201 220.5t-72.5 307.5v816h300v-816q0 -85 32 -155.5t92.5 -112.5t145.5 -42q86 0 146 41.5t91 112t31 156.5v816h300v-816q0 -127 -41 -237.5t-117 -194.5t-180 -131t-230 -47z" />
    <glyph glyph-name="V" unicode="V" horiz-adv-x="1604" 
d="M608 0l-508 1400h318l384 -1056l384 1056h318l-508 -1400h-388z" />
    <glyph glyph-name="W" unicode="W" horiz-adv-x="1960" 
d="M458 0l-358 1400h310l216 -848l216 848h276l216 -848l216 848h310l-356 -1400h-338l-186 726l-184 -726h-338z" />
    <glyph glyph-name="X" unicode="X" horiz-adv-x="1516" 
d="M60 0l512 704l-506 696h370l322 -442l322 442h370l-506 -696l512 -704h-372l-326 448l-326 -448h-372z" />
    <glyph glyph-name="Y" unicode="Y" horiz-adv-x="1392" 
d="M978 1400h354l-486 -770v-630h-300v630l-486 770h354l282 -444z" />
    <glyph glyph-name="Z" unicode="Z" horiz-adv-x="1292" 
d="M80 0v300l726 800h-726v300h1132v-300l-726 -800h726v-300h-1132z" />
    <glyph glyph-name="bracketleft" unicode="[" horiz-adv-x="696" 
d="M596 188v-300h-476v1512h476v-300h-176v-912h176z" />
    <glyph glyph-name="backslash" unicode="\" horiz-adv-x="864" 
d="M484 -112l-404 1512h300l404 -1512h-300z" />
    <glyph glyph-name="bracketright" unicode="]" horiz-adv-x="698" 
d="M100 -112v300h178v912h-178v300h478v-1512h-478z" />
    <glyph glyph-name="asciicircum" unicode="^" horiz-adv-x="1052" 
d="M80 1000l236 650h420l236 -650h-320l-126 348l-126 -348h-320z" />
    <glyph glyph-name="underscore" unicode="_" horiz-adv-x="1240" 
d="M120 188h1000v-300h-1000v300z" />
    <glyph glyph-name="grave" unicode="`" horiz-adv-x="1180" 
d="M320 1398h300l80 -288h-200z" />
    <glyph glyph-name="a" unicode="a" horiz-adv-x="1218" 
d="M838 1000h300v-1000h-301l-14 90q-37 -52 -93.5 -84t-131.5 -32q-112 0 -209.5 42t-171.5 116.5t-115.5 172t-41.5 209.5q0 107 39 200t109.5 163.5t163 110.5t198.5 40q86 0 156.5 -35.5t125.5 -88.5zM590 262q62 0 113 32t81 86t30 120t-30 120t-81 86t-113 32
t-112.5 -32t-80 -86t-29.5 -120t30 -120t80.5 -86t111.5 -32z" />
    <glyph glyph-name="b" unicode="b" horiz-adv-x="1260" 
d="M672 1028q146 0 266 -71t191 -190.5t71 -264.5q0 -109 -41 -205t-113.5 -168.5t-168 -113.5t-205.5 -41q-79 0 -142 34t-110 86v-94h-300v1500h300v-592q47 53 110 86.5t142 33.5zM668 264q62 0 113 32t81 86t30 120q0 65 -30 119t-81 86.5t-113 32.5q-61 0 -111.5 -32.5
t-80.5 -86.5t-30 -119q0 -66 30 -120t80.5 -86t111.5 -32z" />
    <glyph glyph-name="c" unicode="c" horiz-adv-x="1020" 
d="M690 328l270 -146q-69 -94 -173 -151t-227 -57q-138 0 -251.5 71t-181 190.5t-67.5 264.5q0 110 39 205.5t107.5 168t159.5 113.5t194 41q123 0 227 -57t173 -153l-270 -146q-27 27 -60.5 41.5t-69.5 14.5q-57 0 -102 -32t-71.5 -84t-26.5 -112q0 -59 26.5 -110.5
t71.5 -83.5t102 -32q36 0 69.5 14.5t60.5 39.5z" />
    <glyph glyph-name="d" unicode="d" horiz-adv-x="1260" 
d="M840 1500h300v-1500h-300v92q-46 -52 -109.5 -85t-144.5 -33q-109 0 -204 41t-167.5 113.5t-113.5 167.5t-41 204t41 204t113.5 167.5t167.5 113.5t204 41q81 0 144.5 -32.5t109.5 -85.5v592zM590 262q62 0 113 32t81 86t30 120t-30 120t-81 86t-113 32t-112.5 -32
t-80 -86t-29.5 -120t30 -120t80.5 -86t111.5 -32z" />
    <glyph glyph-name="e" unicode="e" 
d="M560 -26q-138 0 -251.5 71t-181 191t-67.5 265q0 109 39 204.5t107.5 168t159.5 113.5t194 41q120 0 219.5 -52.5t168 -142t97.5 -201.5t6 -231h-667q14 -35 37.5 -63.5t58 -45.5t80.5 -18q44 -1 81.5 19t65.5 54l306 -71q-61 -133 -182 -217.5t-271 -84.5zM373 621h375
q-14 43 -42 76t-65.5 52t-80.5 19q-42 0 -79.5 -19t-65 -52t-42.5 -76z" />
    <glyph glyph-name="f" unicode="f" horiz-adv-x="762" 
d="M444 1182v-182h258v-300h-258v-700h-300v700h-94v300h94v182q0 94 46.5 171.5t124.5 124t173 46.5q69 0 137 -28.5t121 -89.5l-216 -212q-5 15 -17.5 22.5t-24.5 7.5q-18 0 -31 -12t-13 -30z" />
    <glyph glyph-name="g" unicode="g" horiz-adv-x="1254" 
d="M834 1000h300v-1010q0 -114 -45.5 -204.5t-124.5 -154.5t-181.5 -97.5t-216.5 -33.5q-106 0 -203 40.5t-173 112.5t-120 167l274 124q21 -45 55 -76.5t77 -48.5t90 -17q52 0 100 11t86 34t60 58.5t22 84.5v98q-45 -51 -106.5 -82.5t-141.5 -31.5q-109 0 -204 41
t-167.5 113.5t-113.5 167.5t-41 204t41 204t113.5 167.5t167.5 113.5t204 41q80 0 141.5 -31.5t106.5 -82.5v88zM590 262q62 0 113 32t81 86t30 120t-30 120t-81 86t-113 32q-61 0 -111.5 -32t-80.5 -86t-30 -120t30 -120t80.5 -86t111.5 -32z" />
    <glyph glyph-name="h" unicode="h" horiz-adv-x="1139" 
d="M1059 639v-639h-300v555q0 47 -23 85.5t-61 61t-85 22.5t-85.5 -22.5t-61 -61t-22.5 -85.5v-555h-300l-1 1500h300l1 -563q50 43 114 67t135 24q108 0 196 -52.5t140.5 -140.5t52.5 -196z" />
    <glyph glyph-name="i" unicode="i" horiz-adv-x="540" 
d="M120 1000h300v-1000h-300v1000zM272 1104q-65 0 -109 43t-44 107q0 63 44 106.5t108 43.5q63 0 106.5 -43.5t43.5 -106.5q0 -64 -42.5 -107t-106.5 -43z" />
    <glyph glyph-name="j" unicode="j" horiz-adv-x="512" 
d="M-80 -500v300q47 0 86 23t62.5 62t23.5 87v1028h300v-1028q0 -130 -63.5 -237t-170.5 -171t-238 -64zM244 1104q-65 0 -109 43t-44 107q0 63 44 106.5t108 43.5q63 0 106.5 -43.5t43.5 -106.5q0 -64 -42.5 -107t-106.5 -43z" />
    <glyph glyph-name="k" unicode="k" horiz-adv-x="1118" 
d="M1074 0h-346l-200 344l-108 -128v-216h-300v1500h300v-818l266 318h392l-344 -412z" />
    <glyph glyph-name="l" unicode="l" horiz-adv-x="540" 
d="M120 0v1500h300v-1500h-300z" />
    <glyph glyph-name="m" unicode="m" horiz-adv-x="1777" 
d="M120 0v1000h300v-63q50 43 114 67t135 24q100 0 184 -45.5t136 -121.5q53 76 136.5 121.5t182.5 45.5q108 0 196 -52.5t140.5 -140.5t52.5 -196v-639h-300v555q0 47 -23 85t-61 61t-85 23t-85.5 -23t-61.5 -61t-23 -85v-555h-300v555q0 47 -22.5 85t-61 61t-85.5 23
q-46 0 -84.5 -23t-61.5 -61t-23 -85v-555h-300z" />
    <glyph glyph-name="n" unicode="n" horiz-adv-x="1139" 
d="M1059 639v-639h-300v555q0 47 -23 85.5t-61 61t-85 22.5t-85.5 -22.5t-61 -61t-22.5 -85.5v-555h-300l-1 1000h300l1 -63q50 43 114 67t135 24q108 0 196 -52.5t140.5 -140.5t52.5 -196z" />
    <glyph glyph-name="o" unicode="o" 
d="M560 -26q-138 0 -251.5 71t-181 190.5t-67.5 264.5q0 110 39 205.5t107.5 168t159.5 113.5t194 41q138 0 251.5 -71t181 -191t67.5 -266q0 -109 -39 -204t-107.5 -167.5t-159 -113.5t-194.5 -41zM560 274q57 0 102.5 31t71.5 82.5t26 112.5q0 63 -27.5 115t-73 82.5
t-99.5 30.5q-56 0 -101.5 -31.5t-72 -83.5t-26.5 -113q0 -64 27.5 -115t73 -81t99.5 -30z" />
    <glyph glyph-name="p" unicode="p" horiz-adv-x="1258" 
d="M420 -500h-300v1500h300v-94q47 53 109 86.5t143 33.5q110 0 205 -41t167.5 -113.5t113 -167.5t40.5 -204t-40.5 -205t-113 -168.5t-167.5 -113.5t-205 -41q-81 0 -143 34t-109 86v-592zM668 738q-61 0 -111.5 -32.5t-80.5 -86.5t-30 -119q0 -66 30 -120t80.5 -86
t111.5 -32q62 0 113 32t81 86t30 120q0 65 -30 119t-81 86.5t-113 32.5z" />
    <glyph glyph-name="q" unicode="q" horiz-adv-x="1258" 
d="M586 -28q-145 0 -264.5 71t-190.5 191t-71 266q0 109 41 204t113.5 167.5t167.5 113.5t204 41q81 0 143.5 -33.5t108.5 -86.5v94h300v-1500h-300v592q-46 -52 -108.5 -86t-143.5 -34zM590 738q-62 0 -112.5 -32.5t-80 -86.5t-29.5 -119q0 -66 29.5 -120t80 -86t112.5 -32
t112.5 32t80 86t29.5 120q0 65 -29.5 119t-80 86.5t-112.5 32.5z" />
    <glyph glyph-name="r" unicode="r" horiz-adv-x="800" 
d="M121 0l-1 1000h300l1 -63q50 43 114 67t135 24q54 0 110 -16l-118 -304q-35 16 -72 16q-47 0 -85.5 -22.5t-61 -61t-22.5 -85.5v-555h-300z" />
    <glyph glyph-name="s" unicode="s" horiz-adv-x="874" 
d="M408 -18q-76 7 -146 33t-125 71t-87 110l252 108q10 -11 28 -27.5t45.5 -29.5t66.5 -13q26 0 50.5 5.5t40 19.5t15.5 39q0 28 -20.5 42.5t-49.5 21t-54 10.5q-89 14 -170.5 56.5t-133.5 111t-52 160.5q0 103 53 178t138.5 115.5t184.5 40.5q117 0 216.5 -48t163.5 -138
l-236 -140q-12 15 -29.5 30.5t-40 27t-48.5 14.5q-35 3 -62.5 -2.5t-43.5 -22t-16 -47.5q0 -29 28 -42t63 -19t57 -13q86 -28 162 -73t122.5 -109t43.5 -150q0 -100 -60 -176t-155 -115t-201 -29z" />
    <glyph glyph-name="t" unicode="t" horiz-adv-x="730" 
d="M670 700h-170v-700h-300v700h-130v300h130v314h300v-314h170v-300z" />
    <glyph glyph-name="u" unicode="u" horiz-adv-x="1099" 
d="M80 363v637h300v-553q0 -47 23 -85.5t61.5 -61t84.5 -22.5q47 0 85.5 22.5t61 61t22.5 85.5v553h300l1 -1000h-300l-1 65q-50 -43 -114 -67t-135 -24q-107 0 -195.5 52.5t-141 140.5t-52.5 196z" />
    <glyph glyph-name="v" unicode="v" horiz-adv-x="1236" 
d="M812 0h-388l-364 1000h320l238 -656l238 656h320z" />
    <glyph glyph-name="w" unicode="w" horiz-adv-x="1748" 
d="M688 0h-294l-334 1000h294l188 -562l186 562h292l186 -562l188 562h294l-334 -1000h-294l-186 562z" />
    <glyph glyph-name="x" unicode="x" horiz-adv-x="1262" 
d="M80 0l366 502l-362 498h370l176 -242l178 242h370l-362 -498l366 -502h-370l-182 248l-180 -248h-370z" />
    <glyph glyph-name="y" unicode="y" horiz-adv-x="1206" 
d="M806 1000h320l-548 -1500h-318l180 500l-360 1000h328l182 -590z" />
    <glyph glyph-name="z" unicode="z" horiz-adv-x="1014" 
d="M934 700l-420 -400h420v-300h-854v300l420 400h-420v300h854v-300z" />
    <glyph glyph-name="braceleft" unicode="{" horiz-adv-x="830" 
d="M604 -112q-97 0 -176.5 47t-126.5 126.5t-47 176.5v244q0 24 -20 41t-47 32.5t-47 36.5t-20 52q0 29 20 50t47 38.5t47 34.5t20 37v246q0 96 47 175.5t126.5 127t176.5 47.5h126v-300h-126q-14 0 -25.5 -6.5t-18 -18t-6.5 -25.5v-256q-2 -31 -22.5 -54.5t-40 -46
t-19.5 -49.5q0 -30 19.5 -51.5t40 -44t22.5 -54.5v-256q0 -14 6.5 -25.5t18 -18t25.5 -6.5h126v-300h-126z" />
    <glyph glyph-name="bar" unicode="|" horiz-adv-x="580" 
d="M140 1400h300v-1702h-300v1702z" />
    <glyph glyph-name="braceright" unicode="}" horiz-adv-x="830" 
d="M100 -112v300h126q14 0 25.5 6.5t18 18t6.5 25.5v256q2 32 22.5 54.5t40 44t19.5 51.5q0 27 -19.5 49.5t-40 46t-22.5 54.5v256q0 14 -6.5 25.5t-18 18t-25.5 6.5h-126v300h126q97 0 176.5 -47.5t126.5 -127t47 -175.5v-246q0 -20 20 -37t47 -34.5t47 -38.5t20 -50
q0 -31 -20 -52t-47 -36.5t-47 -32.5t-20 -41v-244q0 -97 -47 -176.5t-126.5 -126.5t-176.5 -47h-126z" />
    <glyph glyph-name="asciitilde" unicode="~" horiz-adv-x="1349" 
d="M996 384q-67 0 -143 23t-152.5 53t-145 53t-121.5 23q-25 0 -37.5 -12.5t-16.5 -32.5t-4 -41l-294 8q-12 94 29 175.5t118 132t173 50.5q67 0 134.5 -24t133.5 -56t127 -56t113 -24q25 0 38.5 12t18.5 32.5t5 45.5l294 -8q12 -94 -16.5 -174.5t-93 -130t-160.5 -49.5z
" />
    <glyph glyph-name="uni00A0" unicode="&#xa0;" horiz-adv-x="480" 
 />
    <glyph glyph-name="exclamdown" unicode="&#xa1;" horiz-adv-x="498" 
d="M228 1026q63 0 106.5 -43.5t43.5 -108.5q0 -61 -43.5 -104.5t-106.5 -43.5q-61 0 -104.5 43.5t-43.5 104.5q0 65 43.5 108.5t104.5 43.5zM354 580v-980h-250v980h250z" />
    <glyph glyph-name="cent" unicode="&#xa2;" horiz-adv-x="1092" 
d="M482 0v208q-114 24 -205 94.5t-144 174t-53 225.5q0 121 53 224.5t144 174t205 93.5v206h200v-206q105 -21 190.5 -82t139.5 -150l-260 -150q-28 42 -73.5 67t-96.5 25q-55 0 -101 -27.5t-73.5 -73.5t-27.5 -101q0 -56 27.5 -102.5t73.5 -74t101 -27.5q51 0 96.5 25
t73.5 67l260 -150q-54 -88 -139.5 -149.5t-190.5 -82.5v-208h-200z" />
    <glyph glyph-name="sterling" unicode="&#xa3;" horiz-adv-x="1214" 
d="M104 0v300q47 0 99 12t93 34t57 54t-9 72q-14 24 -39 53t-55 63t-60 71t-55 77t-40 81.5t-15 82.5q0 108 41 203t114 168t168 114t203 41q109 0 204.5 -41t168.5 -113.5t114 -167.5t41 -204h-300q0 62 -30.5 113.5t-82.5 82t-115 30.5q-62 0 -113.5 -30.5t-82 -82
t-30.5 -113.5q0 -52 20 -94t51.5 -80t67.5 -74.5t67.5 -77.5t51.5 -89t20 -109q0 -15 -2 -30t-4.5 -27.5t-3.5 -18.5h460v-300h-1004zM104 444v200h780v-200h-780z" />
    <glyph glyph-name="currency" unicode="&#xa4;" horiz-adv-x="1050" 
d="M222 255l-142 142l132 132q-29 53 -38.5 112t0.5 118t40 112l-134 134l142 140l132 -132q52 29 111.5 38.5t119.5 0.5t113 -37l132 130l140 -140l-130 -130q31 -54 41.5 -114.5t0.5 -121t-40 -114.5l128 -128l-140 -142l-128 128q-56 -29 -116 -39t-119.5 0t-114.5 41z
M528 539q44 1 80 22t57 57t21 81q0 48 -22.5 83t-58.5 54.5t-77 20.5q-47 1 -83 -22t-56.5 -59.5t-20.5 -76.5q0 -44 21.5 -81t58 -58.5t80.5 -20.5z" />
    <glyph glyph-name="yen" unicode="&#xa5;" horiz-adv-x="1392" 
d="M546 0v124h-214v200h214v66h-214v200h214v40l-486 770h354l282 -444l282 444h354l-486 -770v-40h214v-200h-214v-66h214v-200h-214v-124h-300z" />
    <glyph glyph-name="brokenbar" unicode="&#xa6;" horiz-adv-x="540" 
d="M120 448h300v-750h-300v750zM120 1400h300v-750h-300v750z" />
    <glyph glyph-name="section" unicode="&#xa7;" horiz-adv-x="1116" 
d="M542 -356q-117 0 -216 48t-164 138l236 140q12 -15 29.5 -30.5t40 -27t48.5 -14.5q35 -3 62.5 2.5t43.5 22t16 47.5q0 29 -27.5 44t-62.5 21.5t-58 8.5q-104 11 -188 80t-133 169.5t-49 206.5q0 68 17.5 131t50 117t76.5 96q-30 36 -48 81t-18 97q0 103 53 178
t138.5 115.5t184.5 40.5q117 0 216.5 -48t163.5 -138l-236 -140q-12 15 -29.5 30.5t-40 27t-48.5 14.5q-35 3 -62.5 -2.5t-43.5 -22t-16 -47.5q0 -28 25.5 -42t59 -20t57.5 -10q110 -20 195 -84t133 -160.5t48 -213.5q0 -68 -18 -130.5t-50.5 -116t-77.5 -95.5
q32 -37 50 -82t18 -98q0 -103 -52.5 -178t-138.5 -115.5t-185 -40.5zM572 302q43 0 80 29t59.5 74.5t22.5 94.5q0 58 -23.5 102.5t-68 70t-106.5 25.5q-38 0 -73.5 -30.5t-58 -76t-22.5 -91.5q0 -55 23 -100t65.5 -71.5t101.5 -26.5z" />
    <glyph glyph-name="dieresis" unicode="&#xa8;" horiz-adv-x="1542" 
d="M552 1064q-64 0 -108 43t-44 107q0 63 44 106.5t108 43.5q63 0 106.5 -43.5t43.5 -106.5q0 -64 -43.5 -107t-106.5 -43zM992 1064q-64 0 -108 43t-44 107q0 63 44 106.5t108 43.5q63 0 106.5 -43.5t43.5 -106.5q0 -64 -43.5 -107t-106.5 -43z" />
    <glyph glyph-name="copyright" unicode="&#xa9;" horiz-adv-x="1962" 
d="M980 -374q-187 0 -350 70t-286.5 193.5t-193.5 286.5t-70 350t70 350t193.5 286.5t286.5 193.5t350 70t350.5 -69.5t287.5 -193t194 -286.5t70 -350q0 -188 -70 -351t-194 -286.5t-287.5 -193.5t-350.5 -70zM980 -74q128 0 237.5 47.5t191 131t127.5 192t46 229.5
q0 123 -46.5 231.5t-128.5 191.5t-191.5 130t-235.5 47q-127 0 -236.5 -47.5t-191 -131t-127 -191.5t-45.5 -230q0 -127 47.5 -236.5t131 -191t192 -127t229.5 -45.5zM1110 354l270 -146q-69 -94 -173 -151t-227 -57q-138 0 -251.5 71t-181 190.5t-67.5 264.5
q0 110 39 205.5t107.5 168t159.5 113.5t194 41q123 0 227 -57t173 -153l-270 -146q-27 27 -60.5 41.5t-69.5 14.5q-57 0 -102 -32t-71.5 -84t-26.5 -111q0 -60 26.5 -111.5t71.5 -83.5t102 -32q36 0 69.5 14.5t60.5 39.5z" />
    <glyph glyph-name="ordfeminine" unicode="&#xaa;" horiz-adv-x="1218" 
d="M838 1000h300v-1000h-301l-14 90q-37 -52 -93.5 -84t-131.5 -32q-112 0 -209.5 42t-171.5 116.5t-115.5 172t-41.5 209.5q0 107 39 200t109.5 163.5t163 110.5t198.5 40q86 0 156.5 -35.5t125.5 -88.5zM590 262q62 0 113 32t81 86t30 120t-30 120t-81 86t-113 32
t-112.5 -32t-80 -86t-29.5 -120t30 -120t80.5 -86t111.5 -32z" />
    <glyph glyph-name="guillemotleft" unicode="&#xab;" horiz-adv-x="1260" 
d="M420 261l-300 340l300 338h300l-298 -338l298 -340h-300zM860 261l-300 340l300 338h300l-298 -338l298 -340h-300z" />
    <glyph glyph-name="logicalnot" unicode="&#xac;" horiz-adv-x="1050" 
d="M670 275v350h-590v300h890v-650h-300z" />
    <glyph glyph-name="uni00AD" unicode="&#xad;" horiz-adv-x="880" 
d="M120 750h640v-300h-640v300z" />
    <glyph glyph-name="registered" unicode="&#xae;" horiz-adv-x="1194" 
d="M596 364q-111 0 -208 41.5t-171 115.5t-115.5 171.5t-41.5 209.5q0 111 41.5 208t115.5 171t171 115.5t208 41.5q113 0 211 -42.5t171.5 -117t114.5 -171t41 -205.5q0 -113 -42.5 -211t-117 -171.5t-171.5 -114.5t-207 -41zM596 574q91 0 165.5 44t118.5 118.5t44 165.5
q0 90 -44 164t-118.5 118t-165.5 44q-90 0 -164 -44t-118 -118t-44 -164q0 -91 44 -165.5t118 -118.5t164 -44zM450 698v440h174q57 0 96.5 -41.5t39.5 -100.5q0 -39 -18 -71.5t-48 -50.5l102 -176h-126l-92 156h-18v-156h-110zM560 964h64q11 0 18.5 9.5t7.5 22.5
q0 14 -7.5 23t-18.5 9h-64v-64z" />
    <glyph glyph-name="macron" unicode="&#xaf;" horiz-adv-x="1200" 
d="M262 1350h676v-220h-676v220z" />
    <glyph glyph-name="degree" unicode="&#xb0;" horiz-adv-x="1026" 
d="M514 648q-123 0 -221 60.5t-155.5 159t-57.5 212.5q0 117 58 215.5t156.5 157.5t219.5 59q124 0 221.5 -60.5t154 -159t56.5 -212.5q0 -124 -59.5 -221.5t-158 -154t-214.5 -56.5zM514 948q54 0 93 38.5t39 93.5q0 56 -39 94t-93 38q-55 0 -94.5 -38t-39.5 -94
q0 -55 39.5 -93.5t94.5 -38.5z" />
    <glyph glyph-name="plusminus" unicode="&#xb1;" horiz-adv-x="1160" 
d="M430 400v350h-350v300h350v350h300v-350h350v-300h-350v-350h-300zM80 0v300h1000v-300h-1000z" />
    <glyph glyph-name="uni00B2" unicode="&#xb2;" horiz-adv-x="727" 
d="M96 818v146q43 30 88 57t87.5 57t79.5 68t64 89q0 32 -21.5 54.5t-52.5 22.5q-32 0 -54.5 -22.5t-22.5 -54.5h-168q0 68 33 120.5t89 82.5t123 30q101 0 171.5 -66t70.5 -167q0 -39 -15.5 -72t-41.5 -62.5t-58 -57.5t-65 -57h168v-168h-475z" />
    <glyph glyph-name="uni00B3" unicode="&#xb3;" horiz-adv-x="588" 
d="M295 798q-91 0 -157 60t-66 152h168q0 -24 16 -40t39 -16q22 0 37.5 16t15.5 40q0 29 -27 56.5t-83 27.5v105q57 0 75 25t18 47q0 17 -12 29t-29 12q-16 0 -28 -12t-12 -29h-168q0 86 61 141.5t147 55.5q87 0 148 -55.5t61 -141.5q0 -32 -9 -62.5t-27 -57.5
q27 -28 40 -65.5t13 -75.5q0 -92 -65.5 -152t-155.5 -60z" />
    <glyph glyph-name="acute" unicode="&#xb4;" horiz-adv-x="1180" 
d="M480 1110l80 288h300l-180 -288h-200z" />
    <glyph glyph-name="uni00B5" unicode="&#xb5;" horiz-adv-x="1176" 
d="M80 -432v1432h300v-500q0 -66 27 -120t76 -86t115 -32q65 0 109 32t66.5 86t22.5 120v500h300v-1000h-300v92q-46 -52 -108.5 -86t-143.5 -34q-45 0 -85.5 7.5t-78.5 20.5v-432h-300z" />
    <glyph glyph-name="paragraph" unicode="&#xb6;" horiz-adv-x="1166" 
d="M420 -302v1020q-94 0 -171 46t-123 123.5t-46 172.5q0 94 46 171t123 123t171 46h300v-1702h-300zM786 -302v1702h300v-1702h-300z" />
    <glyph glyph-name="periodcentered" unicode="&#xb7;" horiz-adv-x="460" 
d="M230 450q-63 0 -106.5 43.5t-43.5 106.5q0 62 43.5 106t106.5 44q62 0 106 -44t44 -106q0 -63 -44 -106.5t-106 -43.5z" />
    <glyph glyph-name="cedilla" unicode="&#xb8;" horiz-adv-x="1310" 
d="M634 -381q-76 -20 -144 19t-88 114l145 39q4 -15 18 -23t30 -4t24 18t4 30t-17.5 22t-30.5 6h-146l150 265l131 -76l-36 -61q34 -17 59 -47t35 -71q20 -75 -19 -143t-115 -88z" />
    <glyph glyph-name="uni00B9" unicode="&#xb9;" horiz-adv-x="466" 
d="M154 818v463h-58l24 168h202v-631h-168z" />
    <glyph glyph-name="ordmasculine" unicode="&#xba;" 
d="M560 -26q-138 0 -251.5 71t-181 190.5t-67.5 264.5q0 110 39 205.5t107.5 168t159.5 113.5t194 41q138 0 251.5 -71t181 -191t67.5 -266q0 -109 -39 -204t-107.5 -167.5t-159 -113.5t-194.5 -41zM560 274q57 0 102.5 31t71.5 82.5t26 112.5q0 63 -27.5 115t-73 82.5
t-99.5 30.5q-56 0 -101.5 -31.5t-72 -83.5t-26.5 -113q0 -64 27.5 -115t73 -81t99.5 -30z" />
    <glyph glyph-name="guillemotright" unicode="&#xbb;" horiz-adv-x="1280" 
d="M540 261l298 340l-298 338h300l300 -338l-300 -340h-300zM100 261l298 340l-298 338h300l300 -338l-300 -340h-300z" />
    <glyph glyph-name="onequarter" unicode="&#xbc;" horiz-adv-x="1612" 
d="M154 818v463h-58l24 168h202v-631h-168zM166 0l808 1400h242l-808 -1400h-242zM1247 0v86h-235v202l218 343h185v-377h53v-168h-53v-86h-168zM1175 254h89v142z" />
    <glyph glyph-name="onehalf" unicode="&#xbd;" horiz-adv-x="1643" 
d="M154 818v463h-58l24 168h202v-631h-168zM166 0l808 1400h242l-808 -1400h-242zM1012 0v146q43 30 88 57.5t87.5 57.5t79.5 68t64 89q0 32 -21.5 54t-52.5 22q-32 0 -54.5 -22t-22.5 -54h-168q0 67 33 122.5t89 88.5t123 33t122 -33t87.5 -88.5t32.5 -122.5
q0 -39 -15.5 -72t-41.5 -63t-58 -58t-65 -57h168v-168h-475z" />
    <glyph glyph-name="threequarters" unicode="&#xbe;" horiz-adv-x="1734" 
d="M295 798q-91 0 -157 60t-66 152h168q0 -24 16 -40t39 -16q22 0 37.5 16t15.5 40q0 29 -27 56.5t-83 27.5v105q57 0 75 25t18 47q0 17 -12 29t-29 12q-16 0 -28 -12t-12 -29h-168q0 86 61 141.5t147 55.5q87 0 148 -55.5t61 -141.5q0 -32 -9 -62.5t-27 -57.5
q27 -28 40 -65.5t13 -75.5q0 -92 -65.5 -152t-155.5 -60zM288 0l808 1400h242l-808 -1400h-242zM1369 0v86h-235v202l218 343h185v-377h53v-168h-53v-86h-168zM1297 254h89v142z" />
    <glyph glyph-name="questiondown" unicode="&#xbf;" horiz-adv-x="1164" 
d="M562 -426q-133 0 -242.5 65t-174.5 174t-65 241q0 137 66.5 252t181.5 176q33 17 51.5 48.5t18.5 69.5h300q0 -121 -60.5 -222.5t-167.5 -159.5q-42 -22 -66 -66t-24 -98q0 -50 24.5 -91t66 -65t91.5 -24t91.5 24t66 65t24.5 91h300q0 -132 -65 -241t-174.5 -174
t-242.5 -65zM532 726q-61 0 -104.5 43.5t-43.5 104.5q0 65 43.5 108.5t104.5 43.5q63 0 106.5 -43.5t43.5 -108.5q0 -61 -43.5 -104.5t-106.5 -43.5z" />
    <glyph glyph-name="Agrave" unicode="&#xc0;" horiz-adv-x="1514" 
d="M588 1400h338l508 -1400h-318l-80 220h-558l-80 -220h-318zM588 520h338l-170 464zM459 1798h300l80 -288h-200z" />
    <glyph glyph-name="Aacute" unicode="&#xc1;" horiz-adv-x="1514" 
d="M588 1400h338l508 -1400h-318l-80 220h-558l-80 -220h-318zM588 520h338l-170 464zM677 1510l80 288h300l-180 -288h-200z" />
    <glyph glyph-name="Acircumflex" unicode="&#xc2;" horiz-adv-x="1514" 
d="M588 1400h338l508 -1400h-318l-80 220h-558l-80 -220h-318zM588 520h338l-170 464zM926 1798l194 -288h-200l-163 188l-161 -188h-200l190 288h340z" />
    <glyph glyph-name="Atilde" unicode="&#xc3;" horiz-adv-x="1514" 
d="M588 1400h338l508 -1400h-318l-80 220h-558l-80 -220h-318zM588 520h338l-170 464zM913 1491q-38 0 -91.5 27.5t-106 60t-89.5 51t-43 1.5q-6 -18 -2.5 -35t12.5 -47l-168 -46q-31 89 -18.5 160t62.5 112.5t132 41.5q36 0 85 -21.5t97.5 -49.5t85 -49.5t46.5 -21.5
q19 0 21.5 12t-4 30.5t-13.5 37.5l172 56q31 -94 16 -166t-66 -113t-128 -41z" />
    <glyph glyph-name="Adieresis" unicode="&#xc4;" horiz-adv-x="1514" 
d="M588 1400h338l508 -1400h-318l-80 220h-558l-80 -220h-318zM588 520h338l-170 464zM538 1464q-64 0 -108 43t-44 107q0 63 44 106.5t108 43.5q63 0 106.5 -43.5t43.5 -106.5q0 -64 -43.5 -107t-106.5 -43zM978 1464q-64 0 -108 43t-44 107q0 63 44 106.5t108 43.5
q63 0 106.5 -43.5t43.5 -106.5q0 -64 -43.5 -107t-106.5 -43z" />
    <glyph glyph-name="Aring" unicode="&#xc5;" horiz-adv-x="1514" 
d="M588 1400h338l508 -1400h-318l-80 220h-558l-80 -220h-318zM588 520h338l-170 464zM757 1454q-82 0 -141 60t-59 142q0 54 27 99t72.5 72t100.5 27q83 0 141.5 -58.5t58.5 -139.5q0 -84 -58.5 -143t-141.5 -59zM757 1594q25 0 42.5 18t17.5 43q0 24 -17.5 41.5
t-42.5 17.5t-42.5 -17t-17.5 -41q0 -26 17.5 -44t42.5 -18z" />
    <glyph glyph-name="AE" unicode="&#xc6;" horiz-adv-x="1710" 
d="M80 0l508 1400h1022v-300h-452v-250h356v-300h-356v-250h452v-300h-752v220h-380l-80 -220h-318zM588 520h270v580h-60z" />
    <glyph glyph-name="Ccedilla" unicode="&#xc7;" horiz-adv-x="1418" 
d="M768 -26q-142 0 -267 56.5t-219.5 156.5t-148 231.5t-53.5 281.5q0 151 53.5 282.5t148 231t219.5 156t267 56.5q170 0 313 -78.5t237 -209.5l-268 -144q-52 60 -125 96t-157 36q-80 0 -150.5 -33t-124 -91.5t-83.5 -135.5t-30 -166q0 -88 30 -165t83.5 -135.5t124 -92
t150.5 -33.5q84 0 157 36.5t125 97.5l268 -146q-94 -130 -237 -209t-313 -79zM779 -381q-76 -20 -144 19t-88 114l145 39q4 -15 18 -23t30 -4t24 18t4 30t-17.5 22t-30.5 6h-146l150 265l131 -76l-36 -61q34 -17 59 -47t35 -71q20 -75 -19 -143t-115 -88z" />
    <glyph glyph-name="Egrave" unicode="&#xc8;" horiz-adv-x="1112" 
d="M120 0v1400h892v-300h-592v-200h456v-300h-456v-300h592v-300h-892zM258 1798h300l80 -288h-200z" />
    <glyph glyph-name="Eacute" unicode="&#xc9;" horiz-adv-x="1112" 
d="M120 0v1400h892v-300h-592v-200h456v-300h-456v-300h592v-300h-892zM476 1510l80 288h300l-180 -288h-200z" />
    <glyph glyph-name="Ecircumflex" unicode="&#xca;" horiz-adv-x="1112" 
d="M120 0v1400h892v-300h-592v-200h456v-300h-456v-300h592v-300h-892zM725 1798l194 -288h-200l-163 188l-161 -188h-200l190 288h340z" />
    <glyph glyph-name="Edieresis" unicode="&#xcb;" horiz-adv-x="1112" 
d="M120 0v1400h892v-300h-592v-200h456v-300h-456v-300h592v-300h-892zM337 1464q-64 0 -108 43t-44 107q0 63 44 106.5t108 43.5q63 0 106.5 -43.5t43.5 -106.5q0 -64 -43.5 -107t-106.5 -43zM777 1464q-64 0 -108 43t-44 107q0 63 44 106.5t108 43.5q63 0 106.5 -43.5
t43.5 -106.5q0 -64 -43.5 -107t-106.5 -43z" />
    <glyph glyph-name="Igrave" unicode="&#xcc;" horiz-adv-x="600" 
d="M150 0v1400h300v-1400h-300zM2 1798h300l80 -288h-200z" />
    <glyph glyph-name="Iacute" unicode="&#xcd;" horiz-adv-x="600" 
d="M150 0v1400h300v-1400h-300zM220 1510l80 288h300l-180 -288h-200z" />
    <glyph glyph-name="Icircumflex" unicode="&#xce;" horiz-adv-x="600" 
d="M150 0v1400h300v-1400h-300zM469 1798l194 -288h-200l-163 188l-161 -188h-200l190 288h340z" />
    <glyph glyph-name="Idieresis" unicode="&#xcf;" horiz-adv-x="600" 
d="M150 0v1400h300v-1400h-300zM81 1464q-64 0 -108 43t-44 107q0 63 44 106.5t108 43.5q63 0 106.5 -43.5t43.5 -106.5q0 -64 -43.5 -107t-106.5 -43zM521 1464q-64 0 -108 43t-44 107q0 63 44 106.5t108 43.5q63 0 106.5 -43.5t43.5 -106.5q0 -64 -43.5 -107t-106.5 -43z
" />
    <glyph glyph-name="Eth" unicode="&#xd0;" horiz-adv-x="1462" 
d="M240 0v600h-140v300h140v500h462q145 0 271.5 -54.5t223 -151t151 -223t54.5 -271.5t-54.5 -271.5t-151 -223t-223 -151t-271.5 -54.5h-462zM540 300h162q83 0 155 31t127.5 86.5t86.5 128t31 154.5q0 83 -31 155t-86.5 127.5t-127.5 86.5t-155 31h-162v-200h238v-300
h-238v-300z" />
    <glyph glyph-name="Ntilde" unicode="&#xd1;" horiz-adv-x="1376" 
d="M120 0v1400h324l512 -858v858h300v-1400h-324l-512 858v-858h-300zM844 1491q-38 0 -91.5 27.5t-106 60t-89.5 51t-43 1.5q-6 -18 -2.5 -35t12.5 -47l-168 -46q-31 89 -18.5 160t62.5 112.5t132 41.5q36 0 85 -21.5t97.5 -49.5t85 -49.5t46.5 -21.5q19 0 21.5 12t-4 30.5
t-13.5 37.5l172 56q31 -94 16 -166t-66 -113t-128 -41z" />
    <glyph glyph-name="Ograve" unicode="&#xd2;" horiz-adv-x="1540" 
d="M770 -26q-142 0 -267 56.5t-220 156.5t-149 231.5t-54 281.5t54 281.5t149 231.5t220 156.5t267 56.5q143 0 268 -56.5t220 -156.5t148.5 -231.5t53.5 -281.5t-53.5 -281.5t-148.5 -231.5t-220 -156.5t-268 -56.5zM770 274q80 0 150.5 33.5t124.5 92t84.5 135.5t30.5 165
t-30.5 165t-84.5 135.5t-124.5 92t-150.5 33.5t-150.5 -33.5t-124.5 -92t-84.5 -135.5t-30.5 -165t30.5 -165t84.5 -135.5t124.5 -92t150.5 -33.5zM472 1798h300l80 -288h-200z" />
    <glyph glyph-name="Oacute" unicode="&#xd3;" horiz-adv-x="1540" 
d="M770 -26q-142 0 -267 56.5t-220 156.5t-149 231.5t-54 281.5t54 281.5t149 231.5t220 156.5t267 56.5q143 0 268 -56.5t220 -156.5t148.5 -231.5t53.5 -281.5t-53.5 -281.5t-148.5 -231.5t-220 -156.5t-268 -56.5zM770 274q80 0 150.5 33.5t124.5 92t84.5 135.5t30.5 165
t-30.5 165t-84.5 135.5t-124.5 92t-150.5 33.5t-150.5 -33.5t-124.5 -92t-84.5 -135.5t-30.5 -165t30.5 -165t84.5 -135.5t124.5 -92t150.5 -33.5zM690 1510l80 288h300l-180 -288h-200z" />
    <glyph glyph-name="Ocircumflex" unicode="&#xd4;" horiz-adv-x="1540" 
d="M770 -26q-142 0 -267 56.5t-220 156.5t-149 231.5t-54 281.5t54 281.5t149 231.5t220 156.5t267 56.5q143 0 268 -56.5t220 -156.5t148.5 -231.5t53.5 -281.5t-53.5 -281.5t-148.5 -231.5t-220 -156.5t-268 -56.5zM770 274q80 0 150.5 33.5t124.5 92t84.5 135.5t30.5 165
t-30.5 165t-84.5 135.5t-124.5 92t-150.5 33.5t-150.5 -33.5t-124.5 -92t-84.5 -135.5t-30.5 -165t30.5 -165t84.5 -135.5t124.5 -92t150.5 -33.5zM939 1798l194 -288h-200l-163 188l-161 -188h-200l190 288h340z" />
    <glyph glyph-name="Otilde" unicode="&#xd5;" horiz-adv-x="1540" 
d="M770 -26q-142 0 -267 56.5t-220 156.5t-149 231.5t-54 281.5t54 281.5t149 231.5t220 156.5t267 56.5q143 0 268 -56.5t220 -156.5t148.5 -231.5t53.5 -281.5t-53.5 -281.5t-148.5 -231.5t-220 -156.5t-268 -56.5zM770 274q80 0 150.5 33.5t124.5 92t84.5 135.5t30.5 165
t-30.5 165t-84.5 135.5t-124.5 92t-150.5 33.5t-150.5 -33.5t-124.5 -92t-84.5 -135.5t-30.5 -165t30.5 -165t84.5 -135.5t124.5 -92t150.5 -33.5zM926 1491q-38 0 -91.5 27.5t-106 60t-89.5 51t-43 1.5q-6 -18 -2.5 -35t12.5 -47l-168 -46q-31 89 -18.5 160t62.5 112.5
t132 41.5q36 0 85 -21.5t97.5 -49.5t85 -49.5t46.5 -21.5q19 0 21.5 12t-4 30.5t-13.5 37.5l172 56q31 -94 16 -166t-66 -113t-128 -41z" />
    <glyph glyph-name="Odieresis" unicode="&#xd6;" horiz-adv-x="1540" 
d="M770 -26q-142 0 -267 56.5t-220 156.5t-149 231.5t-54 281.5t54 281.5t149 231.5t220 156.5t267 56.5q143 0 268 -56.5t220 -156.5t148.5 -231.5t53.5 -281.5t-53.5 -281.5t-148.5 -231.5t-220 -156.5t-268 -56.5zM770 274q80 0 150.5 33.5t124.5 92t84.5 135.5t30.5 165
t-30.5 165t-84.5 135.5t-124.5 92t-150.5 33.5t-150.5 -33.5t-124.5 -92t-84.5 -135.5t-30.5 -165t30.5 -165t84.5 -135.5t124.5 -92t150.5 -33.5zM551 1464q-64 0 -108 43t-44 107q0 63 44 106.5t108 43.5q63 0 106.5 -43.5t43.5 -106.5q0 -64 -43.5 -107t-106.5 -43z
M991 1464q-64 0 -108 43t-44 107q0 63 44 106.5t108 43.5q63 0 106.5 -43.5t43.5 -106.5q0 -64 -43.5 -107t-106.5 -43z" />
    <glyph glyph-name="multiply" unicode="&#xd7;" horiz-adv-x="1078" 
d="M292 140l-212 212l246 248l-246 248l212 212l246 -248l248 248l212 -212l-248 -248l248 -248l-212 -212l-248 248z" />
    <glyph glyph-name="Oslash" unicode="&#xd8;" horiz-adv-x="1540" 
d="M470 -122l-260 150l84 148q-97 99 -155.5 234.5t-58.5 289.5q0 150 54 281.5t149 231.5t220 156.5t267 56.5q60 0 116 -10t108 -28l78 134l260 -150l-86 -146q99 -100 156.5 -235.5t57.5 -290.5q0 -150 -53.5 -281.5t-148.5 -231.5t-220 -156.5t-268 -56.5
q-58 0 -113.5 10.5t-108.5 29.5zM454 452l386 668q-16 3 -34 4.5t-36 1.5q-80 0 -150.5 -33.5t-124.5 -92t-84.5 -135.5t-30.5 -165q0 -69 20 -132t54 -116zM770 274q80 0 150.5 33.5t124.5 92t84.5 135.5t30.5 165q0 69 -18.5 132.5t-53.5 115.5l-386 -666q17 -4 34.5 -6
t33.5 -2z" />
    <glyph glyph-name="Ugrave" unicode="&#xd9;" horiz-adv-x="1378" 
d="M690 -26q-168 0 -296.5 82t-201 220.5t-72.5 307.5v816h300v-816q0 -85 32 -155.5t92.5 -112.5t145.5 -42q86 0 146 41.5t91 112t31 156.5v816h300v-816q0 -127 -41 -237.5t-117 -194.5t-180 -131t-230 -47zM391 1798h300l80 -288h-200z" />
    <glyph glyph-name="Uacute" unicode="&#xda;" horiz-adv-x="1378" 
d="M690 -26q-168 0 -296.5 82t-201 220.5t-72.5 307.5v816h300v-816q0 -85 32 -155.5t92.5 -112.5t145.5 -42q86 0 146 41.5t91 112t31 156.5v816h300v-816q0 -127 -41 -237.5t-117 -194.5t-180 -131t-230 -47zM609 1510l80 288h300l-180 -288h-200z" />
    <glyph glyph-name="Ucircumflex" unicode="&#xdb;" horiz-adv-x="1378" 
d="M690 -26q-168 0 -296.5 82t-201 220.5t-72.5 307.5v816h300v-816q0 -85 32 -155.5t92.5 -112.5t145.5 -42q86 0 146 41.5t91 112t31 156.5v816h300v-816q0 -127 -41 -237.5t-117 -194.5t-180 -131t-230 -47zM858 1798l194 -288h-200l-163 188l-161 -188h-200l190 288h340
z" />
    <glyph glyph-name="Udieresis" unicode="&#xdc;" horiz-adv-x="1378" 
d="M690 -26q-168 0 -296.5 82t-201 220.5t-72.5 307.5v816h300v-816q0 -85 32 -155.5t92.5 -112.5t145.5 -42q86 0 146 41.5t91 112t31 156.5v816h300v-816q0 -127 -41 -237.5t-117 -194.5t-180 -131t-230 -47zM470 1464q-64 0 -108 43t-44 107q0 63 44 106.5t108 43.5
q63 0 106.5 -43.5t43.5 -106.5q0 -64 -43.5 -107t-106.5 -43zM910 1464q-64 0 -108 43t-44 107q0 63 44 106.5t108 43.5q63 0 106.5 -43.5t43.5 -106.5q0 -64 -43.5 -107t-106.5 -43z" />
    <glyph glyph-name="Yacute" unicode="&#xdd;" horiz-adv-x="1392" 
d="M978 1400h354l-486 -770v-630h-300v630l-486 770h354l282 -444zM616 1510l80 288h300l-180 -288h-200z" />
    <glyph glyph-name="Thorn" unicode="&#xde;" 
d="M120 0v1400h300v-272h228q115 0 208.5 -58.5t148.5 -156t55 -213.5q0 -118 -56.5 -215t-150.5 -155t-205 -58h-228v-272h-300zM420 572h194q40 0 73 20.5t53 54.5t20 75t-20 75t-53 54.5t-73 20.5h-194v-300z" />
    <glyph glyph-name="germandbls" unicode="&#xdf;" horiz-adv-x="1186" 
d="M120 0v870q0 110 41 206t113.5 168.5t169 114t206.5 41.5q115 0 208 -52.5t147.5 -144.5t54.5 -209q0 -44 -11 -95.5t-39 -96t-80 -68.5q67 -9 106 -44t58.5 -84.5t25.5 -103t6 -100.5q0 -116 -57 -207t-153 -143t-212 -52h-74l-40 254h82q52 0 94.5 23.5t68 62
t25.5 84.5t-25.5 83.5t-68 61t-94.5 25.5l-82 4v242l24 4q40 7 73 26.5t53 51t20 72.5t-20 75t-53 54.5t-73 20.5q-54 0 -98 -26t-70 -70t-26 -98v-950h-300z" />
    <glyph glyph-name="agrave" unicode="&#xe0;" horiz-adv-x="1218" 
d="M838 1000h300v-1000h-301l-14 90q-37 -52 -93.5 -84t-131.5 -32q-112 0 -209.5 42t-171.5 116.5t-115.5 172t-41.5 209.5q0 107 39 200t109.5 163.5t163 110.5t198.5 40q86 0 156.5 -35.5t125.5 -88.5zM590 262q62 0 113 32t81 86t30 120t-30 120t-81 86t-113 32
t-112.5 -32t-80 -86t-29.5 -120t30 -120t80.5 -86t111.5 -32zM325 1398h300l80 -288h-200z" />
    <glyph glyph-name="aacute" unicode="&#xe1;" horiz-adv-x="1218" 
d="M838 1000h300v-1000h-301l-14 90q-37 -52 -93.5 -84t-131.5 -32q-112 0 -209.5 42t-171.5 116.5t-115.5 172t-41.5 209.5q0 107 39 200t109.5 163.5t163 110.5t198.5 40q86 0 156.5 -35.5t125.5 -88.5zM590 262q62 0 113 32t81 86t30 120t-30 120t-81 86t-113 32
t-112.5 -32t-80 -86t-29.5 -120t30 -120t80.5 -86t111.5 -32zM543 1110l80 288h300l-180 -288h-200z" />
    <glyph glyph-name="acircumflex" unicode="&#xe2;" horiz-adv-x="1218" 
d="M838 1000h300v-1000h-301l-14 90q-37 -52 -93.5 -84t-131.5 -32q-112 0 -209.5 42t-171.5 116.5t-115.5 172t-41.5 209.5q0 107 39 200t109.5 163.5t163 110.5t198.5 40q86 0 156.5 -35.5t125.5 -88.5zM590 262q62 0 113 32t81 86t30 120t-30 120t-81 86t-113 32
t-112.5 -32t-80 -86t-29.5 -120t30 -120t80.5 -86t111.5 -32zM792 1398l194 -288h-200l-163 188l-161 -188h-200l190 288h340z" />
    <glyph glyph-name="atilde" unicode="&#xe3;" horiz-adv-x="1218" 
d="M838 1000h300v-1000h-301l-14 90q-37 -52 -93.5 -84t-131.5 -32q-112 0 -209.5 42t-171.5 116.5t-115.5 172t-41.5 209.5q0 107 39 200t109.5 163.5t163 110.5t198.5 40q86 0 156.5 -35.5t125.5 -88.5zM590 262q62 0 113 32t81 86t30 120t-30 120t-81 86t-113 32
t-112.5 -32t-80 -86t-29.5 -120t30 -120t80.5 -86t111.5 -32zM779 1091q-38 0 -91.5 27.5t-106 60t-89.5 51t-43 1.5q-6 -18 -2.5 -35t12.5 -47l-168 -46q-31 89 -18.5 160t62.5 112.5t132 41.5q36 0 85 -21.5t97.5 -49.5t85 -49.5t46.5 -21.5q19 0 21.5 12t-4 30.5
t-13.5 37.5l172 56q31 -94 16 -166t-66 -113t-128 -41z" />
    <glyph glyph-name="adieresis" unicode="&#xe4;" horiz-adv-x="1218" 
d="M838 1000h300v-1000h-301l-14 90q-37 -52 -93.5 -84t-131.5 -32q-112 0 -209.5 42t-171.5 116.5t-115.5 172t-41.5 209.5q0 107 39 200t109.5 163.5t163 110.5t198.5 40q86 0 156.5 -35.5t125.5 -88.5zM590 262q62 0 113 32t81 86t30 120t-30 120t-81 86t-113 32
t-112.5 -32t-80 -86t-29.5 -120t30 -120t80.5 -86t111.5 -32zM404 1064q-64 0 -108 43t-44 107q0 63 44 106.5t108 43.5q63 0 106.5 -43.5t43.5 -106.5q0 -64 -43.5 -107t-106.5 -43zM844 1064q-64 0 -108 43t-44 107q0 63 44 106.5t108 43.5q63 0 106.5 -43.5t43.5 -106.5
q0 -64 -43.5 -107t-106.5 -43z" />
    <glyph glyph-name="aring" unicode="&#xe5;" horiz-adv-x="1218" 
d="M838 1000h300v-1000h-301l-14 90q-37 -52 -93.5 -84t-131.5 -32q-112 0 -209.5 42t-171.5 116.5t-115.5 172t-41.5 209.5q0 107 39 200t109.5 163.5t163 110.5t198.5 40q86 0 156.5 -35.5t125.5 -88.5zM590 262q62 0 113 32t81 86t30 120t-30 120t-81 86t-113 32
t-112.5 -32t-80 -86t-29.5 -120t30 -120t80.5 -86t111.5 -32zM623 1054q-82 0 -141 60t-59 142q0 54 27 99t72.5 72t100.5 27q83 0 141.5 -58.5t58.5 -139.5q0 -84 -58.5 -143t-141.5 -59zM623 1194q25 0 42.5 18t17.5 43q0 24 -17.5 41.5t-42.5 17.5t-42.5 -17t-17.5 -41
q0 -26 17.5 -44t42.5 -18z" />
    <glyph glyph-name="ae" unicode="&#xe6;" horiz-adv-x="1703" 
d="M370 -26q-98 0 -175 45t-121 119t-44 160t45 159.5t122 118.5t173 45h261q-11 31 -32 55t-51 38t-68 14q-80 0 -143 -42l-166 249q68 47 146 70t159 23q95 0 181 -35t150 -101q45 42 98 72.5t113.5 47t124.5 16.5q121 0 220.5 -52.5t167.5 -142t96.5 -201.5t6.5 -231
h-667q14 -36 38 -64.5t59 -45.5t82 -17q43 0 80 20t64 53l306 -71q-61 -133 -182 -217.5t-271 -84.5q-73 0 -140 21t-125 59.5t-104 90.5q-36 -42 -98 -81t-140.5 -64.5t-165.5 -25.5zM370 234q56 0 103.5 18.5t84.5 52.5q42 38 72 96h-260q-33 0 -56.5 -23.5t-23.5 -56.5
t23.5 -60t56.5 -27zM956 621h375q-14 43 -42 76t-65.5 52t-80.5 19q-42 0 -79.5 -19t-65 -52t-42.5 -76z" />
    <glyph glyph-name="ccedilla" unicode="&#xe7;" horiz-adv-x="1019" 
d="M690 328l270 -146q-69 -94 -173 -151t-227 -57q-138 0 -251.5 71t-181 190.5t-67.5 264.5q0 110 39 205.5t107.5 168t159.5 113.5t194 41q123 0 227 -57t173 -153l-270 -146q-27 27 -60.5 41.5t-69.5 14.5q-57 0 -102 -32t-71.5 -84t-26.5 -112q0 -59 26.5 -110.5
t71.5 -83.5t102 -32q36 0 69.5 14.5t60.5 39.5zM571 -381q-76 -20 -144 19t-88 114l145 39q4 -15 18 -23t30 -4t24 18t4 30t-17.5 22t-30.5 6h-146l150 265l131 -76l-36 -61q34 -17 59 -47t35 -71q20 -75 -19 -143t-115 -88z" />
    <glyph glyph-name="egrave" unicode="&#xe8;" 
d="M560 -26q-138 0 -251.5 71t-181 191t-67.5 265q0 109 39 204.5t107.5 168t159.5 113.5t194 41q120 0 219.5 -52.5t168 -142t97.5 -201.5t6 -231h-667q14 -35 37.5 -63.5t58 -45.5t80.5 -18q44 -1 81.5 19t65.5 54l306 -71q-61 -133 -182 -217.5t-271 -84.5zM373 621h375
q-14 43 -42 76t-65.5 52t-80.5 19q-42 0 -79.5 -19t-65 -52t-42.5 -76zM262 1398h300l80 -288h-200z" />
    <glyph glyph-name="eacute" unicode="&#xe9;" 
d="M560 -26q-138 0 -251.5 71t-181 191t-67.5 265q0 109 39 204.5t107.5 168t159.5 113.5t194 41q120 0 219.5 -52.5t168 -142t97.5 -201.5t6 -231h-667q14 -35 37.5 -63.5t58 -45.5t80.5 -18q44 -1 81.5 19t65.5 54l306 -71q-61 -133 -182 -217.5t-271 -84.5zM373 621h375
q-14 43 -42 76t-65.5 52t-80.5 19q-42 0 -79.5 -19t-65 -52t-42.5 -76zM480 1110l80 288h300l-180 -288h-200z" />
    <glyph glyph-name="ecircumflex" unicode="&#xea;" 
d="M560 -26q-138 0 -251.5 71t-181 191t-67.5 265q0 109 39 204.5t107.5 168t159.5 113.5t194 41q120 0 219.5 -52.5t168 -142t97.5 -201.5t6 -231h-667q14 -35 37.5 -63.5t58 -45.5t80.5 -18q44 -1 81.5 19t65.5 54l306 -71q-61 -133 -182 -217.5t-271 -84.5zM373 621h375
q-14 43 -42 76t-65.5 52t-80.5 19q-42 0 -79.5 -19t-65 -52t-42.5 -76zM729 1398l194 -288h-200l-163 188l-161 -188h-200l190 288h340z" />
    <glyph glyph-name="edieresis" unicode="&#xeb;" 
d="M560 -26q-138 0 -251.5 71t-181 191t-67.5 265q0 109 39 204.5t107.5 168t159.5 113.5t194 41q120 0 219.5 -52.5t168 -142t97.5 -201.5t6 -231h-667q14 -35 37.5 -63.5t58 -45.5t80.5 -18q44 -1 81.5 19t65.5 54l306 -71q-61 -133 -182 -217.5t-271 -84.5zM373 621h375
q-14 43 -42 76t-65.5 52t-80.5 19q-42 0 -79.5 -19t-65 -52t-42.5 -76zM341 1064q-64 0 -108 43t-44 107q0 63 44 106.5t108 43.5q63 0 106.5 -43.5t43.5 -106.5q0 -64 -43.5 -107t-106.5 -43zM781 1064q-64 0 -108 43t-44 107q0 63 44 106.5t108 43.5q63 0 106.5 -43.5
t43.5 -106.5q0 -64 -43.5 -107t-106.5 -43z" />
    <glyph glyph-name="igrave" unicode="&#xec;" horiz-adv-x="540" 
d="M120 1000h300v-1000h-300v1000zM-28 1398h300l80 -288h-200z" />
    <glyph glyph-name="iacute" unicode="&#xed;" horiz-adv-x="540" 
d="M120 1000h300v-1000h-300v1000zM190 1110l80 288h300l-180 -288h-200z" />
    <glyph glyph-name="icircumflex" unicode="&#xee;" horiz-adv-x="540" 
d="M120 1000h300v-1000h-300v1000zM439 1398l194 -288h-200l-163 188l-161 -188h-200l190 288h340z" />
    <glyph glyph-name="idieresis" unicode="&#xef;" horiz-adv-x="540" 
d="M120 1000h300v-1000h-300v1000zM51 1064q-64 0 -108 43t-44 107q0 63 44 106.5t108 43.5q63 0 106.5 -43.5t43.5 -106.5q0 -64 -43.5 -107t-106.5 -43zM491 1064q-64 0 -108 43t-44 107q0 63 44 106.5t108 43.5q63 0 106.5 -43.5t43.5 -106.5q0 -64 -43.5 -107
t-106.5 -43z" />
    <glyph glyph-name="eth" unicode="&#xf0;" horiz-adv-x="1126" 
d="M440 1018l-142 142l438 432l140 -142zM584 -26q-139 0 -253.5 68t-182.5 182t-68 252q0 104 39 195.5t108.5 161t161 108.5t195.5 39q20 0 40.5 -1.5t39.5 -6.5q-20 41 -43 87t-57.5 87.5t-88 67.5t-135.5 26l-2 300q173 0 311.5 -84.5t236 -229.5t149 -329.5
t51.5 -384.5q0 -157 -65 -278.5t-178.5 -190.5t-258.5 -69zM584 274q55 0 101 27.5t73.5 73.5t27.5 101q0 56 -27.5 102.5t-73.5 74t-101 27.5q-56 0 -102.5 -27.5t-74 -74t-27.5 -102.5q0 -55 27.5 -101t74 -73.5t102.5 -27.5z" />
    <glyph glyph-name="ntilde" unicode="&#xf1;" horiz-adv-x="1139" 
d="M1059 639v-639h-300v555q0 47 -23 85.5t-61 61t-85 22.5t-85.5 -22.5t-61 -61t-22.5 -85.5v-555h-300l-1 1000h300l1 -63q50 43 114 67t135 24q108 0 196 -52.5t140.5 -140.5t52.5 -196zM766 1091q-38 0 -91.5 27.5t-106 60t-89.5 51t-43 1.5q-6 -18 -2.5 -35t12.5 -47
l-168 -46q-31 89 -18.5 160t62.5 112.5t132 41.5q36 0 85 -21.5t97.5 -49.5t85 -49.5t46.5 -21.5q19 0 21.5 12t-4 30.5t-13.5 37.5l172 56q31 -94 16 -166t-66 -113t-128 -41z" />
    <glyph glyph-name="ograve" unicode="&#xf2;" 
d="M560 -26q-138 0 -251.5 71t-181 190.5t-67.5 264.5q0 110 39 205.5t107.5 168t159.5 113.5t194 41q138 0 251.5 -71t181 -191t67.5 -266q0 -109 -39 -204t-107.5 -167.5t-159 -113.5t-194.5 -41zM560 274q57 0 102.5 31t71.5 82.5t26 112.5q0 63 -27.5 115t-73 82.5
t-99.5 30.5q-56 0 -101.5 -31.5t-72 -83.5t-26.5 -113q0 -64 27.5 -115t73 -81t99.5 -30zM262 1398h300l80 -288h-200z" />
    <glyph glyph-name="oacute" unicode="&#xf3;" 
d="M560 -26q-138 0 -251.5 71t-181 190.5t-67.5 264.5q0 110 39 205.5t107.5 168t159.5 113.5t194 41q138 0 251.5 -71t181 -191t67.5 -266q0 -109 -39 -204t-107.5 -167.5t-159 -113.5t-194.5 -41zM560 274q57 0 102.5 31t71.5 82.5t26 112.5q0 63 -27.5 115t-73 82.5
t-99.5 30.5q-56 0 -101.5 -31.5t-72 -83.5t-26.5 -113q0 -64 27.5 -115t73 -81t99.5 -30zM480 1110l80 288h300l-180 -288h-200z" />
    <glyph glyph-name="ocircumflex" unicode="&#xf4;" 
d="M560 -26q-138 0 -251.5 71t-181 190.5t-67.5 264.5q0 110 39 205.5t107.5 168t159.5 113.5t194 41q138 0 251.5 -71t181 -191t67.5 -266q0 -109 -39 -204t-107.5 -167.5t-159 -113.5t-194.5 -41zM560 274q57 0 102.5 31t71.5 82.5t26 112.5q0 63 -27.5 115t-73 82.5
t-99.5 30.5q-56 0 -101.5 -31.5t-72 -83.5t-26.5 -113q0 -64 27.5 -115t73 -81t99.5 -30zM729 1398l194 -288h-200l-163 188l-161 -188h-200l190 288h340z" />
    <glyph glyph-name="otilde" unicode="&#xf5;" 
d="M560 -26q-138 0 -251.5 71t-181 190.5t-67.5 264.5q0 110 39 205.5t107.5 168t159.5 113.5t194 41q138 0 251.5 -71t181 -191t67.5 -266q0 -109 -39 -204t-107.5 -167.5t-159 -113.5t-194.5 -41zM560 274q57 0 102.5 31t71.5 82.5t26 112.5q0 63 -27.5 115t-73 82.5
t-99.5 30.5q-56 0 -101.5 -31.5t-72 -83.5t-26.5 -113q0 -64 27.5 -115t73 -81t99.5 -30zM716 1091q-38 0 -91.5 27.5t-106 60t-89.5 51t-43 1.5q-6 -18 -2.5 -35t12.5 -47l-168 -46q-31 89 -18.5 160t62.5 112.5t132 41.5q36 0 85 -21.5t97.5 -49.5t85 -49.5t46.5 -21.5
q19 0 21.5 12t-4 30.5t-13.5 37.5l172 56q31 -94 16 -166t-66 -113t-128 -41z" />
    <glyph glyph-name="odieresis" unicode="&#xf6;" 
d="M560 -26q-138 0 -251.5 71t-181 190.5t-67.5 264.5q0 110 39 205.5t107.5 168t159.5 113.5t194 41q138 0 251.5 -71t181 -191t67.5 -266q0 -109 -39 -204t-107.5 -167.5t-159 -113.5t-194.5 -41zM560 274q57 0 102.5 31t71.5 82.5t26 112.5q0 63 -27.5 115t-73 82.5
t-99.5 30.5q-56 0 -101.5 -31.5t-72 -83.5t-26.5 -113q0 -64 27.5 -115t73 -81t99.5 -30zM341 1064q-64 0 -108 43t-44 107q0 63 44 106.5t108 43.5q63 0 106.5 -43.5t43.5 -106.5q0 -64 -43.5 -107t-106.5 -43zM781 1064q-64 0 -108 43t-44 107q0 63 44 106.5t108 43.5
q63 0 106.5 -43.5t43.5 -106.5q0 -64 -43.5 -107t-106.5 -43z" />
    <glyph glyph-name="divide" unicode="&#xf7;" horiz-adv-x="1160" 
d="M80 450v300h1000v-300h-1000zM580 1110q62 0 106 -44t44 -106q0 -61 -44 -105.5t-106 -44.5q-63 0 -106.5 44.5t-43.5 105.5q0 62 43.5 106t106.5 44zM580 390q62 0 106 -44t44 -106q0 -61 -44 -105.5t-106 -44.5q-63 0 -106.5 44.5t-43.5 105.5q0 62 43.5 106t106.5 44z
" />
    <glyph glyph-name="oslash" unicode="&#xf8;" 
d="M360 -86l-208 120l54 94q-67 72 -106.5 168t-39.5 204q0 110 39 205.5t107.5 168t159.5 113.5t194 41q39 0 77.5 -6t72.5 -18l50 84l208 -120l-54 -94q68 -72 107 -168t39 -206q0 -109 -39 -204t-107.5 -167.5t-159 -113.5t-194.5 -41q-40 0 -78 6t-74 18zM354 380
l222 386q-50 -1 -93.5 -24.5t-76.5 -63t-51.5 -90t-18.5 -106.5q0 -28 4.5 -53t13.5 -49zM544 236q52 2 95.5 24.5t76 61.5t50.5 89.5t18 106.5q0 29 -5 54.5t-13 49.5z" />
    <glyph glyph-name="ugrave" unicode="&#xf9;" horiz-adv-x="1099" 
d="M80 363v637h300v-553q0 -47 23 -85.5t61.5 -61t84.5 -22.5q47 0 85.5 22.5t61 61t22.5 85.5v553h300l1 -1000h-300l-1 65q-50 -43 -114 -67t-135 -24q-107 0 -195.5 52.5t-141 140.5t-52.5 196zM290 1400h300l80 -288h-200z" />
    <glyph glyph-name="uacute" unicode="&#xfa;" horiz-adv-x="1099" 
d="M80 363v637h300v-553q0 -47 23 -85.5t61.5 -61t84.5 -22.5q47 0 85.5 22.5t61 61t22.5 85.5v553h300l1 -1000h-300l-1 65q-50 -43 -114 -67t-135 -24q-107 0 -195.5 52.5t-141 140.5t-52.5 196zM508 1112l80 288h300l-180 -288h-200z" />
    <glyph glyph-name="ucircumflex" unicode="&#xfb;" horiz-adv-x="1099" 
d="M80 363v637h300v-553q0 -47 23 -85.5t61.5 -61t84.5 -22.5q47 0 85.5 22.5t61 61t22.5 85.5v553h300l1 -1000h-300l-1 65q-50 -43 -114 -67t-135 -24q-107 0 -195.5 52.5t-141 140.5t-52.5 196zM757 1400l194 -288h-200l-163 188l-161 -188h-200l190 288h340z" />
    <glyph glyph-name="udieresis" unicode="&#xfc;" horiz-adv-x="1099" 
d="M80 363v637h300v-553q0 -47 23 -85.5t61.5 -61t84.5 -22.5q47 0 85.5 22.5t61 61t22.5 85.5v553h300l1 -1000h-300l-1 65q-50 -43 -114 -67t-135 -24q-107 0 -195.5 52.5t-141 140.5t-52.5 196zM369 1066q-64 0 -108 43t-44 107q0 63 44 106.5t108 43.5q63 0 106.5 -43.5
t43.5 -106.5q0 -64 -43.5 -107t-106.5 -43zM809 1066q-64 0 -108 43t-44 107q0 63 44 106.5t108 43.5q63 0 106.5 -43.5t43.5 -106.5q0 -64 -43.5 -107t-106.5 -43z" />
    <glyph glyph-name="yacute" unicode="&#xfd;" horiz-adv-x="1206" 
d="M806 1000h320l-548 -1500h-318l180 500l-360 1000h328l182 -590zM523 1110l80 288h300l-180 -288h-200z" />
    <glyph glyph-name="thorn" unicode="&#xfe;" horiz-adv-x="1258" 
d="M120 -500v1900h300v-494q47 53 109 86.5t143 33.5q110 0 205 -41t167.5 -113.5t113 -167.5t40.5 -204t-40.5 -205t-113 -168.5t-167.5 -113.5t-205 -41q-81 0 -143 34t-109 86v-592h-300zM668 262q62 0 113 32t81 86t30 120q0 65 -30 119t-81 86.5t-113 32.5
q-61 0 -111.5 -32.5t-80.5 -86.5t-30 -119q0 -66 30 -120t80.5 -86t111.5 -32z" />
    <glyph glyph-name="ydieresis" unicode="&#xff;" horiz-adv-x="1206" 
d="M806 1000h320l-548 -1500h-318l180 500l-360 1000h328l182 -590zM384 1064q-64 0 -108 43t-44 107q0 63 44 106.5t108 43.5q63 0 106.5 -43.5t43.5 -106.5q0 -64 -43.5 -107t-106.5 -43zM824 1064q-64 0 -108 43t-44 107q0 63 44 106.5t108 43.5q63 0 106.5 -43.5
t43.5 -106.5q0 -64 -43.5 -107t-106.5 -43z" />
    <glyph glyph-name="Amacron" unicode="&#x100;" horiz-adv-x="1514" 
d="M588 1400h338l508 -1400h-318l-80 220h-558l-80 -220h-318zM588 520h338l-170 464zM419 1750h676v-220h-676v220z" />
    <glyph glyph-name="amacron" unicode="&#x101;" horiz-adv-x="1218" 
d="M838 1000h300v-1000h-301l-14 90q-37 -52 -93.5 -84t-131.5 -32q-112 0 -209.5 42t-171.5 116.5t-115.5 172t-41.5 209.5q0 107 39 200t109.5 163.5t163 110.5t198.5 40q86 0 156.5 -35.5t125.5 -88.5zM590 262q62 0 113 32t81 86t30 120t-30 120t-81 86t-113 32
t-112.5 -32t-80 -86t-29.5 -120t30 -120t80.5 -86t111.5 -32zM285 1350h676v-220h-676v220z" />
    <glyph glyph-name="Abreve" unicode="&#x102;" horiz-adv-x="1514" 
d="M588 1400h338l508 -1400h-318l-80 220h-558l-80 -220h-318zM588 520h338l-170 464zM757 1488q-91 0 -166.5 45t-120.5 120.5t-45 166.5h180q0 -41 20.5 -75.5t55 -55.5t76.5 -21t76.5 20t55 54.5t20.5 77.5h180q0 -93 -44.5 -168.5t-120 -119.5t-167.5 -44z" />
    <glyph glyph-name="abreve" unicode="&#x103;" horiz-adv-x="1218" 
d="M838 1000h300v-1000h-301l-14 90q-37 -52 -93.5 -84t-131.5 -32q-112 0 -209.5 42t-171.5 116.5t-115.5 172t-41.5 209.5q0 107 39 200t109.5 163.5t163 110.5t198.5 40q86 0 156.5 -35.5t125.5 -88.5zM590 262q62 0 113 32t81 86t30 120t-30 120t-81 86t-113 32
t-112.5 -32t-80 -86t-29.5 -120t30 -120t80.5 -86t111.5 -32zM623 1088q-91 0 -166.5 45t-120.5 120.5t-45 166.5h180q0 -41 20.5 -75.5t55 -55.5t76.5 -21t76.5 20t55 54.5t20.5 77.5h180q0 -93 -44.5 -168.5t-120 -119.5t-167.5 -44z" />
    <glyph glyph-name="Aogonek" unicode="&#x104;" horiz-adv-x="1514" 
d="M588 1400h338l508 -1400h-318l-80 220h-558l-80 -220h-318zM588 520h338l-170 464zM1309 -476q-80 0 -139 38t-91.5 99t-32.5 128q0 50 18.5 97.5t58.5 87.5l168 168l142 -142q-27 -27 -56.5 -55t-55 -56.5t-41.5 -56.5t-16 -55q0 -22 15.5 -40t41.5 -18q38 0 64.5 27
t26.5 65h184q0 -76 -37.5 -141.5t-102.5 -105.5t-147 -40z" />
    <glyph glyph-name="aogonek" unicode="&#x105;" horiz-adv-x="1218" 
d="M838 1000h300v-1000h-301l-14 90q-37 -52 -93.5 -84t-131.5 -32q-112 0 -209.5 42t-171.5 116.5t-115.5 172t-41.5 209.5q0 107 39 200t109.5 163.5t163 110.5t198.5 40q86 0 156.5 -35.5t125.5 -88.5zM590 262q62 0 113 32t81 86t30 120t-30 120t-81 86t-113 32
t-112.5 -32t-80 -86t-29.5 -120t30 -120t80.5 -86t111.5 -32zM1013 -476q-80 0 -139 38t-91.5 99t-32.5 128q0 50 18.5 97.5t58.5 87.5l168 168l142 -142q-27 -27 -56.5 -55t-55 -56.5t-41.5 -56.5t-16 -55q0 -22 15.5 -40t41.5 -18q38 0 64.5 27t26.5 65h184
q0 -76 -37.5 -141.5t-102.5 -105.5t-147 -40z" />
    <glyph glyph-name="Cacute" unicode="&#x106;" horiz-adv-x="1418" 
d="M768 -26q-142 0 -267 56.5t-219.5 156.5t-148 231.5t-53.5 281.5q0 151 53.5 282.5t148 231t219.5 156t267 56.5q170 0 313 -78.5t237 -209.5l-268 -144q-52 60 -125 96t-157 36q-80 0 -150.5 -33t-124 -91.5t-83.5 -135.5t-30 -166q0 -88 30 -165t83.5 -135.5t124 -92
t150.5 -33.5q84 0 157 36.5t125 97.5l268 -146q-94 -130 -237 -209t-313 -79zM688 1510l80 288h300l-180 -288h-200z" />
    <glyph glyph-name="cacute" unicode="&#x107;" horiz-adv-x="1019" 
d="M690 328l270 -146q-69 -94 -173 -151t-227 -57q-138 0 -251.5 71t-181 190.5t-67.5 264.5q0 110 39 205.5t107.5 168t159.5 113.5t194 41q123 0 227 -57t173 -153l-270 -146q-27 27 -60.5 41.5t-69.5 14.5q-57 0 -102 -32t-71.5 -84t-26.5 -112q0 -59 26.5 -110.5
t71.5 -83.5t102 -32q36 0 69.5 14.5t60.5 39.5zM480 1110l80 288h300l-180 -288h-200z" />
    <glyph glyph-name="Ccircumflex" unicode="&#x108;" horiz-adv-x="1418" 
d="M768 -26q-142 0 -267 56.5t-219.5 156.5t-148 231.5t-53.5 281.5q0 151 53.5 282.5t148 231t219.5 156t267 56.5q170 0 313 -78.5t237 -209.5l-268 -144q-52 60 -125 96t-157 36q-80 0 -150.5 -33t-124 -91.5t-83.5 -135.5t-30 -166q0 -88 30 -165t83.5 -135.5t124 -92
t150.5 -33.5q84 0 157 36.5t125 97.5l268 -146q-94 -130 -237 -209t-313 -79zM937 1798l194 -288h-200l-163 188l-161 -188h-200l190 288h340z" />
    <glyph glyph-name="ccircumflex" unicode="&#x109;" horiz-adv-x="1019" 
d="M690 328l270 -146q-69 -94 -173 -151t-227 -57q-138 0 -251.5 71t-181 190.5t-67.5 264.5q0 110 39 205.5t107.5 168t159.5 113.5t194 41q123 0 227 -57t173 -153l-270 -146q-27 27 -60.5 41.5t-69.5 14.5q-57 0 -102 -32t-71.5 -84t-26.5 -112q0 -59 26.5 -110.5
t71.5 -83.5t102 -32q36 0 69.5 14.5t60.5 39.5zM729 1398l194 -288h-200l-163 188l-161 -188h-200l190 288h340z" />
    <glyph glyph-name="Cdotaccent" unicode="&#x10a;" horiz-adv-x="1418" 
d="M768 -26q-142 0 -267 56.5t-219.5 156.5t-148 231.5t-53.5 281.5q0 151 53.5 282.5t148 231t219.5 156t267 56.5q170 0 313 -78.5t237 -209.5l-268 -144q-52 60 -125 96t-157 36q-80 0 -150.5 -33t-124 -91.5t-83.5 -135.5t-30 -166q0 -88 30 -165t83.5 -135.5t124 -92
t150.5 -33.5q84 0 157 36.5t125 97.5l268 -146q-94 -130 -237 -209t-313 -79zM770 1504q-65 0 -109 43t-44 107q0 63 44 106.5t108 43.5q63 0 106.5 -43.5t43.5 -106.5q0 -64 -42.5 -107t-106.5 -43z" />
    <glyph glyph-name="cdotaccent" unicode="&#x10b;" horiz-adv-x="1019" 
d="M690 328l270 -146q-69 -94 -173 -151t-227 -57q-138 0 -251.5 71t-181 190.5t-67.5 264.5q0 110 39 205.5t107.5 168t159.5 113.5t194 41q123 0 227 -57t173 -153l-270 -146q-27 27 -60.5 41.5t-69.5 14.5q-57 0 -102 -32t-71.5 -84t-26.5 -112q0 -59 26.5 -110.5
t71.5 -83.5t102 -32q36 0 69.5 14.5t60.5 39.5zM562 1104q-65 0 -109 43t-44 107q0 63 44 106.5t108 43.5q63 0 106.5 -43.5t43.5 -106.5q0 -64 -42.5 -107t-106.5 -43z" />
    <glyph glyph-name="Ccaron" unicode="&#x10c;" horiz-adv-x="1418" 
d="M768 -26q-142 0 -267 56.5t-219.5 156.5t-148 231.5t-53.5 281.5q0 151 53.5 282.5t148 231t219.5 156t267 56.5q170 0 313 -78.5t237 -209.5l-268 -144q-52 60 -125 96t-157 36q-80 0 -150.5 -33t-124 -91.5t-83.5 -135.5t-30 -166q0 -88 30 -165t83.5 -135.5t124 -92
t150.5 -33.5q84 0 157 36.5t125 97.5l268 -146q-94 -130 -237 -209t-313 -79zM599 1510l-194 288h200l163 -188l161 188h200l-190 -288h-340z" />
    <glyph glyph-name="ccaron" unicode="&#x10d;" horiz-adv-x="1019" 
d="M690 328l270 -146q-69 -94 -173 -151t-227 -57q-138 0 -251.5 71t-181 190.5t-67.5 264.5q0 110 39 205.5t107.5 168t159.5 113.5t194 41q123 0 227 -57t173 -153l-270 -146q-27 27 -60.5 41.5t-69.5 14.5q-57 0 -102 -32t-71.5 -84t-26.5 -112q0 -59 26.5 -110.5
t71.5 -83.5t102 -32q36 0 69.5 14.5t60.5 39.5zM391 1110l-194 288h200l163 -188l161 188h200l-190 -288h-340z" />
    <glyph glyph-name="Dcaron" unicode="&#x10e;" horiz-adv-x="1343" 
d="M120 0v1400h464q145 0 271.5 -54.5t223 -151t151 -223t54.5 -271.5t-54.5 -271.5t-151 -223t-223 -151t-271.5 -54.5h-464zM420 300h164q81 0 153 31t128 86t87.5 127.5t31.5 155.5t-31.5 155t-87 127.5t-127.5 86.5t-154 31h-164v-800zM483 1510l-194 288h200l163 -188
l161 188h200l-190 -288h-340z" />
    <glyph glyph-name="dcaron" unicode="&#x10f;" horiz-adv-x="1260" 
d="M840 1500h300v-1500h-300v92q-46 -52 -109.5 -85t-144.5 -33q-109 0 -204 41t-167.5 113.5t-113.5 167.5t-41 204t41 204t113.5 167.5t167.5 113.5t204 41q81 0 144.5 -32.5t109.5 -85.5v592zM590 262q62 0 113 32t81 86t30 120t-30 120t-81 86t-113 32t-112.5 -32
t-80 -86t-29.5 -120t30 -120t80.5 -86t111.5 -32zM1180 1212l80 288h300l-180 -288h-200z" />
    <glyph glyph-name="Emacron" unicode="&#x112;" horiz-adv-x="1112" 
d="M120 0v1400h892v-300h-592v-200h456v-300h-456v-300h592v-300h-892zM218 1750h676v-220h-676v220z" />
    <glyph glyph-name="emacron" unicode="&#x113;" 
d="M560 -26q-138 0 -251.5 71t-181 191t-67.5 265q0 109 39 204.5t107.5 168t159.5 113.5t194 41q120 0 219.5 -52.5t168 -142t97.5 -201.5t6 -231h-667q14 -35 37.5 -63.5t58 -45.5t80.5 -18q44 -1 81.5 19t65.5 54l306 -71q-61 -133 -182 -217.5t-271 -84.5zM373 621h375
q-14 43 -42 76t-65.5 52t-80.5 19q-42 0 -79.5 -19t-65 -52t-42.5 -76zM221 1350h676v-220h-676v220z" />
    <glyph glyph-name="Edotaccent" unicode="&#x116;" horiz-adv-x="1112" 
d="M120 0v1400h892v-300h-592v-200h456v-300h-456v-300h592v-300h-892zM558 1504q-65 0 -109 43t-44 107q0 63 44 106.5t108 43.5q63 0 106.5 -43.5t43.5 -106.5q0 -64 -42.5 -107t-106.5 -43z" />
    <glyph glyph-name="edotaccent" unicode="&#x117;" 
d="M560 -26q-138 0 -251.5 71t-181 191t-67.5 265q0 109 39 204.5t107.5 168t159.5 113.5t194 41q120 0 219.5 -52.5t168 -142t97.5 -201.5t6 -231h-667q14 -35 37.5 -63.5t58 -45.5t80.5 -18q44 -1 81.5 19t65.5 54l306 -71q-61 -133 -182 -217.5t-271 -84.5zM373 621h375
q-14 43 -42 76t-65.5 52t-80.5 19q-42 0 -79.5 -19t-65 -52t-42.5 -76zM562 1104q-65 0 -109 43t-44 107q0 63 44 106.5t108 43.5q63 0 106.5 -43.5t43.5 -106.5q0 -64 -42.5 -107t-106.5 -43z" />
    <glyph glyph-name="Eogonek" unicode="&#x118;" horiz-adv-x="1112" 
d="M120 0v1400h892v-300h-592v-200h456v-300h-456v-300h592v-300h-892zM785 -476q-80 0 -139 38t-91.5 99t-32.5 128q0 50 18.5 97.5t58.5 87.5l168 168l142 -142q-27 -27 -56.5 -55t-55 -56.5t-41.5 -56.5t-16 -55q0 -22 15.5 -40t41.5 -18q38 0 64.5 27t26.5 65h184
q0 -76 -37.5 -141.5t-102.5 -105.5t-147 -40z" />
    <glyph glyph-name="eogonek" unicode="&#x119;" 
d="M560 -26q-138 0 -251.5 71t-181 191t-67.5 265q0 109 39 204.5t107.5 168t159.5 113.5t194 41q120 0 219.5 -52.5t168 -142t97.5 -201.5t6 -231h-667q14 -35 37.5 -63.5t58 -45.5t80.5 -18q44 -1 81.5 19t65.5 54l306 -71q-61 -133 -182 -217.5t-271 -84.5zM373 621h375
q-14 43 -42 76t-65.5 52t-80.5 19q-42 0 -79.5 -19t-65 -52t-42.5 -76zM590 -476q-80 0 -139 38t-91.5 99t-32.5 128q0 50 18.5 97.5t58.5 87.5l168 168l142 -142q-27 -27 -56.5 -55t-55 -56.5t-41.5 -56.5t-16 -55q0 -22 15.5 -40t41.5 -18q38 0 64.5 27t26.5 65h184
q0 -76 -37.5 -141.5t-102.5 -105.5t-147 -40z" />
    <glyph glyph-name="Ecaron" unicode="&#x11a;" horiz-adv-x="1112" 
d="M120 0v1400h892v-300h-592v-200h456v-300h-456v-300h592v-300h-892zM387 1510l-194 288h200l163 -188l161 188h200l-190 -288h-340z" />
    <glyph glyph-name="ecaron" unicode="&#x11b;" 
d="M560 -26q-138 0 -251.5 71t-181 191t-67.5 265q0 109 39 204.5t107.5 168t159.5 113.5t194 41q120 0 219.5 -52.5t168 -142t97.5 -201.5t6 -231h-667q14 -35 37.5 -63.5t58 -45.5t80.5 -18q44 -1 81.5 19t65.5 54l306 -71q-61 -133 -182 -217.5t-271 -84.5zM373 621h375
q-14 43 -42 76t-65.5 52t-80.5 19q-42 0 -79.5 -19t-65 -52t-42.5 -76zM391 1110l-194 288h200l163 -188l161 188h200l-190 -288h-340z" />
    <glyph glyph-name="Gcircumflex" unicode="&#x11c;" horiz-adv-x="1536" 
d="M768 -26q-147 0 -272.5 57t-218.5 157.5t-145 232.5t-52 281q0 161 57.5 293t156 228.5t223 148.5t257.5 52q146 0 288 -68t256 -220l-268 -144q-61 69 -133.5 101.5t-146.5 32.5q-75 0 -145 -31t-125 -88t-87.5 -136t-32.5 -175q0 -88 30.5 -165t84.5 -134.5t125 -90
t152 -32.5q46 0 91.5 12.5t88.5 37.5t81 64t69 92h-188v260h542q8 -157 -42.5 -295.5t-145.5 -244.5t-223 -166t-277 -60zM938 1798l194 -288h-200l-163 188l-161 -188h-200l190 288h340z" />
    <glyph glyph-name="gcircumflex" unicode="&#x11d;" horiz-adv-x="1254" 
d="M834 1000h300v-1010q0 -114 -45.5 -204.5t-124.5 -154.5t-181.5 -97.5t-216.5 -33.5q-106 0 -203 40.5t-173 112.5t-120 167l274 124q21 -45 55 -76.5t77 -48.5t90 -17q52 0 100 11t86 34t60 58.5t22 84.5v98q-45 -51 -106.5 -82.5t-141.5 -31.5q-109 0 -204 41
t-167.5 113.5t-113.5 167.5t-41 204t41 204t113.5 167.5t167.5 113.5t204 41q80 0 141.5 -31.5t106.5 -82.5v88zM590 262q62 0 113 32t81 86t30 120t-30 120t-81 86t-113 32q-61 0 -111.5 -32t-80.5 -86t-30 -120t30 -120t80.5 -86t111.5 -32zM796 1398l194 -288h-200
l-163 188l-161 -188h-200l190 288h340z" />
    <glyph glyph-name="Gbreve" unicode="&#x11e;" horiz-adv-x="1536" 
d="M768 -26q-147 0 -272.5 57t-218.5 157.5t-145 232.5t-52 281q0 161 57.5 293t156 228.5t223 148.5t257.5 52q146 0 288 -68t256 -220l-268 -144q-61 69 -133.5 101.5t-146.5 32.5q-75 0 -145 -31t-125 -88t-87.5 -136t-32.5 -175q0 -88 30.5 -165t84.5 -134.5t125 -90
t152 -32.5q46 0 91.5 12.5t88.5 37.5t81 64t69 92h-188v260h542q8 -157 -42.5 -295.5t-145.5 -244.5t-223 -166t-277 -60zM770 1488q-91 0 -166.5 45t-120.5 120.5t-45 166.5h180q0 -41 20.5 -75.5t55 -55.5t76.5 -21t76.5 20t55 54.5t20.5 77.5h180q0 -93 -44.5 -168.5
t-120 -119.5t-167.5 -44z" />
    <glyph glyph-name="gbreve" unicode="&#x11f;" horiz-adv-x="1254" 
d="M834 1000h300v-1010q0 -114 -45.5 -204.5t-124.5 -154.5t-181.5 -97.5t-216.5 -33.5q-106 0 -203 40.5t-173 112.5t-120 167l274 124q21 -45 55 -76.5t77 -48.5t90 -17q52 0 100 11t86 34t60 58.5t22 84.5v98q-45 -51 -106.5 -82.5t-141.5 -31.5q-109 0 -204 41
t-167.5 113.5t-113.5 167.5t-41 204t41 204t113.5 167.5t167.5 113.5t204 41q80 0 141.5 -31.5t106.5 -82.5v88zM590 262q62 0 113 32t81 86t30 120t-30 120t-81 86t-113 32q-61 0 -111.5 -32t-80.5 -86t-30 -120t30 -120t80.5 -86t111.5 -32zM627 1088q-91 0 -166.5 45
t-120.5 120.5t-45 166.5h180q0 -41 20.5 -75.5t55 -55.5t76.5 -21t76.5 20t55 54.5t20.5 77.5h180q0 -93 -44.5 -168.5t-120 -119.5t-167.5 -44z" />
    <glyph glyph-name="Gdotaccent" unicode="&#x120;" horiz-adv-x="1536" 
d="M768 -26q-147 0 -272.5 57t-218.5 157.5t-145 232.5t-52 281q0 161 57.5 293t156 228.5t223 148.5t257.5 52q146 0 288 -68t256 -220l-268 -144q-61 69 -133.5 101.5t-146.5 32.5q-75 0 -145 -31t-125 -88t-87.5 -136t-32.5 -175q0 -88 30.5 -165t84.5 -134.5t125 -90
t152 -32.5q46 0 91.5 12.5t88.5 37.5t81 64t69 92h-188v260h542q8 -157 -42.5 -295.5t-145.5 -244.5t-223 -166t-277 -60zM771 1504q-65 0 -109 43t-44 107q0 63 44 106.5t108 43.5q63 0 106.5 -43.5t43.5 -106.5q0 -64 -42.5 -107t-106.5 -43z" />
    <glyph glyph-name="gdotaccent" unicode="&#x121;" horiz-adv-x="1254" 
d="M834 1000h300v-1010q0 -114 -45.5 -204.5t-124.5 -154.5t-181.5 -97.5t-216.5 -33.5q-106 0 -203 40.5t-173 112.5t-120 167l274 124q21 -45 55 -76.5t77 -48.5t90 -17q52 0 100 11t86 34t60 58.5t22 84.5v98q-45 -51 -106.5 -82.5t-141.5 -31.5q-109 0 -204 41
t-167.5 113.5t-113.5 167.5t-41 204t41 204t113.5 167.5t167.5 113.5t204 41q80 0 141.5 -31.5t106.5 -82.5v88zM590 262q62 0 113 32t81 86t30 120t-30 120t-81 86t-113 32q-61 0 -111.5 -32t-80.5 -86t-30 -120t30 -120t80.5 -86t111.5 -32zM629 1104q-65 0 -109 43
t-44 107q0 63 44 106.5t108 43.5q63 0 106.5 -43.5t43.5 -106.5q0 -64 -42.5 -107t-106.5 -43z" />
    <glyph glyph-name="uni0122" unicode="&#x122;" horiz-adv-x="1536" 
d="M768 -26q-147 0 -272.5 57t-218.5 157.5t-145 232.5t-52 281q0 161 57.5 293t156 228.5t223 148.5t257.5 52q146 0 288 -68t256 -220l-268 -144q-61 69 -133.5 101.5t-146.5 32.5q-75 0 -145 -31t-125 -88t-87.5 -136t-32.5 -175q0 -88 30.5 -165t84.5 -134.5t125 -90
t152 -32.5q46 0 91.5 12.5t88.5 37.5t81 64t69 92h-188v260h542q8 -157 -42.5 -295.5t-145.5 -244.5t-223 -166t-277 -60zM557 -441l62 338h300l-162 -338h-200z" />
    <glyph glyph-name="Hcircumflex" unicode="&#x124;" horiz-adv-x="1336" 
d="M916 1400h300v-1400h-300v600h-496v-600h-300v1400h300v-500h496v500zM837 1798l194 -288h-200l-163 188l-161 -188h-200l190 288h340z" />
    <glyph glyph-name="hcircumflex" unicode="&#x125;" horiz-adv-x="1139" 
d="M1059 639v-639h-300v555q0 47 -23 85.5t-61 61t-85 22.5t-85.5 -22.5t-61 -61t-22.5 -85.5v-555h-300l-1 1500h300l1 -563q50 43 114 67t135 24q108 0 196 -52.5t140.5 -140.5t52.5 -196zM799 1823l194 -288h-200l-163 188l-161 -188h-200l190 288h340z" />
    <glyph glyph-name="Itilde" unicode="&#x128;" horiz-adv-x="600" 
d="M150 0v1400h300v-1400h-300zM456 1491q-38 0 -91.5 27.5t-106 60t-89.5 51t-43 1.5q-6 -18 -2.5 -35t12.5 -47l-168 -46q-31 89 -18.5 160t62.5 112.5t132 41.5q36 0 85 -21.5t97.5 -49.5t85 -49.5t46.5 -21.5q19 0 21.5 12t-4 30.5t-13.5 37.5l172 56q31 -94 16 -166
t-66 -113t-128 -41z" />
    <glyph glyph-name="itilde" unicode="&#x129;" horiz-adv-x="540" 
d="M395 1073q-31 0 -73.5 21.5t-84.5 48t-71.5 41.5t-34.5 1q-5 -15 -2 -28.5t10 -37.5l-134 -37q-25 72 -15 128.5t50 90t105 33.5q29 0 68.5 -17.5t78 -40t67.5 -39.5t38 -17q22 0 16.5 20.5t-13.5 43.5l137 45q38 -113 -6 -184.5t-136 -71.5zM120 1000h300v-1000h-300
v1000z" />
    <glyph glyph-name="Imacron" unicode="&#x12a;" horiz-adv-x="600" 
d="M150 0v1400h300v-1400h-300zM-38 1750h676v-220h-676v220z" />
    <glyph glyph-name="imacron" unicode="&#x12b;" horiz-adv-x="540" 
d="M-1 1350h541v-220h-541v220zM120 1000h300v-1000h-300v1000z" />
    <glyph glyph-name="Iogonek" unicode="&#x12e;" horiz-adv-x="600" 
d="M150 0v1400h300v-1400h-300zM325 -476q-80 0 -139 38t-91.5 99t-32.5 128q0 50 18.5 97.5t58.5 87.5l168 168l142 -142q-27 -27 -56.5 -55t-55 -56.5t-41.5 -56.5t-16 -55q0 -22 15.5 -40t41.5 -18q38 0 64.5 27t26.5 65h184q0 -76 -37.5 -141.5t-102.5 -105.5t-147 -40z
" />
    <glyph glyph-name="iogonek" unicode="&#x12f;" horiz-adv-x="540" 
d="M120 1000h300v-1000h-300v1000zM272 1104q-65 0 -109 43t-44 107q0 63 44 106.5t108 43.5q63 0 106.5 -43.5t43.5 -106.5q0 -64 -42.5 -107t-106.5 -43zM295 -476q-80 0 -139 38t-91.5 99t-32.5 128q0 50 18.5 97.5t58.5 87.5l168 168l142 -142q-27 -27 -56.5 -55
t-55 -56.5t-41.5 -56.5t-16 -55q0 -22 15.5 -40t41.5 -18q38 0 64.5 27t26.5 65h184q0 -76 -37.5 -141.5t-102.5 -105.5t-147 -40z" />
    <glyph glyph-name="Idotaccent" unicode="&#x130;" horiz-adv-x="600" 
d="M150 0v1400h300v-1400h-300zM302 1504q-65 0 -109 43t-44 107q0 63 44 106.5t108 43.5q63 0 106.5 -43.5t43.5 -106.5q0 -64 -42.5 -107t-106.5 -43z" />
    <glyph glyph-name="dotlessi" unicode="&#x131;" horiz-adv-x="540" 
d="M120 1000h300v-1000h-300v1000z" />
    <glyph glyph-name="IJ" unicode="&#x132;" horiz-adv-x="1534" 
d="M150 0v1400h300v-1400h-300zM942 -26q-82 0 -160.5 28t-141.5 82l192 230q17 -13 44 -26.5t66 -13.5q47 0 86 23.5t62.5 62.5t23.5 86v954h300v-954q0 -130 -64 -237t-171 -171t-237 -64z" />
    <glyph glyph-name="ij" unicode="&#x133;" horiz-adv-x="1072" 
d="M120 1000h300v-1000h-300v1000zM272 1104q-65 0 -109 43t-44 107q0 63 44 106.5t108 43.5q63 0 106.5 -43.5t43.5 -106.5q0 -64 -42.5 -107t-106.5 -43zM480 -500v300q47 0 86 23t62.5 62t23.5 87v1028h300v-1028q0 -130 -63.5 -237t-170.5 -171t-238 -64zM804 1104
q-65 0 -109 43t-44 107q0 63 44 106.5t108 43.5q63 0 106.5 -43.5t43.5 -106.5q0 -64 -42.5 -107t-106.5 -43z" />
    <glyph glyph-name="Jcircumflex" unicode="&#x134;" horiz-adv-x="934" 
d="M342 -26q-82 0 -160.5 28t-141.5 82l192 230q17 -13 44 -26.5t66 -13.5q47 0 86 23.5t62.5 62.5t23.5 86v954h300v-954q0 -130 -64 -237t-171 -171t-237 -64zM833 1798l194 -288h-200l-163 188l-161 -188h-200l190 288h340z" />
    <glyph glyph-name="jcircumflex" unicode="&#x135;" horiz-adv-x="512" 
d="M-80 -500v300q47 0 86 23t62.5 62t23.5 87v1028h300v-1028q0 -130 -63.5 -237t-170.5 -171t-238 -64zM411 1398l194 -288h-200l-163 188l-161 -188h-200l190 288h340z" />
    <glyph glyph-name="uni0136" unicode="&#x136;" horiz-adv-x="1230" 
d="M1210 0h-392l-358 506l-40 -48v-458h-300v1400h300v-476l398 476h392l-554 -660zM403 -441l62 338h300l-162 -338h-200z" />
    <glyph glyph-name="uni0137" unicode="&#x137;" horiz-adv-x="1118" 
d="M1074 0h-346l-200 344l-108 -128v-216h-300v1500h300v-818l266 318h392l-344 -412zM347 -441l62 338h300l-162 -338h-200z" />
    <glyph glyph-name="Lacute" unicode="&#x139;" horiz-adv-x="1070" 
d="M120 0v1400h300v-1100h550v-300h-850zM190 1510l80 288h300l-180 -288h-200z" />
    <glyph glyph-name="lacute" unicode="&#x13a;" horiz-adv-x="540" 
d="M120 0v1500h300v-1500h-300zM190 1610l80 288h300l-180 -288h-200z" />
    <glyph glyph-name="uni013B" unicode="&#x13b;" horiz-adv-x="1070" 
d="M120 0v1400h300v-1100h550v-300h-850zM333 -441l62 338h300l-162 -338h-200z" />
    <glyph glyph-name="uni013C" unicode="&#x13c;" horiz-adv-x="540" 
d="M120 0v1500h300v-1500h-300zM58 -441l62 338h300l-162 -338h-200z" />
    <glyph glyph-name="Lcaron" unicode="&#x13d;" horiz-adv-x="1070" 
d="M120 0v1400h300v-1100h550v-300h-850zM594 1212l80 288h300l-180 -288h-200z" />
    <glyph glyph-name="lcaron" unicode="&#x13e;" horiz-adv-x="540" 
d="M120 0v1500h300v-1500h-300zM460 1212l80 288h300l-180 -288h-200z" />
    <glyph glyph-name="Nacute" unicode="&#x143;" horiz-adv-x="1376" 
d="M120 0v1400h324l512 -858v858h300v-1400h-324l-512 858v-858h-300zM608 1510l80 288h300l-180 -288h-200z" />
    <glyph glyph-name="nacute" unicode="&#x144;" horiz-adv-x="1139" 
d="M1059 639v-639h-300v555q0 47 -23 85.5t-61 61t-85 22.5t-85.5 -22.5t-61 -61t-22.5 -85.5v-555h-300l-1 1000h300l1 -63q50 43 114 67t135 24q108 0 196 -52.5t140.5 -140.5t52.5 -196zM530 1110l80 288h300l-180 -288h-200z" />
    <glyph glyph-name="uni0145" unicode="&#x145;" horiz-adv-x="1376" 
d="M120 0v1400h324l512 -858v858h300v-1400h-324l-512 858v-858h-300zM476 -441l62 338h300l-162 -338h-200z" />
    <glyph glyph-name="uni0146" unicode="&#x146;" horiz-adv-x="1139" 
d="M1059 639v-639h-300v555q0 47 -23 85.5t-61 61t-85 22.5t-85.5 -22.5t-61 -61t-22.5 -85.5v-555h-300l-1 1000h300l1 -63q50 43 114 67t135 24q108 0 196 -52.5t140.5 -140.5t52.5 -196zM378 -441l62 338h300l-162 -338h-200z" />
    <glyph glyph-name="Ncaron" unicode="&#x147;" horiz-adv-x="1376" 
d="M120 0v1400h324l512 -858v858h300v-1400h-324l-512 858v-858h-300zM519 1510l-194 288h200l163 -188l161 188h200l-190 -288h-340z" />
    <glyph glyph-name="ncaron" unicode="&#x148;" horiz-adv-x="1139" 
d="M1059 639v-639h-300v555q0 47 -23 85.5t-61 61t-85 22.5t-85.5 -22.5t-61 -61t-22.5 -85.5v-555h-300l-1 1000h300l1 -63q50 43 114 67t135 24q108 0 196 -52.5t140.5 -140.5t52.5 -196zM441 1110l-194 288h200l163 -188l161 188h200l-190 -288h-340z" />
    <glyph glyph-name="Omacron" unicode="&#x14c;" horiz-adv-x="1540" 
d="M770 -26q-142 0 -267 56.5t-220 156.5t-149 231.5t-54 281.5t54 281.5t149 231.5t220 156.5t267 56.5q143 0 268 -56.5t220 -156.5t148.5 -231.5t53.5 -281.5t-53.5 -281.5t-148.5 -231.5t-220 -156.5t-268 -56.5zM770 274q80 0 150.5 33.5t124.5 92t84.5 135.5t30.5 165
t-30.5 165t-84.5 135.5t-124.5 92t-150.5 33.5t-150.5 -33.5t-124.5 -92t-84.5 -135.5t-30.5 -165t30.5 -165t84.5 -135.5t124.5 -92t150.5 -33.5zM432 1750h676v-220h-676v220z" />
    <glyph glyph-name="omacron" unicode="&#x14d;" 
d="M560 -26q-138 0 -251.5 71t-181 190.5t-67.5 264.5q0 110 39 205.5t107.5 168t159.5 113.5t194 41q138 0 251.5 -71t181 -191t67.5 -266q0 -109 -39 -204t-107.5 -167.5t-159 -113.5t-194.5 -41zM560 274q57 0 102.5 31t71.5 82.5t26 112.5q0 63 -27.5 115t-73 82.5
t-99.5 30.5q-56 0 -101.5 -31.5t-72 -83.5t-26.5 -113q0 -64 27.5 -115t73 -81t99.5 -30zM222 1350h676v-220h-676v220z" />
    <glyph glyph-name="Ohungarumlaut" unicode="&#x150;" horiz-adv-x="1540" 
d="M770 -26q-142 0 -267 56.5t-220 156.5t-149 231.5t-54 281.5t54 281.5t149 231.5t220 156.5t267 56.5q143 0 268 -56.5t220 -156.5t148.5 -231.5t53.5 -281.5t-53.5 -281.5t-148.5 -231.5t-220 -156.5t-268 -56.5zM770 274q80 0 150.5 33.5t124.5 92t84.5 135.5t30.5 165
t-30.5 165t-84.5 135.5t-124.5 92t-150.5 33.5t-150.5 -33.5t-124.5 -92t-84.5 -135.5t-30.5 -165t30.5 -165t84.5 -135.5t124.5 -92t150.5 -33.5zM885 1510l80 288h300l-180 -288h-200zM517 1510l80 288h300l-180 -288h-200z" />
    <glyph glyph-name="ohungarumlaut" unicode="&#x151;" 
d="M560 -26q-138 0 -251.5 71t-181 190.5t-67.5 264.5q0 110 39 205.5t107.5 168t159.5 113.5t194 41q138 0 251.5 -71t181 -191t67.5 -266q0 -109 -39 -204t-107.5 -167.5t-159 -113.5t-194.5 -41zM560 274q57 0 102.5 31t71.5 82.5t26 112.5q0 63 -27.5 115t-73 82.5
t-99.5 30.5q-56 0 -101.5 -31.5t-72 -83.5t-26.5 -113q0 -64 27.5 -115t73 -81t99.5 -30zM675 1110l80 288h300l-180 -288h-200zM307 1110l80 288h300l-180 -288h-200z" />
    <glyph glyph-name="OE" unicode="&#x152;" horiz-adv-x="2096" 
d="M770 -26q-142 0 -267 56.5t-220 156.5t-149 231.5t-54 281.5t54 281.5t149 231.5t220 156.5t267 56.5q73 0 142 -15.5t132.5 -44.5t119.5 -70v104h832v-300h-532v-250h436v-300h-436v-250h532v-300h-832v104q-56 -41 -119.5 -70t-132.5 -44.5t-142 -15.5zM770 274
q80 0 150.5 33.5t124.5 92t84.5 135.5t30.5 165t-30.5 165t-84.5 135.5t-124.5 92t-150.5 33.5t-150.5 -33.5t-124.5 -92t-84.5 -135.5t-30.5 -165t30.5 -165t84.5 -135.5t124.5 -92t150.5 -33.5z" />
    <glyph glyph-name="oe" unicode="&#x153;" horiz-adv-x="1819" 
d="M560 -26q-138 0 -251.5 71t-181 190.5t-67.5 264.5q0 110 39 205.5t107.5 168t159.5 113.5t194 41q68 0 131 -18.5t118.5 -52t100.5 -79.5q45 46 100.5 79.5t118.5 52t131 18.5q119 0 218.5 -52t168.5 -141t97.5 -201t5.5 -232h-666q14 -36 37.5 -64.5t57.5 -45.5t81 -18
q44 0 81.5 20t64.5 54l306 -72q-60 -133 -181 -217.5t-271 -84.5q-68 0 -131 18.5t-118.5 52t-100.5 79.5q-45 -46 -100.5 -79.5t-118.5 -52t-131 -18.5zM560 274q57 0 102.5 31t71.5 82.5t26 112.5q0 63 -27.5 115t-73 82.5t-99.5 30.5q-56 0 -101.5 -31.5t-72 -83.5
t-26.5 -113q0 -64 27.5 -115t73 -81t99.5 -30zM1072 622h374q-14 43 -41.5 76t-64.5 51.5t-80 18.5t-80.5 -18.5t-65.5 -51.5t-42 -76z" />
    <glyph glyph-name="Racute" unicode="&#x154;" horiz-adv-x="1266" 
d="M120 0v1400h570q115 0 208 -58t147.5 -155.5t54.5 -214.5q0 -90 -30 -167.5t-85.5 -137t-130.5 -95.5l332 -572h-346l-316 544h-104v-544h-300zM420 844h234q40 0 73 20.5t53 54.5t20 75t-20 75t-53 54.5t-73 20.5h-234v-300zM444 1510l80 288h300l-180 -288h-200z" />
    <glyph glyph-name="racute" unicode="&#x155;" horiz-adv-x="800" 
d="M121 0l-1 1000h300l1 -63q50 43 114 67t135 24q54 0 110 -16l-118 -304q-35 16 -72 16q-47 0 -85.5 -22.5t-61 -61t-22.5 -85.5v-555h-300zM385 1110l80 288h300l-180 -288h-200z" />
    <glyph glyph-name="uni0156" unicode="&#x156;" horiz-adv-x="1266" 
d="M120 0v1400h570q115 0 208 -58t147.5 -155.5t54.5 -214.5q0 -90 -30 -167.5t-85.5 -137t-130.5 -95.5l332 -572h-346l-316 544h-104v-544h-300zM420 844h234q40 0 73 20.5t53 54.5t20 75t-20 75t-53 54.5t-73 20.5h-234v-300zM421 -441l62 338h300l-162 -338h-200z" />
    <glyph glyph-name="uni0157" unicode="&#x157;" horiz-adv-x="800" 
d="M121 0l-1 1000h300l1 -63q50 43 114 67t135 24q54 0 110 -16l-118 -304q-35 16 -72 16q-47 0 -85.5 -22.5t-61 -61t-22.5 -85.5v-555h-300zM58 -441l62 338h300l-162 -338h-200z" />
    <glyph glyph-name="Rcaron" unicode="&#x158;" horiz-adv-x="1266" 
d="M120 0v1400h570q115 0 208 -58t147.5 -155.5t54.5 -214.5q0 -90 -30 -167.5t-85.5 -137t-130.5 -95.5l332 -572h-346l-316 544h-104v-544h-300zM420 844h234q40 0 73 20.5t53 54.5t20 75t-20 75t-53 54.5t-73 20.5h-234v-300zM355 1510l-194 288h200l163 -188l161 188
h200l-190 -288h-340z" />
    <glyph glyph-name="rcaron" unicode="&#x159;" horiz-adv-x="800" 
d="M121 0l-1 1000h300l1 -63q50 43 114 67t135 24q54 0 110 -16l-118 -304q-35 16 -72 16q-47 0 -85.5 -22.5t-61 -61t-22.5 -85.5v-555h-300zM296 1110l-194 288h200l163 -188l161 188h200l-190 -288h-340z" />
    <glyph glyph-name="Sacute" unicode="&#x15a;" horiz-adv-x="1264" 
d="M632 -26q-118 0 -226 37.5t-189 108t-117 168.5l282 104q10 -29 44.5 -56t87.5 -44.5t118 -17.5q60 0 113 17.5t86 48.5t33 72q0 42 -34.5 69.5t-88 44t-109.5 24.5q-152 22 -272.5 72.5t-190 139.5t-69.5 226q0 131 74 229.5t195.5 153.5t262.5 55q118 0 226.5 -37.5
t189.5 -108.5t116 -170l-282 -102q-10 29 -44.5 55.5t-87.5 43.5t-118 17q-58 1 -111 -17t-87 -49t-34 -70q0 -54 32 -80.5t84.5 -37.5t115.5 -20q144 -21 265 -75t194 -144t73 -219q0 -131 -73.5 -229.5t-194.5 -153.5t-264 -55zM552 1510l80 288h300l-180 -288h-200z" />
    <glyph glyph-name="sacute" unicode="&#x15b;" horiz-adv-x="874" 
d="M408 -18q-76 7 -146 33t-125 71t-87 110l252 108q10 -11 28 -27.5t45.5 -29.5t66.5 -13q26 0 50.5 5.5t40 19.5t15.5 39q0 28 -20.5 42.5t-49.5 21t-54 10.5q-89 14 -170.5 56.5t-133.5 111t-52 160.5q0 103 53 178t138.5 115.5t184.5 40.5q117 0 216.5 -48t163.5 -138
l-236 -140q-12 15 -29.5 30.5t-40 27t-48.5 14.5q-35 3 -62.5 -2.5t-43.5 -22t-16 -47.5q0 -29 28 -42t63 -19t57 -13q86 -28 162 -73t122.5 -109t43.5 -150q0 -100 -60 -176t-155 -115t-201 -29zM357 1110l80 288h300l-180 -288h-200z" />
    <glyph glyph-name="Scircumflex" unicode="&#x15c;" horiz-adv-x="1264" 
d="M632 -26q-118 0 -226 37.5t-189 108t-117 168.5l282 104q10 -29 44.5 -56t87.5 -44.5t118 -17.5q60 0 113 17.5t86 48.5t33 72q0 42 -34.5 69.5t-88 44t-109.5 24.5q-152 22 -272.5 72.5t-190 139.5t-69.5 226q0 131 74 229.5t195.5 153.5t262.5 55q118 0 226.5 -37.5
t189.5 -108.5t116 -170l-282 -102q-10 29 -44.5 55.5t-87.5 43.5t-118 17q-58 1 -111 -17t-87 -49t-34 -70q0 -54 32 -80.5t84.5 -37.5t115.5 -20q144 -21 265 -75t194 -144t73 -219q0 -131 -73.5 -229.5t-194.5 -153.5t-264 -55zM801 1798l194 -288h-200l-163 188
l-161 -188h-200l190 288h340z" />
    <glyph glyph-name="scircumflex" unicode="&#x15d;" horiz-adv-x="874" 
d="M408 -18q-76 7 -146 33t-125 71t-87 110l252 108q10 -11 28 -27.5t45.5 -29.5t66.5 -13q26 0 50.5 5.5t40 19.5t15.5 39q0 28 -20.5 42.5t-49.5 21t-54 10.5q-89 14 -170.5 56.5t-133.5 111t-52 160.5q0 103 53 178t138.5 115.5t184.5 40.5q117 0 216.5 -48t163.5 -138
l-236 -140q-12 15 -29.5 30.5t-40 27t-48.5 14.5q-35 3 -62.5 -2.5t-43.5 -22t-16 -47.5q0 -29 28 -42t63 -19t57 -13q86 -28 162 -73t122.5 -109t43.5 -150q0 -100 -60 -176t-155 -115t-201 -29zM606 1398l194 -288h-200l-163 188l-161 -188h-200l190 288h340z" />
    <glyph glyph-name="Scedilla" unicode="&#x15e;" horiz-adv-x="1264" 
d="M632 -26q-118 0 -226 37.5t-189 108t-117 168.5l282 104q10 -29 44.5 -56t87.5 -44.5t118 -17.5q60 0 113 17.5t86 48.5t33 72q0 42 -34.5 69.5t-88 44t-109.5 24.5q-152 22 -272.5 72.5t-190 139.5t-69.5 226q0 131 74 229.5t195.5 153.5t262.5 55q118 0 226.5 -37.5
t189.5 -108.5t116 -170l-282 -102q-10 29 -44.5 55.5t-87.5 43.5t-118 17q-58 1 -111 -17t-87 -49t-34 -70q0 -54 32 -80.5t84.5 -37.5t115.5 -20q144 -21 265 -75t194 -144t73 -219q0 -131 -73.5 -229.5t-194.5 -153.5t-264 -55zM726 -381q-76 -20 -144 19t-88 114l145 39
q4 -15 18 -23t30 -4t24 18t4 30t-17.5 22t-30.5 6h-146l150 265l131 -76l-36 -61q34 -17 59 -47t35 -71q20 -75 -19 -143t-115 -88z" />
    <glyph glyph-name="scedilla" unicode="&#x15f;" horiz-adv-x="874" 
d="M408 -18q-76 7 -146 33t-125 71t-87 110l252 108q10 -11 28 -27.5t45.5 -29.5t66.5 -13q26 0 50.5 5.5t40 19.5t15.5 39q0 28 -20.5 42.5t-49.5 21t-54 10.5q-89 14 -170.5 56.5t-133.5 111t-52 160.5q0 103 53 178t138.5 115.5t184.5 40.5q117 0 216.5 -48t163.5 -138
l-236 -140q-12 15 -29.5 30.5t-40 27t-48.5 14.5q-35 3 -62.5 -2.5t-43.5 -22t-16 -47.5q0 -29 28 -42t63 -19t57 -13q86 -28 162 -73t122.5 -109t43.5 -150q0 -100 -60 -176t-155 -115t-201 -29zM505 -381q-76 -20 -144 19t-88 114l145 39q4 -15 18 -23t30 -4t24 18t4 30
t-17.5 22t-30.5 6h-146l150 265l131 -76l-36 -61q34 -17 59 -47t35 -71q20 -75 -19 -143t-115 -88z" />
    <glyph glyph-name="Scaron" unicode="&#x160;" horiz-adv-x="1264" 
d="M632 -26q-118 0 -226 37.5t-189 108t-117 168.5l282 104q10 -29 44.5 -56t87.5 -44.5t118 -17.5q60 0 113 17.5t86 48.5t33 72q0 42 -34.5 69.5t-88 44t-109.5 24.5q-152 22 -272.5 72.5t-190 139.5t-69.5 226q0 131 74 229.5t195.5 153.5t262.5 55q118 0 226.5 -37.5
t189.5 -108.5t116 -170l-282 -102q-10 29 -44.5 55.5t-87.5 43.5t-118 17q-58 1 -111 -17t-87 -49t-34 -70q0 -54 32 -80.5t84.5 -37.5t115.5 -20q144 -21 265 -75t194 -144t73 -219q0 -131 -73.5 -229.5t-194.5 -153.5t-264 -55zM463 1510l-194 288h200l163 -188l161 188
h200l-190 -288h-340z" />
    <glyph glyph-name="scaron" unicode="&#x161;" horiz-adv-x="874" 
d="M408 -18q-76 7 -146 33t-125 71t-87 110l252 108q10 -11 28 -27.5t45.5 -29.5t66.5 -13q26 0 50.5 5.5t40 19.5t15.5 39q0 28 -20.5 42.5t-49.5 21t-54 10.5q-89 14 -170.5 56.5t-133.5 111t-52 160.5q0 103 53 178t138.5 115.5t184.5 40.5q117 0 216.5 -48t163.5 -138
l-236 -140q-12 15 -29.5 30.5t-40 27t-48.5 14.5q-35 3 -62.5 -2.5t-43.5 -22t-16 -47.5q0 -29 28 -42t63 -19t57 -13q86 -28 162 -73t122.5 -109t43.5 -150q0 -100 -60 -176t-155 -115t-201 -29zM268 1110l-194 288h200l163 -188l161 188h200l-190 -288h-340z" />
    <glyph glyph-name="uni0162" unicode="&#x162;" horiz-adv-x="1259" 
d="M1180 1400v-300h-400v-1100h-300v1100h-400v300h1100zM641 -381q-76 -20 -144 19t-88 114l145 39q4 -15 18 -23t30 -4t24 18t4 30t-17.5 22t-30.5 6h-146l150 265l131 -76l-36 -61q34 -17 59 -47t35 -71q20 -75 -19 -143t-115 -88z" />
    <glyph glyph-name="uni0163" unicode="&#x163;" horiz-adv-x="730" 
d="M670 700h-170v-700h-300v700h-130v300h130v314h300v-314h170v-300zM362 -381q-76 -20 -144 19t-88 114l145 39q4 -15 18 -23t30 -4t24 18t4 30t-17.5 22t-30.5 6h-146l150 265l131 -76l-36 -61q34 -17 59 -47t35 -71q20 -75 -19 -143t-115 -88z" />
    <glyph glyph-name="Tcaron" unicode="&#x164;" horiz-adv-x="1259" 
d="M1180 1400v-300h-400v-1100h-300v1100h-400v300h1100zM461 1510l-194 288h200l163 -188l161 188h200l-190 -288h-340z" />
    <glyph glyph-name="tcaron" unicode="&#x165;" horiz-adv-x="730" 
d="M670 700h-170v-700h-300v700h-130v300h130v314h300v-314h170v-300zM538 1212l80 288h300l-180 -288h-200z" />
    <glyph glyph-name="Utilde" unicode="&#x168;" horiz-adv-x="1378" 
d="M690 -26q-168 0 -296.5 82t-201 220.5t-72.5 307.5v816h300v-816q0 -85 32 -155.5t92.5 -112.5t145.5 -42q86 0 146 41.5t91 112t31 156.5v816h300v-816q0 -127 -41 -237.5t-117 -194.5t-180 -131t-230 -47zM845 1491q-38 0 -91.5 27.5t-106 60t-89.5 51t-43 1.5
q-6 -18 -2.5 -35t12.5 -47l-168 -46q-31 89 -18.5 160t62.5 112.5t132 41.5q36 0 85 -21.5t97.5 -49.5t85 -49.5t46.5 -21.5q19 0 21.5 12t-4 30.5t-13.5 37.5l172 56q31 -94 16 -166t-66 -113t-128 -41z" />
    <glyph glyph-name="utilde" unicode="&#x169;" horiz-adv-x="1099" 
d="M80 363v637h300v-553q0 -47 23 -85.5t61.5 -61t84.5 -22.5q47 0 85.5 22.5t61 61t22.5 85.5v553h300l1 -1000h-300l-1 65q-50 -43 -114 -67t-135 -24q-107 0 -195.5 52.5t-141 140.5t-52.5 196zM744 1093q-38 0 -91.5 27.5t-106 60t-89.5 51t-43 1.5q-6 -18 -2.5 -35
t12.5 -47l-168 -46q-31 89 -18.5 160t62.5 112.5t132 41.5q36 0 85 -21.5t97.5 -49.5t85 -49.5t46.5 -21.5q19 0 21.5 12t-4 30.5t-13.5 37.5l172 56q31 -94 16 -166t-66 -113t-128 -41z" />
    <glyph glyph-name="Umacron" unicode="&#x16a;" horiz-adv-x="1378" 
d="M690 -26q-168 0 -296.5 82t-201 220.5t-72.5 307.5v816h300v-816q0 -85 32 -155.5t92.5 -112.5t145.5 -42q86 0 146 41.5t91 112t31 156.5v816h300v-816q0 -127 -41 -237.5t-117 -194.5t-180 -131t-230 -47zM351 1750h676v-220h-676v220z" />
    <glyph glyph-name="umacron" unicode="&#x16b;" horiz-adv-x="1099" 
d="M80 363v637h300v-553q0 -47 23 -85.5t61.5 -61t84.5 -22.5q47 0 85.5 22.5t61 61t22.5 85.5v553h300l1 -1000h-300l-1 65q-50 -43 -114 -67t-135 -24q-107 0 -195.5 52.5t-141 140.5t-52.5 196zM250 1352h676v-220h-676v220z" />
    <glyph glyph-name="Ubreve" unicode="&#x16c;" horiz-adv-x="1378" 
d="M690 -26q-168 0 -296.5 82t-201 220.5t-72.5 307.5v816h300v-816q0 -85 32 -155.5t92.5 -112.5t145.5 -42q86 0 146 41.5t91 112t31 156.5v816h300v-816q0 -127 -41 -237.5t-117 -194.5t-180 -131t-230 -47zM689 1488q-91 0 -166.5 45t-120.5 120.5t-45 166.5h180
q0 -41 20.5 -75.5t55 -55.5t76.5 -21t76.5 20t55 54.5t20.5 77.5h180q0 -93 -44.5 -168.5t-120 -119.5t-167.5 -44z" />
    <glyph glyph-name="ubreve" unicode="&#x16d;" horiz-adv-x="1099" 
d="M80 363v637h300v-553q0 -47 23 -85.5t61.5 -61t84.5 -22.5q47 0 85.5 22.5t61 61t22.5 85.5v553h300l1 -1000h-300l-1 65q-50 -43 -114 -67t-135 -24q-107 0 -195.5 52.5t-141 140.5t-52.5 196zM588 1090q-91 0 -166.5 45t-120.5 120.5t-45 166.5h180q0 -41 20.5 -75.5
t55 -55.5t76.5 -21t76.5 20t55 54.5t20.5 77.5h180q0 -93 -44.5 -168.5t-120 -119.5t-167.5 -44z" />
    <glyph glyph-name="Uring" unicode="&#x16e;" horiz-adv-x="1378" 
d="M690 -26q-168 0 -296.5 82t-201 220.5t-72.5 307.5v816h300v-816q0 -85 32 -155.5t92.5 -112.5t145.5 -42q86 0 146 41.5t91 112t31 156.5v816h300v-816q0 -127 -41 -237.5t-117 -194.5t-180 -131t-230 -47zM689 1454q-82 0 -141 60t-59 142q0 54 27 99t72.5 72t100.5 27
q83 0 141.5 -58.5t58.5 -139.5q0 -84 -58.5 -143t-141.5 -59zM689 1594q25 0 42.5 18t17.5 43q0 24 -17.5 41.5t-42.5 17.5t-42.5 -17t-17.5 -41q0 -26 17.5 -44t42.5 -18z" />
    <glyph glyph-name="uring" unicode="&#x16f;" horiz-adv-x="1099" 
d="M80 363v637h300v-553q0 -47 23 -85.5t61.5 -61t84.5 -22.5q47 0 85.5 22.5t61 61t22.5 85.5v553h300l1 -1000h-300l-1 65q-50 -43 -114 -67t-135 -24q-107 0 -195.5 52.5t-141 140.5t-52.5 196zM588 1056q-82 0 -141 60t-59 142q0 54 27 99t72.5 72t100.5 27
q83 0 141.5 -58.5t58.5 -139.5q0 -84 -58.5 -143t-141.5 -59zM588 1196q25 0 42.5 18t17.5 43q0 24 -17.5 41.5t-42.5 17.5t-42.5 -17t-17.5 -41q0 -26 17.5 -44t42.5 -18z" />
    <glyph glyph-name="Uhungarumlaut" unicode="&#x170;" horiz-adv-x="1378" 
d="M690 -26q-168 0 -296.5 82t-201 220.5t-72.5 307.5v816h300v-816q0 -85 32 -155.5t92.5 -112.5t145.5 -42q86 0 146 41.5t91 112t31 156.5v816h300v-816q0 -127 -41 -237.5t-117 -194.5t-180 -131t-230 -47zM804 1510l80 288h300l-180 -288h-200zM436 1510l80 288h300
l-180 -288h-200z" />
    <glyph glyph-name="uhungarumlaut" unicode="&#x171;" horiz-adv-x="1099" 
d="M80 363v637h300v-553q0 -47 23 -85.5t61.5 -61t84.5 -22.5q47 0 85.5 22.5t61 61t22.5 85.5v553h300l1 -1000h-300l-1 65q-50 -43 -114 -67t-135 -24q-107 0 -195.5 52.5t-141 140.5t-52.5 196zM703 1112l80 288h300l-180 -288h-200zM335 1112l80 288h300l-180 -288h-200
z" />
    <glyph glyph-name="Uogonek" unicode="&#x172;" horiz-adv-x="1378" 
d="M690 -26q-168 0 -296.5 82t-201 220.5t-72.5 307.5v816h300v-816q0 -85 32 -155.5t92.5 -112.5t145.5 -42q86 0 146 41.5t91 112t31 156.5v816h300v-816q0 -127 -41 -237.5t-117 -194.5t-180 -131t-230 -47zM737 -476q-80 0 -139 38t-91.5 99t-32.5 128q0 50 18.5 97.5
t58.5 87.5l168 168l142 -142q-27 -27 -56.5 -55t-55 -56.5t-41.5 -56.5t-16 -55q0 -22 15.5 -40t41.5 -18q38 0 64.5 27t26.5 65h184q0 -76 -37.5 -141.5t-102.5 -105.5t-147 -40z" />
    <glyph glyph-name="uogonek" unicode="&#x173;" horiz-adv-x="1099" 
d="M80 363v637h300v-553q0 -47 23 -85.5t61.5 -61t84.5 -22.5q47 0 85.5 22.5t61 61t22.5 85.5v553h300l1 -1000h-300l-1 65q-50 -43 -114 -67t-135 -24q-107 0 -195.5 52.5t-141 140.5t-52.5 196zM894 -474q-80 0 -139 38t-91.5 99t-32.5 128q0 50 18.5 97.5t58.5 87.5
l168 168l142 -142q-27 -27 -56.5 -55t-55 -56.5t-41.5 -56.5t-16 -55q0 -22 15.5 -40t41.5 -18q38 0 64.5 27t26.5 65h184q0 -76 -37.5 -141.5t-102.5 -105.5t-147 -40z" />
    <glyph glyph-name="Wcircumflex" unicode="&#x174;" horiz-adv-x="1960" 
d="M458 0l-358 1400h310l216 -848l216 848h276l216 -848l216 848h310l-356 -1400h-338l-186 726l-184 -726h-338zM1149 1798l194 -288h-200l-163 188l-161 -188h-200l190 288h340z" />
    <glyph glyph-name="wcircumflex" unicode="&#x175;" horiz-adv-x="1748" 
d="M688 0h-294l-334 1000h294l188 -562l186 562h292l186 -562l188 562h294l-334 -1000h-294l-186 562zM1043 1398l194 -288h-200l-163 188l-161 -188h-200l190 288h340z" />
    <glyph glyph-name="Ycircumflex" unicode="&#x176;" horiz-adv-x="1392" 
d="M978 1400h354l-486 -770v-630h-300v630l-486 770h354l282 -444zM866 1798l194 -288h-200l-163 188l-161 -188h-200l190 288h340z" />
    <glyph glyph-name="ycircumflex" unicode="&#x177;" horiz-adv-x="1206" 
d="M806 1000h320l-548 -1500h-318l180 500l-360 1000h328l182 -590zM772 1398l194 -288h-200l-163 188l-161 -188h-200l190 288h340z" />
    <glyph glyph-name="Ydieresis" unicode="&#x178;" horiz-adv-x="1392" 
d="M978 1400h354l-486 -770v-630h-300v630l-486 770h354l282 -444zM477 1464q-64 0 -108 43t-44 107q0 63 44 106.5t108 43.5q63 0 106.5 -43.5t43.5 -106.5q0 -64 -43.5 -107t-106.5 -43zM917 1464q-64 0 -108 43t-44 107q0 63 44 106.5t108 43.5q63 0 106.5 -43.5
t43.5 -106.5q0 -64 -43.5 -107t-106.5 -43z" />
    <glyph glyph-name="Zacute" unicode="&#x179;" horiz-adv-x="1292" 
d="M80 0v300l726 800h-726v300h1132v-300l-726 -800h726v-300h-1132zM566 1510l80 288h300l-180 -288h-200z" />
    <glyph glyph-name="zacute" unicode="&#x17a;" horiz-adv-x="1014" 
d="M934 700l-420 -400h420v-300h-854v300l420 400h-420v300h854v-300zM427 1110l80 288h300l-180 -288h-200z" />
    <glyph glyph-name="Zdotaccent" unicode="&#x17b;" horiz-adv-x="1292" 
d="M80 0v300l726 800h-726v300h1132v-300l-726 -800h726v-300h-1132zM648 1504q-65 0 -109 43t-44 107q0 63 44 106.5t108 43.5q63 0 106.5 -43.5t43.5 -106.5q0 -64 -42.5 -107t-106.5 -43z" />
    <glyph glyph-name="zdotaccent" unicode="&#x17c;" horiz-adv-x="1014" 
d="M934 700l-420 -400h420v-300h-854v300l420 400h-420v300h854v-300zM509 1104q-65 0 -109 43t-44 107q0 63 44 106.5t108 43.5q63 0 106.5 -43.5t43.5 -106.5q0 -64 -42.5 -107t-106.5 -43z" />
    <glyph glyph-name="Zcaron" unicode="&#x17d;" horiz-adv-x="1292" 
d="M80 0v300l726 800h-726v300h1132v-300l-726 -800h726v-300h-1132zM477 1510l-194 288h200l163 -188l161 188h200l-190 -288h-340z" />
    <glyph glyph-name="zcaron" unicode="&#x17e;" horiz-adv-x="1014" 
d="M934 700l-420 -400h420v-300h-854v300l420 400h-420v300h854v-300zM338 1110l-194 288h200l163 -188l161 188h200l-190 -288h-340z" />
    <glyph glyph-name="uni01CD" unicode="&#x1cd;" horiz-adv-x="1514" 
d="M588 1400h338l508 -1400h-318l-80 220h-558l-80 -220h-318zM588 520h338l-170 464zM588 1510l-194 288h200l163 -188l161 188h200l-190 -288h-340z" />
    <glyph glyph-name="uni01CE" unicode="&#x1ce;" horiz-adv-x="1218" 
d="M838 1000h300v-1000h-301l-14 90q-37 -52 -93.5 -84t-131.5 -32q-112 0 -209.5 42t-171.5 116.5t-115.5 172t-41.5 209.5q0 107 39 200t109.5 163.5t163 110.5t198.5 40q86 0 156.5 -35.5t125.5 -88.5zM590 262q62 0 113 32t81 86t30 120t-30 120t-81 86t-113 32
t-112.5 -32t-80 -86t-29.5 -120t30 -120t80.5 -86t111.5 -32zM454 1110l-194 288h200l163 -188l161 188h200l-190 -288h-340z" />
    <glyph glyph-name="uni01CF" unicode="&#x1cf;" horiz-adv-x="600" 
d="M150 0v1400h300v-1400h-300zM131 1510l-194 288h200l163 -188l161 188h200l-190 -288h-340z" />
    <glyph glyph-name="uni01D0" unicode="&#x1d0;" horiz-adv-x="540" 
d="M120 1000h300v-1000h-300v1000zM101 1110l-194 288h200l163 -188l161 188h200l-190 -288h-340z" />
    <glyph glyph-name="uni01D1" unicode="&#x1d1;" horiz-adv-x="1540" 
d="M770 -26q-142 0 -267 56.5t-220 156.5t-149 231.5t-54 281.5t54 281.5t149 231.5t220 156.5t267 56.5q143 0 268 -56.5t220 -156.5t148.5 -231.5t53.5 -281.5t-53.5 -281.5t-148.5 -231.5t-220 -156.5t-268 -56.5zM770 274q80 0 150.5 33.5t124.5 92t84.5 135.5t30.5 165
t-30.5 165t-84.5 135.5t-124.5 92t-150.5 33.5t-150.5 -33.5t-124.5 -92t-84.5 -135.5t-30.5 -165t30.5 -165t84.5 -135.5t124.5 -92t150.5 -33.5zM601 1510l-194 288h200l163 -188l161 188h200l-190 -288h-340z" />
    <glyph glyph-name="uni01D2" unicode="&#x1d2;" 
d="M560 -26q-138 0 -251.5 71t-181 190.5t-67.5 264.5q0 110 39 205.5t107.5 168t159.5 113.5t194 41q138 0 251.5 -71t181 -191t67.5 -266q0 -109 -39 -204t-107.5 -167.5t-159 -113.5t-194.5 -41zM560 274q57 0 102.5 31t71.5 82.5t26 112.5q0 63 -27.5 115t-73 82.5
t-99.5 30.5q-56 0 -101.5 -31.5t-72 -83.5t-26.5 -113q0 -64 27.5 -115t73 -81t99.5 -30zM391 1110l-194 288h200l163 -188l161 188h200l-190 -288h-340z" />
    <glyph glyph-name="uni01D3" unicode="&#x1d3;" horiz-adv-x="1378" 
d="M690 -26q-168 0 -296.5 82t-201 220.5t-72.5 307.5v816h300v-816q0 -85 32 -155.5t92.5 -112.5t145.5 -42q86 0 146 41.5t91 112t31 156.5v816h300v-816q0 -127 -41 -237.5t-117 -194.5t-180 -131t-230 -47zM520 1510l-194 288h200l163 -188l161 188h200l-190 -288h-340z
" />
    <glyph glyph-name="uni01D4" unicode="&#x1d4;" horiz-adv-x="1099" 
d="M80 363v637h300v-553q0 -47 23 -85.5t61.5 -61t84.5 -22.5q47 0 85.5 22.5t61 61t22.5 85.5v553h300l1 -1000h-300l-1 65q-50 -43 -114 -67t-135 -24q-107 0 -195.5 52.5t-141 140.5t-52.5 196zM419 1112l-194 288h200l163 -188l161 188h200l-190 -288h-340z" />
    <glyph glyph-name="uni01D5" unicode="&#x1d5;" horiz-adv-x="1378" 
d="M690 -26q-168 0 -296.5 82t-201 220.5t-72.5 307.5v816h300v-816q0 -85 32 -155.5t92.5 -112.5t145.5 -42q86 0 146 41.5t91 112t31 156.5v816h300v-816q0 -127 -41 -237.5t-117 -194.5t-180 -131t-230 -47zM470 1464q-64 0 -108 43t-44 107q0 63 44 106.5t108 43.5
q63 0 106.5 -43.5t43.5 -106.5q0 -64 -43.5 -107t-106.5 -43zM910 1464q-64 0 -108 43t-44 107q0 63 44 106.5t108 43.5q63 0 106.5 -43.5t43.5 -106.5q0 -64 -43.5 -107t-106.5 -43zM351 2070h676v-220h-676v220z" />
    <glyph glyph-name="uni01D6" unicode="&#x1d6;" horiz-adv-x="1099" 
d="M80 363v637h300v-553q0 -47 23 -85.5t61.5 -61t84.5 -22.5q47 0 85.5 22.5t61 61t22.5 85.5v553h300l1 -1000h-300l-1 65q-50 -43 -114 -67t-135 -24q-107 0 -195.5 52.5t-141 140.5t-52.5 196zM369 1066q-64 0 -108 43t-44 107q0 63 44 106.5t108 43.5q63 0 106.5 -43.5
t43.5 -106.5q0 -64 -43.5 -107t-106.5 -43zM809 1066q-64 0 -108 43t-44 107q0 63 44 106.5t108 43.5q63 0 106.5 -43.5t43.5 -106.5q0 -64 -43.5 -107t-106.5 -43zM250 1672h676v-220h-676v220z" />
    <glyph glyph-name="uni01D7" unicode="&#x1d7;" horiz-adv-x="1378" 
d="M690 -26q-168 0 -296.5 82t-201 220.5t-72.5 307.5v816h300v-816q0 -85 32 -155.5t92.5 -112.5t145.5 -42q86 0 146 41.5t91 112t31 156.5v816h300v-816q0 -127 -41 -237.5t-117 -194.5t-180 -131t-230 -47zM470 1464q-64 0 -108 43t-44 107q0 63 44 106.5t108 43.5
q63 0 106.5 -43.5t43.5 -106.5q0 -64 -43.5 -107t-106.5 -43zM910 1464q-64 0 -108 43t-44 107q0 63 44 106.5t108 43.5q63 0 106.5 -43.5t43.5 -106.5q0 -64 -43.5 -107t-106.5 -43zM609 1830l80 288h300l-180 -288h-200z" />
    <glyph glyph-name="uni01D8" unicode="&#x1d8;" horiz-adv-x="1099" 
d="M80 363v637h300v-553q0 -47 23 -85.5t61.5 -61t84.5 -22.5q47 0 85.5 22.5t61 61t22.5 85.5v553h300l1 -1000h-300l-1 65q-50 -43 -114 -67t-135 -24q-107 0 -195.5 52.5t-141 140.5t-52.5 196zM369 1066q-64 0 -108 43t-44 107q0 63 44 106.5t108 43.5q63 0 106.5 -43.5
t43.5 -106.5q0 -64 -43.5 -107t-106.5 -43zM809 1066q-64 0 -108 43t-44 107q0 63 44 106.5t108 43.5q63 0 106.5 -43.5t43.5 -106.5q0 -64 -43.5 -107t-106.5 -43zM508 1432l80 288h300l-180 -288h-200z" />
    <glyph glyph-name="uni01D9" unicode="&#x1d9;" horiz-adv-x="1378" 
d="M690 -26q-168 0 -296.5 82t-201 220.5t-72.5 307.5v816h300v-816q0 -85 32 -155.5t92.5 -112.5t145.5 -42q86 0 146 41.5t91 112t31 156.5v816h300v-816q0 -127 -41 -237.5t-117 -194.5t-180 -131t-230 -47zM470 1464q-64 0 -108 43t-44 107q0 63 44 106.5t108 43.5
q63 0 106.5 -43.5t43.5 -106.5q0 -64 -43.5 -107t-106.5 -43zM910 1464q-64 0 -108 43t-44 107q0 63 44 106.5t108 43.5q63 0 106.5 -43.5t43.5 -106.5q0 -64 -43.5 -107t-106.5 -43zM520 1830l-194 288h200l163 -188l161 188h200l-190 -288h-340z" />
    <glyph glyph-name="uni01DA" unicode="&#x1da;" horiz-adv-x="1099" 
d="M80 363v637h300v-553q0 -47 23 -85.5t61.5 -61t84.5 -22.5q47 0 85.5 22.5t61 61t22.5 85.5v553h300l1 -1000h-300l-1 65q-50 -43 -114 -67t-135 -24q-107 0 -195.5 52.5t-141 140.5t-52.5 196zM369 1066q-64 0 -108 43t-44 107q0 63 44 106.5t108 43.5q63 0 106.5 -43.5
t43.5 -106.5q0 -64 -43.5 -107t-106.5 -43zM809 1066q-64 0 -108 43t-44 107q0 63 44 106.5t108 43.5q63 0 106.5 -43.5t43.5 -106.5q0 -64 -43.5 -107t-106.5 -43zM419 1432l-194 288h200l163 -188l161 188h200l-190 -288h-340z" />
    <glyph glyph-name="uni01DB" unicode="&#x1db;" horiz-adv-x="1378" 
d="M690 -26q-168 0 -296.5 82t-201 220.5t-72.5 307.5v816h300v-816q0 -85 32 -155.5t92.5 -112.5t145.5 -42q86 0 146 41.5t91 112t31 156.5v816h300v-816q0 -127 -41 -237.5t-117 -194.5t-180 -131t-230 -47zM470 1464q-64 0 -108 43t-44 107q0 63 44 106.5t108 43.5
q63 0 106.5 -43.5t43.5 -106.5q0 -64 -43.5 -107t-106.5 -43zM910 1464q-64 0 -108 43t-44 107q0 63 44 106.5t108 43.5q63 0 106.5 -43.5t43.5 -106.5q0 -64 -43.5 -107t-106.5 -43zM391 2118h300l80 -288h-200z" />
    <glyph glyph-name="uni01DC" unicode="&#x1dc;" horiz-adv-x="1099" 
d="M80 363v637h300v-553q0 -47 23 -85.5t61.5 -61t84.5 -22.5q47 0 85.5 22.5t61 61t22.5 85.5v553h300l1 -1000h-300l-1 65q-50 -43 -114 -67t-135 -24q-107 0 -195.5 52.5t-141 140.5t-52.5 196zM369 1066q-64 0 -108 43t-44 107q0 63 44 106.5t108 43.5q63 0 106.5 -43.5
t43.5 -106.5q0 -64 -43.5 -107t-106.5 -43zM809 1066q-64 0 -108 43t-44 107q0 63 44 106.5t108 43.5q63 0 106.5 -43.5t43.5 -106.5q0 -64 -43.5 -107t-106.5 -43zM290 1720h300l80 -288h-200z" />
    <glyph glyph-name="uni01DE" unicode="&#x1de;" horiz-adv-x="1514" 
d="M588 1400h338l508 -1400h-318l-80 220h-558l-80 -220h-318zM588 520h338l-170 464zM538 1464q-64 0 -108 43t-44 107q0 63 44 106.5t108 43.5q63 0 106.5 -43.5t43.5 -106.5q0 -64 -43.5 -107t-106.5 -43zM978 1464q-64 0 -108 43t-44 107q0 63 44 106.5t108 43.5
q63 0 106.5 -43.5t43.5 -106.5q0 -64 -43.5 -107t-106.5 -43zM419 2070h676v-220h-676v220z" />
    <glyph glyph-name="uni01DF" unicode="&#x1df;" horiz-adv-x="1218" 
d="M838 1000h300v-1000h-301l-14 90q-37 -52 -93.5 -84t-131.5 -32q-112 0 -209.5 42t-171.5 116.5t-115.5 172t-41.5 209.5q0 107 39 200t109.5 163.5t163 110.5t198.5 40q86 0 156.5 -35.5t125.5 -88.5zM590 262q62 0 113 32t81 86t30 120t-30 120t-81 86t-113 32
t-112.5 -32t-80 -86t-29.5 -120t30 -120t80.5 -86t111.5 -32zM404 1064q-64 0 -108 43t-44 107q0 63 44 106.5t108 43.5q63 0 106.5 -43.5t43.5 -106.5q0 -64 -43.5 -107t-106.5 -43zM844 1064q-64 0 -108 43t-44 107q0 63 44 106.5t108 43.5q63 0 106.5 -43.5t43.5 -106.5
q0 -64 -43.5 -107t-106.5 -43zM285 1670h676v-220h-676v220z" />
    <glyph glyph-name="uni01E2" unicode="&#x1e2;" horiz-adv-x="1710" 
d="M80 0l508 1400h1022v-300h-452v-250h356v-300h-356v-250h452v-300h-752v220h-380l-80 -220h-318zM588 520h270v580h-60zM761 1750h676v-220h-676v220z" />
    <glyph glyph-name="uni01E3" unicode="&#x1e3;" horiz-adv-x="1703" 
d="M370 -26q-98 0 -175 45t-121 119t-44 160t45 159.5t122 118.5t173 45h261q-11 31 -32 55t-51 38t-68 14q-80 0 -143 -42l-166 249q68 47 146 70t159 23q95 0 181 -35t150 -101q45 42 98 72.5t113.5 47t124.5 16.5q121 0 220.5 -52.5t167.5 -142t96.5 -201.5t6.5 -231
h-667q14 -36 38 -64.5t59 -45.5t82 -17q43 0 80 20t64 53l306 -71q-61 -133 -182 -217.5t-271 -84.5q-73 0 -140 21t-125 59.5t-104 90.5q-36 -42 -98 -81t-140.5 -64.5t-165.5 -25.5zM370 234q56 0 103.5 18.5t84.5 52.5q42 38 72 96h-260q-33 0 -56.5 -23.5t-23.5 -56.5
t23.5 -60t56.5 -27zM956 621h375q-14 43 -42 76t-65.5 52t-80.5 19q-42 0 -79.5 -19t-65 -52t-42.5 -76zM469 1352h676v-220h-676v220z" />
    <glyph glyph-name="Gcaron" unicode="&#x1e6;" horiz-adv-x="1536" 
d="M768 -26q-147 0 -272.5 57t-218.5 157.5t-145 232.5t-52 281q0 161 57.5 293t156 228.5t223 148.5t257.5 52q146 0 288 -68t256 -220l-268 -144q-61 69 -133.5 101.5t-146.5 32.5q-75 0 -145 -31t-125 -88t-87.5 -136t-32.5 -175q0 -88 30.5 -165t84.5 -134.5t125 -90
t152 -32.5q46 0 91.5 12.5t88.5 37.5t81 64t69 92h-188v260h542q8 -157 -42.5 -295.5t-145.5 -244.5t-223 -166t-277 -60zM600 1510l-194 288h200l163 -188l161 188h200l-190 -288h-340z" />
    <glyph glyph-name="gcaron" unicode="&#x1e7;" horiz-adv-x="1254" 
d="M834 1000h300v-1010q0 -114 -45.5 -204.5t-124.5 -154.5t-181.5 -97.5t-216.5 -33.5q-106 0 -203 40.5t-173 112.5t-120 167l274 124q21 -45 55 -76.5t77 -48.5t90 -17q52 0 100 11t86 34t60 58.5t22 84.5v98q-45 -51 -106.5 -82.5t-141.5 -31.5q-109 0 -204 41
t-167.5 113.5t-113.5 167.5t-41 204t41 204t113.5 167.5t167.5 113.5t204 41q80 0 141.5 -31.5t106.5 -82.5v88zM590 262q62 0 113 32t81 86t30 120t-30 120t-81 86t-113 32q-61 0 -111.5 -32t-80.5 -86t-30 -120t30 -120t80.5 -86t111.5 -32zM458 1110l-194 288h200
l163 -188l161 188h200l-190 -288h-340z" />
    <glyph glyph-name="uni01E8" unicode="&#x1e8;" horiz-adv-x="1230" 
d="M1210 0h-392l-358 506l-40 -48v-458h-300v1400h300v-476l398 476h392l-554 -660zM446 1510l-194 288h200l163 -188l161 188h200l-190 -288h-340z" />
    <glyph glyph-name="uni01E9" unicode="&#x1e9;" horiz-adv-x="1118" 
d="M1074 0h-346l-200 344l-108 -128v-216h-300v1500h300v-818l266 318h392l-344 -412zM521 1510l-194 288h200l163 -188l161 188h200l-190 -288h-340z" />
    <glyph glyph-name="uni0218" unicode="&#x218;" horiz-adv-x="1264" 
d="M632 -26q-118 0 -226 37.5t-189 108t-117 168.5l282 104q10 -29 44.5 -56t87.5 -44.5t118 -17.5q60 0 113 17.5t86 48.5t33 72q0 42 -34.5 69.5t-88 44t-109.5 24.5q-152 22 -272.5 72.5t-190 139.5t-69.5 226q0 131 74 229.5t195.5 153.5t262.5 55q118 0 226.5 -37.5
t189.5 -108.5t116 -170l-282 -102q-10 29 -44.5 55.5t-87.5 43.5t-118 17q-58 1 -111 -17t-87 -49t-34 -70q0 -54 32 -80.5t84.5 -37.5t115.5 -20q144 -21 265 -75t194 -144t73 -219q0 -131 -73.5 -229.5t-194.5 -153.5t-264 -55zM503 -441l62 338h300l-162 -338h-200z" />
    <glyph glyph-name="uni0219" unicode="&#x219;" horiz-adv-x="874" 
d="M408 -18q-76 7 -146 33t-125 71t-87 110l252 108q10 -11 28 -27.5t45.5 -29.5t66.5 -13q26 0 50.5 5.5t40 19.5t15.5 39q0 28 -20.5 42.5t-49.5 21t-54 10.5q-89 14 -170.5 56.5t-133.5 111t-52 160.5q0 103 53 178t138.5 115.5t184.5 40.5q117 0 216.5 -48t163.5 -138
l-236 -140q-12 15 -29.5 30.5t-40 27t-48.5 14.5q-35 3 -62.5 -2.5t-43.5 -22t-16 -47.5q0 -29 28 -42t63 -19t57 -13q86 -28 162 -73t122.5 -109t43.5 -150q0 -100 -60 -176t-155 -115t-201 -29zM282 -441l62 338h300l-162 -338h-200z" />
    <glyph glyph-name="uni021A" unicode="&#x21a;" horiz-adv-x="1259" 
d="M1180 1400v-300h-400v-1100h-300v1100h-400v300h1100zM418 -441l62 338h300l-162 -338h-200z" />
    <glyph glyph-name="uni021B" unicode="&#x21b;" horiz-adv-x="730" 
d="M670 700h-170v-700h-300v700h-130v300h130v314h300v-314h170v-300zM138 -441l62 338h300l-162 -338h-200z" />
    <glyph glyph-name="uni022A" unicode="&#x22a;" horiz-adv-x="1540" 
d="M770 -26q-142 0 -267 56.5t-220 156.5t-149 231.5t-54 281.5t54 281.5t149 231.5t220 156.5t267 56.5q143 0 268 -56.5t220 -156.5t148.5 -231.5t53.5 -281.5t-53.5 -281.5t-148.5 -231.5t-220 -156.5t-268 -56.5zM770 274q80 0 150.5 33.5t124.5 92t84.5 135.5t30.5 165
t-30.5 165t-84.5 135.5t-124.5 92t-150.5 33.5t-150.5 -33.5t-124.5 -92t-84.5 -135.5t-30.5 -165t30.5 -165t84.5 -135.5t124.5 -92t150.5 -33.5zM551 1464q-64 0 -108 43t-44 107q0 63 44 106.5t108 43.5q63 0 106.5 -43.5t43.5 -106.5q0 -64 -43.5 -107t-106.5 -43z
M991 1464q-64 0 -108 43t-44 107q0 63 44 106.5t108 43.5q63 0 106.5 -43.5t43.5 -106.5q0 -64 -43.5 -107t-106.5 -43zM432 2070h676v-220h-676v220z" />
    <glyph glyph-name="uni022B" unicode="&#x22b;" 
d="M560 -26q-138 0 -251.5 71t-181 190.5t-67.5 264.5q0 110 39 205.5t107.5 168t159.5 113.5t194 41q138 0 251.5 -71t181 -191t67.5 -266q0 -109 -39 -204t-107.5 -167.5t-159 -113.5t-194.5 -41zM560 274q57 0 102.5 31t71.5 82.5t26 112.5q0 63 -27.5 115t-73 82.5
t-99.5 30.5q-56 0 -101.5 -31.5t-72 -83.5t-26.5 -113q0 -64 27.5 -115t73 -81t99.5 -30zM341 1064q-64 0 -108 43t-44 107q0 63 44 106.5t108 43.5q63 0 106.5 -43.5t43.5 -106.5q0 -64 -43.5 -107t-106.5 -43zM781 1064q-64 0 -108 43t-44 107q0 63 44 106.5t108 43.5
q63 0 106.5 -43.5t43.5 -106.5q0 -64 -43.5 -107t-106.5 -43zM222 1670h676v-220h-676v220z" />
    <glyph glyph-name="uni0232" unicode="&#x232;" horiz-adv-x="1392" 
d="M978 1400h354l-486 -770v-630h-300v630l-486 770h354l282 -444zM358 1750h676v-220h-676v220z" />
    <glyph glyph-name="uni0233" unicode="&#x233;" horiz-adv-x="1206" 
d="M806 1000h320l-548 -1500h-318l180 500l-360 1000h328l182 -590zM265 1350h676v-220h-676v220z" />
    <glyph glyph-name="uni0237" unicode="&#x237;" horiz-adv-x="512" 
d="M-80 -500v300q47 0 86 23t62.5 62t23.5 87v1028h300v-1028q0 -130 -63.5 -237t-170.5 -171t-238 -64z" />
    <glyph glyph-name="quoteleft" unicode="&#x2bb;" horiz-adv-x="462" 
d="M60 878l162 522h200l-62 -522h-300z" />
    <glyph glyph-name="quoteleft" unicode="&#x2018;" horiz-adv-x="462" 
d="M60 878l162 522h200l-62 -522h-300z" />
    <glyph glyph-name="uni02BC" unicode="&#x2bc;" horiz-adv-x="602" 
d="M40 878l62 522h300l-162 -522h-200z" />
    <glyph glyph-name="circumflex" unicode="&#x2c6;" horiz-adv-x="756" 
d="M546 1398l194 -288h-200l-163 188l-161 -188h-200l190 288h340z" />
    <glyph glyph-name="caron" unicode="&#x2c7;" horiz-adv-x="716" 
d="M190 1110l-194 288h200l163 -188l161 188h200l-190 -288h-340z" />
    <glyph glyph-name="breve" unicode="&#x2d8;" horiz-adv-x="1144" 
d="M572 1088q-91 0 -166.5 45t-120.5 120.5t-45 166.5h180q0 -41 20.5 -75.5t55 -55.5t76.5 -21t76.5 20t55 54.5t20.5 77.5h180q0 -93 -44.5 -168.5t-120 -119.5t-167.5 -44z" />
    <glyph glyph-name="dotaccent" unicode="&#x2d9;" horiz-adv-x="1102" 
d="M553 1104q-65 0 -109 43t-44 107q0 63 44 106.5t108 43.5q63 0 106.5 -43.5t43.5 -106.5q0 -64 -42.5 -107t-106.5 -43z" />
    <glyph glyph-name="ring" unicode="&#x2da;" horiz-adv-x="1200" 
d="M600 1054q-82 0 -141 60t-59 142q0 54 27 99t72.5 72t100.5 27q83 0 141.5 -58.5t58.5 -139.5q0 -84 -58.5 -143t-141.5 -59zM600 1194q25 0 42.5 18t17.5 43q0 24 -17.5 41.5t-42.5 17.5t-42.5 -17t-17.5 -41q0 -26 17.5 -44t42.5 -18z" />
    <glyph glyph-name="ogonek" unicode="&#x2db;" horiz-adv-x="1150" 
d="M563 -476q-80 0 -139 38t-91.5 99t-32.5 128q0 50 18.5 97.5t58.5 87.5l168 168l142 -142q-27 -27 -56.5 -55t-55 -56.5t-41.5 -56.5t-16 -55q0 -22 15.5 -40t41.5 -18q38 0 64.5 27t26.5 65h184q0 -76 -37.5 -141.5t-102.5 -105.5t-147 -40z" />
    <glyph glyph-name="tilde" unicode="&#x2dc;" horiz-adv-x="1280" 
d="M810 1091q-38 0 -91.5 27.5t-106 60t-89.5 51t-43 1.5q-6 -18 -2.5 -35t12.5 -47l-168 -46q-31 89 -18.5 160t62.5 112.5t132 41.5q36 0 85 -21.5t97.5 -49.5t85 -49.5t46.5 -21.5q19 0 21.5 12t-4 30.5t-13.5 37.5l172 56q31 -94 16 -166t-66 -113t-128 -41z" />
    <glyph glyph-name="hungarumlaut" unicode="&#x2dd;" horiz-adv-x="1147" 
d="M568 1110l80 288h300l-180 -288h-200zM200 1110l80 288h300l-180 -288h-200z" />
    <glyph glyph-name="gravecomb" unicode="&#x300;" horiz-adv-x="0" 
d="M320 1398h300l80 -288h-200z" />
    <glyph glyph-name="acutecomb" unicode="&#x301;" horiz-adv-x="0" 
d="M480 1110l80 288h300l-180 -288h-200z" />
    <glyph glyph-name="uni0302" unicode="&#x302;" horiz-adv-x="0" 
d="M546 1398l194 -288h-200l-163 188l-161 -188h-200l190 288h340z" />
    <glyph glyph-name="tildecomb" unicode="&#x303;" horiz-adv-x="0" 
d="M810 1091q-38 0 -91.5 27.5t-106 60t-89.5 51t-43 1.5q-6 -18 -2.5 -35t12.5 -47l-168 -46q-31 89 -18.5 160t62.5 112.5t132 41.5q36 0 85 -21.5t97.5 -49.5t85 -49.5t46.5 -21.5q19 0 21.5 12t-4 30.5t-13.5 37.5l172 56q31 -94 16 -166t-66 -113t-128 -41z" />
    <glyph glyph-name="uni0304" unicode="&#x304;" horiz-adv-x="0" 
d="M262 1350h676v-220h-676v220z" />
    <glyph glyph-name="uni0306" unicode="&#x306;" horiz-adv-x="0" 
d="M572 1088q-91 0 -166.5 45t-120.5 120.5t-45 166.5h180q0 -41 20.5 -75.5t55 -55.5t76.5 -21t76.5 20t55 54.5t20.5 77.5h180q0 -93 -44.5 -168.5t-120 -119.5t-167.5 -44z" />
    <glyph glyph-name="uni0307" unicode="&#x307;" horiz-adv-x="0" 
d="M553 1104q-65 0 -109 43t-44 107q0 63 44 106.5t108 43.5q63 0 106.5 -43.5t43.5 -106.5q0 -64 -42.5 -107t-106.5 -43z" />
    <glyph glyph-name="uni0308" unicode="&#x308;" horiz-adv-x="0" 
d="M552 1064q-64 0 -108 43t-44 107q0 63 44 106.5t108 43.5q63 0 106.5 -43.5t43.5 -106.5q0 -64 -43.5 -107t-106.5 -43zM992 1064q-64 0 -108 43t-44 107q0 63 44 106.5t108 43.5q63 0 106.5 -43.5t43.5 -106.5q0 -64 -43.5 -107t-106.5 -43z" />
    <glyph glyph-name="uni030A" unicode="&#x30a;" horiz-adv-x="0" 
d="M600 1054q-82 0 -141 60t-59 142q0 54 27 99t72.5 72t100.5 27q83 0 141.5 -58.5t58.5 -139.5q0 -84 -58.5 -143t-141.5 -59zM600 1194q25 0 42.5 18t17.5 43q0 24 -17.5 41.5t-42.5 17.5t-42.5 -17t-17.5 -41q0 -26 17.5 -44t42.5 -18z" />
    <glyph glyph-name="uni030B" unicode="&#x30b;" horiz-adv-x="0" 
d="M568 1110l80 288h300l-180 -288h-200zM200 1110l80 288h300l-180 -288h-200z" />
    <glyph glyph-name="uni030C" unicode="&#x30c;" horiz-adv-x="0" 
d="M190 1110l-194 288h200l163 -188l161 188h200l-190 -288h-340z" />
    <glyph glyph-name="dotbelowcomb" unicode="&#x323;" horiz-adv-x="0" 
d="M553 -465q-65 0 -109 43t-44 107q0 63 44 106.5t108 43.5q63 0 106.5 -43.5t43.5 -106.5q0 -64 -42.5 -107t-106.5 -43z" />
    <glyph glyph-name="uni0326" unicode="&#x326;" horiz-adv-x="0" 
d="M400 -441l62 338h300l-162 -338h-200z" />
    <glyph glyph-name="uni0327" unicode="&#x327;" horiz-adv-x="0" 
d="M634 -381q-76 -20 -144 19t-88 114l145 39q4 -15 18 -23t30 -4t24 18t4 30t-17.5 22t-30.5 6h-146l150 265l131 -76l-36 -61q34 -17 59 -47t35 -71q20 -75 -19 -143t-115 -88z" />
    <glyph glyph-name="uni0328" unicode="&#x328;" horiz-adv-x="0" 
d="M563 -476q-80 0 -139 38t-91.5 99t-32.5 128q0 50 18.5 97.5t58.5 87.5l168 168l142 -142q-27 -27 -56.5 -55t-55 -56.5t-41.5 -56.5t-16 -55q0 -22 15.5 -40t41.5 -18q38 0 64.5 27t26.5 65h184q0 -76 -37.5 -141.5t-102.5 -105.5t-147 -40z" />
    <glyph glyph-name="uni03BC" unicode="&#x3bc;" horiz-adv-x="1176" 
d="M80 -432v1432h300v-500q0 -66 27 -120t76 -86t115 -32q65 0 109 32t66.5 86t22.5 120v500h300v-1000h-300v92q-46 -52 -108.5 -86t-143.5 -34q-45 0 -85.5 7.5t-78.5 20.5v-432h-300z" />
    <glyph glyph-name="uni1E04" unicode="&#x1e04;" horiz-adv-x="1206" 
d="M120 0v1400h530q115 0 208 -47.5t147.5 -134.5t54.5 -204q0 -44 -11 -92.5t-39 -90.5t-80 -66q67 -16 106 -60t58.5 -101.5t25.5 -116t6 -105.5q0 -106 -57 -192.5t-153 -138t-212 -51.5h-584zM420 254h252q52 0 94.5 24.5t68 67.5t25.5 98q0 46 -25.5 87.5t-68 67.5
t-94.5 26h-252v-371zM420 875h194q60 0 103 40t43 101q0 62 -43 95t-103 33h-194v-269zM605 -465q-65 0 -109 43t-44 107q0 63 44 106.5t108 43.5q63 0 106.5 -43.5t43.5 -106.5q0 -64 -42.5 -107t-106.5 -43z" />
    <glyph glyph-name="uni1E05" unicode="&#x1e05;" horiz-adv-x="1260" 
d="M672 1028q146 0 266 -71t191 -190.5t71 -264.5q0 -109 -41 -205t-113.5 -168.5t-168 -113.5t-205.5 -41q-79 0 -142 34t-110 86v-94h-300v1500h300v-592q47 53 110 86.5t142 33.5zM668 264q62 0 113 32t81 86t30 120q0 65 -30 119t-81 86.5t-113 32.5q-61 0 -111.5 -32.5
t-80.5 -86.5t-30 -119q0 -66 30 -120t80.5 -86t111.5 -32zM632 -465q-65 0 -109 43t-44 107q0 63 44 106.5t108 43.5q63 0 106.5 -43.5t43.5 -106.5q0 -64 -42.5 -107t-106.5 -43z" />
    <glyph glyph-name="uni1E0C" unicode="&#x1e0c;" horiz-adv-x="1343" 
d="M120 0v1400h464q145 0 271.5 -54.5t223 -151t151 -223t54.5 -271.5t-54.5 -271.5t-151 -223t-223 -151t-271.5 -54.5h-464zM420 300h164q81 0 153 31t128 86t87.5 127.5t31.5 155.5t-31.5 155t-87 127.5t-127.5 86.5t-154 31h-164v-800zM654 -465q-65 0 -109 43t-44 107
q0 63 44 106.5t108 43.5q63 0 106.5 -43.5t43.5 -106.5q0 -64 -42.5 -107t-106.5 -43z" />
    <glyph glyph-name="uni1E0D" unicode="&#x1e0d;" horiz-adv-x="1260" 
d="M840 1500h300v-1500h-300v92q-46 -52 -109.5 -85t-144.5 -33q-109 0 -204 41t-167.5 113.5t-113.5 167.5t-41 204t41 204t113.5 167.5t167.5 113.5t204 41q81 0 144.5 -32.5t109.5 -85.5v592zM590 262q62 0 113 32t81 86t30 120t-30 120t-81 86t-113 32t-112.5 -32
t-80 -86t-29.5 -120t30 -120t80.5 -86t111.5 -32zM622 -465q-65 0 -109 43t-44 107q0 63 44 106.5t108 43.5q63 0 106.5 -43.5t43.5 -106.5q0 -64 -42.5 -107t-106.5 -43z" />
    <glyph glyph-name="uni1E20" unicode="&#x1e20;" horiz-adv-x="1536" 
d="M768 -26q-147 0 -272.5 57t-218.5 157.5t-145 232.5t-52 281q0 161 57.5 293t156 228.5t223 148.5t257.5 52q146 0 288 -68t256 -220l-268 -144q-61 69 -133.5 101.5t-146.5 32.5q-75 0 -145 -31t-125 -88t-87.5 -136t-32.5 -175q0 -88 30.5 -165t84.5 -134.5t125 -90
t152 -32.5q46 0 91.5 12.5t88.5 37.5t81 64t69 92h-188v260h542q8 -157 -42.5 -295.5t-145.5 -244.5t-223 -166t-277 -60zM432 1750h676v-220h-676v220z" />
    <glyph glyph-name="uni1E21" unicode="&#x1e21;" horiz-adv-x="1254" 
d="M834 1000h300v-1010q0 -114 -45.5 -204.5t-124.5 -154.5t-181.5 -97.5t-216.5 -33.5q-106 0 -203 40.5t-173 112.5t-120 167l274 124q21 -45 55 -76.5t77 -48.5t90 -17q52 0 100 11t86 34t60 58.5t22 84.5v98q-45 -51 -106.5 -82.5t-141.5 -31.5q-109 0 -204 41
t-167.5 113.5t-113.5 167.5t-41 204t41 204t113.5 167.5t167.5 113.5t204 41q80 0 141.5 -31.5t106.5 -82.5v88zM590 262q62 0 113 32t81 86t30 120t-30 120t-81 86t-113 32q-61 0 -111.5 -32t-80.5 -86t-30 -120t30 -120t80.5 -86t111.5 -32zM289 1350h676v-220h-676v220z
" />
    <glyph glyph-name="uni1E24" unicode="&#x1e24;" horiz-adv-x="1336" 
d="M916 1400h300v-1400h-300v600h-496v-600h-300v1400h300v-500h496v500zM670 -465q-65 0 -109 43t-44 107q0 63 44 106.5t108 43.5q63 0 106.5 -43.5t43.5 -106.5q0 -64 -42.5 -107t-106.5 -43z" />
    <glyph glyph-name="uni1E25" unicode="&#x1e25;" horiz-adv-x="1139" 
d="M1059 639v-639h-300v555q0 47 -23 85.5t-61 61t-85 22.5t-85.5 -22.5t-61 -61t-22.5 -85.5v-555h-300l-1 1500h300l1 -563q50 43 114 67t135 24q108 0 196 -52.5t140.5 -140.5t52.5 -196zM632 -465q-65 0 -109 43t-44 107q0 63 44 106.5t108 43.5q63 0 106.5 -43.5
t43.5 -106.5q0 -64 -42.5 -107t-106.5 -43z" />
    <glyph glyph-name="uni1E2E" unicode="&#x1e2e;" horiz-adv-x="600" 
d="M150 0v1400h300v-1400h-300zM81 1464q-64 0 -108 43t-44 107q0 63 44 106.5t108 43.5q63 0 106.5 -43.5t43.5 -106.5q0 -64 -43.5 -107t-106.5 -43zM521 1464q-64 0 -108 43t-44 107q0 63 44 106.5t108 43.5q63 0 106.5 -43.5t43.5 -106.5q0 -64 -43.5 -107t-106.5 -43z
M220 1830l80 288h300l-180 -288h-200z" />
    <glyph glyph-name="uni1E2F" unicode="&#x1e2f;" horiz-adv-x="540" 
d="M120 1000h300v-1000h-300v1000zM51 1064q-64 0 -108 43t-44 107q0 63 44 106.5t108 43.5q63 0 106.5 -43.5t43.5 -106.5q0 -64 -43.5 -107t-106.5 -43zM491 1064q-64 0 -108 43t-44 107q0 63 44 106.5t108 43.5q63 0 106.5 -43.5t43.5 -106.5q0 -64 -43.5 -107
t-106.5 -43zM190 1430l80 288h300l-180 -288h-200z" />
    <glyph glyph-name="uni1E36" unicode="&#x1e36;" horiz-adv-x="1070" 
d="M120 0v1400h300v-1100h550v-300h-850zM547 -465q-65 0 -109 43t-44 107q0 63 44 106.5t108 43.5q63 0 106.5 -43.5t43.5 -106.5q0 -64 -42.5 -107t-106.5 -43z" />
    <glyph glyph-name="uni1E37" unicode="&#x1e37;" horiz-adv-x="540" 
d="M120 0v1500h300v-1500h-300zM272 -465q-65 0 -109 43t-44 107q0 63 44 106.5t108 43.5q63 0 106.5 -43.5t43.5 -106.5q0 -64 -42.5 -107t-106.5 -43z" />
    <glyph glyph-name="uni1E3E" unicode="&#x1e3e;" horiz-adv-x="1924" 
d="M120 0l272 1400h256l314 -826l314 826h256l272 -1400h-306l-146 756l-286 -756h-208l-286 756l-146 -756h-306zM882 1510l80 288h300l-180 -288h-200z" />
    <glyph glyph-name="uni1E3F" unicode="&#x1e3f;" horiz-adv-x="1777" 
d="M120 0v1000h300v-63q50 43 114 67t135 24q100 0 184 -45.5t136 -121.5q53 76 136.5 121.5t182.5 45.5q108 0 196 -52.5t140.5 -140.5t52.5 -196v-639h-300v555q0 47 -23 85t-61 61t-85 23t-85.5 -23t-61.5 -61t-23 -85v-555h-300v555q0 47 -22.5 85t-61 61t-85.5 23
q-46 0 -84.5 -23t-61.5 -61t-23 -85v-555h-300zM909 1110l80 288h300l-180 -288h-200z" />
    <glyph glyph-name="uni1E40" unicode="&#x1e40;" horiz-adv-x="1924" 
d="M120 0l272 1400h256l314 -826l314 826h256l272 -1400h-306l-146 756l-286 -756h-208l-286 756l-146 -756h-306zM964 1504q-65 0 -109 43t-44 107q0 63 44 106.5t108 43.5q63 0 106.5 -43.5t43.5 -106.5q0 -64 -42.5 -107t-106.5 -43z" />
    <glyph glyph-name="uni1E41" unicode="&#x1e41;" horiz-adv-x="1777" 
d="M120 0v1000h300v-63q50 43 114 67t135 24q100 0 184 -45.5t136 -121.5q53 76 136.5 121.5t182.5 45.5q108 0 196 -52.5t140.5 -140.5t52.5 -196v-639h-300v555q0 47 -23 85t-61 61t-85 23t-85.5 -23t-61.5 -61t-23 -85v-555h-300v555q0 47 -22.5 85t-61 61t-85.5 23
q-46 0 -84.5 -23t-61.5 -61t-23 -85v-555h-300zM991 1104q-65 0 -109 43t-44 107q0 63 44 106.5t108 43.5q63 0 106.5 -43.5t43.5 -106.5q0 -64 -42.5 -107t-106.5 -43z" />
    <glyph glyph-name="uni1E42" unicode="&#x1e42;" horiz-adv-x="1924" 
d="M120 0l272 1400h256l314 -826l314 826h256l272 -1400h-306l-146 756l-286 -756h-208l-286 756l-146 -756h-306zM964 -465q-65 0 -109 43t-44 107q0 63 44 106.5t108 43.5q63 0 106.5 -43.5t43.5 -106.5q0 -64 -42.5 -107t-106.5 -43z" />
    <glyph glyph-name="uni1E43" unicode="&#x1e43;" horiz-adv-x="1777" 
d="M120 0v1000h300v-63q50 43 114 67t135 24q100 0 184 -45.5t136 -121.5q53 76 136.5 121.5t182.5 45.5q108 0 196 -52.5t140.5 -140.5t52.5 -196v-639h-300v555q0 47 -23 85t-61 61t-85 23t-85.5 -23t-61.5 -61t-23 -85v-555h-300v555q0 47 -22.5 85t-61 61t-85.5 23
q-46 0 -84.5 -23t-61.5 -61t-23 -85v-555h-300zM910 -465q-65 0 -109 43t-44 107q0 63 44 106.5t108 43.5q63 0 106.5 -43.5t43.5 -106.5q0 -64 -42.5 -107t-106.5 -43z" />
    <glyph glyph-name="uni1E44" unicode="&#x1e44;" horiz-adv-x="1376" 
d="M120 0v1400h324l512 -858v858h300v-1400h-324l-512 858v-858h-300zM690 1504q-65 0 -109 43t-44 107q0 63 44 106.5t108 43.5q63 0 106.5 -43.5t43.5 -106.5q0 -64 -42.5 -107t-106.5 -43z" />
    <glyph glyph-name="uni1E45" unicode="&#x1e45;" horiz-adv-x="1139" 
d="M1059 639v-639h-300v555q0 47 -23 85.5t-61 61t-85 22.5t-85.5 -22.5t-61 -61t-22.5 -85.5v-555h-300l-1 1000h300l1 -63q50 43 114 67t135 24q108 0 196 -52.5t140.5 -140.5t52.5 -196zM612 1104q-65 0 -109 43t-44 107q0 63 44 106.5t108 43.5q63 0 106.5 -43.5
t43.5 -106.5q0 -64 -42.5 -107t-106.5 -43z" />
    <glyph glyph-name="uni1E46" unicode="&#x1e46;" horiz-adv-x="1376" 
d="M120 0v1400h324l512 -858v858h300v-1400h-324l-512 858v-858h-300zM690 -465q-65 0 -109 43t-44 107q0 63 44 106.5t108 43.5q63 0 106.5 -43.5t43.5 -106.5q0 -64 -42.5 -107t-106.5 -43z" />
    <glyph glyph-name="uni1E47" unicode="&#x1e47;" horiz-adv-x="1139" 
d="M1059 639v-639h-300v555q0 47 -23 85.5t-61 61t-85 22.5t-85.5 -22.5t-61 -61t-22.5 -85.5v-555h-300l-1 1000h300l1 -63q50 43 114 67t135 24q108 0 196 -52.5t140.5 -140.5t52.5 -196zM592 -465q-65 0 -109 43t-44 107q0 63 44 106.5t108 43.5q63 0 106.5 -43.5
t43.5 -106.5q0 -64 -42.5 -107t-106.5 -43z" />
    <glyph glyph-name="uni1E62" unicode="&#x1e62;" horiz-adv-x="1264" 
d="M632 -26q-118 0 -226 37.5t-189 108t-117 168.5l282 104q10 -29 44.5 -56t87.5 -44.5t118 -17.5q60 0 113 17.5t86 48.5t33 72q0 42 -34.5 69.5t-88 44t-109.5 24.5q-152 22 -272.5 72.5t-190 139.5t-69.5 226q0 131 74 229.5t195.5 153.5t262.5 55q118 0 226.5 -37.5
t189.5 -108.5t116 -170l-282 -102q-10 29 -44.5 55.5t-87.5 43.5t-118 17q-58 1 -111 -17t-87 -49t-34 -70q0 -54 32 -80.5t84.5 -37.5t115.5 -20q144 -21 265 -75t194 -144t73 -219q0 -131 -73.5 -229.5t-194.5 -153.5t-264 -55zM717 -465q-65 0 -109 43t-44 107
q0 63 44 106.5t108 43.5q63 0 106.5 -43.5t43.5 -106.5q0 -64 -42.5 -107t-106.5 -43z" />
    <glyph glyph-name="uni1E63" unicode="&#x1e63;" horiz-adv-x="874" 
d="M408 -18q-76 7 -146 33t-125 71t-87 110l252 108q10 -11 28 -27.5t45.5 -29.5t66.5 -13q26 0 50.5 5.5t40 19.5t15.5 39q0 28 -20.5 42.5t-49.5 21t-54 10.5q-89 14 -170.5 56.5t-133.5 111t-52 160.5q0 103 53 178t138.5 115.5t184.5 40.5q117 0 216.5 -48t163.5 -138
l-236 -140q-12 15 -29.5 30.5t-40 27t-48.5 14.5q-35 3 -62.5 -2.5t-43.5 -22t-16 -47.5q0 -29 28 -42t63 -19t57 -13q86 -28 162 -73t122.5 -109t43.5 -150q0 -100 -60 -176t-155 -115t-201 -29zM496 -465q-65 0 -109 43t-44 107q0 63 44 106.5t108 43.5q63 0 106.5 -43.5
t43.5 -106.5q0 -64 -42.5 -107t-106.5 -43z" />
    <glyph glyph-name="uni1E6C" unicode="&#x1e6c;" horiz-adv-x="1259" 
d="M1180 1400v-300h-400v-1100h-300v1100h-400v300h1100zM632 -465q-65 0 -109 43t-44 107q0 63 44 106.5t108 43.5q63 0 106.5 -43.5t43.5 -106.5q0 -64 -42.5 -107t-106.5 -43z" />
    <glyph glyph-name="uni1E6D" unicode="&#x1e6d;" horiz-adv-x="730" 
d="M670 700h-170v-700h-300v700h-130v300h130v314h300v-314h170v-300zM352 -465q-65 0 -109 43t-44 107q0 63 44 106.5t108 43.5q63 0 106.5 -43.5t43.5 -106.5q0 -64 -42.5 -107t-106.5 -43z" />
    <glyph glyph-name="Wgrave" unicode="&#x1e80;" horiz-adv-x="1960" 
d="M458 0l-358 1400h310l216 -848l216 848h276l216 -848l216 848h310l-356 -1400h-338l-186 726l-184 -726h-338zM682 1798h300l80 -288h-200z" />
    <glyph glyph-name="wgrave" unicode="&#x1e81;" horiz-adv-x="1748" 
d="M688 0h-294l-334 1000h294l188 -562l186 562h292l186 -562l188 562h294l-334 -1000h-294l-186 562zM576 1398h300l80 -288h-200z" />
    <glyph glyph-name="Wacute" unicode="&#x1e82;" horiz-adv-x="1960" 
d="M458 0l-358 1400h310l216 -848l216 848h276l216 -848l216 848h310l-356 -1400h-338l-186 726l-184 -726h-338zM900 1510l80 288h300l-180 -288h-200z" />
    <glyph glyph-name="wacute" unicode="&#x1e83;" horiz-adv-x="1748" 
d="M688 0h-294l-334 1000h294l188 -562l186 562h292l186 -562l188 562h294l-334 -1000h-294l-186 562zM794 1110l80 288h300l-180 -288h-200z" />
    <glyph glyph-name="Wdieresis" unicode="&#x1e84;" horiz-adv-x="1960" 
d="M458 0l-358 1400h310l216 -848l216 848h276l216 -848l216 848h310l-356 -1400h-338l-186 726l-184 -726h-338zM761 1464q-64 0 -108 43t-44 107q0 63 44 106.5t108 43.5q63 0 106.5 -43.5t43.5 -106.5q0 -64 -43.5 -107t-106.5 -43zM1201 1464q-64 0 -108 43t-44 107
q0 63 44 106.5t108 43.5q63 0 106.5 -43.5t43.5 -106.5q0 -64 -43.5 -107t-106.5 -43z" />
    <glyph glyph-name="wdieresis" unicode="&#x1e85;" horiz-adv-x="1748" 
d="M688 0h-294l-334 1000h294l188 -562l186 562h292l186 -562l188 562h294l-334 -1000h-294l-186 562zM655 1064q-64 0 -108 43t-44 107q0 63 44 106.5t108 43.5q63 0 106.5 -43.5t43.5 -106.5q0 -64 -43.5 -107t-106.5 -43zM1095 1064q-64 0 -108 43t-44 107q0 63 44 106.5
t108 43.5q63 0 106.5 -43.5t43.5 -106.5q0 -64 -43.5 -107t-106.5 -43z" />
    <glyph glyph-name="uni1E92" unicode="&#x1e92;" horiz-adv-x="1292" 
d="M80 0v300l726 800h-726v300h1132v-300l-726 -800h726v-300h-1132zM648 -465q-65 0 -109 43t-44 107q0 63 44 106.5t108 43.5q63 0 106.5 -43.5t43.5 -106.5q0 -64 -42.5 -107t-106.5 -43z" />
    <glyph glyph-name="uni1E93" unicode="&#x1e93;" horiz-adv-x="1014" 
d="M934 700l-420 -400h420v-300h-854v300l420 400h-420v300h854v-300zM509 -465q-65 0 -109 43t-44 107q0 63 44 106.5t108 43.5q63 0 106.5 -43.5t43.5 -106.5q0 -64 -42.5 -107t-106.5 -43z" />
    <glyph glyph-name="uni1E97" unicode="&#x1e97;" horiz-adv-x="730" 
d="M670 700h-170v-700h-300v700h-130v300h130v314h300v-314h170v-300zM131 1378q-64 0 -108 43t-44 107q0 63 44 106.5t108 43.5q63 0 106.5 -43.5t43.5 -106.5q0 -64 -43.5 -107t-106.5 -43zM571 1378q-64 0 -108 43t-44 107q0 63 44 106.5t108 43.5q63 0 106.5 -43.5
t43.5 -106.5q0 -64 -43.5 -107t-106.5 -43z" />
    <glyph glyph-name="uni1E9E" unicode="&#x1e9e;" horiz-adv-x="1246" 
d="M120 0v870q0 110 41.5 206t114 168.5t169 114t205.5 41.5q104 0 197.5 -45.5t152 -121t58.5 -165.5q0 -48 -27 -91.5t-77.5 -100t-121.5 -142.5q67 14 130 -9.5t113.5 -71.5t80.5 -108.5t30 -122.5q0 -102 -42 -180.5t-112 -132.5t-155.5 -81.5t-172.5 -27.5h-54l-60 254
h82q52 0 109.5 15t98 52t40.5 103t-40.5 103t-98 52t-109.5 15h-82v110q0 46 17 94t42 93t50 82.5t42 64t17 36.5q0 37 -23 51.5t-60.5 16.5t-80.5 2t-83 -26t-65.5 -70t-25.5 -98v-950h-300z" />
    <glyph glyph-name="uni1EA0" unicode="&#x1ea0;" horiz-adv-x="1514" 
d="M588 1400h338l508 -1400h-318l-80 220h-558l-80 -220h-318zM588 520h338l-170 464zM759 -465q-65 0 -109 43t-44 107q0 63 44 106.5t108 43.5q63 0 106.5 -43.5t43.5 -106.5q0 -64 -42.5 -107t-106.5 -43z" />
    <glyph glyph-name="uni1EA1" unicode="&#x1ea1;" horiz-adv-x="1218" 
d="M838 1000h300v-1000h-301l-14 90q-37 -52 -93.5 -84t-131.5 -32q-112 0 -209.5 42t-171.5 116.5t-115.5 172t-41.5 209.5q0 107 39 200t109.5 163.5t163 110.5t198.5 40q86 0 156.5 -35.5t125.5 -88.5zM590 262q62 0 113 32t81 86t30 120t-30 120t-81 86t-113 32
t-112.5 -32t-80 -86t-29.5 -120t30 -120t80.5 -86t111.5 -32zM625 -465q-65 0 -109 43t-44 107q0 63 44 106.5t108 43.5q63 0 106.5 -43.5t43.5 -106.5q0 -64 -42.5 -107t-106.5 -43z" />
    <glyph glyph-name="uni1EAC" unicode="&#x1eac;" horiz-adv-x="1514" 
d="M588 1400h338l508 -1400h-318l-80 220h-558l-80 -220h-318zM588 520h338l-170 464zM759 -465q-65 0 -109 43t-44 107q0 63 44 106.5t108 43.5q63 0 106.5 -43.5t43.5 -106.5q0 -64 -42.5 -107t-106.5 -43zM926 1798l194 -288h-200l-163 188l-161 -188h-200l190 288h340z
" />
    <glyph glyph-name="uni1EAD" unicode="&#x1ead;" horiz-adv-x="1218" 
d="M838 1000h300v-1000h-301l-14 90q-37 -52 -93.5 -84t-131.5 -32q-112 0 -209.5 42t-171.5 116.5t-115.5 172t-41.5 209.5q0 107 39 200t109.5 163.5t163 110.5t198.5 40q86 0 156.5 -35.5t125.5 -88.5zM590 262q62 0 113 32t81 86t30 120t-30 120t-81 86t-113 32
t-112.5 -32t-80 -86t-29.5 -120t30 -120t80.5 -86t111.5 -32zM625 -465q-65 0 -109 43t-44 107q0 63 44 106.5t108 43.5q63 0 106.5 -43.5t43.5 -106.5q0 -64 -42.5 -107t-106.5 -43zM792 1398l194 -288h-200l-163 188l-161 -188h-200l190 288h340z" />
    <glyph glyph-name="uni1EB6" unicode="&#x1eb6;" horiz-adv-x="1514" 
d="M588 1400h338l508 -1400h-318l-80 220h-558l-80 -220h-318zM588 520h338l-170 464zM759 -465q-65 0 -109 43t-44 107q0 63 44 106.5t108 43.5q63 0 106.5 -43.5t43.5 -106.5q0 -64 -42.5 -107t-106.5 -43zM757 1488q-91 0 -166.5 45t-120.5 120.5t-45 166.5h180
q0 -41 20.5 -75.5t55 -55.5t76.5 -21t76.5 20t55 54.5t20.5 77.5h180q0 -93 -44.5 -168.5t-120 -119.5t-167.5 -44z" />
    <glyph glyph-name="uni1EB7" unicode="&#x1eb7;" horiz-adv-x="1218" 
d="M838 1000h300v-1000h-301l-14 90q-37 -52 -93.5 -84t-131.5 -32q-112 0 -209.5 42t-171.5 116.5t-115.5 172t-41.5 209.5q0 107 39 200t109.5 163.5t163 110.5t198.5 40q86 0 156.5 -35.5t125.5 -88.5zM590 262q62 0 113 32t81 86t30 120t-30 120t-81 86t-113 32
t-112.5 -32t-80 -86t-29.5 -120t30 -120t80.5 -86t111.5 -32zM625 -465q-65 0 -109 43t-44 107q0 63 44 106.5t108 43.5q63 0 106.5 -43.5t43.5 -106.5q0 -64 -42.5 -107t-106.5 -43zM623 1088q-91 0 -166.5 45t-120.5 120.5t-45 166.5h180q0 -41 20.5 -75.5t55 -55.5
t76.5 -21t76.5 20t55 54.5t20.5 77.5h180q0 -93 -44.5 -168.5t-120 -119.5t-167.5 -44z" />
    <glyph glyph-name="uni1EB8" unicode="&#x1eb8;" horiz-adv-x="1112" 
d="M120 0v1400h892v-300h-592v-200h456v-300h-456v-300h592v-300h-892zM558 -465q-65 0 -109 43t-44 107q0 63 44 106.5t108 43.5q63 0 106.5 -43.5t43.5 -106.5q0 -64 -42.5 -107t-106.5 -43z" />
    <glyph glyph-name="uni1EB9" unicode="&#x1eb9;" 
d="M560 -26q-138 0 -251.5 71t-181 191t-67.5 265q0 109 39 204.5t107.5 168t159.5 113.5t194 41q120 0 219.5 -52.5t168 -142t97.5 -201.5t6 -231h-667q14 -35 37.5 -63.5t58 -45.5t80.5 -18q44 -1 81.5 19t65.5 54l306 -71q-61 -133 -182 -217.5t-271 -84.5zM373 621h375
q-14 43 -42 76t-65.5 52t-80.5 19q-42 0 -79.5 -19t-65 -52t-42.5 -76zM562 -465q-65 0 -109 43t-44 107q0 63 44 106.5t108 43.5q63 0 106.5 -43.5t43.5 -106.5q0 -64 -42.5 -107t-106.5 -43z" />
    <glyph glyph-name="uni1EBC" unicode="&#x1ebc;" horiz-adv-x="1112" 
d="M120 0v1400h892v-300h-592v-200h456v-300h-456v-300h592v-300h-892zM712 1491q-38 0 -91.5 27.5t-106 60t-89.5 51t-43 1.5q-6 -18 -2.5 -35t12.5 -47l-168 -46q-31 89 -18.5 160t62.5 112.5t132 41.5q36 0 85 -21.5t97.5 -49.5t85 -49.5t46.5 -21.5q19 0 21.5 12
t-4 30.5t-13.5 37.5l172 56q31 -94 16 -166t-66 -113t-128 -41z" />
    <glyph glyph-name="uni1EBD" unicode="&#x1ebd;" 
d="M560 -26q-138 0 -251.5 71t-181 191t-67.5 265q0 109 39 204.5t107.5 168t159.5 113.5t194 41q120 0 219.5 -52.5t168 -142t97.5 -201.5t6 -231h-667q14 -35 37.5 -63.5t58 -45.5t80.5 -18q44 -1 81.5 19t65.5 54l306 -71q-61 -133 -182 -217.5t-271 -84.5zM373 621h375
q-14 43 -42 76t-65.5 52t-80.5 19q-42 0 -79.5 -19t-65 -52t-42.5 -76zM716 1091q-38 0 -91.5 27.5t-106 60t-89.5 51t-43 1.5q-6 -18 -2.5 -35t12.5 -47l-168 -46q-31 89 -18.5 160t62.5 112.5t132 41.5q36 0 85 -21.5t97.5 -49.5t85 -49.5t46.5 -21.5q19 0 21.5 12
t-4 30.5t-13.5 37.5l172 56q31 -94 16 -166t-66 -113t-128 -41z" />
    <glyph glyph-name="uni1EC6" unicode="&#x1ec6;" horiz-adv-x="1112" 
d="M120 0v1400h892v-300h-592v-200h456v-300h-456v-300h592v-300h-892zM558 -465q-65 0 -109 43t-44 107q0 63 44 106.5t108 43.5q63 0 106.5 -43.5t43.5 -106.5q0 -64 -42.5 -107t-106.5 -43zM725 1798l194 -288h-200l-163 188l-161 -188h-200l190 288h340z" />
    <glyph glyph-name="uni1EC7" unicode="&#x1ec7;" 
d="M560 -26q-138 0 -251.5 71t-181 191t-67.5 265q0 109 39 204.5t107.5 168t159.5 113.5t194 41q120 0 219.5 -52.5t168 -142t97.5 -201.5t6 -231h-667q14 -35 37.5 -63.5t58 -45.5t80.5 -18q44 -1 81.5 19t65.5 54l306 -71q-61 -133 -182 -217.5t-271 -84.5zM373 621h375
q-14 43 -42 76t-65.5 52t-80.5 19q-42 0 -79.5 -19t-65 -52t-42.5 -76zM562 -465q-65 0 -109 43t-44 107q0 63 44 106.5t108 43.5q63 0 106.5 -43.5t43.5 -106.5q0 -64 -42.5 -107t-106.5 -43zM729 1398l194 -288h-200l-163 188l-161 -188h-200l190 288h340z" />
    <glyph glyph-name="uni1ECA" unicode="&#x1eca;" horiz-adv-x="600" 
d="M150 0v1400h300v-1400h-300zM302 -465q-65 0 -109 43t-44 107q0 63 44 106.5t108 43.5q63 0 106.5 -43.5t43.5 -106.5q0 -64 -42.5 -107t-106.5 -43z" />
    <glyph glyph-name="uni1ECB" unicode="&#x1ecb;" horiz-adv-x="540" 
d="M120 1000h300v-1000h-300v1000zM272 1104q-65 0 -109 43t-44 107q0 63 44 106.5t108 43.5q63 0 106.5 -43.5t43.5 -106.5q0 -64 -42.5 -107t-106.5 -43zM273 -465q-65 0 -109 43t-44 107q0 63 44 106.5t108 43.5q63 0 106.5 -43.5t43.5 -106.5q0 -64 -42.5 -107
t-106.5 -43z" />
    <glyph glyph-name="uni1ECC" unicode="&#x1ecc;" horiz-adv-x="1540" 
d="M770 -26q-142 0 -267 56.5t-220 156.5t-149 231.5t-54 281.5t54 281.5t149 231.5t220 156.5t267 56.5q143 0 268 -56.5t220 -156.5t148.5 -231.5t53.5 -281.5t-53.5 -281.5t-148.5 -231.5t-220 -156.5t-268 -56.5zM770 274q80 0 150.5 33.5t124.5 92t84.5 135.5t30.5 165
t-30.5 165t-84.5 135.5t-124.5 92t-150.5 33.5t-150.5 -33.5t-124.5 -92t-84.5 -135.5t-30.5 -165t30.5 -165t84.5 -135.5t124.5 -92t150.5 -33.5zM772 -465q-65 0 -109 43t-44 107q0 63 44 106.5t108 43.5q63 0 106.5 -43.5t43.5 -106.5q0 -64 -42.5 -107t-106.5 -43z" />
    <glyph glyph-name="uni1ECD" unicode="&#x1ecd;" 
d="M560 -26q-138 0 -251.5 71t-181 190.5t-67.5 264.5q0 110 39 205.5t107.5 168t159.5 113.5t194 41q138 0 251.5 -71t181 -191t67.5 -266q0 -109 -39 -204t-107.5 -167.5t-159 -113.5t-194.5 -41zM560 274q57 0 102.5 31t71.5 82.5t26 112.5q0 63 -27.5 115t-73 82.5
t-99.5 30.5q-56 0 -101.5 -31.5t-72 -83.5t-26.5 -113q0 -64 27.5 -115t73 -81t99.5 -30zM562 -465q-65 0 -109 43t-44 107q0 63 44 106.5t108 43.5q63 0 106.5 -43.5t43.5 -106.5q0 -64 -42.5 -107t-106.5 -43z" />
    <glyph glyph-name="uni1ED8" unicode="&#x1ed8;" horiz-adv-x="1540" 
d="M770 -26q-142 0 -267 56.5t-220 156.5t-149 231.5t-54 281.5t54 281.5t149 231.5t220 156.5t267 56.5q143 0 268 -56.5t220 -156.5t148.5 -231.5t53.5 -281.5t-53.5 -281.5t-148.5 -231.5t-220 -156.5t-268 -56.5zM770 274q80 0 150.5 33.5t124.5 92t84.5 135.5t30.5 165
t-30.5 165t-84.5 135.5t-124.5 92t-150.5 33.5t-150.5 -33.5t-124.5 -92t-84.5 -135.5t-30.5 -165t30.5 -165t84.5 -135.5t124.5 -92t150.5 -33.5zM772 -465q-65 0 -109 43t-44 107q0 63 44 106.5t108 43.5q63 0 106.5 -43.5t43.5 -106.5q0 -64 -42.5 -107t-106.5 -43z
M939 1798l194 -288h-200l-163 188l-161 -188h-200l190 288h340z" />
    <glyph glyph-name="uni1ED9" unicode="&#x1ed9;" 
d="M560 -26q-138 0 -251.5 71t-181 190.5t-67.5 264.5q0 110 39 205.5t107.5 168t159.5 113.5t194 41q138 0 251.5 -71t181 -191t67.5 -266q0 -109 -39 -204t-107.5 -167.5t-159 -113.5t-194.5 -41zM560 274q57 0 102.5 31t71.5 82.5t26 112.5q0 63 -27.5 115t-73 82.5
t-99.5 30.5q-56 0 -101.5 -31.5t-72 -83.5t-26.5 -113q0 -64 27.5 -115t73 -81t99.5 -30zM562 -465q-65 0 -109 43t-44 107q0 63 44 106.5t108 43.5q63 0 106.5 -43.5t43.5 -106.5q0 -64 -42.5 -107t-106.5 -43zM729 1398l194 -288h-200l-163 188l-161 -188h-200l190 288
h340z" />
    <glyph glyph-name="uni1EE4" unicode="&#x1ee4;" horiz-adv-x="1378" 
d="M690 -26q-168 0 -296.5 82t-201 220.5t-72.5 307.5v816h300v-816q0 -85 32 -155.5t92.5 -112.5t145.5 -42q86 0 146 41.5t91 112t31 156.5v816h300v-816q0 -127 -41 -237.5t-117 -194.5t-180 -131t-230 -47zM691 -465q-65 0 -109 43t-44 107q0 63 44 106.5t108 43.5
q63 0 106.5 -43.5t43.5 -106.5q0 -64 -42.5 -107t-106.5 -43z" />
    <glyph glyph-name="uni1EE5" unicode="&#x1ee5;" horiz-adv-x="1099" 
d="M80 363v637h300v-553q0 -47 23 -85.5t61.5 -61t84.5 -22.5q47 0 85.5 22.5t61 61t22.5 85.5v553h300l1 -1000h-300l-1 65q-50 -43 -114 -67t-135 -24q-107 0 -195.5 52.5t-141 140.5t-52.5 196zM590 -463q-65 0 -109 43t-44 107q0 63 44 106.5t108 43.5q63 0 106.5 -43.5
t43.5 -106.5q0 -64 -42.5 -107t-106.5 -43z" />
    <glyph glyph-name="Ygrave" unicode="&#x1ef2;" horiz-adv-x="1392" 
d="M978 1400h354l-486 -770v-630h-300v630l-486 770h354l282 -444zM398 1798h300l80 -288h-200z" />
    <glyph glyph-name="ygrave" unicode="&#x1ef3;" horiz-adv-x="1206" 
d="M806 1000h320l-548 -1500h-318l180 500l-360 1000h328l182 -590zM305 1398h300l80 -288h-200z" />
    <glyph glyph-name="uni1EF4" unicode="&#x1ef4;" horiz-adv-x="1392" 
d="M978 1400h354l-486 -770v-630h-300v630l-486 770h354l282 -444zM698 -465q-65 0 -109 43t-44 107q0 63 44 106.5t108 43.5q63 0 106.5 -43.5t43.5 -106.5q0 -64 -42.5 -107t-106.5 -43z" />
    <glyph glyph-name="uni1EF5" unicode="&#x1ef5;" horiz-adv-x="1206" 
d="M806 1000h320l-548 -1500h-318l180 500l-360 1000h328l182 -590zM867 -465q-65 0 -109 43t-44 107q0 63 44 106.5t108 43.5q63 0 106.5 -43.5t43.5 -106.5q0 -64 -42.5 -107t-106.5 -43z" />
    <glyph glyph-name="uni1EF8" unicode="&#x1ef8;" horiz-adv-x="1392" 
d="M978 1400h354l-486 -770v-630h-300v630l-486 770h354l282 -444zM852 1491q-38 0 -91.5 27.5t-106 60t-89.5 51t-43 1.5q-6 -18 -2.5 -35t12.5 -47l-168 -46q-31 89 -18.5 160t62.5 112.5t132 41.5q36 0 85 -21.5t97.5 -49.5t85 -49.5t46.5 -21.5q19 0 21.5 12t-4 30.5
t-13.5 37.5l172 56q31 -94 16 -166t-66 -113t-128 -41z" />
    <glyph glyph-name="uni1EF9" unicode="&#x1ef9;" horiz-adv-x="1206" 
d="M806 1000h320l-548 -1500h-318l180 500l-360 1000h328l182 -590zM759 1091q-38 0 -91.5 27.5t-106 60t-89.5 51t-43 1.5q-6 -18 -2.5 -35t12.5 -47l-168 -46q-31 89 -18.5 160t62.5 112.5t132 41.5q36 0 85 -21.5t97.5 -49.5t85 -49.5t46.5 -21.5q19 0 21.5 12t-4 30.5
t-13.5 37.5l172 56q31 -94 16 -166t-66 -113t-128 -41z" />
    <glyph glyph-name="uni2002" unicode="&#x2002;" horiz-adv-x="1000" 
 />
    <glyph glyph-name="uni2009" unicode="&#x2009;" horiz-adv-x="400" 
 />
    <glyph glyph-name="uni200B" unicode="&#x200b;" horiz-adv-x="0" 
 />
    <glyph glyph-name="endash" unicode="&#x2013;" horiz-adv-x="1240" 
d="M120 750h1000v-300h-1000v300z" />
    <glyph glyph-name="emdash" unicode="&#x2014;" horiz-adv-x="2040" 
d="M120 750h1800v-300h-1800v300z" />
    <glyph glyph-name="quoteright" unicode="&#x2019;" horiz-adv-x="462" 
d="M40 878l62 522h300l-162 -522h-200z" />
    <glyph glyph-name="quoteright" unicode="&#x2032;" horiz-adv-x="462" 
d="M40 878l62 522h300l-162 -522h-200z" />
    <glyph glyph-name="quotesinglbase" unicode="&#x201a;" horiz-adv-x="522" 
d="M80 -112l62 338h300l-162 -338h-200z" />
    <glyph glyph-name="quotedblleft" unicode="&#x201c;" horiz-adv-x="888" 
d="M120 878l162 522h200l-62 -522h-300zM486 882l162 522h200l-62 -522h-300z" />
    <glyph glyph-name="quotedblright" unicode="&#x201d;" horiz-adv-x="888" 
d="M40 878l62 522h300l-162 -522h-200zM406 878l62 522h300l-162 -522h-200z" />
    <glyph glyph-name="quotedblright" unicode="&#x2033;" horiz-adv-x="888" 
d="M40 878l62 522h300l-162 -522h-200zM406 878l62 522h300l-162 -522h-200z" />
    <glyph glyph-name="quotedblbase" unicode="&#x201e;" horiz-adv-x="942" 
d="M80 -112l62 338h300l-162 -338h-200zM500 -112l62 338h300l-162 -338h-200z" />
    <glyph glyph-name="dagger" unicode="&#x2020;" horiz-adv-x="896" 
d="M80 1000v300h218v200h300v-200h218v-300h-218v-440h-300v440h-218z" />
    <glyph glyph-name="daggerdbl" unicode="&#x2021;" horiz-adv-x="896" 
d="M80 702v298h218v100h-218v300h218v100h300v-100h218v-300h-218v-100h218v-298h-218v-142h-300v142h-218z" />
    <glyph glyph-name="bullet" unicode="&#x2022;" horiz-adv-x="560" 
d="M280 400q-84 0 -142 58t-58 142q0 83 58 141.5t142 58.5q83 0 141.5 -58.5t58.5 -141.5q0 -84 -58.5 -142t-141.5 -58z" />
    <glyph glyph-name="ellipsis" unicode="&#x2026;" horiz-adv-x="1380" 
d="M230 -26q-63 0 -106.5 43.5t-43.5 106.5q0 62 43.5 106t106.5 44q62 0 106 -44t44 -106q0 -63 -44 -106.5t-106 -43.5zM670 -26q-63 0 -106.5 43.5t-43.5 106.5q0 62 43.5 106t106.5 44q62 0 106 -44t44 -106q0 -63 -44 -106.5t-106 -43.5zM1110 -26q-63 0 -106.5 43.5
t-43.5 106.5q0 62 43.5 106t106.5 44q62 0 106 -44t44 -106q0 -63 -44 -106.5t-106 -43.5z" />
    <glyph glyph-name="perthousand" unicode="&#x2030;" horiz-adv-x="2350" 
d="M238 0l808 1400h346l-808 -1400h-346zM414 760q-91 0 -167 44t-121.5 119.5t-45.5 168.5q0 96 46.5 171t122.5 118t165 43q91 0 166.5 -44.5t120.5 -120t45 -167.5q0 -95 -46.5 -170t-122 -118.5t-163.5 -43.5zM414 960q54 0 93 38.5t39 93.5q0 56 -39 94t-93 38
q-55 0 -94.5 -38t-39.5 -94q0 -55 39.5 -93.5t94.5 -38.5zM1216 -26q-93 0 -168.5 46.5t-119.5 122.5t-44 163q0 95 46.5 170.5t122 119.5t163.5 44q96 0 171.5 -47t119 -123t43.5 -164q0 -91 -45 -166.5t-121 -120.5t-168 -45zM1216 174q56 0 95 39t39 93q0 56 -39 95
t-95 39q-54 0 -93 -39t-39 -95q0 -54 39 -93t93 -39zM1936 -26q-93 0 -168.5 46.5t-119.5 122.5t-44 163q0 95 46.5 170.5t122 119.5t163.5 44q96 0 171.5 -47t119 -123t43.5 -164q0 -91 -45 -166.5t-121 -120.5t-168 -45zM1936 174q56 0 95 39t39 93q0 56 -39 95t-95 39
q-54 0 -93 -39t-39 -95q0 -54 39 -93t93 -39z" />
    <glyph glyph-name="uni2035" unicode="&#x2035;" horiz-adv-x="602" 
d="M282 878l-162 522h300l62 -522h-200z" />
    <glyph glyph-name="guilsinglleft" unicode="&#x2039;" horiz-adv-x="820" 
d="M420 261l-300 340l300 338h300l-298 -338l298 -340h-300z" />
    <glyph glyph-name="guilsinglright" unicode="&#x203a;" horiz-adv-x="820" 
d="M100 261l298 340l-298 338h300l300 -338l-300 -340h-300z" />
    <glyph glyph-name="fraction" unicode="&#x2044;" horiz-adv-x="450" 
d="M-300 0l808 1400h242l-808 -1400h-242z" />
    <glyph glyph-name="fraction" unicode="&#x2215;" horiz-adv-x="450" 
d="M-300 0l808 1400h242l-808 -1400h-242z" />
    <glyph glyph-name="uni2070" unicode="&#x2070;" horiz-adv-x="648" 
d="M324 798q-69 0 -126.5 44t-91.5 120t-34 172q0 95 34 170.5t91.5 119.5t126.5 44q70 0 127 -44t91 -119.5t34 -170.5q0 -96 -34 -172t-91 -120t-127 -44zM324 954q28 0 46.5 31.5t28 74t9.5 74.5q0 38 -10 79t-28.5 70t-45.5 29q-30 0 -48.5 -30t-27 -71.5t-8.5 -76.5
q0 -39 9.5 -81t28.5 -70.5t46 -28.5z" />
    <glyph glyph-name="uni2074" unicode="&#x2074;" horiz-adv-x="696" 
d="M331 818v86h-235v202l218 343h185v-377h53v-168h-53v-86h-168zM259 1072h89v142z" />
    <glyph glyph-name="uni2075" unicode="&#x2075;" horiz-adv-x="706" 
d="M322 798q-97 0 -167.5 63.5t-70.5 162.5h168q0 -28 20.5 -49t49.5 -21q30 0 51 21t21 49q0 29 -21 47.5t-51 22.5q-17 2 -54 1.5t-78.5 -3t-74.5 -6.5l34 363h341v-144h-188v-43q121 0 190.5 -67t69.5 -171q0 -99 -70.5 -162.5t-169.5 -63.5z" />
    <glyph glyph-name="uni2076" unicode="&#x2076;" horiz-adv-x="706" 
d="M329 798q-97 0 -165 61t-68 160q0 27 6 51t26.5 63.5t63 113t115.5 199.5h195l-118 -201q59 -19 98.5 -52.5t59.5 -78t20 -97.5q0 -65 -32 -114.5t-84.5 -77t-116.5 -27.5zM329 954q31 0 50.5 24.5t11.5 55.5q-5 21 -22 34.5t-40 13.5q-38 0 -54 -27t-9 -53
q6 -28 25.5 -38t37.5 -10z" />
    <glyph glyph-name="uni2077" unicode="&#x2077;" horiz-adv-x="686" 
d="M156 818l264 460h-300v168h494v-163l-266 -465h-192z" />
    <glyph glyph-name="uni2078" unicode="&#x2078;" horiz-adv-x="636" 
d="M317 798q-92 0 -156.5 57.5t-64.5 149.5q0 41 13.5 78t36.5 66q-18 25 -28 56.5t-10 63.5q0 88 61.5 144.5t147.5 56.5t148.5 -56.5t62.5 -144.5q0 -32 -10 -63.5t-28 -56.5q23 -29 36.5 -66t13.5 -78q0 -92 -64.5 -149.5t-158.5 -57.5zM317 952q23 0 39 15.5t16 37.5
q0 23 -16 39t-39 16q-22 0 -37.5 -16t-15.5 -39q0 -22 15.5 -37.5t37.5 -15.5zM317 1228q18 0 30.5 12.5t12.5 28.5q0 18 -12.5 30.5t-30.5 12.5q-16 0 -28.5 -12.5t-12.5 -30.5q0 -16 12.5 -28.5t28.5 -12.5z" />
    <glyph glyph-name="uni2079" unicode="&#x2079;" horiz-adv-x="658" 
d="M130 818l117 204q-41 10 -73.5 32t-55 52.5t-34.5 66.5t-12 74q0 95 68 158t165 63q50 0 92.5 -17t74 -47.5t49 -70.5t17.5 -86q0 -60 -32 -115l-182 -314h-194zM305 1182q18 0 33 9.5t23.5 25t8.5 33.5q0 23 -21 42.5t-44 19.5q-21 0 -35.5 -10.5t-22 -25.5t-7.5 -31
q0 -36 23.5 -49.5t41.5 -13.5z" />
    <glyph glyph-name="uni2080" unicode="&#x2080;" horiz-adv-x="648" 
d="M324 -31q-69 0 -126.5 47t-91.5 126t-34 175q0 95 34 173t91.5 125t126.5 47q70 0 127 -47t91 -125t34 -173q0 -96 -34 -175t-91 -126t-127 -47zM324 137q28 0 46.5 31.5t28 74t9.5 74.5q0 37 -10 78t-28.5 70t-45.5 29q-30 0 -48.5 -30t-27 -71t-8.5 -76q0 -39 9.5 -81
t28.5 -70.5t46 -28.5z" />
    <glyph glyph-name="uni2081" unicode="&#x2081;" horiz-adv-x="466" 
d="M154 0v463h-58l24 168h202v-631h-168z" />
    <glyph glyph-name="uni2082" unicode="&#x2082;" horiz-adv-x="727" 
d="M96 0v146q43 30 88 57.5t87.5 57.5t79.5 68t64 89q0 32 -21.5 54t-52.5 22q-32 0 -54.5 -22t-22.5 -54h-168q0 67 33 122.5t89 88.5t123 33t122 -33t87.5 -88.5t32.5 -122.5q0 -39 -15.5 -72t-41.5 -63t-58 -58t-65 -57h168v-168h-475z" />
    <glyph glyph-name="uni2083" unicode="&#x2083;" horiz-adv-x="588" 
d="M295 -31q-61 0 -111.5 30.5t-81 81t-30.5 111.5h168q0 -23 16 -39t39 -16q22 0 37.5 16t15.5 39q0 29 -27 56.5t-83 27.5v106q57 0 75 25t18 47q0 16 -12 28t-29 12q-16 0 -28 -12t-12 -28h-168q0 86 61 147t147 61q87 0 148 -61t61 -147q0 -33 -9 -63t-27 -57
q27 -29 40 -66.5t13 -75.5q0 -61 -30 -111.5t-80.5 -81t-110.5 -30.5z" />
    <glyph glyph-name="uni2084" unicode="&#x2084;" horiz-adv-x="696" 
d="M331 0v86h-235v202l218 343h185v-377h53v-168h-53v-86h-168zM259 254h89v142z" />
    <glyph glyph-name="uni2085" unicode="&#x2085;" horiz-adv-x="706" 
d="M322 -31q-65 0 -119 32t-86.5 85.5t-32.5 119.5h168q0 -28 20.5 -48.5t49.5 -20.5q30 0 51 20.5t21 48.5q0 29 -21 49.5t-51 20.5h-209l36 355h341v-146h-188v-41h24q117 0 176.5 -68.5t59.5 -169.5q0 -66 -32.5 -119.5t-87 -85.5t-120.5 -32z" />
    <glyph glyph-name="uni2086" unicode="&#x2086;" horiz-adv-x="682" 
d="M329 -31q-97 0 -165 67t-68 166q0 27 6 51t26.5 63.5t63 113t115.5 199.5h195l-118 -202q59 -19 98.5 -52.5t59.5 -78t20 -97.5q0 -64 -32 -116.5t-84.5 -83t-116.5 -30.5zM329 137q31 0 50.5 24t11.5 55q-5 22 -22 35t-40 13q-38 0 -53 -27t-10 -52q6 -29 25.5 -38.5
t37.5 -9.5z" />
    <glyph glyph-name="uni2087" unicode="&#x2087;" horiz-adv-x="686" 
d="M153 0l267 463h-300v168h494v-163l-269 -468h-192z" />
    <glyph glyph-name="uni2088" unicode="&#x2088;" horiz-adv-x="636" 
d="M317 -31q-92 0 -156.5 63.5t-64.5 154.5q0 41 13.5 78.5t36.5 65.5q-18 26 -28 57t-10 63q0 89 61.5 150t147.5 61t148.5 -61t62.5 -150q0 -32 -10 -63t-28 -57q23 -28 36.5 -65.5t13.5 -78.5q0 -91 -64.5 -154.5t-158.5 -63.5zM317 134q23 0 39 15.5t16 37.5
q0 23 -16 39t-39 16q-22 0 -37.5 -16t-15.5 -39q0 -22 15.5 -37.5t37.5 -15.5zM317 410q18 0 30.5 12.5t12.5 28.5q0 18 -12.5 30.5t-30.5 12.5q-16 0 -28.5 -12.5t-12.5 -30.5q0 -16 12.5 -28.5t28.5 -12.5z" />
    <glyph glyph-name="uni2089" unicode="&#x2089;" horiz-adv-x="658" 
d="M130 0l117 204q-41 10 -73.5 32t-55 53t-34.5 67t-12 74q0 64 31 116.5t84 84t118 31.5q66 0 118 -31.5t82 -83t32 -113t-31 -120.5l-182 -314h-194zM305 365q18 0 33 9.5t23.5 24.5t8.5 33q0 23 -21 42.5t-44 19.5q-21 0 -35.5 -10.5t-22 -25.5t-7.5 -31q0 -36 23.5 -49
t41.5 -13z" />
    <glyph glyph-name="Euro" unicode="&#x20ac;" horiz-adv-x="1096" 
d="M1016 -16q-133 -21 -255 5t-224 91.5t-177 163.5t-116 222h-164v200h128v64h-128v200h164q39 126 114.5 225t178 165t224.5 91.5t255 4.5v-310q-70 22 -135.5 19t-123.5 -27.5t-105.5 -67t-81.5 -100.5h238v-200h-300l2 -64h298v-200h-236q36 -59 84.5 -101t106.5 -65
t122 -25t131 19v-310z" />
    <glyph glyph-name="trademark" unicode="&#x2122;" horiz-adv-x="3084" 
d="M1180 1400v-300h-400v-1100h-300v1100h-400v300h1100zM1279 0l272 1400h256l314 -826l314 826h256l272 -1400h-306l-146 756l-286 -756h-208l-286 756l-146 -756h-306z" />
    <glyph glyph-name="oneeighth" unicode="&#x215b;" horiz-adv-x="1552" 
d="M154 818v463h-58l24 168h202v-631h-168zM166 0l808 1400h242l-808 -1400h-242zM1233 -31q-92 0 -156.5 63.5t-64.5 154.5q0 41 13.5 78.5t36.5 65.5q-18 26 -28 57t-10 63q0 89 61.5 150t147.5 61t148.5 -61t62.5 -150q0 -32 -10 -63t-28 -57q23 -28 36.5 -65.5
t13.5 -78.5q0 -91 -64.5 -154.5t-158.5 -63.5zM1233 134q23 0 39 15.5t16 37.5q0 23 -16 39t-39 16q-22 0 -37.5 -16t-15.5 -39q0 -22 15.5 -37.5t37.5 -15.5zM1233 410q18 0 30.5 12.5t12.5 28.5q0 18 -12.5 30.5t-30.5 12.5q-16 0 -28.5 -12.5t-12.5 -30.5
q0 -16 12.5 -28.5t28.5 -12.5z" />
    <glyph glyph-name="threeeighths" unicode="&#x215c;" horiz-adv-x="1674" 
d="M295 798q-91 0 -157 60t-66 152h168q0 -24 16 -40t39 -16q22 0 37.5 16t15.5 40q0 29 -27 56.5t-83 27.5v105q57 0 75 25t18 47q0 17 -12 29t-29 12q-16 0 -28 -12t-12 -29h-168q0 86 61 141.5t147 55.5q87 0 148 -55.5t61 -141.5q0 -32 -9 -62.5t-27 -57.5
q27 -28 40 -65.5t13 -75.5q0 -92 -65.5 -152t-155.5 -60zM288 0l808 1400h242l-808 -1400h-242zM1355 -31q-92 0 -156.5 63.5t-64.5 154.5q0 41 13.5 78.5t36.5 65.5q-18 26 -28 57t-10 63q0 89 61.5 150t147.5 61t148.5 -61t62.5 -150q0 -32 -10 -63t-28 -57
q23 -28 36.5 -65.5t13.5 -78.5q0 -91 -64.5 -154.5t-158.5 -63.5zM1355 134q23 0 39 15.5t16 37.5q0 23 -16 39t-39 16q-22 0 -37.5 -16t-15.5 -39q0 -22 15.5 -37.5t37.5 -15.5zM1355 410q18 0 30.5 12.5t12.5 28.5q0 18 -12.5 30.5t-30.5 12.5q-16 0 -28.5 -12.5
t-12.5 -30.5q0 -16 12.5 -28.5t28.5 -12.5z" />
    <glyph glyph-name="fiveeighths" unicode="&#x215d;" horiz-adv-x="1792" 
d="M322 798q-97 0 -167.5 63.5t-70.5 162.5h168q0 -28 20.5 -49t49.5 -21q30 0 51 21t21 49q0 29 -21 47.5t-51 22.5q-17 2 -54 1.5t-78.5 -3t-74.5 -6.5l34 363h341v-144h-188v-43q121 0 190.5 -67t69.5 -171q0 -99 -70.5 -162.5t-169.5 -63.5zM406 0l808 1400h242
l-808 -1400h-242zM1473 -31q-92 0 -156.5 63.5t-64.5 154.5q0 41 13.5 78.5t36.5 65.5q-18 26 -28 57t-10 63q0 89 61.5 150t147.5 61t148.5 -61t62.5 -150q0 -32 -10 -63t-28 -57q23 -28 36.5 -65.5t13.5 -78.5q0 -91 -64.5 -154.5t-158.5 -63.5zM1473 134q23 0 39 15.5
t16 37.5q0 23 -16 39t-39 16q-22 0 -37.5 -16t-15.5 -39q0 -22 15.5 -37.5t37.5 -15.5zM1473 410q18 0 30.5 12.5t12.5 28.5q0 18 -12.5 30.5t-30.5 12.5q-16 0 -28.5 -12.5t-12.5 -30.5q0 -16 12.5 -28.5t28.5 -12.5z" />
    <glyph glyph-name="seveneighths" unicode="&#x215e;" horiz-adv-x="1772" 
d="M156 818l264 460h-300v168h494v-163l-266 -465h-192zM386 0l808 1400h242l-808 -1400h-242zM1453 -31q-92 0 -156.5 63.5t-64.5 154.5q0 41 13.5 78.5t36.5 65.5q-18 26 -28 57t-10 63q0 89 61.5 150t147.5 61t148.5 -61t62.5 -150q0 -32 -10 -63t-28 -57
q23 -28 36.5 -65.5t13.5 -78.5q0 -91 -64.5 -154.5t-158.5 -63.5zM1453 134q23 0 39 15.5t16 37.5q0 23 -16 39t-39 16q-22 0 -37.5 -16t-15.5 -39q0 -22 15.5 -37.5t37.5 -15.5zM1453 410q18 0 30.5 12.5t12.5 28.5q0 18 -12.5 30.5t-30.5 12.5q-16 0 -28.5 -12.5
t-12.5 -30.5q0 -16 12.5 -28.5t28.5 -12.5z" />
    <glyph glyph-name="arrowleft" unicode="&#x2190;" horiz-adv-x="1426" 
d="M632 198l-552 552l552 552l212 -212l-190 -190h692v-300h-692l190 -190z" />
    <glyph glyph-name="arrowup" unicode="&#x2191;" horiz-adv-x="1264" 
d="M482 116v692l-190 -188l-212 212l552 552l552 -552l-212 -212l-190 188v-692h-300z" />
    <glyph glyph-name="arrowright" unicode="&#x2192;" horiz-adv-x="1428" 
d="M796 198l-212 212l188 190h-692v300h692l-188 190l212 212l552 -552z" />
    <glyph glyph-name="arrowdown" unicode="&#x2193;" horiz-adv-x="1262" 
d="M630 116l-550 552l212 212l188 -188v692h300v-692l190 188l212 -212z" />
    <glyph glyph-name="arrowboth" unicode="&#x2194;" horiz-adv-x="1928" 
d="M632 198l-552 552l552 552l212 -212l-190 -190h618l-188 190l212 212l552 -552l-552 -552l-212 212l188 190h-618l190 -190z" />
    <glyph glyph-name="arrowupdn" unicode="&#x2195;" horiz-adv-x="1264" 
d="M632 -134l-552 552l212 212l190 -188v616l-190 -188l-212 212l552 552l552 -552l-212 -212l-190 188v-616l190 188l212 -212z" />
    <glyph glyph-name="uni2196" unicode="&#x2196;" horiz-adv-x="1162" 
d="M870 249l-490 490v-268h-300v780h780v-300h-268l490 -490z" />
    <glyph glyph-name="uni2197" unicode="&#x2197;" horiz-adv-x="1162" 
d="M292 250l-212 212l490 488h-270v300h782v-780h-300v268z" />
    <glyph glyph-name="uni2198" unicode="&#x2198;" horiz-adv-x="1162" 
d="M302 250v300h268l-490 488l212 212l490 -488v268h300v-780h-780z" />
    <glyph glyph-name="uni2199" unicode="&#x2199;" horiz-adv-x="1162" 
d="M80 250v780h300v-268l490 488l212 -212l-490 -488h268v-300h-780z" />
    <glyph glyph-name="partialdiff" unicode="&#x2202;" horiz-adv-x="1166" 
d="M584 -26q-139 0 -253.5 68t-182.5 182t-68 252q0 104 39 195.5t108.5 161t161 108.5t195.5 39q20 0 40.5 -1.5t39.5 -6.5q-20 41 -43 87t-57.5 87.5t-88 67.5t-135.5 26l-2 300q173 0 311.5 -84.5t236 -229.5t149 -329.5t51.5 -384.5q0 -157 -65 -278.5t-178.5 -190.5
t-258.5 -69zM584 274q55 0 101 27.5t73.5 73.5t27.5 101q0 56 -27.5 102.5t-73.5 74t-101 27.5q-56 0 -102.5 -27.5t-74 -74t-27.5 -102.5q0 -55 27.5 -101t74 -73.5t102.5 -27.5z" />
    <glyph glyph-name="emptyset" unicode="&#x2205;" horiz-adv-x="1160" 
d="M380 -86l-208 120l54 94q-67 72 -106.5 168t-39.5 204q0 110 39 205.5t107.5 168t159.5 113.5t194 41q39 0 77.5 -6t72.5 -18l50 84l208 -120l-54 -94q68 -72 107 -168t39 -206q0 -109 -39 -204t-107.5 -167.5t-159 -113.5t-194.5 -41q-40 0 -78 6t-74 18zM374 380
l222 386q-50 -1 -93.5 -24.5t-76.5 -63t-51.5 -90t-18.5 -106.5q0 -28 4.5 -53t13.5 -49zM564 236q52 2 95.5 24.5t76 61.5t50.5 89.5t18 106.5q0 29 -5 54.5t-13 49.5z" />
    <glyph glyph-name="product" unicode="&#x220f;" horiz-adv-x="1280" 
d="M80 1400h1120v-300h-1120v300zM190 1194h300v-1194h-300v1194zM790 1194h300v-1194h-300v1194z" />
    <glyph glyph-name="summation" unicode="&#x2211;" horiz-adv-x="906" 
d="M80 0v300l204 398l-204 398v300h766v-300h-428l202 -398l-202 -398h428v-300h-766z" />
    <glyph glyph-name="minus" unicode="&#x2212;" horiz-adv-x="1160" 
d="M80 450v300h1000v-300h-1000z" />
    <glyph glyph-name="radical" unicode="&#x221a;" horiz-adv-x="1378" 
d="M918 1400h380v-300h-170l-402 -1100h-388l-258 708h318l134 -364z" />
    <glyph glyph-name="infinity" unicode="&#x221e;" horiz-adv-x="1548" 
d="M466 228q-121 10 -207.5 63t-132.5 136.5t-46 186.5q0 109 48.5 196.5t135.5 138.5t202 51q62 0 116.5 -18t102 -53t89.5 -85q45 52 93.5 86.5t102.5 52t114 17.5q122 0 208 -53.5t131 -141.5t45 -191q0 -110 -48 -197.5t-134.5 -138t-201.5 -50.5q-63 0 -117.5 18
t-102 52.5t-90.5 83.5q-44 -52 -92.5 -88t-102 -53.5t-113.5 -12.5zM462 500q29 0 59.5 22t54.5 49t34 43q-12 18 -36.5 45.5t-54 48t-57.5 18.5q-55 -1 -83.5 -37t-28.5 -75q0 -48 30.5 -81t81.5 -33zM1088 500q56 2 84 37t28 77q0 44 -28 79t-72 35q-34 0 -64 -18.5
t-54.5 -45t-41.5 -50.5q9 -13 25 -32.5t37 -38.5t43 -31.5t43 -11.5z" />
    <glyph glyph-name="integral" unicode="&#x222b;" horiz-adv-x="1179" 
d="M402 -26q-95 0 -169.5 42.5t-116 117.5t-36.5 172l184 -14q6 -34 11.5 -58t38.5 -24t55.5 17.5t26.5 48.5l94 920q9 64 55 116t112 83t135 31q90 0 162.5 -47.5t112 -124t31.5 -162.5l-166 16q-7 51 -32.5 67.5t-57.5 10.5q-22 -3 -39.5 -20t-22.5 -50l-92 -914
q-30 -123 -111.5 -175.5t-174.5 -52.5z" />
    <glyph glyph-name="approxequal" unicode="&#x2248;" horiz-adv-x="1349" 
d="M956 658q-67 0 -143 23t-152.5 53t-145 53t-121.5 23q-25 0 -37.5 -12.5t-16.5 -32.5t-4 -41l-294 8q-12 94 29 175.5t118 132t173 50.5q67 0 134.5 -24t133.5 -56t127 -56t113 -24q25 0 38.5 12t18.5 32.5t5 45.5l294 -8q12 -94 -16.5 -174.5t-93 -130t-160.5 -49.5z
M956 110q-67 0 -143 23t-152.5 53t-145 53t-121.5 23q-25 0 -37.5 -12.5t-16.5 -32.5t-4 -41l-294 8q-12 94 29 175.5t118 132t173 50.5q67 0 134.5 -24t133.5 -56t127 -56t113 -24q25 0 38.5 12t18.5 32.5t5 45.5l294 -8q12 -94 -16.5 -174.5t-93 -130t-160.5 -49.5z" />
    <glyph glyph-name="notequal" unicode="&#x2260;" horiz-adv-x="1160" 
d="M906 1182l-62 -210h236v-300h-324l-42 -144h366v-300h-454l-62 -210h-312l62 210h-234v300h322l42 144h-364v300h452l62 210h312z" />
    <glyph glyph-name="lessequal" unicode="&#x2264;" horiz-adv-x="1160" 
d="M1080 328l-1000 284v502l1000 286v-312l-786 -224l786 -224v-312zM80 0v300h1000v-300h-1000z" />
    <glyph glyph-name="greaterequal" unicode="&#x2265;" horiz-adv-x="1160" 
d="M80 352v312l786 212l-786 212v312l1000 -274v-502zM80 0v300h1000v-300h-1000z" />
    <glyph glyph-name="lozenge" unicode="&#x25ca;" horiz-adv-x="1200" 
d="M328 0l-268 702l266 698h548l266 -698l-268 -702h-544zM600 134l226 568l-226 568l-224 -568z" />
    <glyph glyph-name="uniFFFD" unicode="&#xfffd;" horiz-adv-x="1630" 
d="M816 -26q-54 0 -106 20t-94 62l-414 414q-42 42 -62 94t-20 106t21 106t61 92l414 414q42 42 94 62t106 20t105 -20t93 -62l414 -414q42 -42 62 -93t20 -105t-20 -106t-62 -94l-414 -414q-40 -40 -92 -61t-106 -21zM820 230q42 0 71 29.5t29 72.5q0 41 -29 69.5t-71 28.5
t-71 -28.5t-29 -69.5q0 -43 29 -72.5t71 -29.5zM714 512h200v2q0 25 22 38q63 36 100.5 98.5t37.5 137.5q0 74 -36 135t-97 97t-135 36t-135 -36t-97 -97t-36 -135h200q0 29 20 48.5t48 19.5q29 0 48.5 -19.5t19.5 -48.5q0 -19 -8.5 -35.5t-23.5 -24.5q-61 -30 -94.5 -88
t-33.5 -126v-2z" />
    </font>
</defs>
</svg>
